osu file format v14

[General]
AudioFilename: 14 - RPG.mp3
AudioLeadIn: 0
PreviewTime: 8212
Countdown: 0
SampleSet: Normal
StackLeniency: 0.3
Mode: 0
LetterboxInBreaks: 0
WidescreenStoryboard: 1

[Editor]
Bookmarks: 110169,143888
DistanceSpacing: 1
BeatDivisor: 4
GridSize: 4
TimelineZoom: 2

[Metadata]
Title:Seventeen RPG
TitleUnicode:セブンティーンRPG
Artist:charon
ArtistUnicode:カロン
Creator:Zero__wind
Version:Final Stage
Source:
Tags:Vocaloid 星奏P 17 Gumi rui pishifat pkk pkmnyab LOST GIRL IN MY HEAD
BeatmapID:924337
BeatmapSetID:304888

[Difficulty]
HPDrainRate:5.5
CircleSize:4
OverallDifficulty:10
ApproachRate:10
SliderMultiplier:2
SliderTickRate:2

[Events]
//Background and Video events
0,0,"bg.jpg",0,0
//Break Periods
//Storyboard Layer 0 (Background)
//Storyboard Layer 1 (Fail)
//Storyboard Layer 2 (Pass)
//Storyboard Layer 3 (Foreground)
//Storyboard Sound Samples

[TimingPoints]
1163,225.563909774436,4,2,1,40,1,0
1163,-200,4,2,1,40,0,0
6576,-100,4,1,1,80,0,0
22817,-133.333333333333,4,1,1,70,0,0
23042,-133.333333333333,4,2,1,70,0,0
37253,-100,4,1,1,80,0,0
44471,-133.333333333333,4,2,1,70,0,0
58907,-200,4,2,1,70,0,0
61839,-133.333333333333,4,2,1,70,0,0
62516,-200,4,2,1,70,0,0
63644,-133.333333333333,4,2,1,70,0,0
64320,-200,4,2,1,70,0,0
69734,-133.333333333333,4,2,1,70,0,0
73343,-114.942528735632,4,2,1,70,0,0
75260,-114.942528735632,4,2,1,80,0,0
76501,-114.942528735632,4,2,1,50,0,0
76952,-100,4,2,1,80,0,1
82366,-83.3333333333333,4,2,1,80,0,1
83719,-100,4,2,1,80,0,1
95899,-100,4,2,1,80,0,0
96125,-100,4,2,1,40,0,0
96350,-100,4,2,1,60,0,0
96802,-133.333333333333,4,1,1,80,0,0
103569,-133.333333333333,4,1,1,65,0,0
103794,-133.333333333333,4,1,1,80,0,0
104020,-161.290322580645,4,2,1,70,0,0
110787,-100,4,2,1,90,0,0
111012,-100,4,2,1,70,0,0
111125,-100,4,2,1,90,0,0
111350,-100,4,2,1,80,0,0
111463,-114.942528735632,4,1,1,80,0,0
118681,-114.942528735632,4,1,1,100,0,0
118907,225.563909774436,6,2,1,60,1,0
118907,-200,4,2,1,60,0,0
120260,225.563909774436,4,2,1,60,1,0
120485,-161.290322580645,4,2,1,70,0,0
121162,225.563909774436,7,2,1,80,1,0
121162,-133.333333333333,7,2,1,80,0,0
122740,225.563909774436,4,2,1,80,1,0
122740,-133.333333333333,7,2,1,80,0,0
123642,225.563909774436,6,2,1,80,1,0
123642,-133.333333333333,6,2,1,80,0,0
124544,-200,3,2,1,70,0,0
124995,225.563909774436,4,2,1,70,1,0
124995,-161.290322580645,4,2,1,70,0,0
125897,225.563909774436,6,2,1,70,1,0
125897,-161.290322580645,4,2,1,70,0,0
132663,225.563909774436,5,2,1,70,1,0
132663,-133.333333333333,4,2,1,70,0,0
133790,225.563909774436,4,1,1,70,1,0
133790,-133.333333333333,4,1,1,70,0,0
134692,225.563909774436,3,1,1,70,1,0
134692,-133.333333333333,4,1,1,70,0,0
135368,225.563909774436,5,2,1,70,1,0
135368,-133.333333333333,4,2,1,70,0,0
136495,225.563909774436,4,1,1,70,1,0
136495,-133.333333333333,4,1,1,70,0,0
138299,225.563909774436,5,2,1,70,1,0
138299,-133.333333333333,4,2,1,70,0,0
139426,225.563909774436,4,1,1,70,1,0
139426,-133.333333333333,4,1,1,70,0,0
140328,225.563909774436,3,1,1,70,1,0
140328,-133.333333333333,4,1,1,70,0,0
141004,225.563909774436,5,2,1,70,1,0
141004,-133.333333333333,4,2,1,70,0,0
142131,225.563909774436,4,1,1,70,1,0
142131,-133.333333333333,4,1,1,70,0,0
143484,-100,4,1,1,70,0,0
145740,-100,4,1,1,80,0,0
151491,-83.3333333333333,4,1,1,80,0,0
151830,-71.4285714285714,4,1,1,80,0,0
152168,-83.3333333333333,4,1,1,80,0,0
152506,-100,4,1,1,80,0,0
160176,-200,4,2,1,60,0,0
160514,-200,4,2,1,40,0,0
167394,-166.666666666667,4,2,1,40,0,0
168296,-142.857142857143,4,2,1,50,0,0
169198,-125,4,2,1,60,0,0
170100,-111.111111111111,4,2,1,70,0,0
171003,-100,4,1,1,80,0,0
173709,-100,4,2,1,60,0,0
174386,-100,4,2,1,70,0,0
174612,-100,4,2,1,80,0,1
180025,-83.3333333333333,4,2,1,80,0,1
181379,-100,4,2,1,80,0,1
200777,-100,4,2,1,80,0,0
201003,-100,4,2,1,40,0,0
201228,-100,4,2,1,60,0,0
201679,-133.333333333333,4,2,1,60,0,0
208897,-100,4,1,1,80,0,0
221529,225.563909774436,7,1,1,80,1,0
224686,-133.333333333333,7,2,1,60,0,0
226040,-100,7,1,1,80,0,0
227844,-400,7,1,1,80,0,0
227901,-400,7,1,1,10,0,0
229423,-400,7,1,1,40,0,0

[Colours]
Combo1 : 172,101,203
Combo2 : 158,182,118
Combo3 : 248,106,64
Combo4 : 21,178,255

[HitObjects]
168,264,1162,5,0,0:0:0:0:
378,187,1501,1,2,0:0:0:0:
238,153,1839,1,2,0:0:0:0:
279,266,2290,1,0,0:0:0:0:
320,378,2741,1,0,0:0:0:0:
144,200,2967,5,0,0:0:0:0:
355,123,3306,1,2,0:0:0:0:
215,89,3644,1,2,0:0:0:0:
256,202,4095,1,0,0:0:0:0:
297,314,4546,1,0,0:0:0:0:
121,136,4772,5,0,0:0:0:0:
331,59,5111,1,2,0:0:0:0:
191,25,5449,1,2,0:0:0:0:
232,138,5900,1,2,0:0:0:0:
273,250,6351,1,0,0:0:0:0:
314,362,6576,6,0,P|354:342|384:293,1,100,2|0,0:0|2:0,0:0:0:0:
155,266,6802,2,0,P|168:313|204:347,1,100,2|0,0:0|2:0,0:0:0:0:
356,184,7027,2,0,P|370:141|356:85,1,100,2|0,0:0|2:0,0:0:0:0:
116,120,7253,2,0,P|159:143|208:142,1,100,2|0,0:0|2:0,0:0:0:0:
288,28,7478,6,0,L|190:14,1,100,6|0,0:0|2:0,0:0:0:0:
356,184,7704,2,0,L|454:198,1,100,2|0,0:0|2:0,0:0:0:0:
252,320,7929,2,0,L|153:305,1,100,2|0,0:0|2:0,0:0:0:0:
189,13,8155,1,4,2:0:0:0:
252,320,8381,5,4,0:0:0:0:
136,352,8493,1,0,0:0:0:0:
35,283,8606,2,0,P|34:234|57:190,1,100,10|0,0:0|0:0,0:0:0:0:
232,168,8832,1,0,0:0:0:0:
136,260,8944,1,0,0:0:0:0:
128,100,9057,1,10,0:0:0:0:
244,260,9170,6,2,B|285:249|304:225|304:225|368:272|436:224,1,200,4|0,0:2|0:0,0:0:0:0:
224,72,9508,1,8,0:0:0:0:
368,144,9621,1,2,0:0:0:0:
368,8,9734,1,2,0:0:0:0:
304,92,9847,1,0,0:0:0:0:
276,191,9959,2,0,P|278:241|296:288,1,100,8|0,0:0|0:0,0:0:0:0:
384,220,10185,5,0,0:0:0:0:
208,272,10298,1,0,0:0:0:0:
400,232,10411,2,0,L|500:244,1,100,10|0,0:0|0:0,0:0:0:0:
276,376,10636,1,0,0:0:0:0:
288,208,10749,1,0,0:0:0:0:
404,332,10862,1,10,0:0:0:0:
236,288,10975,6,2,B|186:319|181:369|181:369|128:376|100:324,1,200,4|0,0:2|0:0,0:0:0:0:
180,148,11313,1,8,0:0:0:0:
32,230,11426,1,2,0:0:0:0:
88,92,11538,1,2,0:0:0:0:
149,264,11651,1,0,0:0:0:0:
26,147,11764,1,8,0:0:0:0:
256,156,11877,1,8,0:0:0:0:
100,325,11990,5,4,0:0:0:0:
112,204,12102,1,0,0:0:0:0:
175,103,12215,2,0,P|212:69|260:59,1,100,10|0,0:0|0:0,0:0:0:0:
368,248,12441,2,0,L|268:240,1,100
472,152,12666,1,10,0:0:0:0:
408,344,12779,6,2,B|308:360|308:360|260:332|260:332|204:348,1,200,4|0,0:2|0:0,0:0:0:0:
144,156,13117,1,8,0:0:0:0:
268,240,13230,1,2,0:0:0:0:
64,296,13343,1,2,0:0:0:0:
184,232,13456,1,0,0:0:0:0:
59,171,13569,2,0,P|66:122|99:84,1,100,8|0,0:0|0:0,0:0:0:0:
300,28,13794,5,0,0:0:0:0:
260,136,13907,1,0,0:0:0:0:
144,156,14020,2,0,P|92:136|40:128,1,100,10|0,0:0|0:0,0:0:0:0:
140,268,14245,1,0,0:0:0:0:
256,288,14358,2,0,P|308:268|360:260,1,100,2|10,0:0|0:0,0:0:0:0:
480,40,14584,6,2,B|432:76|456:124|456:124|460:172|460:172|444:232,1,200,4|0,0:2|0:0,0:0:0:0:
280,188,14922,2,0,L|176:180,1,100,10|0,0:0|0:0,0:0:0:0:
419,303,15147,2,0,P|469:302|513:274,1,100,2|8,0:0|0:0,0:0:0:0:
287,296,15373,2,0,P|259:337|238:382,1,100,2|8,0:0|0:0,0:0:0:0:
376,212,15599,5,4,0:0:0:0:
344,92,15711,1,0,0:0:0:0:
220,57,15824,2,0,P|171:66|128:90,1,100,10|0,0:0|0:0,0:0:0:0:
216,188,16050,1,0,0:0:0:0:
340,168,16162,2,0,L|440:160,1,100,2|8,0:0|0:0,0:0:0:0:
256,272,16388,6,2,B|200:280|200:280|160:260|160:260|52:276,1,200,4|0,0:2|0:0,0:0:0:0:
144,364,16726,1,8,0:0:0:0:
216,188,16839,1,2,0:0:0:0:
28,168,16952,1,2,0:0:0:0:
104,272,17065,1,0,0:0:0:0:
231,279,17178,2,0,P|281:280|326:259,1,100,10|0,0:0|0:0,0:0:0:0:
132,200,17403,5,0,0:0:0:0:
236,356,17516,1,0,0:0:0:0:
260,176,17629,2,0,L|288:80,1,100,10|0,0:0|0:0,0:0:0:0:
404,224,17854,2,0,P|416:270|444:312,1,100
488,72,18080,1,10,0:0:0:0:
335,143,18193,6,2,B|266:175|226:124|226:124|128:140,1,200,4|0,0:2|0:0,0:0:0:0:
40,160,18531,1,8,0:0:0:0:
164,240,18644,1,2,0:0:0:0:
224,16,18756,1,2,0:0:0:0:
84,56,18869,1,0,0:0:0:0:
226,124,18982,2,0,L|324:140,1,100,10|0,0:0|0:0,0:0:0:0:
480,204,19208,5,4,0:0:0:0:
392,296,19320,1,0,0:0:0:0:
271,251,19433,2,0,P|229:226|179:222,1,100,10|0,0:0|0:0,0:0:0:0:
360,192,19659,1,0,0:0:0:0:
200,316,19772,1,2,0:0:0:0:
248,128,19884,1,10,0:0:0:0:
424,264,19997,6,2,B|432:304|424:336|424:336|400:360|400:360|348:328|280:356,1,200,4|0,0:2|0:0,0:0:0:0:
178,222,20335,1,8,0:0:0:0:
304,124,20448,1,2,0:0:0:0:
88,136,20561,1,2,0:0:0:0:
220,68,20674,1,0,0:0:0:0:
152,256,20787,1,8,0:0:0:0:
204,148,20899,1,0,0:0:0:0:
128,52,21012,6,0,P|76:36|28:36,1,100,2|0,0:0|0:0,0:0:0:0:
304,40,21238,1,8,0:0:0:0:
384,332,21463,2,0,P|436:348|484:348,1,100
508,192,21689,1,8,0:0:0:0:
312,228,21802,6,2,B|264:240|264:240|228:224|228:224|168:256|119:218,1,200,4|0,0:2|0:0,0:0:0:0:
224,352,22140,2,0,B|270:356|270:356|328:340,1,100,10|0,0:0|0:0,0:0:0:0:
176,136,22366,2,0,P|129:123|80:132,1,100,2|8,0:0|0:0,0:0:0:0:
108,320,22591,2,0,P|63:299|31:261,1,100,2|8,0:0|0:0,0:0:0:0:
123,221,22817,6,2,L|265:272,1,150.000005722046,2|8,0:0|0:0,0:0:0:0:
328,324,23155,1,2,0:0:0:0:
408,344,23268,2,0,P|444:336|476:312,1,75.0000028610231,2|2,0:0|0:0,0:0:0:0:
352,216,23493,1,8,0:0:0:0:
263,270,23606,6,0,P|247:199|285:137,1,150.000005722046,0|0,1:0|1:0,0:0:0:0:
284,27,23944,2,0,P|321:32|353:50,1,75.0000028610231,8|2,0:0|0:0,0:0:0:0:
168,104,24170,2,0,L|68:108,1,75.0000028610231,0|2,1:0|0:0,0:0:0:0:
108,220,24396,2,0,L|8:224,1,75.0000028610231,8|2,0:0|0:0,0:0:0:0:
116,348,24621,6,0,L|267:354,1,150.000005722046,0|8,1:0|0:0,0:0:0:0:
344,324,24959,1,0,0:0:0:0:
384,248,25072,1,2,0:0:0:0:
364,168,25185,2,0,P|332:144|292:136,1,75.0000028610231,2|8,0:0|0:0,0:0:0:0:
384,248,25411,6,0,P|453:247|509:194,1,150.000005722046,0|0,1:0|1:0,0:0:0:0:
492,43,25749,2,0,P|475:77|478:114,1,75.0000028610231,8|2,0:0|0:0,0:0:0:0:
471,264,25975,2,0,P|478:300|466:335,1,75.0000028610231,0|2,1:0|0:0,0:0:0:0:
356,352,26200,2,0,P|319:349|288:328,1,75.0000028610231,8|2,0:0|0:0,0:0:0:0:
356,352,26426,6,0,L|192:356,1,150.000005722046,0|8,1:0|0:0,0:0:0:0:
128,328,26764,1,2,0:0:0:0:
76,259,26877,2,0,P|109:244|147:244,1,75.0000028610231,2|2,0:0|0:0,0:0:0:0:
312,152,27102,1,8,0:0:0:0:
244,75,27215,6,0,P|208:139|227:209,1,150.000005722046,0|0,1:0|1:0,0:0:0:0:
415,162,27553,2,0,P|413:124|396:91,1,75.0000028610231,8|2,0:0|0:0,0:0:0:0:
354,245,27779,2,0,P|387:261|424:263,1,75.0000028610231,0|2,1:0|0:0,0:0:0:0:
288,296,28005,2,0,P|254:312|217:314,1,75.0000028610231,8|2,0:0|0:0,0:0:0:0:
120,376,28230,6,0,P|97:306|129:240,1,150.000005722046,0|8,1:0|0:0,0:0:0:0:
228,160,28569,2,0,L|304:176,1,75.0000028610231,2|2,0:0|0:0,0:0:0:0:
372,228,28794,1,2,0:0:0:0:
204,312,28907,1,8,0:0:0:0:
129,240,29020,6,0,P|56:240|2:291,1,150.000005722046,0|0,1:0|1:0,0:0:0:0:
80,116,29358,2,0,P|91:74|86:43,1,75.0000028610231,8|2,0:0|0:0,0:0:0:0:
176,148,29584,1,0,1:0:0:0:
252,112,29696,1,2,0:0:0:0:
336,112,29809,2,0,L|416:112,1,75.0000028610231,8|2,0:0|0:0,0:0:0:0:
404,224,30035,6,0,L|254:224,1,150.000005722046,0|8,1:0|0:0,0:0:0:0:
195,284,30373,1,0,0:0:0:0:
176,148,30486,2,0,P|154:179|145:215,1,75.0000028610231,2|2,0:0|0:0,0:0:0:0:
88,328,30711,1,8,0:0:0:0:
44,208,30824,6,0,P|56:160|78:116,1,75.0000028610231,0|2,1:0|0:0,0:0:0:0:
248,44,31050,1,0,1:0:0:0:
204,176,31162,2,0,P|186:143|186:106,1,75.0000028610231,8|2,0:0|0:0,0:0:0:0:
288,116,31388,2,0,L|368:120,1,75.0000028610231,0|2,1:0|0:0,0:0:0:0:
492,4,31614,2,0,L|412:8,1,75.0000028610231,8|2,0:0|0:0,0:0:0:0:
288,116,31839,6,0,P|260:184|288:252,1,150.000005722046,0|8,1:0|0:0,0:0:0:0:
408,268,32178,2,0,P|443:278|472:301,1,75.0000028610231,2|2,0:0|0:0,0:0:0:0:
405,352,32403,1,2,0:0:0:0:
206,269,32516,1,8,0:0:0:0:
272,322,32629,6,0,P|287:287|287:250,1,75.0000028610231,0|2,1:0|0:0,0:0:0:0:
132,140,32854,2,0,L|220:148,1,75.0000028610231,0|8,1:0|0:0,0:0:0:0:
288,116,33080,1,2,0:0:0:0:
376,116,33193,2,0,P|416:132|440:156,1,75.0000028610231,0|2,1:0|0:0,0:0:0:0:
438,266,33418,2,0,P|411:291|376:304,1,75.0000028610231,8|2,0:0|0:0,0:0:0:0:
244,368,33644,6,0,P|176:332|96:336,1,150.000005722046,0|8,1:0|0:0,0:0:0:0:
44,220,33982,2,0,P|29:254|31:291,1,75.0000028610231,2|2,0:0|0:0,0:0:0:0:
132,180,34208,1,2,0:0:0:0:
216,172,34320,2,0,L|296:176,1,75.0000028610231,8|0,0:0|1:0,0:0:0:0:
452,148,34546,5,2,0:0:0:0:
500,80,34659,2,0,P|511:44|504:8,1,75.0000028610231,0|8,1:0|0:0,0:0:0:0:
320,68,34884,1,2,0:0:0:0:
367,136,34997,2,0,P|378:171|371:207,1,75.0000028610231,0|2,1:0|0:0,0:0:0:0:
184,348,35223,2,0,P|209:320|244:308,1,75.0000028610231,12|0,0:0|0:0,0:0:0:0:
352,315,35448,6,0,L|500:335,1,150.000005722046,0|8,1:0|0:0,0:0:0:0:
508,144,35787,2,0,P|464:140|431:155,1,75.0000028610231,2|0,0:0|1:0,0:0:0:0:
372,208,36012,1,2,0:0:0:0:
204,220,36125,1,8,0:0:0:0:
196,136,36238,1,2,0:0:0:0:
284,168,36350,5,0,1:0:0:0:
116,184,36463,2,0,P|72:180|40:168,1,75.0000028610231,2|8,0:0|0:0,0:0:0:0:
152,40,36689,1,2,0:0:0:0:
244,52,36802,2,0,L|324:76,1,75.0000028610231,0|0,1:0|0:0,0:0:0:0:
275,268,37027,2,0,P|248:293|213:305,1,75.0000028610231,12|0,0:0|0:0,0:0:0:0:
16,180,37253,6,0,L|128:184,1,100,4|0,0:0|0:0,0:0:0:0:
314,171,37478,2,0,P|361:157|398:124,1,100,10|0,0:0|0:0,0:0:0:0:
204,40,37704,1,0,0:0:0:0:
216,188,37817,1,0,0:0:0:0:
315,73,37929,1,10,0:0:0:0:
132,124,38042,6,2,B|102:175|120:228|120:228|96:268|96:268|92:320,1,200,4|0,0:2|0:0,0:0:0:0:
272,256,38381,1,8,0:0:0:0:
356,86,38493,1,2,0:0:0:0:
219,121,38606,1,2,0:0:0:0:
314,171,38719,1,0,0:0:0:0:
409,222,38832,2,0,L|497:268,1,100,8|0,0:0|0:0,0:0:0:0:
280,372,39057,5,4,0:0:0:0:
208,288,39170,1,0,0:0:0:0:
184,180,39283,2,0,P|189:130|218:90,1,100,10|0,0:0|0:0,0:0:0:0:
307,237,39508,1,0,0:0:0:0:
208,288,39621,2,0,P|151:294|103:270,1,100,2|8,0:0|0:0,0:0:0:0:
272,164,39847,6,2,B|300:152|300:152|329:161|329:161|372:152|372:152|409:182|462:173,1,200,4|0,0:2|0:0,0:0:0:0:
236,80,40185,1,8,0:0:0:0:
358,248,40298,1,2,0:0:0:0:
436,72,40411,1,2,0:0:0:0:
335,55,40523,1,0,0:0:0:0:
236,80,40636,1,8,0:0:0:0:
224,320,40749,1,8,0:0:0:0:
328,184,40862,5,4,0:0:0:0:
228,168,40975,1,0,0:0:0:0:
128,176,41087,2,0,L|28:172,1,100,10|0,0:0|0:0,0:0:0:0:
128,304,41313,1,0,0:0:0:0:
324,260,41426,1,0,0:0:0:0:
228,168,41538,1,10,0:0:0:0:
248,372,41651,6,2,B|296:368|316:340|316:340|378:380|432:348,1,200,4|0,0:2|0:0,0:0:0:0:
477,185,41990,1,8,0:0:0:0:
380,256,42102,1,2,0:0:0:0:
320,71,42215,1,2,0:0:0:0:
440,71,42328,1,0,0:0:0:0:
282,185,42441,1,8,0:0:0:0:
256,185,42497,1,8,0:0:0:0:
231,180,42553,1,8,0:0:0:0:
208,172,42610,1,8,0:0:0:0:
187,161,42666,6,0,L|88:160,1,100,4|0,0:0|0:0,0:0:0:0:
247,11,42892,2,0,P|292:28|319:70,1,100,10|0,0:0|0:0,0:0:0:0:
296,256,43117,1,0,0:0:0:0:
140,236,43230,1,2,0:0:0:0:
224,108,43343,1,8,0:0:0:0:
96,24,43456,5,4,0:2:0:0:
416,24,43681,1,4,0:2:0:0:
58,173,43907,1,4,0:2:0:0:
378,173,44132,5,12,0:2:0:0:
216,272,44245,1,8,0:0:0:0:
224,108,44358,1,8,0:0:0:0:
448,248,44471,6,0,L|298:259,1,150.000005722046,0|8,1:0|0:0,0:0:0:0:
216,272,44809,1,2,0:0:0:0:
140,236,44922,2,0,P|104:220|68:216,1,75.0000028610231,0|2,1:0|0:0,0:0:0:0:
216,152,45147,1,8,0:0:0:0:
276,95,45260,2,0,P|293:63|296:26,1,75.0000028610231,0|2,1:0|0:0,0:0:0:0:
136,20,45486,6,0,L|208:39,1,75.0000028610231,2|8,1:0|0:0,0:0:0:0:
348,115,45711,2,0,L|275:95,1,75.0000028610231,2|0,0:1|1:0,0:0:0:0:
108,108,45937,2,0,L|180:127,1,75.0000028610231,2|8,0:1|0:0,0:0:0:0:
320,203,46162,1,2,0:1:0:0:
236,192,46275,6,0,P|172:240|167:311,1,150.000005722046,0|8,1:0|0:0,0:0:0:0:
228,364,46614,1,2,0:0:0:0:
312,372,46726,2,0,P|348:364|376:340,1,75.0000028610231,0|2,1:0|0:0,0:0:0:0:
384,156,46952,1,8,0:0:0:0:
272,188,47065,6,0,L|116:192,1,150.000005722046,0|0,1:0|1:0,0:0:0:0:
32,256,47403,1,8,0:0:0:0:
52,336,47516,1,2,0:0:0:0:
51,235,47629,2,0,P|41:200|44:163,1,75.0000028610231,0|2,1:0|0:0,0:0:0:0:
160,36,47854,2,0,P|138:66|130:102,1,75.0000028610231,8|2,0:0|0:0,0:0:0:0:
192,208,48080,6,0,L|276:216,1,75.0000028610231,0|2,1:0|0:0,0:0:0:0:
416,144,48305,1,8,0:0:0:0:
358,86,48418,1,2,0:0:0:0:
337,167,48531,1,0,1:0:0:0:
358,86,48644,2,0,P|364:40|352:12,1,75.0000028610231,2|8,0:0|0:0,0:0:0:0:
192,96,48869,6,0,P|228:124|259:127,1,75.0000028610231,0|2,1:0|0:0,0:0:0:0:
384,180,49095,2,0,L|460:212,1,75.0000028610231,0|8,1:0|0:0,0:0:0:0:
468,292,49320,1,2,0:0:0:0:
400,344,49433,2,0,P|359:343|320:324,1,75.0000028610231,0|2,1:0|0:0,0:0:0:0:
244,216,49659,2,0,P|253:252|248:289,1,75.0000028610231,8|2,0:0|0:0,0:0:0:0:
160,360,49884,6,0,L|4:368,1,150.000005722046,0|8,1:0|0:0,0:0:0:0:
31,176,50223,2,0,P|46:141|75:118,1,75.0000028610231,2|0,0:0|1:0,0:0:0:0:
240,132,50448,1,2,0:0:0:0:
196,204,50561,2,0,L|104:196,1,75.0000028610231,8|0,0:0|1:0,0:0:0:0:
248,289,50787,5,2,0:0:0:0:
292,217,50900,2,0,L|384:225,1,75.0000028610231,0|8,1:0|0:0,0:0:0:0:
504,164,51125,1,0,0:0:0:0:
488,300,51238,1,6,0:0:0:0:
400,312,51350,1,2,0:0:0:0:
388,132,51463,1,10,0:0:0:0:
504,164,51575,1,8,0:0:0:0:
366,223,51689,5,0,1:0:0:0:
366,223,51802,1,0,0:0:0:0:
366,223,51914,2,0,L|291:216,1,75.0000028610231,8|0,0:0|0:0,0:0:0:0:
192,140,52140,2,0,P|173:173|167:210,1,75.0000028610231,2|0,1:0|0:0,0:0:0:0:
264,80,52366,1,8,0:0:0:0:
176,48,52478,2,0,P|138:48|103:61,1,75.0000028610231,2|0,1:0|0:0,0:0:0:0:
336,140,52704,6,0,P|370:152|408:153,1,75.0000028610231,2|8,1:0|0:0,0:0:0:0:
388,64,52929,1,0,0:0:0:0:
304,28,53042,2,0,L|223:39,1,75.0000028610231,2|0,1:0|0:0,0:0:0:0:
224,176,53268,2,0,L|235:257,1,75.0000028610231,8|0,0:0|0:0,0:0:0:0:
208,348,53493,5,0,1:0:0:0:
208,348,53606,1,0,0:0:0:0:
208,348,53719,2,0,P|164:348|132:336,1,75.0000028610231,8|0,0:0|0:0,0:0:0:0:
40,220,53944,2,0,P|84:220|116:232,1,75.0000028610231,2|0,1:0|0:0,0:0:0:0:
4,116,54170,1,8,0:0:0:0:
72,52,54283,2,0,P|110:29|143:24,1,75.0000028610231,2|0,1:0|0:0,0:0:0:0:
308,68,54508,6,0,L|408:80,1,75.0000028610231,0|8,1:0|0:0,0:0:0:0:
416,164,54734,1,0,0:0:0:0:
352,232,54847,1,2,1:0:0:0:
352,324,54959,1,0,1:0:0:0:
336,224,55072,2,0,P|320:180|300:148,1,75.0000028610231,8|0,0:0|0:0,0:0:0:0:
208,264,55298,6,0,P|224:308|244:340,1,75.0000028610231,0|0,1:0|0:0,0:0:0:0:
352,324,55523,2,0,L|432:328,1,75.0000028610231,8|0,0:0|0:0,0:0:0:0:
305,155,55749,2,0,L|225:159,1,75.0000028610231,2|0,1:0|0:0,0:0:0:0:
372,238,55975,1,8,0:0:0:0:
436,172,56087,2,0,L|510:175,1,75.0000028610231,2|0,1:0|0:0,0:0:0:0:
396,12,56313,6,0,P|376:44|376:88,1,75.0000028610231,2|8,1:0|0:0,0:0:0:0:
344,168,56538,1,0,0:0:0:0:
288,244,56651,2,0,P|248:252|208:244,1,75.0000028610231,2|0,1:0|0:0,0:0:0:0:
64,344,56877,2,0,P|104:352|144:344,1,75.0000028610231,8|0,0:0|0:0,0:0:0:0:
256,344,57102,5,0,1:0:0:0:
256,344,57215,1,0,0:0:0:0:
256,344,57328,2,0,L|336:352,1,75.0000028610231,8|0,0:0|0:0,0:0:0:0:
388,202,57553,2,0,P|402:167|398:130,1,75.0000028610231,2|0,1:0|0:0,0:0:0:0:
288,244,57779,1,8,0:0:0:0:
300,152,57892,2,0,P|271:118|238:107,1,75.0000028610231,2|0,1:0|0:0,0:0:0:0:
28,148,58117,6,0,L|112:156,1,75.0000028610231,2|12,1:0|0:0,0:0:0:0:
212,203,58343,1,0,1:0:0:0:
188,292,58456,1,0,1:0:0:0:
52,272,58569,1,8,0:0:0:0:
116,200,58681,1,8,3:0:0:0:
212,203,58794,1,8,3:0:0:0:
300,244,58907,6,0,P|328:252|364:248,2,50,0|0|2,1:0|0:0|0:0,0:0:0:0:
195,112,59358,2,0,P|245:118|284:148,1,100,2|8,0:0|0:0,0:0:0:0:
212,203,59696,2,0,L|152:288,1,100,0|2,1:0|0:0,0:0:0:0:
96,344,60035,2,0,P|71:348|46:348,1,50,0|2,1:0|0:0,0:0:0:0:
64,267,60260,1,2,0:0:0:0:
224,336,60486,2,0,L|276:340,1,50,8|0,0:0|0:0,0:0:0:0:
355,351,60711,6,0,P|405:349|448:323,2,100,0|2|2,1:0|0:0|0:0,0:0:0:0:
304,156,61388,1,8,0:0:0:0:
364,212,61501,2,0,L|380:264,1,50,0|2,1:0|0:0,0:0:0:0:
456,176,61726,1,0,1:0:0:0:
492,100,61839,6,0,L|500:20,1,75.0000028610231,2|0,1:2|0:0,0:0:0:0:
388,116,62065,2,0,L|396:36,1,75.0000028610231,2|8,0:0|3:0,0:0:0:0:
304,156,62290,1,0,1:0:0:0:
364,212,62403,1,4,3:0:0:0:
303,155,62516,6,0,P|279:150|254:147,2,50,0|2|2,1:0|0:0|0:0,0:0:0:0:
232,320,62967,2,0,P|168:324|124:300,1,100,2|8,0:0|0:0,0:0:0:0:
47,347,63305,2,0,P|40:298|57:252,1,100,0|2,1:0|0:0,0:0:0:0:
116,152,63644,6,0,L|192:140,1,75.0000028610231,2|0,0:0|0:0,0:0:0:0:
148,36,63869,2,0,L|224:24,1,75.0000028610231,2|0,1:2|1:0,0:0:0:0:
352,24,64095,2,0,P|380:60|388:92,1,75.0000028610231,8|0,0:0|0:0,0:0:0:0:
364,196,64320,6,0,P|312:204|268:180,1,100,0|8,1:0|0:0,0:0:0:0:
377,248,64659,2,0,P|348:288|302:304,1,100,2|8,1:2|0:0,0:0:0:0:
410,272,64997,2,0,P|418:320|397:364,1,100,2|8,1:2|0:0,0:0:0:0:
450,265,65335,2,0,P|490:293|506:339,1,100,2|8,1:2|0:0,0:0:0:0:
473,231,65674,5,0,1:0:0:0:
410,272,65787,1,8,0:0:0:0:
336,256,65899,1,8,3:0:0:0:
268,288,66012,1,4,3:0:0:0:
252,364,66125,5,0,1:0:0:0:
396,160,66350,1,8,0:0:0:0:
356,356,66576,1,8,0:0:0:0:
160,316,66802,1,0,1:0:0:0:
80,320,66914,2,0,P|46:320|20:312,1,50,2|0,0:0|0:0,0:0:0:0:
120,216,67140,5,0,1:0:0:0:
200,224,67253,2,0,L|256:232,1,50,10|0,0:0|0:0,0:0:0:0:
384,292,67478,2,0,L|334:284,1,50,2|0,1:2|0:0,0:0:0:0:
279,151,67704,6,0,P|286:103|321:68,1,100,8|0,0:0|1:0,0:0:0:0:
500,40,68155,1,8,0:0:0:0:
172,72,68381,1,8,0:0:0:0:
360,140,68606,1,0,1:0:0:0:
412,200,68719,2,0,P|428:223|434:246,1,50,2|0,0:0|0:0,0:0:0:0:
328,336,68944,5,0,1:0:0:0:
248,344,69057,2,0,L|180:332,1,50,8|0,0:0|0:0,0:0:0:0:
240,156,69283,2,0,L|263:220,1,50,0|0,1:0|0:0,0:0:0:0:
81,256,69508,2,0,L|125:203,1,50,8|0,0:0|0:0,0:0:0:0:
171,71,69734,6,0,P|241:47|312:75,1,150.000005722046,4|8,1:2|0:0,0:0:0:0:
372,152,70072,1,0,0:0:0:0:
340,248,70185,2,0,P|325:282|322:319,1,75.0000028610231,0|0,1:0|1:0,0:0:0:0:
424,303,70411,1,8,0:0:0:0:
340,248,70523,6,0,P|268:260|216:316,1,150.000005722046,2|0,1:2|1:0,0:0:0:0:
116,199,70862,2,0,P|127:164|151:136,1,75.0000028610231,8|0,0:0|0:0,0:0:0:0:
104,316,71087,2,0,L|24:312,1,75.0000028610231,0|0,1:0|0:0,0:0:0:0:
220,216,71313,2,0,L|300:212,1,75.0000028610231,8|0,0:0|0:0,0:0:0:0:
432,176,71538,6,0,P|492:133|511:62,1,150.000005722046,4|8,1:2|0:0,0:0:0:0:
411,74,71877,1,0,0:0:0:0:
318,111,71990,2,0,P|309:75|317:38,1,75.0000028610231,0|0,1:0|1:0,0:0:0:0:
356,206,72215,1,8,0:0:0:0:
284,276,72328,6,0,P|212:284|136:276,1,150.000005722046,2|0,1:2|1:0,0:0:0:0:
36,204,72666,2,0,P|44:276|36:352,1,150.000005722046,8|0,0:0|1:0,0:0:0:0:
135,275,73005,1,0,0:0:0:0:
208,208,73117,2,0,L|248:144,1,75.0000028610231,8|0,0:0|0:0,0:0:0:0:
52,68,73343,6,0,P|136:96|216:56,1,174.000001460266,4|8,1:2|0:0,0:0:0:0:
304,12,73681,1,0,0:0:0:0:
412,32,73794,2,0,L|500:56,1,87.0000007301331,0|0,1:0|1:0,0:0:0:0:
408,172,74020,1,8,0:0:0:0:
312,212,74132,2,0,P|303:169|314:127,1,87.0000007301331,2|0,1:2|0:0,0:0:0:0:
510,247,74358,5,0,1:0:0:0:
432,320,74471,2,0,L|340:312,1,87.0000007301331,8|0,0:0|0:0,0:0:0:0:
152,280,74696,2,0,P|188:248|228:244,1,87.0000007301331,2|0,1:2|0:0,0:0:0:0:
384,144,74922,2,0,P|365:105|327:84,1,87.0000007301331,8|0,0:0|0:0,0:0:0:0:
136,20,75147,5,0,1:0:0:0:
12,216,75260,2,0,L|97:229,1,87.0000007301331,12|0,0:0|0:0,0:0:0:0:
204,280,75486,5,0,1:0:0:0:
328,84,75599,2,0,L|242:70,1,87.0000007301331,12|0,0:0|0:0,0:0:0:0:
132,108,75824,5,0,1:0:0:0:
8,304,75937,2,0,L|93:317,1,87.0000007301331,12|0,0:0|0:0,0:0:0:0:
324,172,76162,5,12,0:0:0:0:
200,368,76275,1,12,0:0:0:0:
152,248,76501,5,0,0:0:0:0:
104,128,76726,1,0,0:0:0:0:
192,27,76952,6,0,P|286:45|321:134,1,200,4|8,1:0|1:0,0:0:0:0:
288,256,77290,1,2,1:2:0:0:
108,236,77403,1,0,1:0:0:0:
216,132,77516,1,0,1:0:0:0:
188,316,77629,2,0,P|141:344|83:350,1,100,8|0,1:0|0:0,0:0:0:0:
288,256,77854,6,0,P|378:291|467:252,1,200,2|8,1:2|1:0,0:0:0:0:
464,68,78193,1,0,1:0:0:0:
376,172,78305,1,0,1:0:0:0:
512,168,78418,1,0,1:0:0:0:
340,60,78531,2,0,L|216:64,1,100,8|0,1:0|0:0,0:0:0:0:
64,147,78756,6,0,P|161:135|248:184,1,200,2|8,1:2|1:0,0:0:0:0:
38,262,79095,1,0,1:0:0:0:
136,48,79208,1,0,1:0:0:0:
136,264,79320,2,0,P|76:272|24:256,1,100,2|8,1:2|1:0,0:0:0:0:
212,136,79546,1,0,1:0:0:0:
88,160,79659,5,2,1:2:0:0:
244,272,79772,1,0,1:0:0:0:
340,108,79884,2,0,L|328:8,1,100,12|0,1:2|0:0,0:0:0:0:
176,212,80110,1,0,1:0:0:0:
340,108,80223,1,2,1:2:0:0:
184,72,80335,1,8,1:0:0:0:
244,272,80448,1,0,1:0:0:0:
360,188,80561,6,0,P|456:195|508:276,1,200,4|8,1:0|1:0,0:0:0:0:
280,371,80899,2,0,P|230:374|183:359,1,100,2|0,1:2|1:0,0:0:0:0:
276,184,81125,1,0,1:0:0:0:
396,296,81238,1,8,1:0:0:0:
242,296,81350,1,0,1:0:0:0:
176,175,81463,6,0,P|189:128|226:95,1,100,2|0,1:2|1:0,0:0:0:0:
460,164,81689,1,8,1:0:0:0:
484,309,81802,2,0,P|465:354|423:380,1,100,0|0,1:0|1:0,0:0:0:0:
242,296,82027,1,0,1:0:0:0:
128,216,82140,2,0,L|24:224,1,100,8|0,1:0|0:0,0:0:0:0:
312,217,82366,6,0,B|352:181|391:192|391:192|329:109|420:33,1,239.999992675781,4|0,1:2|1:0,0:0:0:0:
128,216,82704,2,0,B|162:233|207:236|207:236|231:324|323:320,1,239.999992675781,4|0,1:2|1:0,0:0:0:0:
288,20,83042,2,0,B|264:61|255:116|255:116|180:141|130:85,1,239.999992675781,4|0,1:2|1:0,0:0:0:0:
479,229,83381,2,0,B|490:176|490:176|460:125|460:125|508:80|484:9,1,239.999992675781,4|0,1:2|1:0,0:0:0:0:
312,302,83719,5,8,1:0:0:0:
312,83,83832,1,8,1:0:0:0:
184,260,83944,1,8,1:0:0:0:
391,192,84057,1,8,1:0:0:0:
184,124,84170,6,0,L|84:116,1,100,4|0,1:0|0:0,0:0:0:0:
88,352,84396,1,8,1:0:0:0:
183,260,84508,2,0,P|230:241|279:243,1,100,2|0,1:2|1:0,0:0:0:0:
84,116,84734,1,0,1:0:0:0:
24,236,84847,2,0,L|12:340,1,100,8|0,1:0|0:0,0:0:0:0:
248,348,85072,6,0,P|343:337|389:252,1,200,2|8,1:2|1:0,0:0:0:0:
372,120,85411,1,0,1:0:0:0:
232,208,85523,2,0,P|180:204|128:192,1,100,0|0,1:0|1:0,0:0:0:0:
248,28,85749,2,0,P|296:17|346:13,1,100,8|0,1:0|0:0,0:0:0:0:
464,200,85975,6,0,P|475:258|509:291,1,100,2|0,1:2|0:0,0:0:0:0:
496,64,86200,1,8,1:0:0:0:
360,128,86313,2,0,L|248:120,1,100,0|0,1:0|1:0,0:0:0:0:
104,64,86538,1,2,1:2:0:0:
208,240,86651,2,0,L|307:247,1,100,8|0,1:0|1:0,0:0:0:0:
56,252,86877,5,2,1:2:0:0:
220,124,86990,1,0,1:0:0:0:
5,79,87102,2,0,L|105:63,1,100,12|0,1:2|0:0,0:0:0:0:
332,56,87328,1,0,1:0:0:0:
140,196,87441,1,2,1:2:0:0:
212,20,87553,1,8,1:0:0:0:
276,176,87666,1,0,1:0:0:0:
187,320,87779,6,0,P|90:319|18:253,1,200,4|8,1:0|1:0,0:0:0:0:
177,178,88117,2,0,P|241:182|281:174,1,100,2|0,1:2|1:0,0:0:0:0:
448,224,88343,1,0,1:0:0:0:
416,20,88456,2,0,P|388:64|388:112,1,100,8|0,1:0|0:0,0:0:0:0:
376,296,88681,5,0,1:0:0:0:
480,148,88794,1,0,1:0:0:0:
300,160,88907,2,0,L|196:172,1,100,8|0,1:0|1:0,0:0:0:0:
36,192,89132,1,0,1:0:0:0:
144,276,89245,1,0,1:0:0:0:
135,99,89358,2,0,P|141:50|168:9,1,100,8|0,1:0|0:0,0:0:0:0:
424,32,89584,6,0,P|378:52|329:48,1,100,2|0,1:2|0:0,0:0:0:0:
264,176,89809,1,8,1:0:0:0:
448,212,89922,2,0,P|488:241|509:285,1,100,2|0,1:2|1:0,0:0:0:0:
312,360,90147,1,0,1:0:0:0:
312,360,90204,1,0,0:0:0:0:
312,360,90260,1,8,1:0:0:0:
196,107,90373,6,0,P|172:151|172:201,1,100,8|0,1:0|1:0,0:0:0:0:
172,332,90599,1,0,1:0:0:0:
376,260,90711,2,0,L|272:272,1,100,12|0,1:2|0:0,0:0:0:0:
80,284,90937,1,2,1:2:0:0:
36,160,91050,1,0,1:0:0:0:
104,48,91162,1,8,1:0:0:0:
128,40,91219,1,8,1:0:0:0:
152,32,91275,1,8,1:0:0:0:
176,24,91332,1,8,1:0:0:0:
200,16,91388,6,0,P|272:72|380:48,1,200,4|8,1:0|1:0,0:0:0:0:
236,155,91726,2,0,P|207:196|204:246,1,100,2|0,1:2|1:0,0:0:0:0:
240,372,91952,1,0,1:0:0:0:
416,223,92065,2,0,P|366:232|316:235,1,100,12|0,1:2|0:0,0:0:0:0:
131,301,92290,1,0,1:0:0:0:
43,155,92403,6,0,P|37:107|58:62,1,100,2|8,1:2|1:0,0:0:0:0:
272,120,92629,1,0,1:0:0:0:
204,276,92741,1,0,1:0:0:0:
132,120,92854,1,0,1:0:0:0:
300,136,92967,2,0,L|400:148,1,100,8|0,1:0|0:0,0:0:0:0:
204,276,93193,6,0,P|128:240|28:288,1,200,4|8,1:2|1:0,0:0:0:0:
224,376,93531,2,0,P|268:356|300:317,1,100,2|0,1:2|1:0,0:0:0:0:
300,136,93756,1,0,1:0:0:0:
96,96,93869,2,0,P|130:131|178:145,1,100,12|0,1:2|0:0,0:0:0:0:
316,228,94095,5,0,1:0:0:0:
432,176,94208,1,0,1:0:0:0:
300,240,94320,2,0,L|192:236,1,100,8|0,1:0|1:0,0:0:0:0:
56,176,94546,1,0,1:0:0:0:
108,292,94659,1,0,1:0:0:0:
216,144,94771,2,0,L|315:147,1,100,8|0,1:0|0:0,0:0:0:0:
439,87,94997,6,0,P|450:136|448:186,1,100,2|0,1:2|0:0,0:0:0:0:
312,280,95223,1,8,1:0:0:0:
408,372,95335,2,0,P|457:375|506:364,1,100,2|0,1:2|0:0,0:0:0:0:
447,186,95561,1,0,1:0:0:0:
296,164,95674,2,0,L|184:176,1,100,8|0,1:0|0:0,0:0:0:0:
72,328,95899,2,0,P|128:260|56:260,1,200,4|0,1:2|0:0,0:0:0:0:
72,328,96350,5,2,0:0:0:0:
212,248,96463,1,2,0:0:0:0:
212,248,96520,1,0,0:0:0:0:
212,248,96576,1,2,0:0:0:0:
104,220,96689,1,2,0:0:0:0:
188,364,96802,6,2,B|232:352|232:352|272:356|272:356|336:348,1,150.000005722046,2|0,0:0|0:0,0:0:0:0:
416,264,97140,2,0,L|500:276,1,75.0000028610231,2|8,0:0|0:0,0:0:0:0:
316,168,97478,2,0,L|232:180,1,75.0000028610231,2|8,0:0|0:0,0:0:0:0:
324,40,97704,1,2,2:1:0:0:
492,24,97817,1,2,0:0:0:0:
416,72,97929,2,2,B|412:120|412:120|424:152|424:152|416:224,1,150.000005722046,10|0,0:0|0:0,0:0:0:0:
252,376,98381,1,8,0:0:0:0:
44,284,98606,6,2,B|88:276|88:276|132:284|132:284|116:252|116:252|120:216,1,150.000005722046,2|0,1:0|0:0,0:0:0:0:
84,132,98944,2,0,L|8:140,1,75.0000028610231,2|8,0:0|0:0,0:0:0:0:
220,232,99283,2,0,L|296:224,1,75.0000028610231,2|8,0:0|0:0,0:0:0:0:
328,68,99508,1,2,2:1:0:0:
236,132,99621,1,2,0:0:0:0:
152,56,99734,2,2,B|132:40|132:40|124:20|124:20|84:28|84:28|0:36,1,150.000005722046,10|0,0:0|0:0,0:0:0:0:
24,264,100185,1,8,0:0:0:0:
316,280,100411,6,2,B|247:256|247:256|211:264|211:264|171:256,1,150.000005722046,2|0,0:0|0:0,0:0:0:0:
244,352,100749,2,0,L|316:376,1,75.0000028610231,2|8,0:0|0:0,0:0:0:0:
284,136,101087,2,0,L|212:160,1,75.0000028610231,2|8,0:0|0:0,0:0:0:0:
420,220,101313,1,2,2:1:0:0:
440,80,101426,1,2,0:0:0:0:
364,140,101538,2,2,B|356:168|356:168|344:188|344:188|338:232|338:232|360:288,1,150.000005722046,10|0,0:0|0:0,0:0:0:0:
144,364,101990,1,8,0:0:0:0:
28,172,102215,6,2,B|72:160|72:160|102:130|102:130|123:145|123:145|166:153,1,150.000005722046,2|0,0:0|0:0,0:0:0:0:
232,80,102553,2,0,L|161:58,1,75.0000028610231,2|8,0:0|0:0,0:0:0:0:
300,228,102892,1,2,0:0:0:0:
194,263,103005,2,2,B|132:244|132:244|114:257|114:257|91:264|91:264|67:294,1,150.000005722046,10|0,0:0|0:0,0:0:0:0:
148,348,103343,1,8,0:0:0:0:
432,328,103569,1,4,1:2:0:0:
280,134,103794,1,8,0:0:0:0:
268,258,104020,6,2,B|268:294|268:294|264:310|264:310|268:382,1,123.999995080567,0|8,1:0|0:0,0:0:0:0:
444,220,104471,1,2,1:2:0:0:
456,148,104584,1,8,0:0:0:0:
428,80,104696,1,8,0:0:0:0:
356,72,104809,2,2,B|336:68|336:68|268:72|268:72|232:64,1,123.999995080567,0|0,1:0|1:0,0:0:0:0:
152,144,105147,2,0,L|144:208,1,61.9999975402833,10|0,0:0|0:0,0:0:0:0:
240,184,105373,5,0,1:2:0:0:
312,168,105486,1,2,1:2:0:0:
312,280,105599,1,10,0:0:0:0:
240,264,105712,1,8,0:0:0:0:
168,276,105824,6,2,B|139:281|139:281|112:276|112:276|80:280|80:280|45:276,1,123.999995080567,0|8,1:0|0:0,0:0:0:0:
52,56,106275,1,2,1:2:0:0:
123,76,106388,1,8,0:0:0:0:
184,36,106501,1,8,0:0:0:0:
256,28,106614,2,2,B|280:16|280:16|312:40|312:40|372:36,1,123.999995080567,0|0,1:0|1:0,0:0:0:0:
468,76,106952,2,0,L|500:128,1,61.9999975402833,8|0,0:0|0:0,0:0:0:0:
368,152,107178,5,2,1:2:0:0:
336,336,107403,1,8,0:0:0:0:
408,360,107516,1,8,0:0:0:0:
484,352,107629,6,2,B|504:344|504:344|496:308|496:308|500:276|500:276|496:240,1,123.999995080567,0|8,1:0|0:0,0:0:0:0:
292,148,108080,1,2,1:2:0:0:
224,184,108193,1,8,0:0:0:0:
208,256,108305,1,8,0:0:0:0:
164,316,108418,2,2,B|136:312|136:312|100:319,1,61.9999975402833,0|0,1:0|0:0,0:0:0:0:
32,248,108644,1,0,1:0:0:0:
124,216,108756,2,0,B|128:188|128:188|121:152,1,61.9999975402833,10|0,0:0|0:0,0:0:0:0:
104,36,108982,5,0,1:0:0:0:
68,100,109095,1,2,1:2:0:0:
188,92,109208,1,10,0:0:0:0:
260,108,109321,1,8,0:0:0:0:
320,64,109433,6,2,B|356:40|356:40|388:36|388:36|412:44|412:44|436:44,1,123.999995080567,0|8,1:0|0:0,0:0:0:0:
500,80,109772,1,0,0:0:0:0:
484,152,109884,1,2,1:2:0:0:
430,204,109997,2,0,L|366:192,1,61.9999975402833,8|0,0:0|0:0,0:0:0:0:
501,226,110223,5,2,1:2:0:0:
408,348,110448,1,2,0:0:0:0:
256,336,110674,1,2,0:0:0:0:
304,224,110787,5,12,1:2:0:0:
164,272,110899,1,0,1:0:0:0:
164,272,111012,1,0,1:0:0:0:
240,84,111125,5,12,1:2:0:0:
100,132,111238,1,0,1:0:0:0:
100,132,111350,1,0,1:0:0:0:
220,200,111463,6,0,L|304:224,1,87.0000007301331,8|0,0:0|2:0,0:0:0:0:
404,136,111689,2,0,L|488:160,1,87.0000007301331,8|0,0:0|2:0,0:0:0:0:
303,223,111914,1,0,0:0:0:0:
295,108,112027,2,0,P|312:68|345:40,1,87.0000007301331,10|0,0:2|2:0,0:0:0:0:
192,16,112253,5,0,1:0:0:0:
100,132,112366,2,0,L|186:136,1,87.0000007301331,8|0,0:0|2:0,0:0:0:0:
32,200,112591,2,0,P|24:244|8:288,1,87.0000007301331,2|0,0:2|2:0,0:0:0:0:
128,328,112817,2,0,P|92:352|53:371,1,87.0000007301331,8|0,0:0|2:0,0:0:0:0:
232,356,113042,6,0,L|318:360,1,87.0000007301331,2|0,0:2|2:0,0:0:0:0:
416,232,113268,1,8,0:0:0:0:
424,336,113381,1,0,1:0:0:0:
432,216,113493,2,0,P|432:176|420:128,1,87.0000007301331,8|0,0:0|2:0,0:0:0:0:
288,128,113719,5,0,0:0:0:0:
300,232,113832,2,0,L|213:226,1,87.0000007301331,8|0,0:0|2:0,0:0:0:0:
88,284,114057,1,0,0:0:0:0:
180,336,114170,2,0,L|266:330,1,87.0000007301331,8|0,0:0|2:0,0:0:0:0:
373,96,114396,6,0,P|347:61|309:40,1,87.0000007301331,2|0,0:2|2:0,0:0:0:0:
136,36,114621,1,8,0:0:0:0:
76,184,114734,1,8,0:0:0:0:
188,144,114847,6,0,L|300:144,1,87.0000007301331,2|0,0:2|2:0,0:0:0:0:
380,224,115072,1,8,0:0:0:0:
468,200,115185,1,0,2:0:0:0:
508,120,115298,2,0,P|512:72|496:28,1,87.0000007301331,8|0,0:0|2:0,0:0:0:0:
309,40,115523,1,0,1:0:0:0:
324,147,115636,6,0,P|296:181|286:223,1,87.0000007301331,10|0,0:2|2:0,0:0:0:0:
320,336,115862,1,0,1:0:0:0:
212,372,115975,2,0,L|112:352,1,87.0000007301331,8|0,0:0|2:0,0:0:0:0:
44,200,116200,1,2,0:2:0:0:
72,112,116313,1,0,1:0:0:0:
136,48,116426,2,0,P|184:24|224:20,1,87.0000007301331,10|0,0:2|2:0,0:0:0:0:
420,56,116651,6,0,P|377:48|339:27,1,87.0000007301331,2|0,0:2|2:0,0:0:0:0:
408,160,116877,1,8,0:0:0:0:
376,244,116990,1,0,1:0:0:0:
296,283,117102,2,0,P|253:279|215:258,1,87.0000007301331,0|0,0:0|2:0,0:0:0:0:
296,136,117328,1,0,0:0:0:0:
408,160,117441,2,0,L|496:152,1,87.0000007301331,8|0,0:0|2:0,0:0:0:0:
244,16,117666,5,0,0:0:0:0:
144,67,117779,2,0,P|108:92|88:130,1,87.0000007301331,8|0,0:0|2:0,0:0:0:0:
88,244,118005,1,0,1:0:0:0:
304,156,118117,1,8,0:0:0:0:
224,312,118230,1,8,0:0:0:0:
176,152,118343,1,8,0:0:0:0:
176,152,118681,5,0,2:0:0:0:
184,232,118794,1,0,2:0:0:0:
152,305,118907,2,0,P|82:328|16:296,1,150,2|0,0:0|0:0,0:0:0:0:
95,194,119358,2,0,P|91:223|87:243,1,50,2|0,0:0|0:0,0:0:0:0:
32,136,119583,2,0,P|28:106|24:86,1,50
140,28,119809,2,0,P|169:24|189:20,1,50,2|0,0:0|0:0,0:0:0:0:
256,84,120034,5,0,0:0:0:0:
301,135,120146,1,0,0:0:0:0:
368,151,120259,1,0,0:0:0:0:
432,127,120372,1,0,0:0:0:0:
471,70,120485,6,0,P|476:24|484:4,1,61.9999975402833,2|2,0:0|0:0,0:0:0:0:
360,232,120711,2,0,P|387:269|404:282,1,61.9999975402833,2|2,1:2|1:2,0:0:0:0:
352,32,120936,2,0,P|321:39|294:53,1,61.9999975402833,14|2,0:0|0:0,0:0:0:0:
136,180,121162,5,4,1:2:0:0:
136,180,121274,1,0,0:0:0:0:
136,180,121387,1,2,1:2:0:0:
104,264,121500,2,0,L|116:348,1,75.0000028610231,8|0,0:0|0:0,0:0:0:0:
228,296,121725,1,0,1:0:0:0:
304,176,121838,2,0,L|216:192,1,75.0000028610231,10|0,0:0|0:0,0:0:0:0:
32,192,122064,5,0,1:0:0:0:
8,100,122177,2,0,L|28:24,1,75.0000028610231,10|0,0:0|0:0,0:0:0:0:
184,88,122402,1,0,1:0:0:0:
136,180,122515,1,8,0:0:0:0:
504,152,122740,6,0,P|432:124|360:108,1,150.000005722046,4|2,1:2|1:2,0:0:0:0:
272,184,123078,1,8,0:0:0:0:
260,272,123191,1,2,0:0:0:0:
340,240,123303,1,0,1:0:0:0:
192,216,123416,2,0,L|112:212,1,75.0000028610231,10|0,0:0|0:0,0:0:0:0:
88,364,123642,5,2,0:0:0:0:
156,304,123754,1,0,1:0:0:0:
32,192,123867,2,0,L|24:284,1,75.0000028610231,10|0,0:0|0:0,0:0:0:0:
192,136,124093,1,2,0:0:0:0:
120,80,124205,1,0,1:0:0:0:
260,24,124318,1,12,0:0:0:0:
304,244,124544,6,2,B|292:270|292:270|274:293|274:293|260:344,1,100,2|0,1:2|1:0,0:0:0:0:
348,332,124882,1,0,1:0:0:0:
432,332,124995,6,0,P|476:296|476:232,1,123.999995080567,10|0,1:2|1:0,0:0:0:0:
420,152,125333,2,0,L|348:148,1,61.9999975402833,8|0,0:0|0:0,0:0:0:0:
256,168,125558,1,0,1:0:0:0:
336,44,125671,2,0,L|264:80,1,61.9999975402833,8|0,0:0|0:0,0:0:0:0:
188,240,125897,5,2,1:2:0:0:
169,312,126009,1,0,0:0:0:0:
97,332,126122,1,0,1:0:0:0:
43,278,126235,1,0,1:0:0:0:
63,206,126348,2,0,P|91:191|127:187,1,61.9999975402833,10|0,0:0|0:0,0:0:0:0:
236,140,126573,1,0,1:0:0:0:
152,88,126686,2,0,P|96:76|40:24,1,123.999995080567,8|0,0:0|1:0,0:0:0:0:
296,20,127024,5,8,1:0:0:0:
312,24,127081,1,8,1:0:0:0:
328,28,127137,1,8,1:0:0:0:
344,32,127193,1,8,1:0:0:0:
360,36,127250,2,0,P|416:60|476:84,1,123.999995080567,2|8,1:2|0:0,0:0:0:0:
448,188,127588,1,0,1:0:0:0:
372,208,127701,2,0,P|338:195|316:176,1,61.9999975402833,2|8,1:2|0:0,0:0:0:0:
404,316,127927,2,0,P|428:297|457:286,1,61.9999975402833,2|0,0:0|1:0,0:0:0:0:
372,208,128152,5,0,1:0:0:0:
300,236,128265,1,0,1:0:0:0:
228,268,128378,2,0,L|168:296,1,61.9999975402833,8|0,0:0|0:0,0:0:0:0:
44,244,128603,6,0,P|101:220|158:196,1,123.999995080567,10|8,1:2|3:0,0:0:0:0:
256,144,128942,1,8,3:0:0:0:
280,68,129054,2,0,P|279:37|285:6,1,61.9999975402833,2|8,1:2|3:0,0:0:0:0:
164,36,129280,2,0,P|170:66|169:97,1,61.9999975402833,10|0,0:0|0:0,0:0:0:0:
280,68,129506,5,2,1:2:0:0:
356,44,129618,1,8,0:0:0:0:
360,152,129731,1,8,0:0:0:0:
456,64,129844,1,8,0:0:0:0:
459,172,129957,6,0,P|431:225|376:251,1,123.999995080567,2|8,1:2|0:0,0:0:0:0:
268,264,130295,1,0,1:0:0:0:
200,228,130408,2,0,P|168:220|136:220,1,61.9999975402833,2|8,1:2|0:0,0:0:0:0:
52,336,130633,2,0,P|82:335|112:327,1,61.9999975402833,2|0,1:2|1:0,0:0:0:0:
200,228,130859,5,2,1:2:0:0:
232,156,130972,1,0,1:0:0:0:
228,78,131084,2,0,L|216:17,1,61.9999975402833,10|0,0:0|0:0,0:0:0:0:
88,56,131310,6,0,P|40:100|32:156,1,123.999995080567,2|8,1:2|0:0,0:0:0:0:
68,260,131648,1,0,0:0:0:0:
144,244,131761,2,0,L|208:240,1,61.9999975402833,2|8,1:2|0:0,0:0:0:0:
264,144,131987,2,0,L|328:148,1,61.9999975402833,2|0,1:2|1:0,0:0:0:0:
416,208,132212,1,2,1:2:0:0:
476,256,132325,1,2,1:2:0:0:
372,328,132438,1,12,1:2:0:0:
164,224,132663,6,0,P|176:124|164:52,1,150.000005722046,4|8,1:2|0:0,0:0:0:0:
24,36,133001,2,0,P|72:36|108:24,1,75.0000028610231,0|0,1:0|1:0,0:0:0:0:
28,136,133226,1,0,1:0:0:0:
92,284,133339,1,8,0:0:0:0:
164,224,133452,1,0,1:0:0:0:
16,228,133565,1,8,0:0:0:0:
240,356,133790,5,4,0:2:0:0:
240,356,133902,1,0,2:0:0:0:
240,356,134015,2,0,L|324:348,1,75.0000028610231,10|0,0:0|2:0,0:0:0:0:
432,272,134241,1,0,0:0:0:0:
352,192,134353,2,0,B|344:236|344:236|327:261,1,75.0000028610231,2|8,0:0|0:0,0:0:0:0:
220,184,134579,6,2,B|212:100|212:100|256:48,1,150.000005722046
400,80,134917,1,10,0:0:0:0:
304,128,135030,1,0,0:0:0:0:
400,80,135143,2,2,B|436:84|436:84|472:72|472:72|492:108|492:108|484:148,1,150.000005722046,10|4,0:0|1:0,0:0:0:0:
404,348,135593,6,0,L|328:344,1,75.0000028610231,8|0,0:0|0:0,0:0:0:0:
244,232,135819,1,0,1:0:0:0:
160,288,135931,2,0,P|184:315|219:329,1,75.0000028610231,0|8,1:0|0:0,0:0:0:0:
228,144,136157,1,0,1:0:0:0:
160,288,136270,1,8,0:0:0:0:
344,248,136383,1,8,0:0:0:0:
348,100,136495,5,4,0:0:0:0:
348,100,136607,1,0,2:0:0:0:
348,100,136720,2,0,L|340:24,1,75.0000028610231,10|0,0:0|2:0,0:0:0:0:
172,96,136946,1,0,0:0:0:0:
256,152,137058,2,0,L|248:226,1,75.0000028610231,2|8,0:0|0:0,0:0:0:0:
120,280,137284,6,0,B|84:288|84:288|44:284,1,75.0000028610231,2|0,0:0|2:0,0:0:0:0:
204,348,137510,2,0,B|240:356|240:356|277:352,1,75.0000028610231,2|8,0:0|0:0,0:0:0:0:
400,264,137735,1,2,0:0:0:0:
400,264,137848,2,2,B|392:184|392:184|412:148|412:148|412:120,1,150.000005722046,2|8,0:0|0:0,0:0:0:0:
428,108,138130,1,8,0:0:0:0:
444,96,138186,1,8,0:0:0:0:
460,84,138243,1,8,0:0:0:0:
476,72,138299,1,4,1:0:0:0:
492,268,138524,6,0,L|484:342,1,75.0000028610231,8|0,0:0|1:0,0:0:0:0:
352,328,138750,1,0,1:0:0:0:
244,228,138862,2,0,P|288:232|328:240,1,75.0000028610231,0|8,1:0|0:0,0:0:0:0:
164,313,139088,1,0,1:0:0:0:
168,132,139201,2,0,L|148:224,1,75.0000028610231,8|0,0:0|0:0,0:0:0:0:
68,368,139426,5,4,0:0:0:0:
68,368,139538,1,0,2:0:0:0:
68,368,139651,2,0,L|4:328,1,75.0000028610231,10|0,0:0|2:0,0:0:0:0:
76,212,139877,1,0,0:0:0:0:
239,151,139989,2,0,B|203:135|203:135|159:131,1,75.0000028610231,2|8,0:0|0:0,0:0:0:0:
324,236,140215,6,2,B|348:152|348:152|332:72,1,150.000005722046,2|10,0:0|0:0,0:0:0:0:
335,90,140497,1,8,0:0:0:0:
335,90,140553,1,10,0:0:0:0:
220,60,140666,1,0,0:0:0:0:
345,100,140779,2,0,L|412:80,1,75.0000028610231,10|0,0:0|2:0,0:0:0:0:
216,248,141004,1,4,1:0:0:0:
480,348,141229,6,0,L|492:268,1,75.0000028610231,8|0,0:0|0:0,0:0:0:0:
372,180,141455,1,0,1:0:0:0:
380,276,141567,1,0,1:0:0:0:
512,112,141680,2,0,P|456:120|424:120,1,75.0000028610231,8|0,0:0|1:0,0:0:0:0:
216,248,141906,2,0,P|254:246|291:240,1,75.0000028610231,8|0,0:0|0:0,0:0:0:0:
116,196,142131,6,0,L|20:216,1,75.0000028610231,4|0,0:0|2:0,0:0:0:0:
160,328,142356,1,8,0:0:0:0:
244,164,142469,2,0,B|248:124|248:124|240:88,1,75.0000028610231,2|0,0:0|0:0,0:0:0:0:
108,96,142694,1,0,0:0:0:0:
116,256,142807,1,10,0:0:0:0:
244,164,142920,1,0,0:0:0:0:
192,32,143033,5,2,0:0:0:0:
124,176,143146,1,0,0:0:0:0:
368,160,143258,1,8,0:0:0:0:
192,120,143371,1,2,0:0:0:0:
276,252,143484,6,2,B|319:237|319:237|372:256|372:256|420:236|420:236|468:232,1,200,4|8,0:2|0:0,0:0:0:0:
412,152,143766,1,8,0:0:0:0:
404,177,143822,1,8,0:0:0:0:
397,202,143879,1,8,0:0:0:0:
389,228,143935,1,4,0:0:0:0:
396,356,144837,5,0,0:0:0:0:
256,356,145063,1,0,0:0:0:0:
116,356,145288,1,0,0:0:0:0:
396,28,145514,1,8,0:0:0:0:
40,192,145740,6,2,B|88:208|88:208|132:184|132:184|176:192|176:192|236:184,1,200,6|8,0:0|0:0,0:0:0:0:
348,128,146078,1,0,0:0:0:0:
336,260,146191,2,0,B|320:304|320:304|336:360,1,100,2|0,0:0|0:0,0:0:0:0:
148,288,146416,1,10,0:0:0:0:
180,100,146529,6,2,B|184:48|184:48|200:16|200:16|164:40|164:40|120:28|120:28|80:40,1,200,4|0,0:2|0:0,0:0:0:0:
16,236,146867,2,0,L|120:220,1,100,8|0,0:0|0:0,0:0:0:0:
288,136,147093,1,2,0:0:0:0:
244,256,147206,1,2,0:0:0:0:
177,113,147318,2,0,L|200:16,1,100,8|0,0:0|0:0,0:0:0:0:
379,163,147544,6,2,B|356:204|356:204|331:219|331:219|340:272|340:272|322:308|322:308|324:340,1,200,2|8,0:0|0:0,0:0:0:0:
147,248,147882,2,2,B|195:264|195:264|247:255,1,100,2|0,0:0|0:0,0:0:0:0:
420,256,148108,1,0,0:0:0:0:
343,56,148221,2,2,B|305:89|305:89|286:139,1,100,10|0,0:0|0:0,0:0:0:0:
248,328,148446,1,0,0:0:0:0:
116,140,148559,2,2,B|124:91|124:91|108:43,2,100,2|8|0,0:0|0:0|0:0,0:0:0:0:
124,364,148897,5,2,0:0:0:0:
24,284,149010,1,0,0:0:0:0:
176,228,149123,2,0,L|280:240,1,100,8|0,0:0|0:0,0:0:0:0:
448,344,149349,6,2,B|488:324|488:324|497:284|497:284|476:220|476:220|484:160,1,200,6|8,0:0|0:0,0:0:0:0:
428,56,149687,1,0,0:0:0:0:
316,120,149800,2,0,L|212:132,1,100
208,332,150025,1,10,0:0:0:0:
416,273,150138,6,2,B|405:243|405:243|376:236|376:236|332:248|332:248|288:232|288:232|240:236,1,200,4|2,0:2|0:0,0:0:0:0:
96,276,150476,2,0,B|84:332|84:332|88:376,1,100,8|0,0:0|0:0,0:0:0:0:
156,60,150702,1,2,0:0:0:0:
56,156,150815,1,0,0:0:0:0:
204,160,150927,2,0,L|308:148,1,100,10|0,0:0|0:0,0:0:0:0:
488,156,151153,6,2,B|492:200|492:200|488:224|488:224|492:264,1,100,14|8,0:0|3:0,0:0:0:0:
280,320,151379,1,4,3:0:0:0:
376,80,151491,6,2,B|370:113|370:113|378:145|378:145|366:197,1,119.999996337891,8|8,3:0|3:0,0:0:0:0:
144,236,151717,1,4,3:0:0:0:
272,12,151830,6,2,B|276:48|276:48|268:60|268:60|276:84|276:84|264:108|264:108|264:148,1,139.999995727539,8|4,0:3|0:3,0:0:0:0:
212,372,152055,1,4,0:0:0:0:
56,300,152168,6,2,B|68:255|68:255|64:224|64:224|83:180,1,119.999996337891,10|0,0:0|0:0,0:0:0:0:
260,240,152394,1,2,0:2:0:0:
412,216,152506,2,0,B|464:220|464:220|510:209,1,100,2|2,0:0|0:2,0:0:0:0:
332,28,152732,2,0,B|285:17|285:17|233:21,1,100,10|2,0:0|0:2,0:0:0:0:
44,24,152958,6,2,B|32:36|32:36|36:60|36:60|28:84|28:84|44:124|44:124|20:160|20:160|12:224,1,200,6|8,0:0|0:0,0:0:0:0:
128,320,153296,2,2,B|164:318|164:318|184:312|184:312|228:312,1,100,2|0,0:0|0:0,0:0:0:0:
384,332,153521,1,0,0:0:0:0:
348,100,153634,1,10,0:0:0:0:
208,220,153747,6,2,B|172:220|172:220|151:227|151:227|116:192|116:192|140:148|140:148|136:100,1,200,4|2,0:2|0:0,0:0:0:0:
348,100,154085,2,0,L|452:120,1,100,8|0,0:0|0:0,0:0:0:0:
352,264,154311,1,2,0:0:0:0:
188,312,154424,1,0,0:0:0:0:
36,228,154537,2,0,B|33:170|33:170|53:133,1,100,10|0,0:0|0:0,0:0:0:0:
252,56,154762,5,2,0:0:0:0:
156,156,154875,1,2,0:0:0:0:
165,17,154988,1,8,0:0:0:0:
338,94,155101,5,2,0:0:0:0:
242,195,155213,1,2,0:0:0:0:
252,56,155326,1,0,0:0:0:0:
424,132,155439,5,10,0:0:0:0:
328,233,155552,1,2,0:0:0:0:
338,94,155664,1,0,0:0:0:0:
511,171,155777,5,2,0:0:0:0:
415,272,155890,1,10,0:0:0:0:
424,132,156003,1,0,0:0:0:0:
501,310,156116,5,2,0:0:0:0:
408,368,156228,1,0,0:0:0:0:
302,336,156341,2,0,B|290:332|290:332|290:344|290:344|274:332|274:332|257:333|257:333|236:329|236:329|214:332,1,100,10|0,0:0|0:0,0:0:0:0:
28,360,156567,5,6,0:0:0:0:
260,256,156679,1,0,0:0:0:0:
48,136,156792,1,10,0:0:0:0:
264,224,156905,1,0,0:0:0:0:
64,244,157018,5,0,0:0:0:0:
240,44,157131,1,2,0:0:0:0:
24,116,157243,1,8,0:0:0:0:
268,28,157356,1,6,0:0:0:0:
48,8,157469,5,2,0:0:0:0:
264,136,157582,1,2,0:0:0:0:
84,268,157694,1,8,0:0:0:0:
296,136,157807,1,2,0:0:0:0:
196,292,157920,5,0,0:0:0:0:
240,116,158033,1,2,0:0:0:0:
384,364,158146,1,10,0:0:0:0:
428,188,158258,1,8,0:0:0:0:
188,376,158371,5,8,0:0:0:0:
16,272,158484,2,0,L|120:284,1,100,8|0,0:0|2:0,0:0:0:0:
324,308,158709,5,8,0:0:0:0:
496,204,158822,2,0,L|392:216,1,100,8|0,0:0|2:0,0:0:0:0:
188,240,159048,5,8,0:0:0:0:
16,136,159161,2,0,L|120:148,1,100,8|0,0:0|2:0,0:0:0:0:
324,172,159386,5,8,0:0:0:0:
496,68,159499,2,0,L|392:80,1,100,8|0,0:0|2:0,0:0:0:0:
188,104,159724,5,8,0:0:0:0:
188,240,159950,1,0,2:0:0:0:
324,308,160176,6,0,P|372:308|416:280,1,100,4|0,0:0|0:0,0:0:0:0:
416,204,160514,2,0,L|264:224,1,150,0|0,1:0|1:0,0:0:0:0:
76,172,161078,1,2,0:0:0:0:
132,340,161303,1,0,1:0:0:0:
188,199,161529,2,0,P|187:150|168:104,1,100,2|0,0:0|0:0,0:0:0:0:
48,20,161980,6,0,P|28:65|28:115,1,100,2|0,1:2|0:0,0:0:0:0:
76,172,162318,1,0,1:0:0:0:
76,172,162431,1,2,0:0:0:0:
244,32,162657,1,0,1:0:0:0:
452,96,162882,2,0,L|352:99,1,100,2|0,0:0|1:0,0:0:0:0:
167,103,163334,1,4,0:0:0:0:
152,216,163559,1,0,0:0:0:0:
116,324,163785,6,0,P|45:309|76:264,1,150,2|0,1:2|1:0,0:0:0:0:
152,216,164236,2,0,L|256:220,1,100,2|0,0:0|1:0,0:0:0:0:
384,208,164687,1,2,0:0:0:0:
323,347,164912,1,0,1:0:0:0:
464,144,165138,2,0,P|482:190|480:239,1,100,2|0,0:0|0:0,0:0:0:0:
232,304,165589,5,2,1:2:0:0:
284,96,165815,1,2,0:0:0:0:
348,136,165927,1,2,1:2:0:0:
180,156,166153,1,2,0:0:0:0:
177,231,166265,1,2,1:2:0:0:
76,95,166491,1,2,0:0:0:0:
9,129,166603,1,2,0:0:0:0:
72,171,166717,1,0,1:0:0:0:
256,28,166943,5,2,0:0:0:0:
332,20,167055,1,2,0:0:0:0:
408,28,167168,2,0,L|472:36,1,50,0|2,0:0|0:0,0:0:0:0:
508,272,167394,6,0,L|492:336,1,59.9999981689454,2|0,0:0|3:0,0:0:0:0:
349,334,167619,2,0,L|364:276,1,59.9999981689454,2|0,0:0|3:0,0:0:0:0:
452,192,167845,2,0,L|466:133,1,59.9999981689454,2|0,0:0|3:0,0:0:0:0:
322,137,168070,2,0,L|307:195,1,59.9999981689454,2|0,0:0|3:0,0:0:0:0:
188,368,168296,6,0,L|112:376,1,69.9999978637696,2|2,0:0|3:0,0:0:0:0:
0,288,168521,2,0,L|76:296,1,69.9999978637696,2|2,0:0|3:0,0:0:0:0:
236,272,168747,2,0,L|160:280,1,69.9999978637696,2|2,0:0|3:0,0:0:0:0:
48,192,168972,2,0,L|124:200,1,69.9999978637696,2|2,0:0|3:0,0:0:0:0:
322,137,169198,6,0,L|390:85,1,80,2|0,0:0|1:0,0:0:0:0:
400,280,169424,2,0,L|468:228,1,80,2|0,0:0|1:0,0:0:0:0:
236,272,169649,2,0,L|304:220,1,80,2|0,0:0|1:0,0:0:0:0:
158,129,169875,2,0,L|226:77,1,80,2|0,0:0|1:0,0:0:0:0:
484,16,170100,6,0,L|472:112,1,89.9999972534181,2|2,0:0|1:3,0:0:0:0:
352,372,170326,2,0,L|340:276,1,89.9999972534181,2|2,0:0|1:3,0:0:0:0:
160,12,170552,2,0,L|172:108,1,89.9999972534181,2|2,1:2|1:3,0:0:0:0:
28,368,170777,2,0,L|40:272,1,89.9999972534181,10|8,0:0|0:0,0:0:0:0:
340,24,171003,5,4,0:0:0:0:
172,360,171228,1,4,0:2:0:0:
12,24,171454,1,8,0:0:0:0:
284,192,171679,5,0,0:0:0:0:
396,148,171792,2,0,L|496:100,1,100,8|0,0:0|2:0,0:0:0:0:
296,308,172018,1,0,0:0:0:0:
408,264,172131,2,0,L|508:216,1,100,8|0,0:0|2:0,0:0:0:0:
299,74,172356,5,0,0:0:0:0:
284,192,172469,1,0,0:0:0:0:
396,148,172582,2,2,B|440:128|440:128|389:107,1,100,10|0,0:0|2:0,0:0:0:0:
64,24,172807,6,2,B|60:56|60:56|64:72|64:72|60:88|60:88|56:132,1,100,4|0,0:2|2:0,0:0:0:0:
52,256,173033,1,0,0:0:0:0:
160,20,173146,6,2,B|156:52|156:52|160:68|160:68|156:84|156:84|152:128,1,100,4|0,0:2|2:0,0:0:0:0:
148,252,173372,1,0,0:0:0:0:
256,16,173484,6,2,B|252:48|252:48|256:64|256:64|252:80|252:80|248:124,1,100,4|0,0:2|2:0,0:0:0:0:
244,248,173710,5,2,0:0:0:0:
148,252,173935,1,2,0:0:0:0:
52,256,174161,1,2,0:0:0:0:
460,128,174386,1,8,1:0:0:0:
361,368,174612,6,0,P|270:340|243:247,1,200,4|8,1:0|1:0,0:0:0:0:
344,44,174950,1,2,1:2:0:0:
356,164,175063,1,0,1:0:0:0:
224,100,175176,1,0,1:0:0:0:
331,280,175288,2,0,P|302:319|257:339,1,100,8|0,1:0|0:0,0:0:0:0:
32,260,175514,6,0,L|229:231,1,200,2|8,1:2|1:0,0:0:0:0:
196,28,175852,1,0,1:0:0:0:
136,168,175965,1,0,1:0:0:0:
256,104,176078,1,0,1:0:0:0:
104,72,176191,2,0,P|58:53|29:13,1,100,8|0,1:0|0:0,0:0:0:0:
347,59,176416,6,0,P|356:108|343:156,1,100,2|0,1:2|0:0,0:0:0:0:
236,296,176642,1,8,0:0:0:0:
96,132,176755,2,0,P|144:123|192:136,1,100,2|0,1:2|1:0,0:0:0:0:
96,304,176980,1,2,1:2:0:0:
312,104,177093,2,0,L|308:216,1,100,8|0,1:0|0:0,0:0:0:0:
276,368,177318,5,2,1:2:0:0:
200,228,177431,1,0,1:0:0:0:
480,260,177544,2,0,P|416:272|372:272,1,100,12|0,1:2|0:0,0:0:0:0:
216,36,177770,1,0,1:0:0:0:
400,132,177882,1,2,1:2:0:0:
200,228,177995,1,8,1:0:0:0:
356,47,178108,1,0,1:0:0:0:
156,143,178221,6,0,P|119:177|105:225,1,100,4|0,1:0|0:0,0:0:0:0:
200,368,178446,1,8,1:0:0:0:
308,256,178559,2,0,L|412:264,1,100,2|0,1:2|1:0,0:0:0:0:
484,96,178785,1,0,1:0:0:0:
484,96,178841,1,0,1:0:0:0:
484,96,178897,2,0,L|380:104,1,100,8|0,1:0|2:0,0:0:0:0:
200,228,179123,5,2,1:2:0:0:
236,88,179236,1,0,1:0:0:0:
340,208,179349,1,8,0:0:0:0:
204,320,179461,1,0,1:0:0:0:
260,164,179574,1,0,1:0:0:0:
352,308,179687,1,0,1:0:0:0:
124,368,179800,2,0,P|74:359|40:324,1,100,8|0,1:0|0:0,0:0:0:0:
52,40,180025,6,0,B|104:-8|164:28|164:28|125:81|158:140,1,239.999992675781,4|0,1:2|1:0,0:0:0:0:
392,236,180364,2,0,B|460:252|500:204|500:204|460:156|392:164,1,239.999992675781,4|0,1:2|1:0,0:0:0:0:
244,332,180702,2,0,P|148:344|212:256,1,239.999992675781,4|0,1:2|1:0,0:0:0:0:
349,3,181040,2,0,B|358:55|308:92|308:92|263:153|294:220,1,239.999992675781,4|0,1:2|1:0,0:0:0:0:
504,348,181379,5,8,1:0:0:0:
391,164,181491,1,8,1:0:0:0:
340,344,181604,1,8,1:0:0:0:
508,144,181717,1,8,1:0:0:0:
259,15,181830,6,0,P|164:26|120:112,1,200,4|8,1:0|1:0,0:0:0:0:
256,272,182168,2,0,P|320:276|360:256,1,100,2|0,1:2|1:0,0:0:0:0:
224,112,182394,1,0,1:0:0:0:
136,252,182506,2,0,L|128:356,1,100,8|0,1:0|0:0,0:0:0:0:
20,216,182732,6,0,P|9:115|36:16,1,200,2|8,1:2|1:0,0:0:0:0:
224,12,183070,1,0,1:0:0:0:
176,176,183183,1,0,1:0:0:0:
104,84,183296,1,0,1:0:0:0:
264,112,183409,2,0,L|364:108,1,100,8|0,1:0|0:0,0:0:0:0:
328,348,183634,6,0,P|278:347|237:321,1,100,2|0,1:2|0:0,0:0:0:0:
476,128,183860,1,8,1:0:0:0:
504,272,183973,2,0,L|496:371,1,100,0|0,1:0|0:0,0:0:0:0:
308,239,184198,1,2,1:2:0:0:
392,56,184311,2,0,L|384:155,1,100,8|0,1:0|0:0,0:0:0:0:
164,332,184537,5,2,1:2:0:0:
308,239,184649,1,0,1:0:0:0:
164,108,184762,2,0,L|60:120,1,100,12|0,1:2|0:0,0:0:0:0:
32,312,184988,1,0,1:0:0:0:
188,204,185100,1,2,1:2:0:0:
272,344,185213,1,8,1:0:0:0:
296,348,185269,1,8,1:0:0:0:
321,347,185325,1,8,1:0:0:0:
345,341,185382,1,8,1:0:0:0:
367,330,185439,6,0,P|415:246|379:156,1,200,4|8,1:0|1:0,0:0:0:0:
248,92,185777,1,0,1:0:0:0:
136,260,185890,1,0,1:0:0:0:
308,239,186003,1,0,1:0:0:0:
162,33,186115,6,0,P|144:80|152:129,1,100,8|0,1:0|0:0,0:0:0:0:
220,280,186341,1,0,1:0:0:0:
100,372,186454,1,0,1:0:0:0:
12,248,186567,2,0,L|32:144,1,100,8|0,0:0|1:0,0:0:0:0:
232,176,186792,1,0,1:0:0:0:
372,220,186905,1,0,1:0:0:0:
488,132,187018,2,0,P|512:68|504:28,1,100,8|0,1:0|0:0,0:0:0:0:
228,56,187243,6,0,P|295:44|326:17,1,100,2|0,1:2|0:0,0:0:0:0:
148,236,187469,1,8,1:0:0:0:
307,240,187582,2,0,P|329:195|327:146,1,100,2|0,1:2|1:0,0:0:0:0:
96,136,187807,1,0,1:0:0:0:
96,136,187864,1,0,0:0:0:0:
96,136,187920,1,8,1:0:0:0:
219,16,188033,6,0,L|343:28,1,100,8|0,1:0|1:0,0:0:0:0:
472,124,188258,1,0,1:0:0:0:
228,280,188371,2,0,L|276:176,1,100,12|0,1:2|0:0,0:0:0:0:
424,28,188597,1,2,1:2:0:0:
456,229,188709,1,0,1:0:0:0:
292,351,188822,1,8,1:0:0:0:
271,366,188878,1,8,1:0:0:0:
248,374,188934,1,8,1:0:0:0:
223,376,188991,1,8,1:0:0:0:
198,372,189048,6,0,L|96:360,1,100,4|0,1:0|0:0,0:0:0:0:
140,128,189273,1,8,1:0:0:0:
288,244,189386,2,0,P|340:236|392:212,1,100,0|0,1:0|1:0,0:0:0:0:
264,48,189612,1,0,1:0:0:0:
160,268,189724,1,8,1:0:0:0:
32,156,189837,6,0,P|28:106|50:62,1,100,2|0,1:2|1:0,0:0:0:0:
164,12,190063,1,0,1:0:0:0:
308,148,190176,1,8,1:0:0:0:
168,152,190288,1,0,1:0:0:0:
264,48,190401,1,2,1:2:0:0:
276,244,190514,1,0,1:0:0:0:
108,272,190627,2,0,L|8:260,1,100,8|0,1:0|0:0,0:0:0:0:
123,64,190852,6,0,P|172:55|220:69,1,100,2|0,1:2|0:0,0:0:0:0:
280,328,191078,1,8,0:0:0:0:
455,272,191191,2,0,P|470:221|460:175,1,100,0|0,1:0|1:0,0:0:0:0:
220,176,191416,1,2,1:2:0:0:
368,220,191529,1,8,1:0:0:0:
396,19,191642,6,0,P|352:43|322:83,1,100,2|0,1:2|1:0,0:0:0:0:
280,248,191867,1,0,1:0:0:0:
510,154,191980,2,0,L|402:166,1,100,12|0,1:2|0:0,0:0:0:0:
200,128,192206,1,0,1:0:0:0:
108,220,192318,1,0,1:0:0:0:
220,348,192431,2,0,P|265:366|314:359,1,100,12|0,1:2|0:0,0:0:0:0:
108,220,192657,6,0,L|8:216,1,100,4|0,1:0|0:0,0:0:0:0:
96,356,192882,1,8,1:0:0:0:
248,240,192995,2,0,L|348:260,1,100,0|0,1:0|1:0,0:0:0:0:
288,56,193221,1,2,1:2:0:0:
248,240,193334,1,8,1:0:0:0:
460,156,193446,6,0,P|408:144|356:144,1,100,2|0,1:2|1:0,0:0:0:0:
208,144,193672,1,0,1:0:0:0:
200,344,193785,1,8,1:0:0:0:
324,248,193897,1,2,1:2:0:0:
128,200,194010,1,2,1:2:0:0:
256,288,194123,1,0,1:0:0:0:
312,142,194236,2,0,P|299:94|267:57,1,100,8|0,1:0|0:0,0:0:0:0:
108,84,194461,5,2,1:2:0:0:
36,188,194574,1,0,1:0:0:0:
208,220,194687,1,8,1:0:0:0:
24,335,194800,2,0,P|105:285|193:324,1,200,8|0,1:0|1:0,0:0:0:0:
360,308,195138,1,8,1:0:0:0:
264,152,195251,6,0,P|266:102|295:62,1,100,2|0,1:2|1:0,0:0:0:0:
456,36,195476,1,0,1:0:0:0:
458,323,195589,2,0,L|358:307,1,100,12|0,1:2|0:0,0:0:0:0:
208,220,195815,1,0,1:0:0:0:
112,380,195927,1,0,1:0:0:0:
8,224,196040,1,8,1:0:0:0:
4,199,196096,1,8,1:0:0:0:
6,174,196152,1,8,1:0:0:0:
11,150,196209,1,8,1:0:0:0:
22,126,196266,6,0,P|60:95|109:91,1,100,4|0,1:0|0:0,0:0:0:0:
360,124,196491,1,8,1:0:0:0:
207,291,196604,2,0,P|208:242|219:193,1,100,0|0,1:0|0:0,0:0:0:0:
236,48,196830,1,0,1:0:0:0:
424,48,196943,1,8,1:0:0:0:
416,240,197055,6,0,P|366:248|317:254,1,100,2|0,1:2|1:0,0:0:0:0:
100,192,197281,1,0,1:0:0:0:
156,376,197394,1,8,1:0:0:0:
168,355,197450,1,8,1:0:0:0:
181,334,197506,1,8,1:0:0:0:
194,313,197563,1,8,1:0:0:0:
207,291,197619,1,2,1:2:0:0:
212,116,197732,1,0,1:0:0:0:
4,256,197845,1,8,1:0:0:0:
27,262,197901,1,8,1:0:0:0:
51,269,197957,1,8,1:0:0:0:
74,276,198014,1,8,1:0:0:0:
99,283,198070,5,4,1:0:0:0:
292,176,198183,1,8,1:0:0:0:
244,372,198296,1,8,1:3:0:0:
128,128,198409,2,0,P|139:79|171:41,1,100,8|4,1:3|1:3,0:0:0:0:
432,348,198634,2,0,P|389:374|340:378,1,100,8|0,1:0|0:0,0:0:0:0:
312,8,198860,6,0,L|509:39,1,200,4|0,1:2|1:0,0:0:0:0:
390,191,199198,2,0,L|291:175,1,100,8|0,1:0|0:0,0:0:0:0:
170,41,199424,1,2,1:2:0:0:
48,80,199537,1,0,1:0:0:0:
76,204,199649,2,0,P|128:224|180:212,1,100,8|0,1:0|0:0,0:0:0:0:
315,76,199875,6,0,L|414:60,1,100,2|0,1:2|0:0,0:0:0:0:
291,272,200100,1,8,1:0:0:0:
187,100,200213,2,0,L|88:84,1,100,2|0,1:2|1:0,0:0:0:0:
123,320,200439,1,0,1:0:0:0:
315,376,200552,2,0,P|359:354|389:315,1,100,8|0,1:0|0:0,0:0:0:0:
315,76,200777,2,0,B|295:128|303:176|303:176|311:224|291:276,1,200,4|0,1:2|0:0,0:0:0:0:
292,272,201228,5,8,0:0:0:0:
214,208,201340,1,8,0:0:0:0:
130,263,201453,1,8,0:0:0:0:
155,360,201566,1,8,0:0:0:0:
256,364,201679,5,0,1:0:0:0:
56,257,202018,1,8,0:0:0:0:
95,35,202356,1,8,0:0:0:0:
318,4,202694,1,8,0:0:0:0:
417,206,203033,1,8,0:0:0:0:
256,364,203258,5,0,1:0:0:0:
256,364,203371,1,0,0:0:0:0:
256,364,203484,5,4,1:2:0:0:
332,296,203597,2,0,P|369:293|404:304,1,75.0000028610231,2|0,0:0|0:0,0:0:0:0:
196,260,203822,1,8,1:0:0:0:
264,184,203935,2,0,P|266:146|255:111,1,75.0000028610231,2|0,0:0|0:0,0:0:0:0:
248,328,204161,5,8,1:0:0:0:
324,260,204274,2,0,P|361:257|396:268,1,75.0000028610231,2|0,0:0|0:0,0:0:0:0:
188,224,204499,1,8,1:0:0:0:
256,148,204612,2,0,P|258:110|247:75,1,75.0000028610231,2|0,0:0|0:0,0:0:0:0:
239,292,204837,6,0,P|204:306|167:306,1,75.0000028610231,8|0,1:0|0:0,0:0:0:0:
68,288,205063,1,0,1:0:0:0:
68,288,205176,1,0,0:0:0:0:
68,288,205288,5,4,1:2:0:0:
184,336,205401,2,0,P|220:345|257:341,1,75.0000028610231,2|0,0:0|0:0,0:0:0:0:
288,188,205627,1,8,1:0:0:0:
166,216,205740,2,0,P|161:178|171:142,1,75.0000028610231,2|0,0:0|0:0,0:0:0:0:
272,264,205965,5,8,1:0:0:0:
388,312,206078,2,0,P|424:321|461:317,1,75.0000028610231,2|0,0:0|0:0,0:0:0:0:
411,161,206304,1,8,1:0:0:0:
288,188,206417,2,0,P|283:150|293:114,1,75.0000028610231,2|0,0:0|0:0,0:0:0:0:
387,235,206642,6,0,P|425:235|459:221,1,75.0000028610231,8|0,1:0|0:0,0:0:0:0:
372,80,206867,1,0,1:0:0:0:
372,80,206980,1,0,0:0:0:0:
372,80,207093,5,4,1:2:0:0:
227,36,207206,2,0,P|257:14|294:7,1,75.0000028610231,2|0,0:0|0:0,0:0:0:0:
440,8,207431,1,8,1:0:0:0:
484,152,207544,2,0,P|505:121|512:84,1,75.0000028610231,2|0,0:0|0:0,0:0:0:0:
340,184,207770,5,8,1:0:0:0:
192,151,207883,2,0,P|225:136|263:135,1,75.0000028610231,2|0,0:0|0:0,0:0:0:0:
411,167,208108,5,8,1:0:0:0:
263,135,208221,2,0,P|299:119|335:119,1,75.0000028610231,2|0,0:0|0:0,0:0:0:0:
80,340,208446,1,12,1:2:0:0:
80,340,208897,5,4,1:0:0:0:
32,224,209010,1,0,0:0:0:0:
40,100,209123,2,0,P|73:51|117:25,1,100,10|0,0:0|0:0,0:0:0:0:
252,184,209349,1,0,1:0:0:0:
156,292,209462,1,0,0:0:0:0:
32,224,209574,1,10,0:0:0:0:
198,38,209687,6,2,B|228:64|229:105|229:105|165:126|171:204,1,200,4|0,1:2|0:0,0:0:0:0:
332,320,210025,1,8,0:0:0:0:
404,144,210138,1,2,0:0:0:0:
252,184,210251,1,2,1:0:0:0:
364,236,210364,1,0,0:0:0:0:
484,207,210476,2,0,P|503:162|501:112,1,100,8|0,0:0|0:0,0:0:0:0:
392,20,210702,5,0,1:0:0:0:
284,74,210815,1,0,0:0:0:0:
179,15,210927,2,0,P|131:7|82:15,1,100,10|0,0:0|0:0,0:0:0:0:
219,159,211153,2,0,P|265:176|315:176,1,100
296,4,211379,1,10,0:0:0:0:
132,99,211491,6,2,B|106:149|119:190|119:190|96:235|96:235|108:291,1,200,4|0,0:2|0:0,0:0:0:0:
280,348,211830,1,8,0:0:0:0:
352,156,211943,1,2,0:0:0:0:
192,248,212055,1,2,0:0:0:0:
372,236,212168,1,0,0:0:0:0:
176,368,212281,1,8,0:0:0:0:
236,132,212394,1,8,0:0:0:0:
360,320,212506,5,4,0:0:0:0:
476,288,212619,1,0,0:0:0:0:
508,172,212732,2,0,L|488:68,1,100,10|0,0:0|0:0,0:0:0:0:
344,176,212958,1,0,0:0:0:0:
440,360,213070,1,2,0:0:0:0:
508,172,213183,1,10,0:0:0:0:
288,268,213296,6,2,B|252:241|243:206|243:206|192:252|128:217,1,200,4|0,0:2|0:0,0:0:0:0:
292,16,213634,1,8,0:0:0:0:
344,176,213747,1,2,1:0:0:0:
180,140,213860,1,2,0:0:0:0:
292,16,213973,1,0,0:0:0:0:
432,104,214085,2,0,P|453:148|455:198,1,100,8|0,0:0|0:0,0:0:0:0:
396,344,214311,5,0,0:0:0:0:
276,376,214424,1,0,0:0:0:0:
160,336,214537,2,0,L|48:324,1,100,10|0,0:0|0:0,0:0:0:0:
324,240,214762,1,0,0:0:0:0:
160,336,214875,1,2,0:0:0:0:
232,160,214988,1,10,0:0:0:0:
48,200,215100,6,2,B|14:197|3:175|3:175|76:128|28:36,1,200,4|0,1:2|0:0,0:0:0:0:
308,12,215439,2,0,P|317:71|313:123,1,100,10|0,0:0|0:0,0:0:0:0:
236,264,215664,2,0,P|180:288|129:298,1,100,2|8,0:0|0:0,0:0:0:0:
320,372,215890,2,0,P|380:373|431:364,1,100,2|8,0:0|0:0,0:0:0:0:
500,188,216115,5,4,0:0:0:0:
412,100,216228,1,0,0:0:0:0:
288,108,216341,2,0,L|188:116,1,100,10|0,0:0|0:0,0:0:0:0:
380,288,216567,1,0,0:0:0:0:
412,100,216679,1,2,0:0:0:0:
264,224,216792,1,10,0:0:0:0:
485,217,216905,6,2,B|504:176|504:176|496:141|496:141|520:79|476:31,1,200,4|0,0:2|0:0,0:0:0:0:
288,64,217243,2,0,P|240:48|204:16,1,100,10|0,0:0|0:0,0:0:0:0:
397,162,217469,1,0,0:0:0:0:
344,284,217582,1,0,0:0:0:0:
184,176,217694,2,0,L|296:180,1,100,10|0,0:0|0:0,0:0:0:0:
124,336,217920,6,0,P|78:317|47:278,1,100,2|0,0:0|0:0,0:0:0:0:
40,92,218146,1,8,0:0:0:0:
188,60,218258,2,0,L|300:64,1,100,2|0,0:0|0:0,0:0:0:0:
392,196,218484,2,0,L|280:200,1,100,2|8,0:0|0:0,0:0:0:0:
504,8,218709,6,2,B|502:22|502:22|507:34|507:34|503:54|503:54|509:74|509:74|498:104|498:104|512:152|512:152|496:200,1,200,4|2,0:2|0:0,0:0:0:0:
415,349,219048,2,0,P|354:342|324:320,1,100,8|0,0:0|0:0,0:0:0:0:
196,188,219273,1,2,0:0:0:0:
272,96,219386,1,2,0:0:0:0:
388,68,219499,2,0,L|502:77,1,100,8|0,0:0|0:0,0:0:0:0:
156,10,219724,6,2,P|134:61|142:104,1,100,6|0,0:0|0:0,0:0:0:0:
200,276,219950,1,8,0:0:0:0:
416,172,220063,2,2,L|302:181,1,100,2|0,0:0|0:0,0:0:0:0:
168,192,220288,1,2,0:0:0:0:
324,320,220401,1,8,0:0:0:0:
344,72,220514,1,4,0:2:0:0:
232,136,220627,5,0,0:0:0:0:
252,256,220740,1,0,0:0:0:0:
272,376,220852,1,8,0:0:0:0:
29,344,220965,5,2,0:0:0:0:
54,188,221078,1,2,0:0:0:0:
80,32,221191,1,10,0:0:0:0:
346,128,221303,5,8,0:0:0:0:
133,309,221416,1,8,0:0:0:0:
204,104,221529,5,8,0:0:0:0:
420,200,221641,2,0,P|378:226|329:228,1,100,2|0,0:0|0:0,0:0:0:0:
132,232,221867,5,8,0:0:0:0:
304,108,221980,2,0,P|295:59|263:22,1,100,2|0,0:0|0:0,0:0:0:0:
102,159,222205,5,8,0:0:0:0:
328,227,222318,2,0,P|289:257|241:265,1,100,2|0,0:0|0:0,0:0:0:0:
46,294,222543,5,8,0:0:0:0:
202,150,222656,2,0,P|188:102|151:69,1,100,2|0,0:0|0:0,0:0:0:0:
0,214,222882,5,8,0:0:0:0:
256,376,222995,1,8,0:0:0:0:
512,214,223107,5,8,0:0:0:0:
448,12,223220,2,0,P|432:60|448:112,1,100,2|0,0:0|0:0,0:0:0:0:
364,368,223446,5,8,0:0:0:0:
296,180,223559,2,0,P|309:132|346:100,1,100,2|0,0:0|0:0,0:0:0:0:
0,170,223784,5,8,0:0:0:0:
64,372,223897,2,0,P|80:324|64:272,1,100,2|0,0:0|0:0,0:0:0:0:
148,16,224123,5,8,0:0:0:0:
216,204,224236,2,0,P|202:251|165:283,1,100,2|0,0:0|0:0,0:0:0:0:
389,102,224461,1,8,0:0:0:0:
419,119,224517,1,8,0:0:0:0:
450,136,224574,1,8,0:0:0:0:
481,153,224630,1,8,0:0:0:0:
512,170,224686,6,0,P|512:243|461:295,1,150.000005722046,2|0,0:0|0:0,0:0:0:0:
332,97,225025,2,0,P|396:133|416:204,1,150.000005722046,2|0,0:0|0:0,0:0:0:0:
240,200,225363,2,0,P|275:188|312:194,1,75.0000028610231,2|0,0:0|0:0,0:0:0:0:
284,292,225589,1,0,0:0:0:0:
204,352,225701,1,0,0:0:0:0:
104,360,225814,1,0,0:0:0:0:
104,359,226040,5,8,0:0:0:0:
128,354,226096,1,8,0:0:0:0:
150,342,226152,1,8,0:0:0:0:
169,326,226209,1,8,0:0:0:0:
183,305,226265,5,10,0:0:0:0:
416,296,226378,1,0,0:0:0:0:
184,256,226490,5,10,0:0:0:0:
434,227,226603,1,0,0:0:0:0:
187,209,226716,5,10,0:0:0:0:
453,159,226829,1,0,0:0:0:0:
190,161,226942,5,10,0:0:0:0:
473,91,227055,1,0,0:0:0:0:
192,115,227168,5,10,0:0:0:0:
492,24,227280,1,0,0:0:0:0:
195,67,227393,5,10,0:0:0:0:
434,24,227506,1,0,0:0:0:0:
198,20,227619,5,10,0:0:0:0:
376,24,227732,1,0,0:0:0:0:
137,43,227844,6,2,B|198:20|198:20|183:305,1,350,10|0,0:0|2:0,0:0:0:0:
