osu file format v14

[General]
AudioFilename: 14 - RPG.mp3
AudioLeadIn: 0
PreviewTime: 8212
Countdown: 0
SampleSet: Soft
StackLeniency: 0.3
Mode: 0
LetterboxInBreaks: 0
WidescreenStoryboard: 1

[Editor]
Bookmarks: 110169,143888
DistanceSpacing: 0.1
BeatDivisor: 4
GridSize: 4
TimelineZoom: 2.499999

[Metadata]
Title:Seventeen RPG
TitleUnicode:セブンティーンRPG
Artist:charon
ArtistUnicode:カロン
Creator:Zero__wind
Version:Extra
Source:
Tags:Vocaloid 星奏P 17 Gumi rui pishifat pkk pkmnyab LOST GIRL IN MY HEAD
BeatmapID:682994
BeatmapSetID:304888

[Difficulty]
HPDrainRate:6
CircleSize:4
OverallDifficulty:8.3
ApproachRate:9.2
SliderMultiplier:1.8
SliderTickRate:1

[Events]
//Background and Video events
0,0,"bg.jpg",0,0
//Break Periods
//Storyboard Layer 0 (Background)
//Storyboard Layer 1 (Fail)
//Storyboard Layer 2 (Pass)
//Storyboard Layer 3 (Foreground)
//Storyboard Sound Samples

[TimingPoints]
1163,225.563909774436,4,2,1,40,1,0
1163,-200,4,2,1,40,0,0
6576,-100,4,1,1,80,0,0
22817,-133.333333333333,4,2,1,70,0,0
37253,-100,4,1,1,80,0,0
44471,-133.333333333333,4,2,1,70,0,0
58907,-200,4,2,1,70,0,0
61839,-133.333333333333,4,2,1,70,0,0
62516,-200,4,2,1,70,0,0
63644,-133.333333333333,4,2,1,70,0,0
64320,-200,4,2,1,70,0,0
69734,-133.333333333333,4,2,1,70,0,0
73343,-114.942528735632,4,2,1,70,0,0
75260,-114.942528735632,4,2,1,80,0,0
76501,-114.942528735632,4,2,1,50,0,0
76952,-100,4,2,1,80,0,1
82366,-83.3333333333333,4,2,1,80,0,1
83719,-100,4,2,1,80,0,1
95899,-100,4,2,1,80,0,0
96125,-100,4,2,1,40,0,0
96350,-100,4,2,1,60,0,0
96802,-133.333333333333,4,1,1,80,0,0
103569,-133.333333333333,4,1,1,65,0,0
103794,-133.333333333333,4,1,1,80,0,0
104020,-161.290322580645,4,2,1,70,0,0
110787,-100,4,2,1,90,0,0
111012,-100,4,2,1,70,0,0
111125,-100,4,2,1,90,0,0
111350,-100,4,2,1,80,0,0
111463,-114.942528735632,4,1,1,80,0,0
118681,-114.942528735632,4,1,1,100,0,0
118907,225.563909774436,6,2,1,60,1,0
118907,-200,4,2,1,60,0,0
120260,225.563909774436,4,2,1,60,1,0
120485,-161.290322580645,4,2,1,70,0,0
121162,225.563909774436,7,2,1,80,1,0
121162,-133.333333333333,7,2,1,80,0,0
122740,225.563909774436,4,2,1,80,1,0
122740,-133.333333333333,7,2,1,80,0,0
123642,225.563909774436,6,2,1,80,1,0
123642,-133.333333333333,6,2,1,80,0,0
124544,-200,3,2,1,70,0,0
124995,225.563909774436,4,2,1,70,1,0
124995,-161.290322580645,4,2,1,70,0,0
125897,225.563909774436,6,2,1,70,1,0
125897,-161.290322580645,4,2,1,70,0,0
132663,225.563909774436,5,2,1,70,1,0
132663,-133.333333333333,4,2,1,70,0,0
133790,225.563909774436,4,1,1,70,1,0
133790,-133.333333333333,4,1,1,70,0,0
134692,225.563909774436,3,1,1,70,1,0
134692,-133.333333333333,4,1,1,70,0,0
135368,225.563909774436,5,2,1,70,1,0
135368,-133.333333333333,4,2,1,70,0,0
136495,225.563909774436,4,1,1,70,1,0
136495,-133.333333333333,4,1,1,70,0,0
138299,225.563909774436,5,2,1,70,1,0
138299,-133.333333333333,4,2,1,70,0,0
139426,225.563909774436,4,1,1,70,1,0
139426,-133.333333333333,4,1,1,70,0,0
140328,225.563909774436,3,1,1,70,1,0
140328,-133.333333333333,4,1,1,70,0,0
141004,225.563909774436,5,2,1,70,1,0
141004,-133.333333333333,4,2,1,70,0,0
142131,225.563909774436,4,1,1,70,1,0
142131,-133.333333333333,4,1,1,70,0,0
143484,-100,4,1,1,70,0,0
145740,-100,4,1,1,80,0,0
151491,-83.3333333333333,4,1,1,80,0,0
151830,-71.4285714285714,4,1,1,80,0,0
152168,-83.3333333333333,4,1,1,80,0,0
152506,-100,4,1,1,80,0,0
160176,-200,4,2,1,60,0,0
160514,-200,4,2,1,40,0,0
167394,-166.666666666667,4,2,1,40,0,0
168296,-142.857142857143,4,2,1,50,0,0
169198,-125,4,2,1,60,0,0
170100,-111.111111111111,4,2,1,70,0,0
171003,-100,4,1,1,80,0,0
173709,-100,4,2,1,60,0,0
174386,-100,4,2,1,70,0,0
174612,-100,4,2,1,80,0,1
180025,-83.3333333333333,4,2,1,80,0,1
181379,-100,4,2,1,80,0,1
200777,-100,4,2,1,80,0,0
201003,-100,4,2,1,40,0,0
201228,-100,4,2,1,60,0,0
201679,-133.333333333333,4,2,1,60,0,0
208897,-100,4,1,1,80,0,0
221529,225.563909774436,7,1,1,80,1,0
224686,-133.333333333333,7,2,1,60,0,0
226040,-100,7,1,1,80,0,0
227901,-100,7,1,1,60,0,0
229198,-100,7,1,1,50,0,0
229423,-100,7,1,1,40,0,0

[Colours]
Combo1 : 172,101,203
Combo2 : 158,182,118
Combo3 : 248,106,64
Combo4 : 21,178,255

[HitObjects]
156,272,1163,6,0,P|212:296|288:288,1,135,0|2,0:0|0:0,0:0:0:0:
420,188,1839,2,0,P|448:284|424:360,1,180,2|0,0:0|0:0,0:0:0:0:
304,196,2516,5,2,0:0:0:0:
336,112,2741,1,2,0:0:0:0:
308,228,2967,6,0,P|252:252|176:244,1,135,0|2,0:0|0:0,0:0:0:0:
44,144,3644,2,0,P|16:240|40:316,1,180,2|0,0:0|0:0,0:0:0:0:
160,152,4320,5,2,0:0:0:0:
196,124,4433,2,0,P|209:105|216:80,1,45,2|0,0:0|0:0,0:0:0:0:
128,148,4659,1,2,0:0:0:0:
160,180,4772,6,0,P|216:204|292:196,1,135,0|2,0:0|0:0,0:0:0:0:
424,96,5448,2,0,P|452:192|428:268,2,180,2|2|0,0:0|0:0|0:0,0:0:0:0:
312,296,6576,6,0,P|264:288|232:262,1,90,2|0,0:0|2:0,0:0:0:0:
124,240,6802,2,0,P|168:219|192:186,1,90,2|0,0:0|2:0,0:0:0:0:
300,164,7027,2,0,P|262:133|247:94,1,90,2|0,0:0|2:0,0:0:0:0:
144,104,7253,2,0,P|172:64|176:23,1,90,2|0,0:0|2:0,0:0:0:0:
244,148,7478,6,0,L|240:244,1,90,6|0,0:0|2:0,0:0:0:0:
132,240,7704,2,0,L|136:336,1,90,2|0,0:0|2:0,0:0:0:0:
232,380,7929,1,2,0:0:0:0:
352,40,8155,1,6,2:0:0:0:
456,224,8381,5,4,0:0:0:0:
376,264,8493,1,0,0:0:0:0:
296,224,8606,2,0,P|246:224|209:240,1,90,10|2,0:0|0:0,0:0:0:0:
116,168,8832,1,0,0:0:0:0:
68,248,8944,1,0,0:0:0:0:
80,340,9057,1,10,0:0:0:0:
168,376,9170,6,2,B|216:364|256:384|256:384|240:336|264:296,1,180,4|0,0:2|0:0,0:0:0:0:
372,216,9508,2,0,P|387:165|375:129,1,90,8|2,0:0|0:0,0:0:0:0:
316,56,9734,1,2,0:0:0:0:
224,48,9847,1,0,0:0:0:0:
136,76,9959,2,0,L|44:68,1,90,8|0,0:0|0:0,0:0:0:0:
116,168,10185,5,0,0:0:0:0:
188,224,10298,1,0,0:0:0:0:
272,188,10411,2,0,L|364:180,1,90,10|2,0:0|0:0,0:0:0:0:
460,248,10636,1,0,0:0:0:0:
456,340,10749,1,0,0:0:0:0:
372,304,10862,1,10,0:0:0:0:
292,264,10975,6,2,B|265:261|265:261|236:271|204:256|204:256|116:272,1,180,4|0,0:2|0:0,0:0:0:0:
72,144,11313,2,0,B|108:152|108:152|172:140,1,90,8|2,0:0|0:0,0:0:0:0:
260,48,11538,1,2,0:0:0:0:
316,120,11651,1,0,0:0:0:0:
242,177,11764,1,8,0:0:0:0:
242,177,11877,1,8,0:0:0:0:
242,177,11990,6,0,L|238:272,1,90,4|0,0:0|0:0,0:0:0:0:
284,352,12215,2,2,B|352:364|400:328|400:328|464:352,1,180,10|0,0:0|0:0,0:0:0:0:
480,248,12553,1,0,0:0:0:0:
428,168,12666,1,10,0:0:0:0:
492,96,12779,6,2,B|500:56|480:28|480:28|429:67|376:44,1,180,4|0,0:2|0:0,0:0:0:0:
260,48,13117,2,0,P|268:94|296:128,1,90,8|2,0:0|0:0,0:0:0:0:
352,232,13343,1,2,0:0:0:0:
312,316,13456,1,0,0:0:0:0:
220,336,13569,2,0,P|172:336|132:324,1,90,8|0,0:0|0:0,0:0:0:0:
68,260,13794,5,0,0:0:0:0:
80,168,13907,1,0,0:0:0:0:
156,116,14020,2,0,L|252:108,1,90,10|2,0:0|0:0,0:0:0:0:
96,264,14245,1,0,0:0:0:0:
170,211,14358,2,0,L|266:203,1,90,2|10,0:0|0:0,0:0:0:0:
384,24,14584,6,2,B|376:56|392:80|392:80|372:96|372:96|392:152|372:208,1,180,4|2,0:2|0:0,0:0:0:0:
314,276,14922,2,0,P|353:296|398:294,1,90,10|0,0:0|0:0,0:0:0:0:
216,296,15147,2,0,P|258:305|312:312,1,90,2|8,0:0|0:0,0:0:0:0:
120,336,15373,2,0,L|216:336,1,90,2|10,0:0|0:0,0:0:0:0:
64,256,15599,5,4,0:0:0:0:
136,200,15711,1,0,0:0:0:0:
156,108,15824,2,0,P|143:56|114:25,1,90,10|2,0:0|0:0,0:0:0:0:
48,187,16050,2,0,B|80:184|80:184|104:196|136:200,1,90,0|2,0:0|0:0,0:0:0:0:
236,176,16275,1,8,0:0:0:0:
378,256,16388,6,2,B|324:264|324:264|292:248|292:248|264:276|208:264,1,180,4|0,0:2|0:0,0:0:0:0:
288,128,16726,2,0,P|296:80|324:48,1,90,8|2,0:0|0:0,0:0:0:0:
456,76,16952,1,2,0:0:0:0:
420,160,17065,1,0,0:0:0:0:
480,232,17178,2,0,L|480:324,1,90,8|0,0:0|0:0,0:0:0:0:
384,360,17403,5,0,0:0:0:0:
292,360,17516,1,0,0:0:0:0:
216,308,17629,2,0,P|188:276|176:228,1,90,10|2,0:0|0:0,0:0:0:0:
280,136,17854,1,0,0:0:0:0:
364,177,17967,1,0,0:0:0:0:
380,268,18080,1,10,0:0:0:0:
268,232,18193,6,2,B|232:216|232:216|172:232|172:232|130:215|88:236,1,180,4|0,0:2|0:0,0:0:0:0:
16,284,18531,1,8,0:0:0:0:
60,364,18644,1,2,0:0:0:0:
136,312,18756,2,0,P|176:319|224:304,1,90,2|0,0:0|0:0,0:0:0:0:
356,280,18982,2,0,P|345:319|356:368,1,90,8|0,0:0|0:0,0:0:0:0:
452,324,19208,5,4,0:0:0:0:
500,248,19320,1,0,0:0:0:0:
464,160,19433,2,0,P|453:120|464:71,1,90,10|2,0:0|0:0,0:0:0:0:
408,260,19659,1,0,0:0:0:0:
348,188,19772,2,0,P|335:148|332:100,1,90,2|10,0:0|0:0,0:0:0:0:
312,280,19997,6,2,B|267:260|224:284|224:284|192:244|216:196,1,180,4|0,0:2|0:0,0:0:0:0:
152,112,20335,1,8,0:0:0:0:
184,28,20448,1,2,0:0:0:0:
268,60,20561,2,0,L|360:64,1,90,2|0,0:0|0:0,0:0:0:0:
152,112,20787,2,0,L|60:116,1,90,10|0,0:0|0:0,0:0:0:0:
108,232,21012,6,0,P|100:272|108:320,2,90,2|0|8,0:0|0:0|0:0,0:0:0:0:
376,336,21463,2,0,P|336:344|288:336,1,90
220,276,21689,1,8,0:0:0:0:
304,192,21802,6,2,B|321:180|324:160|324:160|304:132|304:132|336:92|307:22,1,180,4|0,0:2|0:0,0:0:0:0:
216,76,22140,2,0,P|199:124|207:165,1,90,10|0,0:0|0:0,0:0:0:0:
152,252,22366,2,0,P|188:284|224:304,1,90,2|8,0:0|0:0,0:0:0:0:
300,376,22591,2,0,L|396:376,1,90,2|8,0:0|0:0,0:0:0:0:
472,332,22817,1,2,1:0:0:0:
508,184,23042,5,8,0:0:0:0:
508,184,23155,1,2,0:0:0:0:
508,184,23268,2,2,B|468:188|444:168|444:168|433:174|433:174|420:176|420:176|408:208|412:232,1,135.000005149842,2|8,0:0|0:0,0:0:0:0:
332,260,23606,1,0,1:0:0:0:
400,300,23832,5,0,1:0:0:0:
256,276,23944,2,2,B|184:284|184:284|120:280,1,135.000005149842,8|0,0:0|1:0,0:0:0:0:
180,200,24283,2,2,B|109:198|109:198|44:187,1,135.000005149842
36,272,24621,6,2,B|120:284|120:284|168:304,1,135.000005149842,0|8,1:0|0:0,0:0:0:0:
260,324,24959,1,2,0:0:0:0:
324,284,25072,1,2,0:0:0:0:
252,144,25298,5,8,0:0:0:0:
301,90,25411,2,2,B|304:44|281:22|281:22|312:28|312:28|340:17,1,135.000005149842,2|0,0:0|1:0,0:0:0:0:
212,76,25749,2,0,L|136:72,1,67.5000025749208,8|2,0:0|0:0,0:0:0:0:
144,168,25975,2,0,P|140:220|148:244,1,67.5000025749208,0|2,1:0|0:0,0:0:0:0:
40,320,26200,2,0,P|45:286|39:253,1,67.5000025749208,8|2,0:0|0:0,0:0:0:0:
144,340,26426,6,2,B|204:336|204:336|242:345|242:345|280:348,1,135.000005149842,0|8,1:0|0:0,0:0:0:0:
364,304,26764,1,2,0:0:0:0:
344,236,26877,1,2,0:0:0:0:
412,72,27102,1,8,0:0:0:0:
480,48,27215,1,0,1:0:0:0:
482,207,27441,5,0,1:0:0:0:
436,264,27553,2,2,B|468:336|468:336|516:376,1,135.000005149842,8|0,0:0|1:0,0:0:0:0:
388,356,27892,2,2,B|364:304|364:304|292:256,1,135.000005149842
248,328,28230,6,2,B|214:313|214:313|175:318|175:318|112:312,1,135.000005149842,0|8,1:0|0:0,0:0:0:0:
52,240,28569,1,2,0:0:0:0:
168,48,28794,1,2,0:0:0:0:
220,100,28907,1,8,0:0:0:0:
208,172,29020,6,2,B|184:180|184:180|144:172|144:172|110:175|110:175|72:172,1,135.000005149842,0|0,1:0|1:0,0:0:0:0:
60,76,29358,1,8,0:0:0:0:
136,280,29584,2,0,L|124:356,1,67.5000025749208,0|2,1:0|0:0,0:0:0:0:
4,316,29809,2,0,L|14:249,1,67.5000025749208,8|2,0:0|0:0,0:0:0:0:
108,200,30035,6,2,B|140:196|140:196|168:204|168:204|248:204,1,135.000005149842,0|8,1:0|0:0,0:0:0:0:
332,240,30373,1,2,0:0:0:0:
372,180,30486,1,2,0:0:0:0:
268,276,30711,1,8,0:0:0:0:
396,276,30824,1,0,1:0:0:0:
332,312,31050,5,0,1:0:0:0:
196,260,31162,2,2,B|192:188|192:188|216:128,1,135.000005149842,8|0,0:0|1:0,0:0:0:0:
368,128,31501,2,2,B|305:130|305:130|281:198,1,135.000005149842
332,312,31839,6,2,B|400:332|400:332|468:332,1,135.000005149842,0|8,1:0|0:0,0:0:0:0:
512,248,32178,1,2,0:0:0:0:
441,92,32403,1,0,0:0:0:0:
480,30,32516,1,8,0:0:0:0:
492,152,32629,6,2,B|444:168|444:168|352:148,1,135.000005149842,2|0,0:0|1:0,0:0:0:0:
296,80,32967,1,8,0:0:0:0:
136,88,33193,2,0,P|100:108|80:124,1,67.5000025749208,0|2,1:0|0:0,0:0:0:0:
124,208,33418,2,0,P|112:247|109:273,1,67.5000025749208,8|2,0:0|0:0,0:0:0:0:
184,328,33644,6,2,B|180:362|160:376|160:376|112:368|112:368|44:372,1,135.000005149842,0|8,1:0|0:0,0:0:0:0:
20,296,33982,1,2,0:0:0:0:
120,148,34208,1,2,0:0:0:0:
108,76,34320,1,8,0:0:0:0:
36,96,34433,1,0,1:0:0:0:
180,192,34659,5,0,1:0:0:0:
244,156,34772,2,2,B|304:140|304:140|396:152,1,135.000005149842,8|0,0:0|1:0,0:0:0:0:
356,56,35110,2,2,L|435:66,1,67.5000025749208,2|12,0:0|0:0,0:0:0:0:
444,260,35448,6,2,B|416:264|416:264|396:248|396:248|312:236,1,135.000005149842,0|8,1:0|0:0,0:0:0:0:
224,268,35787,1,2,0:0:0:0:
204,340,35899,1,0,1:0:0:0:
148,204,36125,1,8,0:0:0:0:
128,132,36238,6,2,B|136:100|136:100|128:44|128:44|168:12,1,135.000005149842,0|0,1:0|1:0,0:0:0:0:
268,44,36576,2,0,B|304:48|304:48|348:44,1,67.5000025749208,8|2,0:0|0:0,0:0:0:0:
376,156,36802,2,0,B|340:161|340:161|298:176,1,67.5000025749208,0|2,1:0|0:0,0:0:0:0:
444,64,37027,1,12,0:0:0:0:
484,280,37253,6,0,B|436:300|436:300|399:286|399:286|372:292|372:292|355:286|355:286|308:288,1,180,4|10,0:0|0:0,0:0:0:0:
224,268,37591,1,2,0:0:0:0:
132,256,37704,2,0,P|112:296|120:360,1,90
16,272,37929,1,10,0:0:0:0:
72,188,38042,6,2,B|107:150|94:111|94:111|138:75|198:110,1,180,4|0,0:2|0:0,0:0:0:0:
256,192,38381,2,0,P|205:198|164:184,1,90,8|2,0:0|0:0,0:0:0:0:
24,132,38606,1,2,0:0:0:0:
32,48,38719,1,0,0:0:0:0:
108,16,38832,2,0,P|151:13|200:23,1,90,8|0,0:0|0:0,0:0:0:0:
348,56,39057,5,4,0:0:0:0:
316,140,39170,1,0,0:0:0:0:
372,212,39283,2,0,P|356:260|324:284,1,90,10|2,0:0|0:0,0:0:0:0:
316,140,39508,1,0,0:0:0:0:
404,124,39621,2,0,P|446:151|461:188,1,90,2|8,0:0|0:0,0:0:0:0:
432,336,39847,6,2,B|380:340|380:340|324:324|324:324|248:328,1,180,4|0,0:2|0:0,0:0:0:0:
116,320,40185,2,0,P|152:288|176:248,1,90,8|2,0:0|0:0,0:0:0:0:
216,136,40411,1,2,0:0:0:0:
148,76,40523,1,0,0:0:0:0:
60,100,40636,1,8,0:0:0:0:
60,100,40749,1,8,0:0:0:0:
60,100,40862,6,0,L|52:192,1,90,4|0,0:0|0:0,0:0:0:0:
8,328,41087,2,2,B|43:318|43:318|68:296|68:296|104:336|180:312,1,180,10|0,0:0|0:0,0:0:0:0:
260,240,41426,1,0,0:0:0:0:
300,156,41538,1,8,0:0:0:0:
368,224,41651,6,2,B|424:232|464:184|464:184|496:224|468:284,1,180,4|0,0:2|0:0,0:0:0:0:
452,360,41990,1,8,0:0:0:0:
364,378,42102,1,2,0:0:0:0:
272,368,42215,2,0,P|231:350|200:316,1,90,2|0,0:0|0:0,0:0:0:0:
164,224,42441,1,8,0:0:0:0:
164,224,42497,1,8,0:0:0:0:
164,224,42553,1,8,0:0:0:0:
164,224,42610,1,8,0:0:0:0:
164,224,42666,6,0,B|224:176|188:104|188:104|136:120,1,180,4|10,0:0|0:0,0:0:0:0:
52,200,43005,1,2,0:0:0:0:
60,292,43117,1,0,0:0:0:0:
140,340,43230,2,0,L|232:336,1,90,2|8,0:0|0:0,0:0:0:0:
384,272,43456,5,4,0:2:0:0:
164,224,43681,1,4,0:2:0:0:
472,44,43907,1,4,0:2:0:0:
252,92,44132,5,12,0:2:0:0:
252,182,44245,1,8,0:0:0:0:
252,272,44358,1,8,0:0:0:0:
252,344,44471,6,2,B|276:364|240:381|240:381|212:356|184:364|152:352,1,135.000005149842,0|8,1:0|0:0,0:0:0:0:
80,344,44809,1,2,0:0:0:0:
44,268,44922,2,0,P|40:196|80:140,1,135.000005149842,0|8,1:0|0:0,0:0:0:0:
152,96,45260,1,0,1:0:0:0:
344,8,45486,6,0,L|272:12,1,67.5000025749208,2|8,1:0|0:0,0:0:0:0:
384,40,45711,2,0,L|312:44,1,67.5000025749208,2|0,0:1|1:0,0:0:0:0:
424,72,45937,2,0,L|352:76,1,67.5000025749208,2|8,0:1|0:0,0:0:0:0:
464,104,46162,1,2,0:1:0:0:
504,136,46275,6,2,B|512:176|496:212|496:212|474:189|436:184,1,135.000005149842,0|8,1:0|0:0,0:0:0:0:
368,216,46614,1,2,0:0:0:0:
428,272,46726,2,2,P|464:324|408:344,1,135.000005149842,0|8,1:0|0:0,0:0:0:0:
304,320,47065,6,2,B|248:308|248:308|203:312|203:312|164:312,1,135.000005149842,0|0,1:0|1:0,0:0:0:0:
112,252,47403,1,8,0:0:0:0:
104,168,47516,2,0,L|112:92,1,67.5000025749208,2|0,0:0|1:0,0:0:0:0:
36,224,47741,1,0,1:0:0:0:
112,252,47854,2,0,P|149:240|176:213,1,67.5000025749208,8|2,0:0|0:0,0:0:0:0:
200,128,48080,6,2,B|208:52|208:52|240:72|292:56,1,135.000005149842,0|8,1:0|0:0,0:0:0:0:
348,32,48418,1,2,0:0:0:0:
416,88,48531,2,0,B|468:112|508:84|508:84|508:56|499:47,1,135.000005149842,0|8,1:0|0:0,0:0:0:0:
344,140,48869,1,0,1:0:0:0:
412,344,49095,6,0,L|500:348,1,67.5000025749208,2|8,0:0|0:0,0:0:0:0:
456,240,49320,2,0,L|388:236,1,67.5000025749208,2|2,0:0|0:0,0:0:0:0:
300,232,49546,1,2,0:0:0:0:
251,303,49659,2,0,P|281:316|314:315,1,67.5000025749208,8|2,0:0|0:0,0:0:0:0:
214,223,49884,6,2,B|182:243|174:263|174:263|154:243|154:243|126:231|62:243,1,135.000005149842,0|8,1:0|0:0,0:0:0:0:
28,184,50223,2,0,P|20:128|48:88,1,67.5000025749208,2|0,0:0|1:0,0:0:0:0:
56,32,50448,1,2,0:0:0:0:
120,68,50561,1,8,0:0:0:0:
188,40,50674,6,2,B|256:48|256:48|324:40,1,135.000005149842,0|0,1:0|1:0,0:0:0:0:
420,80,51012,1,10,0:0:0:0:
420,116,51125,1,2,0:0:0:0:
324,148,51238,1,6,0:0:0:0:
324,184,51350,1,2,0:0:0:0:
416,224,51463,1,10,0:0:0:0:
416,260,51576,1,10,0:0:0:0:
416,296,51689,6,0,L|416:364,1,67.5000025749208,0|0,1:0|0:0,0:0:0:0:
304,328,51914,2,0,L|232:340,1,67.5000025749208,8|0,0:0|0:0,0:0:0:0:
272,232,52140,2,0,L|200:224,1,67.5000025749208,2|0,1:0|0:0,0:0:0:0:
336,300,52366,1,8,0:0:0:0:
312,215,52478,6,2,L|160:227,1,135.000005149842,2|2,1:0|1:0,0:0:0:0:
96,160,52817,2,0,P|60:172|37:193,1,67.5000025749208,8|0,0:0|0:0,0:0:0:0:
12,280,53042,2,0,P|20:320|36:352,1,67.5000025749208,2|0,1:0|0:0,0:0:0:0:
108,376,53268,2,0,L|180:380,1,67.5000025749208,8|0,0:0|0:0,0:0:0:0:
256,364,53493,5,0,1:0:0:0:
176,252,53719,2,0,P|176:212|184:184,1,67.5000025749208,8|0,0:0|0:0,0:0:0:0:
276,172,53944,2,0,P|276:132|268:104,1,67.5000025749208,2|0,1:0|0:0,0:0:0:0:
176,88,54170,1,8,0:0:0:0:
276,28,54283,6,2,P|348:52|416:32,1,135.000005149842,2|2,1:0|1:0,0:0:0:0:
496,88,54621,1,8,0:0:0:0:
496,164,54734,1,2,0:0:0:0:
428,200,54847,2,0,P|426:240|436:272,1,67.5000025749208,2|0,1:0|1:0,0:0:0:0:
512,332,55072,2,0,L|356:348,1,135.000005149842,8|0,0:0|1:0,0:0:0:0:
228,248,55523,6,0,L|300:216,1,67.5000025749208,8|0,0:0|0:0,0:0:0:0:
196,136,55749,2,0,L|124:104,1,67.5000025749208,2|0,1:0|0:0,0:0:0:0:
276,64,55975,1,8,0:0:0:0:
216,176,56087,6,2,L|64:180,1,135.000005149842,2|2,1:0|1:0,0:0:0:0:
108,56,56426,2,0,P|145:43|180:44,1,67.5000025749208,8|0,0:0|0:0,0:0:0:0:
276,64,56651,2,0,P|287:102|292:136,1,67.5000025749208,2|0,1:0|0:0,0:0:0:0:
316,220,56877,2,0,L|300:288,1,67.5000025749208,8|0,0:0|0:0,0:0:0:0:
240,356,57102,5,0,1:0:0:0:
240,356,57215,1,0,0:0:0:0:
240,356,57328,2,0,P|202:348|172:348,1,67.5000025749208,8|0,0:0|0:0,0:0:0:0:
152,244,57553,2,0,P|185:243|218:235,1,67.5000025749208,2|0,1:0|0:0,0:0:0:0:
80,348,57779,1,8,0:0:0:0:
60,260,57892,6,2,P|128:256|193:276,1,135.000005149842,2|2,1:0|1:0,0:0:0:0:
269,174,58230,2,0,P|298:191|315:219,1,67.5000025749208,12|2,0:0|1:0,0:0:0:0:
344,320,58456,2,0,P|377:327|409:325,1,67.5000025749208,2|8,1:0|0:0,0:0:0:0:
492,292,58681,1,8,3:0:0:0:
506,261,58794,1,8,3:0:0:0:
512,216,58907,6,0,P|509:166|488:132,1,90,0|2,1:0|0:0,0:0:0:0:
396,208,59358,2,0,P|332:204|308:196,1,90,2|8,0:0|0:0,0:0:0:0:
269,174,59696,1,0,1:0:0:0:
252,284,59922,1,2,0:0:0:0:
216,312,60035,2,0,P|172:323|127:324,2,90,0|2|8,1:0|0:0|0:0,0:0:0:0:
88,184,60711,6,0,L|180:196,1,90,0|2,1:0|0:0,0:0:0:0:
224,196,61050,1,0,0:0:0:0:
252,160,61162,1,2,0:0:0:0:
224,56,61388,2,0,P|176:56|144:64,2,45,8|0|2,0:0|1:0|0:0,0:0:0:0:
360,68,61839,6,0,L|432:60,1,67.5000025749208,2|0,1:2|0:0,0:0:0:0:
392,140,62065,2,0,L|464:132,1,67.5000025749208,2|8,0:0|3:0,0:0:0:0:
504,208,62290,1,0,1:0:0:0:
508,248,62403,1,4,3:0:0:0:
496,292,62516,6,0,P|444:296|396:292,1,90,0|2,1:0|0:0,0:0:0:0:
368,268,62854,2,0,P|334:261|308:260,1,45,0|2,0:0|0:0,0:0:0:0:
224,224,63193,1,10,0:0:0:0:
180,208,63305,2,0,P|148:268|144:324,1,90,0|0,1:0|0:0,0:0:0:0:
88,360,63644,6,0,L|16:348,1,67.5000025749208,2|0,0:0|0:0,0:0:0:0:
72,272,63869,2,0,L|0:260,1,67.5000025749208,2|0,1:2|1:0,0:0:0:0:
92,192,64095,1,8,0:0:0:0:
260,100,64320,6,0,P|235:62|200:34,1,90,0|8,1:0|0:0,0:0:0:0:
136,72,64659,2,0,L|44:48,1,90,2|8,1:2|0:0,0:0:0:0:
52,128,64997,2,0,L|139:150,1,90,2|8,1:2|0:0,0:0:0:0:
212,172,65335,2,0,P|238:207|252:250,1,90,2|8,1:2|0:0,0:0:0:0:
232,324,65674,5,0,1:0:0:0:
268,349,65787,1,8,0:0:0:0:
312,360,65899,1,8,3:0:0:0:
356,355,66012,1,4,3:0:0:0:
396,335,66125,5,0,1:0:0:0:
368,220,66350,2,0,P|361:195|362:170,1,45,8|2,0:0|0:0,0:0:0:0:
376,132,66576,1,8,0:0:0:0:
464,52,66802,1,0,1:0:0:0:
460,96,66914,2,0,P|462:121|472:144,1,45,2|2,0:0|0:0,0:0:0:0:
512,208,67140,5,0,1:0:0:0:
492,248,67253,2,0,L|392:256,1,90,10|2,0:0|1:2,0:0:0:0:
284,184,67704,1,8,0:0:0:0:
212,272,67929,6,0,P|160:280|116:272,1,90,0|8,1:0|0:0,0:0:0:0:
92,240,68268,1,2,0:0:0:0:
80,196,68381,1,8,0:0:0:0:
136,48,68606,1,0,1:0:0:0:
168,80,68719,6,0,L|288:68,1,90,2|0,1:2|1:0,0:0:0:0:
336,112,69057,2,0,L|332:164,1,45,8|0,0:0|0:0,0:0:0:0:
264,200,69283,2,0,L|268:252,1,45,0|0,1:0|0:0,0:0:0:0:
328,300,69508,2,0,L|324:352,1,45,8|0,0:0|0:0,0:0:0:0:
224,332,69734,6,0,L|84:324,1,135.000005149842,4|8,1:2|0:0,0:0:0:0:
44,260,70072,1,0,0:0:0:0:
96,200,70185,2,0,P|108:128|80:72,1,135.000005149842,0|8,1:0|0:0,0:0:0:0:
132,136,70523,6,0,L|266:143,1,135.000005149842,2|0,1:2|1:0,0:0:0:0:
332,100,70862,2,0,P|343:131|341:165,1,67.5000025749208,8|0,0:0|0:0,0:0:0:0:
308,240,71087,1,0,1:0:0:0:
308,240,71200,1,0,0:0:0:0:
372,288,71313,2,0,L|452:284,1,67.5000025749208,8|0,0:0|0:0,0:0:0:0:
504,172,71538,6,0,L|344:164,1,135.000005149842,4|8,1:2|0:0,0:0:0:0:
292,144,71877,1,0,0:0:0:0:
216,168,71990,2,0,P|208:208|212:236,1,67.5000025749208,0|0,1:0|1:0,0:0:0:0:
252,304,72215,1,8,0:0:0:0:
172,304,72328,6,0,L|32:288,1,135.000005149842,2|0,1:2|1:0,0:0:0:0:
28,204,72666,2,0,P|16:136|52:80,1,135.000005149842,8|0,0:0|1:0,0:0:0:0:
124,104,73005,1,0,0:0:0:0:
192,140,73117,2,0,L|264:140,1,67.5000025749208,8|0,0:0|0:0,0:0:0:0:
236,40,73343,6,0,L|392:64,1,156.60000131424,4|8,1:2|0:0,0:0:0:0:
464,104,73681,1,0,0:0:0:0:
472,192,73794,2,0,P|460:228|429:252,1,78.3000006571198,0|0,1:0|1:0,0:0:0:0:
384,178,74020,1,8,0:0:0:0:
299,164,74132,6,0,P|275:244|303:316,1,156.60000131424,2|0,1:2|1:0,0:0:0:0:
192,316,74471,2,0,P|156:294|118:298,1,78.3000006571198,8|0,0:0|0:0,0:0:0:0:
120,176,74696,2,0,L|200:176,1,78.3000006571198,2|0,1:2|0:0,0:0:0:0:
104,64,74922,2,0,L|25:64,1,78.3000006571198,8|0,0:0|0:0,0:0:0:0:
304,12,75147,5,0,1:0:0:0:
304,12,75260,2,0,P|340:88|320:160,1,156.60000131424,4|0,1:2|1:0,0:0:0:0:
352,304,75599,2,0,P|425:280|466:215,1,156.60000131424,4|0,1:2|1:0,0:0:0:0:
264,243,75937,2,0,P|190:220|149:155,1,156.60000131424,4|12,1:2|0:0,0:0:0:0:
152,32,76275,1,4,1:2:0:0:
263,128,76501,5,0,0:0:0:0:
288,56,76726,1,0,0:0:0:0:
352,12,76952,6,0,P|440:16|492:88,1,180,4|8,1:0|1:0,0:0:0:0:
507,203,77273,2,0,P|512:248|503:292,1,90,0|0,1:0|0:0,0:0:0:0:
376,324,77516,1,0,1:0:0:0:
416,244,77629,1,8,1:0:0:0:
360,172,77741,6,0,P|262:177|180:148,1,180,2|0,1:2|0:0,0:0:0:0:
108,72,78080,1,8,1:0:0:0:
64,152,78193,2,0,L|44:248,1,90,0|2,1:0|1:2,0:0:0:0:
84,340,78418,1,0,1:0:0:0:
152,280,78531,2,0,P|203:292|252:285,1,90,8|0,1:0|0:0,0:0:0:0:
360,172,78756,6,0,P|327:252|370:328,1,180,2|8,1:2|1:0,0:0:0:0:
471,252,79095,2,0,P|499:204|499:156,1,90,0|0,1:0|0:0,0:0:0:0:
487,52,79320,1,0,1:0:0:0:
407,96,79433,1,8,1:0:0:0:
331,44,79546,6,0,B|235:48|235:48|151:28,1,180,2|0,1:2|1:0,0:0:0:0:
40,164,79884,2,0,L|160:156,1,90,12|0,1:2|0:0,0:0:0:0:
240,144,80110,1,0,1:0:0:0:
305,203,80223,1,0,1:0:0:0:
325,289,80335,1,8,1:0:0:0:
291,371,80448,1,2,1:2:0:0:
291,371,80561,6,0,L|112:372,1,180,4|8,1:0|1:0,0:0:0:0:
20,296,80899,2,0,P|72:276|104:248,1,90,2|0,1:2|0:0,0:0:0:0:
204,228,81125,1,0,1:0:0:0:
240,144,81238,1,8,1:0:0:0:
232,56,81350,6,0,P|156:16|88:68,1,180,2|0,1:2|1:0,0:0:0:0:
56,176,81689,2,0,L|48:276,1,90,8|0,1:0|0:0,0:0:0:0:
172,312,81914,1,0,1:0:0:0:
261,299,82027,1,0,1:0:0:0:
348,324,82140,2,0,P|376:284|384:240,1,90,8|0,1:0|0:0,0:0:0:0:
344,80,82366,6,0,P|424:60|380:105,1,215.999993408203,4|0,1:2|1:0,0:0:0:0:
224,176,82704,2,0,B|153:167|153:167|103:185|103:185|11:169,1,215.999993408203,4|0,1:2|1:0,0:0:0:0:
143,332,83042,2,0,B|240:344|240:344|355:312,1,215.999993408203,4|0,1:2|1:0,0:0:0:0:
472,200,83381,2,0,P|528:108|504:8,1,215.999993408203,4|0,1:2|1:0,0:0:0:0:
344,176,83719,5,8,1:0:0:0:
344,176,83832,1,8,1:0:0:0:
344,176,83944,1,8,1:0:0:0:
344,176,84057,1,8,1:0:0:0:
344,176,84170,6,0,L|360:368,1,180,4|8,1:0|1:0,0:0:0:0:
260,288,84508,2,0,P|217:266|176:265,1,90,0|0,1:0|0:0,0:0:0:0:
56,244,84734,1,0,1:0:0:0:
72,336,84847,1,8,1:0:0:0:
164,344,84959,6,0,P|212:256|180:176,1,180,2|0,1:2|0:0,0:0:0:0:
88,116,85298,1,8,1:0:0:0:
136,40,85411,2,0,L|232:32,1,90,0|2,1:0|1:2,0:0:0:0:
332,84,85636,1,0,1:0:0:0:
296,168,85749,2,0,L|288:264,1,90,8|0,1:0|0:0,0:0:0:0:
380,364,85975,6,0,P|472:348|484:272,1,180,2|8,1:2|1:0,0:0:0:0:
420,176,86313,2,0,L|427:86,1,90,0|0,1:0|0:0,0:0:0:0:
388,264,86538,1,0,1:0:0:0:
308,220,86651,1,8,0:0:0:0:
224,260,86764,6,0,P|137:250|73:188,1,180,2|0,1:2|1:0,0:0:0:0:
230,51,87102,2,0,L|193:132,1,90,12|0,1:2|0:0,0:0:0:0:
136,236,87328,1,0,1:0:0:0:
152,325,87441,1,0,1:0:0:0:
223,376,87553,1,8,1:0:0:0:
312,371,87666,1,2,1:2:0:0:
312,371,87779,6,0,B|492:356,1,180,4|8,1:0|1:0,0:0:0:0:
444,244,88117,2,0,B|354:251,1,90,0|0,1:0|0:0,0:0:0:0:
252,220,88343,1,0,1:0:0:0:
208,136,88456,1,8,1:0:0:0:
271,65,88569,6,0,P|187:42|120:98,1,180,2|0,1:2|1:0,0:0:0:0:
160,208,88907,2,0,L|156:312,1,90,8|0,1:0|1:0,0:0:0:0:
28,340,89132,1,2,1:2:0:0:
84,268,89245,1,0,1:0:0:0:
24,200,89358,2,0,L|27:110,1,90,8|0,1:0|2:0,0:0:0:0:
88,20,89584,6,0,P|172:56|256:40,1,180,2|8,1:2|1:0,0:0:0:0:
368,32,89922,1,0,0:0:0:0:
400,116,90035,1,0,1:0:0:0:
352,192,90147,2,0,L|352:236,2,45,0|0|8,1:0|0:0|1:0,0:0:0:0:
344,336,90373,6,0,L|152:308,1,180,10|0,1:2|1:0,0:0:0:0:
148,168,90711,2,0,P|198:143|234:144,1,90,12|0,1:2|0:0,0:0:0:0:
360,96,90937,2,0,L|448:132,1,90,0|0,1:0|1:0,0:0:0:0:
504,244,91162,1,8,1:0:0:0:
504,244,91219,1,8,1:0:0:0:
504,244,91275,1,8,1:0:0:0:
504,244,91332,1,8,1:0:0:0:
504,244,91388,6,0,P|476:336|403:342,1,180,4|8,1:0|1:0,0:0:0:0:
336,244,91726,2,0,L|228:256,1,90,0|0,1:0|0:0,0:0:0:0:
136,208,91952,1,0,1:0:0:0:
84,284,92065,1,8,1:0:0:0:
152,344,92178,6,0,L|330:363,1,180,4|0,1:2|1:0,0:0:0:0:
428,264,92516,1,8,1:0:0:0:
440,176,92629,1,0,0:0:0:0:
408,92,92741,2,0,P|363:73|323:73,1,90,0|0,1:0|1:0,0:0:0:0:
265,168,92967,2,0,P|246:213|246:253,1,90,8|0,1:0|0:0,0:0:0:0:
124,252,93193,6,0,P|140:152|192:80,1,180,4|8,1:2|1:0,0:0:0:0:
100,20,93531,2,0,P|44:36|4:32,1,90,2|0,1:2|1:0,0:0:0:0:
64,116,93756,1,0,1:0:0:0:
1,183,93869,1,8,1:0:0:0:
56,252,93982,6,0,L|252:264,1,180,4|0,1:2|1:0,0:0:0:0:
344,176,94320,2,0,L|428:220,1,90,8|2,1:0|0:0,0:0:0:0:
496,316,94546,1,0,1:0:0:0:
432,380,94659,1,0,1:0:0:0:
340,371,94772,2,0,P|293:354|263:324,1,90,8|0,1:0|0:0,0:0:0:0:
240,220,94997,6,0,L|432:192,1,180,2|8,1:2|1:0,0:0:0:0:
264,116,95335,2,0,B|368:102|368:102|432:64,1,180,0|0,1:0|1:0,0:0:0:0:
336,12,95674,2,0,L|246:24,1,90,8|0,1:0|0:0,0:0:0:0:
116,60,95899,2,0,B|76:148|156:148|116:236,1,180,4|0,1:2|0:0,0:0:0:0:
117,232,96350,5,2,0:0:0:0:
96,312,96463,2,0,L|72:352,2,45,2|2|2,0:0|0:0|0:0,0:0:0:0:
176,288,96689,1,0,0:0:0:0:
252,320,96802,6,2,B|300:336|340:304|388:320,1,135.000005149842,2|0,0:0|0:0,0:0:0:0:
476,276,97140,2,0,L|480:348,1,67.5000025749208,2|8,0:0|0:0,0:0:0:0:
396,156,97478,2,0,L|392:228,1,67.5000025749208,2|8,0:0|0:0,0:0:0:0:
476,36,97817,1,0,0:0:0:0:
476,36,97929,2,2,B|476:88|476:88|484:124|484:124|484:180,1,135.000005149842,10|0,0:0|0:0,0:0:0:0:
312,116,98381,1,8,0:0:0:0:
176,236,98606,6,2,P|156:300|208:324,1,135.000005149842,2|0,0:0|0:0,0:0:0:0:
308,320,98944,2,0,P|347:328|377:344,1,67.5000025749208,2|8,0:0|0:0,0:0:0:0:
291,191,99283,2,0,P|325:189|357:179,1,67.5000025749208,2|8,0:0|0:0,0:0:0:0:
244,72,99621,1,0,0:0:0:0:
244,72,99734,2,2,B|192:64|192:64|172:72|172:72|160:64|160:64|104:64,1,135.000005149842,10|0,0:0|0:0,0:0:0:0:
4,204,100185,1,8,0:0:0:0:
88,360,100411,6,2,B|128:356|128:356|164:364|164:364|184:344|184:344|180:304,1,135.000005149842,2|0,0:0|0:0,0:0:0:0:
168,224,100749,1,2,0:0:0:0:
172,180,100862,1,8,0:0:0:0:
288,300,101087,1,2,0:0:0:0:
292,344,101200,1,8,0:0:0:0:
424,256,101426,1,2,0:0:0:0:
428,212,101538,2,2,B|432:180|432:180|428:152|428:152|436:132|436:132|480:104,2,135.000005149842,10|0|8,0:0|0:0|0:0,0:0:0:0:
496,343,102215,6,2,P|435:371|371:357,1,135.000005149842,2|0,0:0|0:0,0:0:0:0:
276,324,102553,2,0,L|208:336,1,67.5000025749208,2|8,0:0|0:0,0:0:0:0:
289,172,102892,2,0,L|356:184,1,67.5000025749208,2|8,0:0|0:0,0:0:0:0:
496,104,103230,1,0,0:0:0:0:
504,60,103343,1,8,0:0:0:0:
508,216,103569,1,4,0:2:0:0:
356,184,103794,1,8,0:0:0:0:
276,324,104020,6,2,B|204:320|204:320|148:312,1,111.59999557251,0|8,1:0|0:0,0:0:0:0:
36,320,104471,2,0,L|56:268,1,55.799997786255,2|8,1:2|0:0,0:0:0:0:
80,196,104696,1,8,0:0:0:0:
116,204,104809,6,2,B|184:204|184:204|232:196,1,111.59999557251,0|0,1:0|1:0,0:0:0:0:
284,152,105147,1,10,0:0:0:0:
384,228,105373,1,0,1:0:0:0:
384,264,105486,1,2,1:2:0:0:
384,300,105599,2,0,L|388:356,1,55.799997786255,10|8,0:0|0:0,0:0:0:0:
468,320,105824,6,2,B|464:264|464:264|474:240|474:240|471:209,1,111.59999557251,0|8,1:0|0:0,0:0:0:0:
404,104,106275,2,0,L|348:116,1,55.799997786255,2|8,1:2|0:0,0:0:0:0:
284,152,106501,1,8,0:0:0:0:
292,188,106614,6,2,B|298:212|298:212|312:228|312:228|280:228|280:228|240:236,1,111.59999557251,0|0,1:0|1:0,0:0:0:0:
180,204,106952,1,10,0:0:0:0:
104,312,107178,1,2,1:2:0:0:
224,368,107403,2,0,L|280:364,1,55.799997786255,8|8,0:0|0:0,0:0:0:0:
364,344,107629,6,2,B|392:336|392:336|428:344|428:344|484:340,1,111.59999557251,0|8,1:0|0:0,0:0:0:0:
480,200,108080,2,0,L|440:240,1,55.799997786255,2|8,1:2|0:0,0:0:0:0:
372,264,108305,1,8,0:0:0:0:
342,243,108418,6,2,B|324:228|324:228|295:218|295:218|268:225|268:225|235:212,1,111.59999557251,0|0,1:0|1:0,0:0:0:0:
188,164,108756,1,10,0:0:0:0:
132,284,108982,2,0,L|192:296,1,55.799997786255,0|2,1:0|1:2,0:0:0:0:
148,364,109208,1,10,0:0:0:0:
112,368,109320,1,8,0:0:0:0:
76,360,109433,6,2,B|44:352|44:352|32:336|32:336|28:296|28:296|36:272,1,111.59999557251,0|8,1:0|0:0,0:0:0:0:
84,216,109772,1,0,0:0:0:0:
100,180,109884,1,2,1:2:0:0:
72,156,109997,2,0,L|8:152,1,55.799997786255,8|0,0:0|0:0,0:0:0:0:
140,120,110223,5,2,1:2:0:0:
244,164,110448,1,2,0:0:0:0:
348,208,110674,1,2,0:0:0:0:
420,120,110787,6,0,L|420:30,1,90,12|0,1:2|0:0,0:0:0:0:
324,124,111012,1,0,1:0:0:0:
324,124,111125,2,0,L|324:34,1,90,12|0,1:2|0:0,0:0:0:0:
244,164,111350,1,0,1:0:0:0:
244,164,111463,6,0,B|200:164|200:164|160:168|160:168|88:156,1,156.60000131424,8|8,0:0|0:0,0:0:0:0:
248,20,111914,1,0,0:0:0:0:
324,34,112027,2,0,L|404:28,1,78.3000006571198,10|0,0:2|2:0,0:0:0:0:
324,124,112253,1,0,0:0:0:0:
400,138,112366,2,0,L|480:132,1,78.3000006571198,8|0,0:0|2:0,0:0:0:0:
384,232,112591,6,0,P|363:255|320:272,1,78.3000006571198,2|0,0:2|2:0,0:0:0:0:
444,308,112817,2,0,P|465:331|508:348,1,78.3000006571198,8|0,0:0|2:0,0:0:0:0:
360,364,113042,6,0,B|333:362|333:362|316:356|316:356|200:364,1,156.60000131424,2|8,0:2|0:0,0:0:0:0:
132,272,113381,1,0,0:0:0:0:
68,316,113493,2,0,P|44:342|29:384,1,78.3000006571198,8|0,0:0|2:0,0:0:0:0:
164,189,113719,1,0,0:0:0:0:
158,111,113832,2,0,P|146:77|118:43,1,78.3000006571198,10|0,0:2|2:0,0:0:0:0:
219,258,114057,1,0,0:0:0:0:
289,292,114170,2,0,P|324:299|367:291,1,78.3000006571198,8|0,0:0|2:0,0:0:0:0:
352,104,114396,6,0,L|328:180,1,78.3000006571198,2|0,0:2|2:0,0:0:0:0:
288,292,114621,1,8,0:0:0:0:
291,295,114734,1,8,0:0:0:0:
294,298,114847,6,0,B|281:336|301:364|301:364|265:392|197:352,1,156.60000131424,2|8,0:2|0:0,0:0:0:0:
128,284,115185,1,0,2:0:0:0:
124,204,115298,2,0,B|112:160|112:160|136:124|136:124|88:68,1,156.60000131424,8|0,0:0|0:0,0:0:0:0:
164,12,115636,2,0,L|268:136,1,156.60000131424,10|0,0:2|0:0,0:0:0:0:
268,252,115975,1,8,0:0:0:0:
268,252,116087,1,0,0:0:0:0:
268,252,116200,6,0,P|255:300|228:324,1,78.3000006571198,2|0,0:2|2:0,0:0:0:0:
420,252,116426,2,0,P|427:213|414:177,1,78.3000006571198,10|0,0:2|2:0,0:0:0:0:
472,40,116651,6,0,B|432:36|432:36|376:52|376:52|312:48,1,156.60000131424,2|8,0:2|0:0,0:0:0:0:
212,76,116990,1,0,0:0:0:0:
204,156,117102,2,0,B|204:184|204:184|176:212|176:212|189:251|189:251|180:298,1,156.60000131424
92,256,117441,2,0,B|81:221|81:221|53:201|53:201|42:172|42:172|4:216,1,156.60000131424,10|0,0:2|0:0,0:0:0:0:
124,148,117779,2,0,B|112:116|112:116|119:93|119:93|152:96|152:96|168:84|168:84|212:76,1,156.60000131424,8|0,0:0|0:0,0:0:0:0:
300,112,118117,5,8,0:0:0:0:
300,190,118230,1,8,0:0:0:0:
300,268,118343,1,8,0:0:0:0:
300,268,118681,5,0,2:0:0:0:
303,271,118794,1,0,2:0:0:0:
306,274,118907,2,0,P|357:349|405:357,1,135,2|0,0:0|0:0,0:0:0:0:
424,356,119359,1,2,0:0:0:0:
508,272,119583,1,0,0:0:0:0:
384,196,119809,6,0,P|427:194|480:170,1,90,2|0,0:0|0:0,0:0:0:0:
488,136,120147,1,0,0:0:0:0:
492,92,120260,1,0,0:0:0:0:
480,48,120372,1,0,0:0:0:0:
444,20,120485,6,0,L|376:8,1,55.799997786255,2|2,0:0|0:0,0:0:0:0:
368,108,120711,2,0,L|300:120,1,55.799997786255,2|2,1:2|1:2,0:0:0:0:
240,24,120936,2,0,L|172:12,1,55.799997786255,14|2,0:0|0:0,0:0:0:0:
60,52,121162,1,4,1:2:0:0:
200,156,121387,5,2,1:2:0:0:
228,224,121500,2,0,B|218:286|218:286|222:300|222:300|176:353,1,135.000005149842,8|0,0:0|1:0,0:0:0:0:
124,268,121838,2,0,L|80:320,1,67.5000025749208,10|0,0:0|0:0,0:0:0:0:
32,236,122064,1,0,1:0:0:0:
28,164,122177,2,0,B|24:144|24:144|8:124|8:124|104:72,1,135.000005149842,10|0,0:0|1:0,0:0:0:0:
152,40,122515,1,8,0:0:0:0:
352,8,122740,6,0,B|344:76|344:76|352:152,1,135.000005149842,4|2,1:2|1:2,0:0:0:0:
300,216,123078,2,0,L|228:240,1,67.5000025749208,8|2,0:0|0:0,0:0:0:0:
348,292,123303,1,0,1:0:0:0:
424,288,123416,2,0,L|504:280,1,67.5000025749208,10|0,0:0|1:0,0:0:0:0:
388,372,123642,1,0,1:0:0:0:
312,368,123754,2,0,L|232:360,1,67.5000025749208,0|10,1:0|0:0,0:0:0:0:
188,268,123980,1,0,1:0:0:0:
124,304,124093,2,0,L|124:376,1,67.5000025749208,2|0,0:0|1:0,0:0:0:0:
128,188,124318,1,12,0:0:0:0:
280,248,124544,6,2,B|280:276|280:276|276:296|276:296|280:316|280:316|280:344,1,90,2|0,1:2|1:0,0:0:0:0:
210,323,124882,1,0,1:0:0:0:
210,323,124995,6,0,P|152:332|68:324,1,111.59999557251,10|0,1:2|1:0,0:0:0:0:
36,260,125333,2,0,P|94:253|173:224,1,111.59999557251,8|0,0:0|1:0,0:0:0:0:
176,172,125671,1,8,0:0:0:0:
344,136,125897,2,0,P|376:144|396:156,1,55.799997786255,2|0,1:2|0:0,0:0:0:0:
364,224,126122,2,0,P|387:246|399:267,1,55.799997786255,0|0,1:0|1:0,0:0:0:0:
336,312,126348,2,0,P|291:283|233:272,1,111.59999557251,10|0,0:0|1:0,0:0:0:0:
168,240,126686,2,0,P|125:204|99:155,1,111.59999557251,8|0,0:0|1:0,0:0:0:0:
160,32,127024,5,8,0:0:0:0:
160,32,127081,1,8,0:0:0:0:
160,32,127137,1,8,0:0:0:0:
160,32,127193,1,8,0:0:0:0:
160,32,127250,2,0,B|195:43|232:20|280:36,1,111.59999557251,2|8,1:2|0:0,0:0:0:0:
352,56,127588,1,0,0:0:0:0:
352,56,127701,6,0,P|352:88|344:116,1,55.799997786255,2|8,1:2|0:0,0:0:0:0:
392,216,127927,2,0,P|407:192|416:166,1,55.799997786255,2|0,1:2|1:0,0:0:0:0:
476,68,128152,2,0,P|486:93|489:121,1,55.799997786255,2|0,1:2|1:0,0:0:0:0:
496,204,128378,1,8,0:0:0:0:
284,196,128603,6,0,B|249:185|212:208|164:192,1,111.59999557251,10|8,1:2|3:0,0:0:0:0:
88,200,128942,1,8,3:0:0:0:
88,200,129054,2,0,P|96:240|112:264,1,55.799997786255,2|8,1:2|3:0,0:0:0:0:
96,335,129280,2,0,P|74:353|48:364,1,55.799997786255,10|0,0:0|0:0,0:0:0:0:
172,300,129506,5,2,1:2:0:0:
224,280,129618,1,8,0:0:0:0:
252,328,129731,1,8,0:0:0:0:
280,376,129844,1,8,0:0:0:0:
332,356,129957,6,0,P|376:332|436:332,1,111.59999557251,2|8,1:2|0:0,0:0:0:0:
484,256,130295,1,0,1:0:0:0:
484,256,130408,2,0,P|496:224|492:192,1,55.799997786255,2|8,1:2|0:0,0:0:0:0:
380,152,130633,1,2,1:2:0:0:
380,152,130746,2,0,P|380:179|391:205,1,55.799997786255,2|0,1:2|1:0,0:0:0:0:
324,264,130972,1,2,1:2:0:0:
272,244,131084,1,10,0:0:0:0:
196,76,131310,6,0,P|140:74|91:99,1,111.59999557251,2|8,1:2|0:0,0:0:0:0:
64,180,131648,1,0,0:0:0:0:
64,180,131761,2,0,P|56:219|56:240,1,55.799997786255,2|8,1:2|0:0,0:0:0:0:
180,196,131987,1,2,0:0:0:0:
180,196,132100,2,0,P|213:174|228:159,1,55.799997786255,2|0,1:2|1:0,0:0:0:0:
272,272,132325,1,2,1:2:0:0:
272,272,132438,2,0,P|307:289|327:295,1,55.799997786255,12|0,1:2|0:0,0:0:0:0:
336,204,132663,6,0,L|348:68,1,135.000005149842,4|8,1:2|0:0,0:0:0:0:
456,144,133001,2,0,L|461:212,1,67.5000025749208,0|2,1:0|1:2,0:0:0:0:
468,312,133226,1,0,1:0:0:0:
436,360,133339,1,8,0:0:0:0:
256,140,133565,1,8,0:0:0:0:
76,360,133790,6,0,L|152:352,1,67.5000025749208,4|0,0:2|2:0,0:0:0:0:
192,280,134015,2,2,P|254:301|317:281,1,135.000005149842,10|0,0:0|0:0,0:0:0:0:
344,152,134353,2,0,L|420:144,1,67.5000025749208,2|8,0:0|0:0,0:0:0:0:
236,68,134579,6,2,P|187:111|194:177,1,135.000005149842
254,232,134917,1,10,0:0:0:0:
256,290,135030,1,0,0:0:0:0:
228,340,135143,2,2,B|192:348|192:348|144:340|144:340|92:344,1,135.000005149842,10|4,0:0|1:0,0:0:0:0:
28,208,135593,5,8,0:0:0:0:
48,152,135706,2,0,L|48:72,1,67.5000025749208,2|0,1:2|1:0,0:0:0:0:
152,120,135931,2,0,L|152:192,1,67.5000025749208,2|8,1:2|0:0,0:0:0:0:
182,265,136157,1,0,1:0:0:0:
239,261,136270,1,8,0:0:0:0:
287,232,136383,1,8,0:0:0:0:
344,224,136495,6,0,L|420:232,1,67.5000025749208,4|0,0:2|2:0,0:0:0:0:
480,328,136720,2,2,P|413:332|363:376,1,135.000005149842,10|0,0:0|0:0,0:0:0:0:
252,344,137058,2,0,L|184:336,1,67.5000025749208,2|8,0:0|0:0,0:0:0:0:
148,183,137284,6,0,L|116:247,1,67.5000025749208,2|0,0:0|2:0,0:0:0:0:
236,248,137510,2,0,L|303:240,1,67.5000025749208,2|8,0:0|0:0,0:0:0:0:
384,200,137735,1,2,0:0:0:0:
380,144,137848,2,0,L|402:79,1,67.5000025749208,2|0,0:0|0:0,0:0:0:0:
352,16,138073,1,8,0:0:0:0:
352,16,138130,1,8,0:0:0:0:
352,16,138186,1,8,0:0:0:0:
352,16,138243,1,8,0:0:0:0:
352,16,138299,1,4,1:0:0:0:
456,248,138524,5,8,0:0:0:0:
404,272,138637,2,0,P|367:273|336:260,1,67.5000025749208,2|0,1:2|1:0,0:0:0:0:
224,200,138862,2,0,P|224:233|234:265,1,67.5000025749208,2|8,1:2|0:0,0:0:0:0:
228,352,139088,1,0,1:0:0:0:
172,368,139201,1,8,0:0:0:0:
28,216,139426,6,0,L|44:140,1,67.5000025749208,4|0,0:0|2:0,0:0:0:0:
108,248,139651,2,2,B|126:156|126:156|152:120,1,135.000005149842,10|0,0:0|0:0,0:0:0:0:
236,72,139989,2,0,P|260:104|268:136,1,67.5000025749208,2|8,0:0|0:0,0:0:0:0:
392,4,140215,6,2,P|360:84|380:136,1,135.000005149842,2|10,0:0|0:0,0:0:0:0:
440,168,140497,1,8,0:0:0:0:
440,168,140553,2,0,L|508:160,1,67.5000025749208,10|0,0:0|0:0,0:0:0:0:
496,16,140779,1,10,0:0:0:0:
352,216,141004,1,4,1:0:0:0:
412,356,141229,5,8,0:0:0:0:
468,342,141342,2,0,P|497:319|510:292,1,67.5000025749208,2|0,1:2|1:0,0:0:0:0:
412,244,141567,2,0,P|384:226|352:216,1,67.5000025749208,2|8,1:2|0:0,0:0:0:0:
253,266,141793,1,0,1:0:0:0:
224,316,141906,2,0,P|190:317|157:309,1,67.5000025749208,8|0,0:0|0:0,0:0:0:0:
40,260,142131,6,0,L|56:176,1,67.5000025749208,4|0,0:0|2:0,0:0:0:0:
184,200,142356,2,2,B|268:192|268:192|312:216,1,135.000005149842,2|0,0:0|0:0,0:0:0:0:
372,132,142694,2,0,L|306:94,1,67.5000025749208,0|10,0:0|0:0,0:0:0:0:
424,232,142920,5,0,0:0:0:0:
464,221,143033,1,2,0:0:0:0:
456,167,143146,1,0,0:0:0:0:
512,129,143258,1,8,0:0:0:0:
500,48,143371,1,2,0:0:0:0:
424,20,143484,6,2,B|396:24|396:24|392:8|392:8|360:24|360:24|324:23|324:23|307:19|307:19|285:23|285:23|261:23,1,180,4|8,0:2|0:0,0:0:0:0:
257,38,143765,1,8,0:0:0:0:
254,52,143822,1,8,0:0:0:0:
250,66,143878,1,8,0:0:0:0:
247,80,143934,1,4,0:0:0:0:
256,296,144837,5,0,0:0:0:0:
256,296,145063,1,0,0:0:0:0:
256,296,145288,1,0,0:0:0:0:
432,88,145514,1,8,0:0:0:0:
80,88,145740,6,2,B|78:108|78:108|82:119|82:119|74:137|74:137|96:176|76:208|76:208|72:240|72:240|76:264,1,180,6|10,0:0|0:0,0:0:0:0:
96,348,146078,1,0,0:0:0:0:
168,296,146191,2,0,B|208:304|208:304|256:296,1,90,2|0,0:0|0:0,0:0:0:0:
380,232,146416,1,10,0:0:0:0:
432,304,146529,6,2,B|448:348|428:376|428:376|400:368|400:368|360:388|304:360,1,180,4|2,0:2|0:0,0:0:0:0:
208,212,146867,2,0,L|300:196,1,90,8|0,0:0|0:0,0:0:0:0:
447,171,147093,1,2,0:0:0:0:
491,89,147206,1,2,0:0:0:0:
446,8,147318,2,0,P|401:7|368:36,1,90,8|0,0:0|0:0,0:0:0:0:
224,92,147544,6,2,B|268:100|268:100|316:97|316:97|353:115|353:115|405:110,1,180,2|8,0:0|0:0,0:0:0:0:
296,220,147882,2,2,B|252:224|252:224|208:212,2,90,2|0|0,0:0|0:0|0:0,0:0:0:0:
132,40,148221,2,2,B|120:84|120:84|123:128,2,90,10|0|0,0:0|0:0|0:0,0:0:0:0:
280,320,148559,2,2,B|236:324|236:324|192:312,2,90,2|8|0,0:0|0:0|0:0,0:0:0:0:
88,256,148897,5,2,0:0:0:0:
88,256,149010,1,0,0:0:0:0:
88,256,149123,2,2,B|91:300|91:300|79:344,1,90,10|0,0:0|0:0,0:0:0:0:
32,168,149349,6,2,B|24:143|24:143|30:123|30:123|23:95|23:95|45:64|27:31|27:31|48:0,1,180,6|10,0:0|0:0,0:0:0:0:
132,40,149687,1,0,0:0:0:0:
212,84,149800,2,0,B|260:88|260:88|300:76,1,90
428,28,150025,1,10,0:0:0:0:
394,175,150138,6,2,B|373:154|386:114|386:114|415:126|438:123|438:123|462:118|462:118|494:99,1,180,4|2,0:2|0:0,0:0:0:0:
300,75,150476,2,0,P|286:120|287:169,1,90,8|0,0:0|0:0,0:0:0:0:
392,284,150702,2,0,L|484:276,1,90,2|0,0:0|0:0,0:0:0:0:
268,356,150927,2,0,L|176:348,1,90,10|0,0:0|0:0,0:0:0:0:
60,248,151153,6,2,B|80:208|80:208|80:160,1,90,14|8,0:0|3:0,0:0:0:0:
92,72,151379,1,4,3:0:0:0:
236,192,151491,6,2,B|184:204|184:204|184:149,1,107.999996704102,8|8,3:0|3:0,0:0:0:0:
236,52,151717,1,4,3:0:0:0:
344,184,151830,6,2,B|344:216|344:216|328:248|328:248|336:312,1,125.999996154785,8|4,0:3|0:3,0:0:0:0:
436,268,152055,1,4,0:0:0:0:
512,148,152168,6,2,B|512:88|512:88|484:44,1,107.999996704102,10|0,0:0|0:0,0:0:0:0:
388,4,152394,1,2,0:2:0:0:
236,52,152506,6,0,L|325:62,1,90,2|2,0:0|0:2,0:0:0:0:
236,192,152732,2,0,L|147:182,1,90,10|2,0:0|0:2,0:0:0:0:
71,20,152958,6,2,B|79:52|79:52|63:68|63:68|67:112|67:112|32:151|45:209,1,180,6|10,0:0|0:0,0:0:0:0:
96,292,153296,2,2,L|185:302,1,90,2|0,0:0|0:0,0:0:0:0:
276,280,153521,1,0,0:0:0:0:
360,312,153634,1,10,0:0:0:0:
440,268,153747,6,2,B|464:232|464:232|432:188|464:136|464:136|444:104,1,180,4|0,0:2|0:0,0:0:0:0:
328,132,154085,2,0,P|320:184|324:224,1,90,8|0,0:0|0:0,0:0:0:0:
244,264,154311,1,2,0:0:0:0:
176,208,154424,1,0,0:0:0:0:
92,244,154537,2,0,L|3:243,1,90,10|0,0:0|0:0,0:0:0:0:
104,88,154762,5,2,0:0:0:0:
104,88,154875,2,0,B|104:52|104:52|100:48|100:48|108:48|108:48|104:44|104:44|104:8,1,90,2|8,0:0|0:0,0:0:0:0:
232,156,155100,1,2,0:0:0:0:
232,156,155213,2,0,B|232:120|232:120|228:116|228:116|236:116|236:116|232:112|232:112|232:76,1,90,2|0,0:0|0:0,0:0:0:0:
104,272,155439,5,10,0:0:0:0:
104,272,155552,2,0,B|104:236|104:236|100:232|100:232|108:232|108:232|104:228|104:228|104:192,1,90,2|0,0:0|0:0,0:0:0:0:
232,340,155777,1,2,0:0:0:0:
232,340,155890,2,0,B|232:304|232:304|228:300|228:300|236:300|236:300|232:296|232:296|232:260,1,90,10|0,0:0|0:0,0:0:0:0:
336,328,156115,5,2,0:0:0:0:
336,328,156228,1,2,0:0:0:0:
336,328,156341,2,0,L|432:332,1,90,10|0,0:0|0:0,0:0:0:0:
504,284,156567,5,6,0:0:0:0:
440,220,156679,1,0,0:0:0:0:
512,164,156792,1,10,0:0:0:0:
448,100,156905,1,0,0:0:0:0:
360,116,157018,1,0,0:0:0:0:
312,192,157131,1,2,0:0:0:0:
224,208,157243,1,8,0:0:0:0:
164,140,157356,6,2,B|136:108|144:76|144:76|122:63|122:63|113:18|69:4,1,180,4|2,0:2|0:0,0:0:0:0:
36,88,157694,1,8,0:0:0:0:
76,168,157807,1,2,0:0:0:0:
16,236,157920,1,0,0:0:0:0:
64,312,158033,1,2,0:0:0:0:
152,332,158146,1,10,0:0:0:0:
152,332,158258,1,8,0:0:0:0:
232,288,158371,5,8,0:0:0:0:
164,376,158484,1,8,0:0:0:0:
328,200,158709,5,8,0:0:0:0:
396,288,158822,1,8,0:0:0:0:
164,112,159048,5,8,0:0:0:0:
96,200,159161,1,8,0:0:0:0:
396,24,159386,5,8,0:0:0:0:
464,112,159499,1,8,0:0:0:0:
96,200,159724,5,8,0:0:0:0:
396,288,159950,5,0,2:0:0:0:
220,332,160176,6,0,P|156:348|88:324,2,135,4|0|0,0:0|1:0|1:0,0:0:0:0:
292,216,161078,1,2,0:0:0:0:
96,200,161303,1,0,1:0:0:0:
120,68,161529,1,2,0:0:0:0:
120,68,161755,1,0,0:0:0:0:
256,80,161980,6,0,L|396:68,1,135,2|0,1:2|1:0,0:0:0:0:
390,68,162431,1,2,0:0:0:0:
444,192,162657,1,0,1:0:0:0:
422,325,162882,2,0,P|466:330|506:311,1,90,2|0,0:0|1:0,0:0:0:0:
512,88,163334,1,4,0:0:0:0:
512,88,163559,1,0,0:0:0:0:
292,216,163785,6,0,P|217:232|160:193,1,135,2|0,1:2|1:0,0:0:0:0:
140,140,164236,2,0,L|148:48,1,90,2|0,0:0|1:0,0:0:0:0:
104,272,164687,1,2,0:0:0:0:
40,152,164912,1,0,1:0:0:0:
237,144,165138,2,0,L|328:144,1,90,2|0,0:0|0:0,0:0:0:0:
236,304,165589,5,2,1:2:0:0:
104,272,165815,1,2,0:0:0:0:
72,304,165927,1,2,1:2:0:0:
44,152,166153,1,2,0:0:0:0:
0,163,166266,1,2,1:2:0:0:
84,24,166491,5,2,0:0:0:0:
84,24,166604,2,0,L|128:28,1,45,2|0,0:0|1:0,0:0:0:0:
320,80,166943,1,2,0:0:0:0:
320,80,167055,1,2,0:0:0:0:
320,80,167168,2,2,L|316:124,1,45,0|2,0:0|0:0,0:0:0:0:
248,304,167394,6,0,P|228:284|204:272,1,53.9999983520508,2|0,0:0|3:0,0:0:0:0:
332,244,167619,2,0,P|308:231|289:212,1,53.9999983520508,2|0,0:0|3:0,0:0:0:0:
261,288,167845,2,0,P|285:300|304:320,1,53.9999983520508,2|0,0:0|3:0,0:0:0:0:
345,228,168070,2,0,P|364:247|388:260,1,53.9999983520508,2|0,0:0|3:0,0:0:0:0:
221,182,168296,6,0,P|193:197|172:220,1,62.9999980773926,2|2,0:0|3:0,0:0:0:0:
121,111,168521,2,0,P|99:134|72:149,1,62.9999980773926,2|2,0:0|3:0,0:0:0:0:
105,238,168747,2,0,P|128:214|157:200,1,62.9999980773926,2|2,0:0|3:0,0:0:0:0:
6,167,168973,2,0,P|34:152|56:129,1,62.9999980773926,2|2,0:0|3:0,0:0:0:0:
244,140,169198,6,0,P|217:113|185:97,1,72,2|0,0:0|1:0,0:0:0:0:
356,60,169424,2,0,P|324:43|299:18,1,72,2|0,0:0|1:0,0:0:0:0:
262,117,169649,2,0,P|293:134|319:160,1,72,2|0,0:0|1:0,0:0:0:0:
371,37,169875,2,0,P|397:63|429:80,1,72,2|0,0:0|1:0,0:0:0:0:
235,282,170100,6,0,P|271:264|300:236,1,80.9999975280763,2|2,0:0|1:3,0:0:0:0:
362,374,170326,2,0,P|390:345|427:327,1,80.9999975280763,2|2,0:0|1:3,0:0:0:0:
385,214,170552,2,0,P|355:243|319:261,1,80.9999975280763,2|2,1:2|1:3,0:0:0:0:
509,304,170777,2,0,P|473:322|445:351,1,80.9999975280763,10|8,0:0|0:0,0:0:0:0:
67,32,171003,5,4,0:0:0:0:
427,79,171228,1,4,0:2:0:0:
216,368,171454,2,0,P|159:313|180:216,1,180,8|0,0:0|0:0,0:0:0:0:
235,282,171792,2,0,P|158:303|85:237,1,180,8|0,0:0|0:0,0:0:0:0:
72,160,172131,1,8,0:0:0:0:
427,79,172356,1,0,0:0:0:0:
506,120,172469,1,0,0:0:0:0:
432,168,172582,1,10,0:0:0:0:
184,100,172807,6,2,L|5:115,1,180,4|0,0:2|0:0,0:0:0:0:
272,156,173146,2,2,L|93:171,1,180,4|0,0:2|0:0,0:0:0:0:
360,212,173484,1,4,0:2:0:0:
427,79,173709,5,2,0:0:0:0:
427,79,173935,1,2,0:0:0:0:
427,79,174161,1,2,0:0:0:0:
356,340,174386,1,8,1:0:0:0:
88,356,174612,6,0,P|28:288|60:216,1,180,4|8,1:0|0:0,0:0:0:0:
112,140,174950,2,0,P|156:132|200:136,1,90,0|0,1:0|0:0,0:0:0:0:
280,180,175176,1,0,1:0:0:0:
364,144,175288,1,8,1:0:0:0:
452,168,175401,6,0,P|465:248|445:343,1,180,2|0,1:2|0:0,0:0:0:0:
356,340,175740,1,8,1:0:0:0:
268,316,175852,2,0,P|223:320|178:316,1,90,0|2,1:0|1:2,0:0:0:0:
336,252,176078,1,0,1:0:0:0:
280,180,176191,2,0,P|276:136|280:88,1,90,8|0,1:0|0:0,0:0:0:0:
184,16,176416,6,0,P|156:128|160:200,1,180,2|8,1:2|1:0,0:0:0:0:
183,295,176755,2,0,P|222:315|267:315,1,90,0|0,1:0|0:0,0:0:0:0:
115,359,176980,1,0,1:0:0:0:
60,284,177093,1,8,1:0:0:0:
39,193,177206,6,0,P|74:114|159:95,1,180,2|0,1:2|1:0,0:0:0:0:
344,115,177544,2,0,P|306:139|262:135,1,90,4|0,1:2|0:0,0:0:0:0:
416,36,177770,1,0,1:0:0:0:
488,85,177882,1,0,1:0:0:0:
512,170,177995,1,8,1:0:0:0:
476,251,178108,1,2,1:2:0:0:
476,251,178221,6,0,L|293:254,1,180,4|8,1:0|1:0,0:0:0:0:
178,184,178559,2,0,P|156:222|160:272,1,90,2|0,1:2|0:0,0:0:0:0:
184,354,178785,1,0,1:0:0:0:
272,372,178897,1,8,0:0:0:0:
356,341,179010,6,0,P|402:267|376:184,1,180,2|0,1:2|1:0,0:0:0:0:
288,104,179349,2,0,L|196:112,1,90,8|0,1:0|0:0,0:0:0:0:
140,204,179574,1,0,1:0:0:0:
58,239,179687,1,0,1:0:0:0:
4,168,179800,2,0,P|0:112|16:80,1,90,8|0,1:0|0:0,0:0:0:0:
192,16,180025,6,0,B|297:7|297:7|353:29|353:29|396:4,1,215.999993408203,4|0,1:2|1:0,0:0:0:0:
512,168,180364,2,0,P|464:256|398:192,1,215.999993408203,4|0,1:2|1:0,0:0:0:0:
228,160,180702,2,0,B|80:136|80:136|96:200,1,215.999993408203,4|0,1:2|1:0,2:0:0:0:
16,352,181040,2,0,B|68:368|112:320|112:320|160:344|228:324,1,215.999993408203,4|0,1:2|1:0,0:0:0:0:
388,340,181379,5,8,1:0:0:0:
388,340,181491,1,8,1:0:0:0:
388,340,181604,1,8,1:0:0:0:
388,340,181717,1,8,1:0:0:0:
388,340,181830,6,0,P|451:279|458:187,1,180,4|8,1:0|1:0,0:0:0:0:
468,44,182168,2,0,P|431:69|412:109,1,90,0|0,1:0|0:0,0:0:0:0:
376,192,182394,1,0,1:0:0:0:
312,256,182506,1,8,0:0:0:0:
228,216,182619,6,0,B|140:228|140:228|48:216,1,180,2|0,1:2|0:0,0:0:0:0:
56,96,182958,1,8,1:0:0:0:
140,128,183070,2,0,L|232:116,1,90,0|2,1:0|1:2,0:0:0:0:
296,56,183296,1,0,1:0:0:0:
371,104,183409,2,0,P|383:148|375:192,1,90,8|0,1:0|0:0,0:0:0:0:
356,340,183634,6,0,P|261:371|212:320,1,180,2|8,1:2|1:0,0:0:0:0:
128,232,183973,2,0,P|160:195|166:155,1,90,0|0,1:0|0:0,0:0:0:0:
124,28,184198,1,0,1:0:0:0:
48,76,184311,1,8,1:0:0:0:
80,160,184424,6,0,L|264:144,1,180,2|0,1:2|1:0,0:0:0:0:
412,4,184762,2,0,P|440:44|444:84,1,90,4|0,1:2|0:0,0:0:0:0:
508,184,184988,2,0,P|499:232|474:263,1,90,0|0,1:0|1:0,0:0:0:0:
408,364,185213,1,8,1:0:0:0:
408,364,185270,1,8,1:0:0:0:
408,364,185326,1,8,1:0:0:0:
408,364,185382,1,8,1:0:0:0:
408,364,185439,6,0,P|308:372|228:360,1,180,4|8,1:0|1:0,0:0:0:0:
192,260,185777,2,0,P|144:280|112:308,1,90,0|0,1:0|0:0,0:0:0:0:
28,288,186003,1,0,1:0:0:0:
2,201,186115,1,8,1:0:0:0:
12,112,186228,6,0,P|68:32|144:8,1,180,2|0,1:2|1:0,0:0:0:0:
256,48,186567,2,0,L|251:138,1,90,8|0,0:0|1:0,0:0:0:0:
192,260,186792,1,2,1:2:0:0:
276,292,186905,1,0,1:0:0:0:
368,292,187018,2,0,P|410:266|430:229,1,90,8|0,1:0|0:0,0:0:0:0:
400,40,187243,6,0,P|408:125|485:164,1,180,2|8,1:2|1:0,0:0:0:0:
483,74,187582,2,0,L|328:168,1,180,0|0,1:0|1:0,0:0:0:0:
208,228,187920,1,8,1:0:0:0:
184,345,188033,6,0,P|101:329|90:241,1,180,8|0,1:0|1:0,0:0:0:0:
16,28,188371,2,0,P|59:36|90:74,1,90,4|0,1:2|0:0,0:0:0:0:
240,116,188597,2,0,P|210:149|162:157,1,90,0|0,1:0|1:0,0:0:0:0:
304,28,188822,1,8,1:0:0:0:
304,28,188879,1,8,1:0:0:0:
304,28,188935,1,8,1:0:0:0:
304,28,188991,1,8,1:0:0:0:
304,28,189048,6,0,P|396:0|464:40,1,180,4|8,1:0|1:0,0:0:0:0:
488,128,189386,1,0,1:0:0:0:
432,196,189499,1,2,1:2:0:0:
496,260,189612,1,0,1:0:0:0:
472,348,189724,1,8,0:0:0:0:
384,324,189837,6,0,P|292:332|204:324,1,180,2|0,1:2|1:0,0:0:0:0:
92,233,190176,1,8,1:0:0:0:
114,320,190288,1,0,1:0:0:0:
204,324,190401,1,2,1:2:0:0:
236,240,190514,1,0,1:0:0:0:
268,156,190627,2,0,P|274:109|264:67,1,90,8|0,1:0|0:0,0:0:0:0:
100,148,190852,6,0,P|186:129|156:64,1,180,2|8,1:2|1:0,0:0:0:0:
20,120,191191,1,0,1:0:0:0:
10,210,191303,1,2,1:2:0:0:
65,280,191416,1,0,1:0:0:0:
154,278,191529,1,8,1:0:0:0:
236,240,191642,6,0,P|328:208|400:240,1,180,2|0,1:2|1:0,0:0:0:0:
504,124,191980,2,0,P|512:72|500:28,1,90,4|0,1:2|0:0,0:0:0:0:
356,8,192206,1,0,1:0:0:0:
300,80,192318,1,0,1:0:0:0:
328,168,192431,2,0,L|320:268,1,90,12|0,1:2|0:0,0:0:0:0:
204,372,192657,6,0,B|119:361|119:361|36:318,1,180,4|8,1:0|1:0,0:0:0:0:
10,210,192995,2,0,P|20:156|12:112,1,90,0|2,1:0|1:2,0:0:0:0:
116,232,193221,1,0,1:0:0:0:
204,260,193334,1,8,1:0:0:0:
291,237,193446,6,0,P|332:160|299:79,1,180,2|0,1:2|1:0,0:0:0:0:
220,36,193785,1,8,1:0:0:0:
136,68,193897,1,2,1:2:0:0:
56,24,194010,1,2,1:2:0:0:
4,96,194123,1,0,1:0:0:0:
40,180,194236,2,0,P|84:188|128:172,1,90,8|0,1:0|0:0,0:0:0:0:
108,332,194461,6,0,P|63:328|25:301,1,90,2|0,1:2|1:0,0:0:0:0:
204,260,194687,1,8,1:0:0:0:
263,363,194800,2,0,P|351:378|418:321,1,180,8|0,1:0|1:0,0:0:0:0:
416,172,195138,1,8,1:0:0:0:
488,228,195251,6,0,P|502:140|441:84,1,180,2|0,1:2|1:0,0:0:0:0:
236,160,195589,2,0,P|276:181|320:180,1,90,12|0,1:2|0:0,0:0:0:0:
296,328,195815,2,0,P|232:344|204:344,1,90,0|0,1:0|1:0,0:0:0:0:
76,312,196040,1,8,1:0:0:0:
76,312,196097,1,8,1:0:0:0:
76,312,196153,1,8,1:0:0:0:
76,312,196209,1,8,1:0:0:0:
76,312,196266,6,0,P|40:224|76:152,1,180,4|8,1:0|1:0,0:0:0:0:
184,156,196604,2,0,P|232:162|278:148,1,90,0|2,1:0|1:2,0:0:0:0:
384,56,196830,1,0,1:0:0:0:
364,144,196943,1,8,1:0:0:0:
300,56,197055,6,0,P|212:32|132:72,1,180,2|0,1:2|1:0,0:0:0:0:
75,152,197394,1,8,1:0:0:0:
75,152,197450,1,8,1:0:0:0:
75,152,197506,1,8,1:0:0:0:
75,152,197563,1,8,1:0:0:0:
75,152,197619,2,0,L|68:248,1,90,2|0,1:2|1:0,0:0:0:0:
136,340,197845,1,8,1:0:0:0:
136,340,197901,1,8,1:0:0:0:
136,340,197958,1,8,1:0:0:0:
136,340,198014,1,8,1:0:0:0:
136,340,198070,6,0,L|232:347,1,90,4|8,1:0|1:0,0:0:0:0:
340,248,198296,1,8,1:3:0:0:
239,183,198409,2,0,P|234:139|251:98,1,90,8|4,1:3|1:3,0:0:0:0:
393,322,198634,2,0,P|351:338|307:332,1,90,8|0,1:0|0:0,0:0:0:0:
324,152,198860,6,0,L|504:165,1,180,4|0,1:2|1:0,0:0:0:0:
252,268,199198,2,0,L|162:261,1,90,8|0,1:0|0:0,0:0:0:0:
48,224,199424,1,2,1:2:0:0:
20,136,199537,1,0,1:0:0:0:
40,48,199649,2,0,P|72:22|119:23,1,90,8|0,1:0|0:0,0:0:0:0:
236,88,199875,6,0,P|324:96|376:28,1,180,2|8,1:2|1:0,0:0:0:0:
304,204,200213,2,0,P|392:180|452:112,1,180,2|0,1:2|1:0,0:0:0:0:
168,192,200552,2,0,L|160:304,1,90,8|0,1:0|0:0,0:0:0:0:
272,360,200777,2,0,B|356:398|356:318|444:358,1,180,4|0,1:2|0:0,0:0:0:0:
444,358,201228,5,8,1:0:0:0:
492,304,201341,1,8,1:0:0:0:
496,232,201454,1,8,1:0:0:0:
472,164,201567,1,8,1:0:0:0:
412,124,201679,5,0,1:0:0:0:
204,248,202018,1,8,1:0:0:0:
341,85,202356,1,8,1:0:0:0:
107,150,202694,1,8,1:0:0:0:
320,8,203033,5,8,1:0:0:0:
412,124,203258,1,0,1:0:0:0:
412,124,203371,1,0,0:0:0:0:
412,124,203484,6,0,P|420:160|412:192,1,67.5000025749208,4|2,1:2|0:0,0:0:0:0:
204,248,203822,2,0,P|236:254|269:246,1,67.5000025749208,8|2,1:0|0:0,0:0:0:0:
341,85,204161,2,0,P|329:120|307:143,1,67.5000025749208,8|2,1:0|0:0,0:0:0:0:
107,150,204499,2,0,P|132:172|164:181,1,67.5000025749208,8|2,1:0|0:0,0:0:0:0:
320,8,204837,6,0,P|292:32|261:41,1,67.5000025749208,8|2,1:0|0:0,0:0:0:0:
184,40,205063,1,0,1:0:0:0:
419,191,205288,6,0,L|411:123,1,67.5000025749208,4|2,1:2|0:0,0:0:0:0:
271,240,205627,2,0,L|203:248,1,67.5000025749208,8|2,1:0|0:0,0:0:0:0:
314,146,205965,2,0,L|341:83,1,67.5000025749208,8|2,1:0|0:0,0:0:0:0:
168,177,206303,2,0,L|105:149,1,67.5000025749208,8|2,1:0|0:0,0:0:0:0:
265,48,206642,6,0,L|319:7,1,67.5000025749208,8|2,1:0|0:0,0:0:0:0:
228,120,206867,1,0,1:0:0:0:
471,148,207093,6,0,P|444:128|410:123,1,67.5000025749208,4|2,1:2|0:0,0:0:0:0:
179,308,207431,2,0,P|183:274|203:247,1,67.5000025749208,8|2,1:0|0:0,0:0:0:0:
391,43,207770,2,0,P|360:56|340:82,1,67.5000025749208,8|2,1:0|0:0,0:0:0:0:
67,99,208108,2,0,P|80:129|106:149,1,67.5000025749208,8|2,1:0|0:0,0:0:0:0:
284,180,208446,1,12,1:2:0:0:
284,180,208897,5,4,1:0:0:0:
365,140,209010,1,0,0:0:0:0:
456,144,209123,2,0,P|484:172|496:220,1,90,10|0,0:0|0:0,0:0:0:0:
468,336,209349,1,0,0:0:0:0:
380,352,209461,1,0,0:0:0:0:
316,288,209574,1,10,0:0:0:0:
236,252,209687,6,2,B|190:256|160:236|160:236|140:244|140:244|112:276|128:320,1,180,4|0,0:2|0:0,0:0:0:0:
316,288,210025,2,0,P|336:243|331:200,1,90,8|2,0:0|0:0,0:0:0:0:
217,146,210251,1,2,0:0:0:0:
126,144,210364,1,0,0:0:0:0:
52,200,210476,2,0,P|36:241|32:291,1,90,8|0,0:0|0:0,0:0:0:0:
140,364,210702,5,0,0:0:0:0:
224,332,210815,1,0,0:0:0:0:
304,372,210927,2,0,P|356:364|384:340,1,90,10|0,0:0|0:0,0:0:0:0:
380,200,211153,1,0,0:0:0:0:
443,135,211266,1,0,0:0:0:0:
466,222,211379,1,10,0:0:0:0:
380,200,211491,6,2,B|336:206|336:206|296:196|296:196|247:222|184:192,1,180,4|0,0:2|0:0,0:0:0:0:
208,33,211830,2,0,P|236:68|248:112,1,90,8|2,0:0|0:0,0:0:0:0:
232,284,212055,1,2,0:0:0:0:
152,328,212168,1,0,0:0:0:0:
68,296,212281,1,8,0:0:0:0:
68,296,212394,1,8,0:0:0:0:
68,296,212506,6,0,L|68:204,1,90,4|0,0:0|0:0,0:0:0:0:
68,76,212732,2,2,B|76:44|100:20|100:20|116:32|116:32|156:56|220:28,1,180,10|0,0:0|0:0,0:0:0:0:
328,20,213070,1,2,0:0:0:0:
412,56,213183,1,10,0:0:0:0:
416,144,213296,6,2,B|400:184|356:200|356:200|412:189|459:239,1,180,4|0,0:2|0:0,0:0:0:0:
480,376,213634,2,0,P|508:332|500:292,1,90,8|2,0:0|0:0,0:0:0:0:
374,304,213860,1,2,0:0:0:0:
292,344,213973,1,0,0:0:0:0:
204,328,214085,2,0,L|108:328,1,90,8|0,0:0|0:0,0:0:0:0:
72,200,214311,5,0,0:0:0:0:
128,128,214424,1,0,0:0:0:0:
200,72,214537,2,0,P|246:77|281:103,1,90,10|0,0:0|0:0,0:0:0:0:
72,200,214762,1,0,0:0:0:0:
39,116,214875,2,0,P|56:72|90:45,1,90,2|10,0:0|0:0,0:0:0:0:
332,184,215100,6,2,B|276:208|238:188|238:188|216:204|216:204|228:232|220:264,1,180,4|0,0:2|0:0,0:0:0:0:
412,332,215439,2,0,P|459:310|476:272,1,90,10|0,0:0|0:0,0:0:0:0:
312,336,215664,2,0,P|360:344|400:360,1,90,2|8,0:0|0:0,0:0:0:0:
228,284,215890,2,0,L|309:321,1,90,2|8,0:0|0:0,0:0:0:0:
96,360,216115,5,4,0:0:0:0:
36,292,216228,1,0,0:0:0:0:
16,204,216341,2,0,P|30:149|61:125,1,90,10|0,0:0|0:0,0:0:0:0:
232,116,216567,1,0,0:0:0:0:
196,200,216679,2,0,P|154:214|112:204,1,90,2|8,0:0|0:0,0:0:0:0:
115,36,216905,6,2,B|156:36|156:36|169:24|169:24|188:36|188:36|235:14|282:41,1,180,4|0,0:2|0:0,0:0:0:0:
376,156,217243,2,0,P|336:192|296:200,1,90,10|0,0:0|0:0,0:0:0:0:
256,340,217469,1,0,0:0:0:0:
340,376,217582,1,0,0:0:0:0:
432,364,217694,2,0,P|468:338|487:295,1,90,10|0,0:0|0:0,0:0:0:0:
492,180,217920,6,2,B|505:125|505:125|484:88|484:88|507:44|486:1,1,180,2|8,0:0|0:0,0:0:0:0:
266,235,218258,2,0,L|356:228,1,90,2|0,0:0|0:0,0:0:0:0:
399,43,218484,2,0,L|310:36,1,90,2|8,0:0|0:0,0:0:0:0:
48,64,218709,6,2,B|32:102|32:102|80:156|44:256,1,180,4|2,0:2|0:0,0:0:0:0:
275,319,219048,2,0,P|315:301|343:265,1,90,8|0,0:0|0:0,0:0:0:0:
312,68,219273,1,2,0:0:0:0:
224,84,219386,1,2,0:0:0:0:
138,64,219499,2,0,L|48:64,1,90,8|0,0:0|0:0,0:0:0:0:
244,180,219724,6,2,B|284:156|284:156|308:164|308:164|361:147|412:180,1,180,6|8,0:0|0:0,0:0:0:0:
275,319,220063,2,0,L|183:319,1,90,2|0,0:0|0:0,0:0:0:0:
36,284,220288,1,2,0:0:0:0:
88,208,220401,1,8,0:0:0:0:
36,132,220514,6,2,B|60:88|36:48|36:48|68:16|124:32,1,180,4|0,0:2|0:0,0:0:0:0:
224,84,220852,1,8,0:0:0:0:
304,40,220965,2,0,P|356:39|397:61,1,90,2|2,0:0|0:0,0:0:0:0:
504,128,221191,1,10,0:0:0:0:
470,211,221303,1,8,0:0:0:0:
436,294,221416,1,8,0:0:0:0:
403,377,221529,5,8,0:0:0:0:
319,309,221641,2,0,P|271:309|231:333,1,90,2|0,0:0|0:0,0:0:0:0:
224,84,221867,5,8,0:0:0:0:
308,152,221980,2,0,P|356:152|396:128,1,90,2|0,0:0|0:0,0:0:0:0:
284,228,222205,5,8,0:0:0:0:
176,239,222318,2,0,P|142:272|130:318,1,90,2|0,0:0|0:0,0:0:0:0:
8,96,222544,5,8,0:0:0:0:
116,85,222656,2,0,P|149:51|161:5,1,90,2|0,0:0|0:0,0:0:0:0:
84,216,222882,5,8,0:0:0:0:
59,304,222995,1,8,0:0:0:0:
124,368,223107,5,8,0:0:0:0:
222,318,223220,2,0,P|264:331|294:363,1,90,2|0,0:0|0:0,0:0:0:0:
509,212,223446,5,8,0:0:0:0:
404,245,223559,2,0,P|382:284|383:328,1,90,2|0,0:0|0:0,0:0:0:0:
57,161,223784,5,8,0:0:0:0:
167,154,223897,2,0,P|200:182|216:224,1,90,2|0,0:0|0:0,0:0:0:0:
413,17,224122,5,8,0:0:0:0:
330,88,224235,2,0,P|325:132|343:173,1,90,2|0,0:0|0:0,0:0:0:0:
238,97,224461,5,8,0:0:0:0:
230,75,224517,1,8,0:0:0:0:
221,54,224574,1,8,0:0:0:0:
213,33,224630,1,8,0:0:0:0:
204,11,224686,1,2,2:0:0:0:
256,192,224912,5,0,0:0:0:0:
208,252,225025,2,0,P|178:192|208:132,1,135.000005149842,2|0,0:0|0:0,0:0:0:0:
328,160,225363,2,0,P|336:192|328:224,1,67.5000025749208,2|0,0:0|0:0,0:0:0:0:
277,283,225589,1,0,0:0:0:0:
327,340,225701,1,0,0:0:0:0:
404,336,225814,1,0,0:0:0:0:
404,353,226039,5,8,0:0:0:0:
404,349,226095,1,8,0:0:0:0:
404,344,226152,1,8,0:0:0:0:
404,340,226208,1,8,0:0:0:0:
404,336,226265,6,0,P|384:288|352:268,1,90,10|0,0:0|0:0,0:0:0:0:
158,268,226491,2,0,P|122:294|108:336,1,90,10|0,0:0|0:0,0:0:0:0:
328,160,226716,6,0,P|371:154|411:174,1,90,10|0,0:0|0:0,0:0:0:0:
184,160,226942,2,0,P|140:154|100:174,1,90,10|0,0:0|0:0,0:0:0:0:
49,14,227168,6,0,L|145:69,1,90,10|0,0:0|0:0,0:0:0:0:
464,14,227393,2,0,L|369:69,1,90,10|0,0:0|0:0,0:0:0:0:
256,373,227619,2,0,L|256:262,1,90,10|0,0:0|0:0,0:0:0:0:
256,134,227844,5,10,0:0:0:0:
256,192,227957,12,0,229423,2:0:0:0:
