osu file format v14

[General]
AudioFilename: 14 - RPG.mp3
AudioLeadIn: 0
PreviewTime: 8212
Countdown: 0
SampleSet: Soft
StackLeniency: 0.3
Mode: 0
LetterboxInBreaks: 0
WidescreenStoryboard: 1

[Editor]
DistanceSpacing: 0.9
BeatDivisor: 2
GridSize: 4
TimelineZoom: 1.399999

[Metadata]
Title:Seventeen RPG
TitleUnicode:セブンティーンRPG
Artist:charon
ArtistUnicode:カロン
Creator:Zero__wind
Version:Advanced
Source:
Tags:Vocaloid 星奏P 17 Gumi rui pishifat pkk pkmnyab LOST GIRL IN MY HEAD
BeatmapID:957614
BeatmapSetID:304888

[Difficulty]
HPDrainRate:4
CircleSize:3.5
OverallDifficulty:4.5
ApproachRate:6
SliderMultiplier:0.9
SliderTickRate:1

[Events]
//Background and Video events
0,0,"bg.jpg",0,0
//Break Periods
2,104220,109662
2,160375,166269
//Storyboard Layer 0 (Background)
//Storyboard Layer 1 (Fail)
//Storyboard Layer 2 (Pass)
//Storyboard Layer 3 (Foreground)
//Storyboard Sound Samples

[TimingPoints]
1163,225.563909774436,4,2,1,40,1,0
1163,-125,4,2,1,40,0,0
6576,-100,4,1,1,80,0,0
22817,-125,4,2,1,70,0,0
37253,-100,4,1,1,80,0,0
44471,-125,4,2,1,70,0,0
75260,-125,4,2,1,80,0,0
76952,-100,4,2,1,80,0,1
95899,-100,4,2,1,80,0,0
96350,-100,4,2,1,60,0,0
96802,-125,4,1,1,80,0,0
103569,-125,4,1,1,65,0,0
103794,-125,4,1,1,80,0,0
104020,-125,4,2,1,70,0,0
110787,-100,4,2,1,90,0,0
111463,-100,4,1,1,80,0,0
118907,225.563909774436,6,2,1,60,1,0
118907,-125,4,2,1,60,0,0
120260,225.563909774436,4,2,1,60,1,0
120260,-125,4,2,1,60,0,0
120485,-125,4,2,1,70,0,0
121162,225.563909774436,7,2,1,80,1,0
121162,-125,7,2,1,80,0,0
122740,225.563909774436,4,2,1,80,1,0
122740,-125,7,2,1,80,0,0
123642,225.563909774436,6,2,1,80,1,0
123642,-125,6,2,1,80,0,0
124544,-125,3,2,1,70,0,0
124995,225.563909774436,4,2,1,70,1,0
124995,-125,4,2,1,70,0,0
125897,225.563909774436,6,2,1,70,1,0
125897,-125,4,2,1,70,0,0
132663,225.563909774436,5,2,1,70,1,0
133790,225.563909774436,4,1,1,70,1,0
134692,225.563909774436,3,1,1,70,1,0
135368,225.563909774436,5,2,1,70,1,0
136495,225.563909774436,4,1,1,70,1,0
138299,225.563909774436,5,2,1,70,1,0
139426,225.563909774436,4,1,1,70,1,0
140328,225.563909774436,3,1,1,70,1,0
141004,225.563909774436,5,2,1,70,1,0
142131,225.563909774436,4,1,1,70,1,0
145740,-100,4,1,1,80,0,0
160176,-100,4,2,1,60,0,0
167394,-125,4,2,1,40,0,0
168296,-125,4,2,1,50,0,0
169198,-125,4,2,1,60,0,0
170100,-125,4,2,1,70,0,0
171003,-100,4,1,1,80,0,0
174386,-100,4,2,1,70,0,0
174612,-100,4,2,1,80,0,1
200777,-100,4,2,1,80,0,0
201228,-100,4,2,1,60,0,0
201679,-125,4,2,1,60,0,0
208897,-100,4,1,1,80,0,0
221529,225.563909774436,7,1,1,80,1,0
224686,-100,7,2,1,60,0,0
226040,-100,7,1,1,80,0,0
227901,-100,7,1,1,60,0,0
229198,-100,7,1,1,50,0,0
229423,-100,7,1,1,40,0,0

[Colours]
Combo1 : 172,101,203
Combo2 : 158,182,118
Combo3 : 248,106,64
Combo4 : 21,178,255

[HitObjects]
136,244,1163,6,0,P|156:184|156:128,1,108,0|2,0:0|0:0,0:0:0:0:
256,212,1839,2,0,L|256:356,1,144,2|0,0:0|0:0,0:0:0:0:
376,244,2741,1,0,0:0:0:0:
376,244,2967,6,0,P|356:184|356:128,1,108,0|2,0:0|0:0,0:0:0:0:
256,68,3644,2,0,L|256:213,1,144,2|0,0:0|0:0,0:0:0:0:
140,104,4546,1,0,0:0:0:0:
140,104,4772,6,0,P|84:84|28:100,1,108,0|2,0:0|0:0,0:0:0:0:
4,208,5448,2,0,P|68:240|140:220,1,144,2|2,0:0|0:0,0:0:0:0:
284,164,6350,1,0,0:0:0:0:
284,164,6576,6,0,L|388:180,1,90,2|2,0:0|0:0,0:0:0:0:
364,260,7027,2,0,L|275:246,1,90,2|2,0:0|0:0,0:0:0:0:
266,328,7478,2,0,L|355:342,1,90,6|2,0:0|0:0,0:0:0:0:
436,340,7929,1,2,0:0:0:0:
496,188,8381,6,0,P|496:136|476:88,1,90,4|10,0:0|0:0,0:0:0:0:
436,36,8832,2,0,P|385:22|334:29,1,90,0|10,0:0|0:0,0:0:0:0:
312,40,9170,2,2,L|292:188,1,135,4|8,0:2|0:0,0:0:0:0:
320,252,9734,2,0,P|349:256|376:248,2,45,2|0|8,0:0|0:0|0:0,0:0:0:0:
252,292,10185,6,0,L|144:284,1,90,0|10,0:0|0:0,0:0:0:0:
92,248,10636,2,0,L|80:144,1,90,0|10,0:0|0:0,0:0:0:0:
84,116,10975,2,2,P|128:72|200:76,1,135,4|8,0:2|0:0,0:0:0:0:
232,148,11538,2,0,L|228:200,2,45,2|0|8,0:0|0:0|0:0,0:0:0:0:
312,128,11990,6,0,L|408:116,2,90,4|10|0,0:0|0:0|0:0,0:0:0:0:
304,208,12666,1,10,0:0:0:0:
304,208,12779,2,2,L|438:191,1,135,4|8,0:2|0:0,0:0:0:0:
488,252,13343,2,0,P|492:273|490:296,2,45,2|0|8,0:0|0:0|0:0,0:0:0:0:
412,280,13794,6,0,P|364:296|316:284,1,90,0|10,0:0|0:0,0:0:0:0:
250,261,14245,1,0,0:0:0:0:
250,261,14358,1,2,0:0:0:0:
176,224,14584,2,2,P|104:228|64:276,1,135,4|10,0:2|0:0,0:0:0:0:
23,342,15147,2,0,P|65:354|107:340,1,90,2|2,0:0|0:0,0:0:0:0:
190,320,15599,5,4,0:0:0:0:
250,261,15824,1,10,0:0:0:0:
252,180,16050,2,0,L|240:80,1,90,0|8,0:0|0:0,0:0:0:0:
248,52,16388,2,2,P|288:12|368:8,1,135,4|8,0:2|0:0,0:0:0:0:
436,40,16952,2,0,P|456:89|455:125,1,90,2|10,0:0|0:0,0:0:0:0:
410,194,17403,6,0,P|360:214|324:213,2,90,0|10|0,0:0|0:0|0:0,0:0:0:0:
492,200,18080,1,10,0:0:0:0:
492,200,18193,2,2,P|520:272|496:328,1,135,4|8,0:2|0:0,0:0:0:0:
428,360,18756,2,0,L|324:364,1,90,2|10,0:0|0:0,0:0:0:0:
256,356,19208,6,0,L|200:372,2,45,4|0|10,0:0|0:0|0:0,0:0:0:0:
305,288,19659,1,0,0:0:0:0:
305,288,19772,1,2,0:0:0:0:
280,212,19997,2,2,L|140:200,1,135,4|8,0:2|0:0,0:0:0:0:
88,144,20561,2,0,P|80:96|100:56,1,90,2|8,0:0|0:0,0:0:0:0:
164,16,21012,5,2,0:0:0:0:
230,60,21238,1,8,0:0:0:0:
296,105,21463,2,0,L|370:153,1,90,0|8,0:0|0:0,0:0:0:0:
412,148,21802,2,2,P|414:78|369:25,1,135,4|8,0:2|0:0,0:0:0:0:
296,20,22366,1,2,0:0:0:0:
230,60,22591,1,2,0:0:0:0:
176,120,22817,6,0,P|162:153|156:188,2,72,2|8|2,0:0|0:0|0:0,0:0:0:0:
277,188,23606,2,0,P|333:204|385:188,1,108,0|8,1:0|0:0,0:0:0:0:
457,176,24170,1,0,1:0:0:0:
511,236,24396,1,8,0:0:0:0:
512,316,24621,6,0,P|503:350|482:379,2,72,0|8|2,1:0|0:0|0:0,0:0:0:0:
404,272,25411,2,0,L|268:288,1,108,0|8,1:0|0:0,0:0:0:0:
220,300,25975,1,0,1:0:0:0:
144,276,26200,1,8,0:0:0:0:
116,200,26426,6,0,P|144:168|176:152,1,72,0|8,1:0|0:0,0:0:0:0:
248,160,26877,1,2,0:0:0:0:
356,212,27215,2,0,P|408:188|432:140,1,108,0|8,1:0|0:0,0:0:0:0:
387,80,27779,2,0,P|350:69|306:78,1,72,0|8,1:0|0:0,0:0:0:0:
252,120,28230,6,0,L|248:224,1,72,0|0,1:0|1:0,0:0:0:0:
248,272,28681,1,2,0:0:0:0:
344,344,29020,2,0,P|416:328|452:284,1,108,0|8,1:0|0:0,0:0:0:0:
460,228,29584,1,0,1:0:0:0:
460,148,29809,1,8,0:0:0:0:
404,92,30035,6,0,L|328:84,2,72,0|8|2,1:0|0:0|0:0,0:0:0:0:
376,210,30824,2,0,P|330:238|277:237,1,108,0|8,1:0|0:0,0:0:0:0:
210,191,31388,1,0,1:0:0:0:
208,110,31614,1,8,0:0:0:0:
276,68,31839,6,0,P|309:115|308:177,2,108,0|2|8,1:0|0:0|0:0,0:0:0:0:
120,36,32967,2,0,P|84:68|64:116,1,72,8|0,0:0|1:0,0:0:0:0:
56,168,33418,1,8,0:0:0:0:
68,248,33644,6,0,L|160:256,1,72,0|8,1:0|0:0,0:0:0:0:
220,264,34095,1,2,0:0:0:0:
300,260,34320,2,0,P|360:208|360:140,1,144,8|8,0:0|0:0,0:0:0:0:
336,72,34997,2,0,P|296:52|256:52,1,72,0|12,1:0|0:0,0:0:0:0:
212,104,35448,6,0,L|204:200,1,72,0|8,1:0|0:0,0:0:0:0:
192,256,35899,2,0,L|118:318,1,72,0|8,1:0|0:0,0:0:0:0:
97,294,36238,2,0,P|77:254|88:194,1,108,2|8,0:0|0:0,0:0:0:0:
136,128,36802,1,0,1:0:0:0:
212,104,37027,1,12,0:0:0:0:
292,104,37253,6,0,L|400:120,1,90,4|10,0:0|0:0,0:0:0:0:
448,164,37704,2,0,P|445:208|421:250,1,90,0|10,0:0|0:0,0:0:0:0:
388,268,38042,2,2,L|236:290,1,135,4|8,0:2|0:0,0:0:0:0:
172,296,38606,2,0,P|159:329|158:352,2,45,2|0|8,0:0|0:0|0:0,0:0:0:0:
207,220,39057,6,0,P|214:172|203:129,1,90,4|10,0:0|0:0,0:0:0:0:
156,68,39508,1,0,0:0:0:0:
156,68,39621,1,2,0:0:0:0:
76,48,39847,2,2,P|24:96|12:156,1,135,4|8,0:2|0:0,0:0:0:0:
40,232,40411,1,2,0:0:0:0:
112,268,40636,1,8,0:0:0:0:
192,280,40862,6,0,L|288:288,1,90,4|10,0:0|0:0,0:0:0:0:
352,332,41313,2,0,L|448:324,1,90,0|10,0:0|0:0,0:0:0:0:
480,316,41651,2,2,P|512:260|496:188,1,135,4|8,0:2|0:0,0:0:0:0:
444,136,42215,1,2,0:0:0:0:
364,124,42441,2,0,L|312:132,1,45,8|8,0:0|0:0,0:0:0:0:
288,156,42666,6,0,L|276:268,1,90,4|10,0:0|0:0,0:0:0:0:
194,240,43117,2,0,L|203:150,1,90,0|8,0:0|0:0,0:0:0:0:
211,111,43456,1,4,0:2:0:0:
236,36,43681,1,4,0:2:0:0:
312,11,43907,1,4,0:2:0:0:
390,28,44132,2,0,L|513:87,1,135,12|0,0:2|1:0,0:0:0:0:
484,160,44696,6,0,P|472:204|480:236,1,72,8|0,0:0|1:0,0:0:0:0:
480,348,45260,2,0,P|428:364|376:344,1,108,0|8,1:0|0:0,0:0:0:0:
308,312,45824,2,0,L|312:236,1,72,0|8,1:0|0:0,0:0:0:0:
320,160,46275,6,0,P|293:135|259:126,1,72,0|8,1:0|0:0,0:0:0:0:
188,160,46726,2,0,L|182:269,2,108,0|0|8,1:0|1:0|0:0,0:0:0:0:
196,80,47629,1,0,1:0:0:0:
144,20,47854,1,8,0:0:0:0:
64,12,48080,6,0,P|32:40|20:76,1,72,0|8,1:0|0:0,0:0:0:0:
12,144,48531,2,0,P|52:176|112:176,1,108,0|0,1:0|1:0,0:0:0:0:
208,112,49208,2,0,P|256:112|284:124,1,72,8|0,0:0|1:0,0:0:0:0:
332,180,49659,1,8,0:0:0:0:
328,260,49884,6,0,L|308:332,1,72,0|8,1:0|0:0,0:0:0:0:
244,376,50335,2,0,L|169:375,1,72,0|8,1:0|0:0,0:0:0:0:
136,356,50674,2,0,P|104:316|100:260,1,108,0|8,1:0|0:0,0:0:0:0:
100,180,51238,1,6,0:0:0:0:
152,120,51463,1,10,0:0:0:0:
232,124,51689,6,0,L|268:128,2,36,0|0|8,1:0|0:0|0:0,0:0:0:0:
204,200,52140,2,0,L|276:208,1,72,2|8,1:0|0:0,0:0:0:0:
315,200,52478,2,0,P|348:158|350:105,1,108,2|8,1:0|0:0,0:0:0:0:
324,32,53042,1,2,1:0:0:0:
248,12,53268,1,8,0:0:0:0:
168,16,53493,6,0,L|120:32,2,36,0|0|8,1:0|0:0|0:0,0:0:0:0:
212,84,53944,2,0,L|204:172,1,72,2|8,1:0|0:0,0:0:0:0:
196,196,54283,2,0,P|140:188|88:208,1,108,2|8,1:0|0:0,0:0:0:0:
116,280,54847,2,0,P|152:284|188:272,1,72,2|8,1:0|0:0,0:0:0:0:
260,244,55298,6,0,L|332:260,1,72,0|8,1:0|0:0,0:0:0:0:
404,284,55749,2,0,P|449:292|480:284,1,72,2|8,1:0|0:0,0:0:0:0:
507,267,56087,2,0,P|520:216|505:163,1,108,2|8,1:0|0:0,0:0:0:0:
456,100,56651,1,2,1:0:0:0:
380,72,56877,1,8,0:0:0:0:
300,72,57102,6,0,L|272:100,2,36,0|0|8,1:0|0:0|0:0,0:0:0:0:
248,12,57553,2,0,L|192:68,1,72,2|8,1:0|0:0,0:0:0:0:
180,100,57892,2,0,P|195:149|238:184,1,108,2|12,1:0|0:0,0:0:0:0:
316,200,58456,2,0,L|392:216,1,72,0|8,1:0|3:0,0:0:0:0:
412,288,58907,6,0,P|356:336|288:336,1,144,0|2,1:0|0:0,0:0:0:0:
212,316,59584,1,8,0:0:0:0:
132,308,59809,2,0,L|36:324,2,72,0|0|2,0:0|1:0|0:0,0:0:0:0:
180,244,60486,6,0,P|204:168|172:108,1,144,8|2,0:0|0:0,0:0:0:0:
116,64,61162,1,2,0:0:0:0:
36,64,61388,2,0,L|0:72,2,36,8|0|2,0:0|1:0|0:0,0:0:0:0:
76,132,61839,2,0,L|72:212,1,72,2|0,1:2|0:0,0:0:0:0:
64,284,62290,1,0,1:0:0:0:
136,252,62516,6,0,L|280:268,1,144,0|2,1:0|0:0,0:0:0:0:
352,236,63193,2,0,P|424:224|480:264,1,144,8|2,0:0|0:0,0:0:0:0:
476,340,63869,2,0,P|448:364|412:372,1,72,2|8,1:2|0:0,0:0:0:0:
336,372,64320,5,0,1:0:0:0:
264,344,64546,2,0,L|144:352,2,108,8|8|8,0:0|0:0|0:0,0:0:0:0:
268,224,65561,2,0,L|148:232,1,108,8|8,0:0|3:0,0:0:0:0:
84,204,66125,5,0,1:0:0:0:
55,127,66350,2,0,P|50:91|57:56,2,72,8|8|0,0:0|0:0|1:0,0:0:0:0:
212,96,67253,2,0,L|296:104,1,72,10|2,0:0|1:2,0:0:0:0:
356,140,67704,6,0,P|372:220|344:272,1,144,8|8,0:0|0:0,0:0:0:0:
279,320,68381,2,0,P|230:339|179:326,2,108,8|2|8,0:0|0:0|0:0,0:0:0:0:
226,260,69283,1,0,1:0:0:0:
220,180,69508,1,8,0:0:0:0:
264,116,69734,6,0,P|304:101|340:104,1,72,4|8,1:2|0:0,0:0:0:0:
408,124,70185,2,0,P|472:116|504:84,2,108,0|2|8,1:0|1:2|0:0,0:0:0:0:
352,180,71087,2,0,L|324:256,1,72,0|8,1:0|0:0,0:0:0:0:
316,328,71538,6,0,P|348:348|384:348,1,72,4|8,1:2|0:0,0:0:0:0:
460,331,71990,2,0,P|493:292|496:235,2,108,0|2|8,1:0|1:2|0:0,0:0:0:0:
420,261,72892,2,0,P|388:233|360:224,1,72,0|8,1:0|0:0,0:0:0:0:
280,216,73343,6,0,L|196:224,1,72,4|8,1:2|0:0,0:0:0:0:
132,244,73794,1,0,1:0:0:0:
59,279,74020,2,0,P|58:210|111:164,1,144,8|8,0:0|0:0,0:0:0:0:
188,144,74696,2,0,L|259:137,1,72,2|8,1:2|0:0,0:0:0:0:
340,136,75147,5,0,1:0:0:0:
340,136,75260,2,0,B|404:148|404:148|448:136,2,108,12|12|12,0:0|0:0|0:0,0:0:0:0:
300,68,76162,1,12,0:0:0:0:
300,68,76275,1,12,0:0:0:0:
60,40,76952,6,0,L|44:128,1,90,4|8,1:0|1:0,0:0:0:0:
44,168,77290,2,0,P|70:199|129:206,1,90,2|0,1:2|1:0,0:0:0:0:
156,200,77629,1,8,1:0:0:0:
232,176,77854,2,0,P|276:172|316:192,1,90,2|8,1:2|1:0,0:0:0:0:
315,276,78305,2,0,P|276:295|232:292,1,90,0|8,1:0|1:0,0:0:0:0:
152,280,78756,6,0,L|60:292,1,90,2|8,1:2|1:0,0:0:0:0:
24,276,79095,2,0,P|8:232|24:180,1,90,0|2,1:0|1:2,0:0:0:0:
32,152,79433,1,8,1:0:0:0:
100,108,79659,2,0,L|196:124,1,90,2|12,1:2|1:2,0:0:0:0:
268,104,80110,2,0,L|292:64,2,45,0|2|8,1:0|1:2|1:0,0:0:0:0:
245,182,80561,6,0,P|280:212|328:216,1,90,4|8,1:0|1:0,0:0:0:0:
363,208,80899,2,0,P|393:173|397:125,1,90,2|0,1:2|1:0,0:0:0:0:
400,88,81238,1,8,1:0:0:0:
356,20,81463,2,0,L|264:28,2,90,2|8|0,1:2|1:0|1:0,0:0:0:0:
436,16,82140,1,8,1:0:0:0:
508,52,82366,6,0,B|528:116|528:116|512:196,1,135,4|4,1:2|1:2,0:0:0:0:
416,252,83042,2,0,B|396:188|396:188|409:121,1,135,4|4,1:2|1:2,0:0:0:0:
316,204,83719,2,0,L|343:292,1,90,8|8,1:0|1:0,0:0:0:0:
312,364,84170,6,0,P|258:381|216:372,1,90,4|8,1:0|1:0,0:0:0:0:
196,348,84508,2,0,P|142:365|100:356,1,90,2|0,1:2|1:0,0:0:0:0:
84,328,84847,1,8,1:0:0:0:
64,248,85072,2,0,P|56:196|84:148,1,90,2|8,1:2|1:0,0:0:0:0:
116,96,85523,1,0,1:0:0:0:
188,60,85749,1,8,1:0:0:0:
268,52,85975,6,0,L|372:72,1,90,2|8,1:2|1:0,0:0:0:0:
394,83,86313,2,0,L|478:143,1,90,0|2,1:0|1:2,0:0:0:0:
484,172,86651,1,8,1:0:0:0:
484,252,86877,2,0,P|440:284|392:284,1,90,2|12,1:2|1:2,0:0:0:0:
336,248,87328,1,0,1:0:0:0:
260,228,87553,1,8,1:0:0:0:
184,252,87779,6,0,P|160:316|172:380,2,135,4|2|8,1:0|1:2|1:0,0:0:0:0:
240,192,88681,1,0,1:0:0:0:
280,119,88907,2,0,P|281:75|257:37,2,90,8|0|8,1:0|1:0|1:0,0:0:0:0:
202,97,89584,6,0,L|102:81,1,90,2|8,1:2|1:0,0:0:0:0:
112,164,90035,2,0,L|200:178,1,90,0|8,1:0|1:0,0:0:0:0:
240,192,90373,2,0,P|268:256|256:320,1,135,8|12,1:0|1:2,0:0:0:0:
188,364,90937,1,2,1:2:0:0:
108,368,91162,2,0,L|48:356,1,45,8|8,1:0|1:0,0:0:0:0:
32,332,91388,6,0,P|14:282|24:244,1,90,4|8,1:0|1:0,0:0:0:0:
36,208,91726,2,0,P|86:190|124:200,1,90,2|0,1:2|1:0,0:0:0:0:
152,224,92065,1,12,1:2:0:0:
232,236,92290,2,0,L|321:228,1,90,0|8,1:0|1:0,0:0:0:0:
328,144,92741,2,0,L|238:151,1,90,0|8,1:0|1:0,0:0:0:0:
160,128,93193,6,0,P|117:78|112:12,2,135,4|2|12,1:2|1:2|1:2,0:0:0:0:
180,208,94095,2,0,P|182:261|164:300,1,90,0|8,1:0|1:0,0:0:0:0:
112,356,94546,2,0,P|59:358|20:340,1,90,0|8,1:0|1:0,0:0:0:0:
0,268,94997,6,0,L|16:172,1,90,2|8,1:2|1:0,0:0:0:0:
28,140,95335,2,0,L|107:83,1,90,2|0,1:2|1:0,0:0:0:0:
138,69,95674,1,8,1:0:0:0:
220,73,95899,1,4,1:2:0:0:
292,212,96350,2,0,L|284:304,1,90,2|2,0:0|0:0,0:0:0:0:
364,316,96802,6,0,L|374:194,1,108,2|2,0:0|0:0,0:0:0:0:
400,92,97478,2,0,B|304:108|304:108|256:88,1,144,2|10,0:0|0:0,0:0:0:0:
200,40,98155,1,0,0:0:0:0:
120,36,98381,1,8,0:0:0:0:
52,76,98606,6,0,L|28:212,1,108,2|2,1:0|0:0,0:0:0:0:
48,300,99283,2,0,B|144:316|144:316|192:296,1,144,2|10,0:0|0:0,0:0:0:0:
228,232,99959,1,0,0:0:0:0:
288,180,100185,1,8,0:0:0:0:
368,168,100411,6,0,L|480:184,1,108,2|2,0:0|0:0,0:0:0:0:
496,300,101087,2,0,L|350:320,1,144,2|10,0:0|0:0,0:0:0:0:
276,316,101764,1,0,0:0:0:0:
204,284,101990,1,8,0:0:0:0:
164,216,102215,6,0,L|164:96,1,108,2|2,0:0|0:0,0:0:0:0:
284,92,102892,2,2,L|284:236,1,144,2|8,0:0|0:0,0:0:0:0:
276,316,103569,1,4,1:2:0:0:
212,360,103794,1,8,0:0:0:0:
132,352,104020,1,0,1:0:0:0:
408,48,110787,6,0,B|424:116|424:116|404:196,2,135,12|12|8,1:2|1:2|0:0,0:0:0:0:
328,32,111689,2,0,L|192:48,1,135,8|10,0:0|0:2,0:0:0:0:
144,112,112253,2,0,L|107:262,1,135,0|2,1:0|0:2,0:0:0:0:
120,324,112817,1,8,0:0:0:0:
192,360,113042,6,0,B|244:348|244:348|328:364,1,135,2|0,0:2|1:0,0:0:0:0:
408,272,113719,2,0,B|356:284|356:284|272:268,1,135,0|0,0:0|0:0,0:0:0:0:
264,148,114396,2,0,B|352:164,2,90,2|8|2,0:2|0:0|0:2,0:0:0:0:
188,124,115072,5,8,0:0:0:0:
206,203,115298,2,0,L|184:340,2,135,8|10|8,0:0|0:2|0:0,0:0:0:0:
212,124,116200,1,2,0:2:0:0:
184,48,116426,1,10,0:2:0:0:
104,36,116651,6,0,L|8:48,1,90,2|8,0:2|0:0,0:0:0:0:
4,128,117102,2,0,L|147:110,2,135,0|8|8,0:0|0:0|0:0,0:0:0:0:
20,248,118117,2,0,L|12:308,2,45,8|8|8,0:0|0:0|0:0,0:0:0:0:
192,348,118907,6,0,P|260:372|336:344,1,144,2|2,0:0|0:0,0:0:0:0:
368,284,119583,1,0,0:0:0:0:
388,208,119809,2,0,P|392:172|384:136,1,72,2|0,0:0|0:0,0:0:0:0:
352,64,120260,2,0,P|300:40|240:48,2,108,0|2|14,0:0|0:0|0:0,0:0:0:0:
432,72,121162,6,0,L|504:60,2,72,4|2|0,1:2|1:2|0:0,0:0:0:0:
384,137,121838,2,0,L|368:264,2,108,10|10|8,0:0|0:0|0:0,0:0:0:0:
352,64,122740,5,4,1:2:0:0:
280,28,122965,2,0,P|208:20|148:56,1,144,2|10,1:2|0:0,0:0:0:0:
103,120,123642,2,0,P|87:151|85:187,2,72,2|10|2,0:0|0:0|0:0,0:0:0:0:
164,172,124318,1,12,0:0:0:0:
138,248,124544,2,0,P|106:264|70:265,1,72,2|0,1:2|1:0,0:0:0:0:
4,220,124995,6,0,L|12:64,1,144,10|0,1:2|0:0,0:0:0:0:
72,24,125671,1,8,0:0:0:0:
152,24,125897,2,0,P|182:32|216:61,1,72,2|0,1:2|1:0,0:0:0:0:
224,136,126348,2,0,L|218:245,2,108,10|8|8,0:0|0:0|1:0,0:0:0:0:
286,87,127250,6,0,P|321:78|356:84,1,72,2|8,1:2|0:0,0:0:0:0:
424,120,127701,2,0,P|477:109|512:68,2,108,2|0|8,1:2|1:0|0:0,0:0:0:0:
360,160,128603,2,0,P|369:194|392:222,1,72,10|8,1:2|3:0,0:0:0:0:
458,263,129054,2,0,P|474:313|458:363,2,108,2|0|8,1:2|0:0|0:0,0:0:0:0:
395,313,129957,6,0,L|271:305,1,108,2|0,1:2|1:0,0:0:0:0:
175,349,130633,2,0,P|166:315|171:280,1,72,2|2,1:2|1:2,0:0:0:0:
212,212,131084,1,10,0:0:0:0:
280,168,131310,2,0,L|404:160,1,108,2|0,1:2|0:0,0:0:0:0:
499,204,131986,2,0,P|508:169|503:134,1,72,2|2,1:2|1:2,0:0:0:0:
463,67,132437,1,12,1:2:0:0:
395,23,132663,6,0,L|298:29,1,90,4|8,1:2|0:0,0:0:0:0:
240,76,133114,2,0,L|233:172,1,90,0|8,1:0|0:0,0:0:0:0:
232,248,133565,1,8,0:0:0:0:
196,320,133790,5,4,0:2:0:0:
120,344,134015,2,2,P|63:315|48:280,1,90,10|0,0:0|0:0,0:0:0:0:
42,254,134353,1,2,0:0:0:0:
64,176,134579,2,2,L|212:156,1,135,2|10,0:0|0:0,0:0:0:0:
280,152,135143,2,2,L|372:168,1,90,10|4,0:0|1:0,0:0:0:0:
440,208,135593,6,0,L|444:300,2,90,8|0|8,0:0|1:0|0:0,0:0:0:0:
440,128,136270,1,8,0:0:0:0:
404,56,136495,5,4,0:0:0:0:
328,24,136720,2,2,L|219:36,1,90,10|0,0:0|0:0,0:0:0:0:
197,40,137058,1,2,0:0:0:0:
116,56,137284,2,0,P|76:116|88:184,1,135,2|8,0:0|0:0,0:0:0:0:
136,236,137848,1,2,0:0:0:0:
216,252,138073,2,0,L|284:260,2,45,8|8|4,0:0|0:0|1:0,0:0:0:0:
180,328,138524,6,0,L|268:338,2,90,8|0|8,0:0|1:0|0:0,0:0:0:0:
100,304,139201,1,8,0:0:0:0:
30,346,139426,5,4,0:0:0:0:
28,264,139651,2,2,L|34:152,1,90,10|0,0:0|0:0,0:0:0:0:
36,133,139989,1,2,0:0:0:0:
61,55,140215,2,2,P|121:19|189:27,1,135,2|10,0:0|0:0,0:0:0:0:
260,52,140779,2,2,L|344:88,1,90,10|4,0:0|1:0,0:0:0:0:
400,148,141229,6,0,L|392:248,1,90,8|0,0:0|1:0,0:0:0:0:
476,240,141680,2,0,L|483:150,1,90,8|8,0:0|0:0,0:0:0:0:
476,68,142131,5,4,0:0:0:0:
412,16,142356,2,0,P|372:4|320:14,1,90,8|0,0:0|0:0,0:0:0:0:
256,56,142807,2,0,P|234:91|230:144,1,90,10|2,0:0|0:0,0:0:0:0:
254,217,143258,1,8,0:0:0:0:
320,264,143484,2,2,L|416:292,1,90,4|8,0:2|0:0,0:0:0:0:
484,312,143935,1,4,0:0:0:0:
160,344,144837,6,0,L|68:360,2,90,0|0|0,0:0|0:0|0:0,0:0:0:0:
232,304,145514,1,8,0:0:0:0:
296,240,145740,6,2,P|320:196|316:152,1,90,6|8,0:0|0:0,0:0:0:0:
300,80,146191,1,2,0:0:0:0:
240,28,146416,1,10,0:0:0:0:
240,28,146529,2,2,B|192:28|192:28|160:36|160:36|76:24,1,135,4|8,0:2|0:0,0:0:0:0:
68,100,147093,2,0,L|168:116,1,90,2|8,0:0|0:0,0:0:0:0:
208,180,147544,6,0,B|228:244|228:244|220:312,1,135,2|2,0:0|0:0,0:0:0:0:
100,324,148221,2,0,B|80:260|80:260|88:192,1,135,10|2,0:0|0:0,0:0:0:0:
132,80,148897,1,2,0:0:0:0:
208,52,149123,1,8,0:0:0:0:
288,56,149349,6,2,L|376:72,1,90,6|8,0:0|0:0,0:0:0:0:
444,116,149800,1,0,0:0:0:0:
476,188,150025,1,10,0:0:0:0:
476,188,150138,2,2,B|472:216|472:216|476:236|476:236|468:264|468:264|464:328,1,135,4|8,0:2|0:0,0:0:0:0:
404,376,150702,1,2,0:0:0:0:
324,368,150927,1,10,0:0:0:0:
252,332,151153,6,0,B|172:344|172:344|120:328,1,135,14|8,0:0|3:0,0:0:0:0:
124,208,151830,2,0,B|204:196|204:196|256:212,1,135,8|10,0:3|0:0,0:0:0:0:
364,268,152506,1,2,0:0:0:0:
440,244,152732,1,10,0:0:0:0:
500,188,152958,6,2,P|512:140|496:92,1,90,6|8,0:0|0:0,0:0:0:0:
460,32,153409,1,0,0:0:0:0:
380,28,153634,1,10,0:0:0:0:
380,28,153747,2,2,B|336:16|336:16|232:40,1,135,4|8,0:2|0:0,0:0:0:0:
180,76,154311,1,2,0:0:0:0:
148,152,154537,1,10,0:0:0:0:
148,232,154762,6,0,B|200:272|200:272|268:280,1,135,2|2,0:0|0:0,0:0:0:0:
388,280,155439,2,0,B|456:272|456:272|508:232,1,135,10|2,0:0|0:0,0:0:0:0:
512,112,156115,1,2,0:0:0:0:
472,40,156341,1,10,0:0:0:0:
396,12,156567,6,0,P|352:4|308:16,1,90,6|10,0:0|0:0,0:0:0:0:
244,68,157018,2,0,P|235:111|247:155,1,90,0|8,0:0|0:0,0:0:0:0:
288,224,157469,2,0,P|299:267|291:311,1,90,2|8,0:0|0:0,0:0:0:0:
225,363,157920,2,0,P|182:373|138:366,1,90,0|10,0:0|0:0,0:0:0:0:
70,318,158371,6,0,L|58:170,1,135,8|8,0:0|0:0,0:0:0:0:
170,134,159048,2,0,L|180:268,1,135,8|8,0:0|0:0,0:0:0:0:
300,280,159724,2,0,L|284:87,1,180,8|4,0:0|0:0,0:0:0:0:
328,64,167394,5,2,0:0:0:0:
416,192,167845,1,2,0:0:0:0:
392,269,168070,1,2,0:0:0:0:
328,320,168296,2,0,P|248:324|188:300,1,144,2|2,0:0|0:0,0:0:0:0:
148,232,168973,1,2,0:0:0:0:
144,152,169198,5,2,0:0:0:0:
256,44,169649,1,2,0:0:0:0:
327,84,169875,1,2,0:0:0:0:
368,152,170100,2,0,P|376:232|368:304,1,144,2|2,0:0|1:2,0:0:0:0:
328,364,170777,1,10,0:0:0:0:
256,328,171003,6,0,L|144:320,1,90,4|4,0:0|0:2,0:0:0:0:
84,320,171454,2,0,L|72:224,1,90,8|0,0:0|0:0,0:0:0:0:
64,192,171792,2,0,L|80:57,1,135,8|8,0:0|0:0,0:0:0:0:
156,32,172356,2,0,L|208:24,2,45,0|0|10,0:0|0:0|0:0,0:0:0:0:
160,112,172807,6,0,L|264:96,1,90,4|0,0:2|0:0,0:0:0:0:
291,98,173146,2,0,L|379:111,1,90,4|0,0:2|0:0,0:0:0:0:
420,124,173484,1,4,0:2:0:0:
120,248,174386,1,8,1:0:0:0:
136,328,174612,6,0,P|172:349|220:348,1,90,4|8,1:0|1:0,0:0:0:0:
244,316,174950,2,0,P|280:295|328:296,1,90,2|0,1:2|1:0,0:0:0:0:
364,312,175288,1,8,1:0:0:0:
432,268,175514,2,0,L|436:176,1,90,2|8,1:2|1:0,0:0:0:0:
440,96,175965,2,0,L|464:48,2,45,0|0|8,1:0|1:0|1:0,0:0:0:0:
367,133,176416,6,0,P|320:120|292:92,1,90,2|8,1:2|0:0,0:0:0:0:
300,52,176755,2,0,L|208:60,1,90,2|2,1:2|1:2,0:0:0:0:
170,63,177093,1,8,1:0:0:0:
92,76,177318,2,0,L|84:132,1,45,2|0,1:2|1:0,0:0:0:0:
80,160,177544,1,12,1:2:0:0:
80,240,177770,2,0,P|122:282|153:290,1,90,0|8,1:0|1:0,0:0:0:0:
216,242,178221,6,0,L|316:238,1,90,4|8,1:0|1:0,0:0:0:0:
348,236,178559,2,0,L|436:282,1,90,2|0,1:2|1:0,0:0:0:0:
456,305,178897,1,8,1:0:0:0:
408,368,179123,2,0,P|360:376|320:364,1,90,2|8,1:2|0:0,0:0:0:0:
292,336,179461,2,0,P|248:347|205:339,1,90,0|0,1:0|1:0,0:0:0:0:
180,308,179800,1,8,1:0:0:0:
164,228,180025,6,0,B|163:181|163:181|172:144|172:144|172:84,1,135,4|4,1:2|1:2,0:0:0:0:
52,84,180702,2,0,B|52:130|52:130|44:168|44:168|44:228,1,135,4|4,1:2|1:2,0:0:0:0:
48,340,181379,1,8,1:0:0:0:
124,368,181604,1,8,1:0:0:0:
196,332,181830,6,0,L|296:344,1,90,4|8,1:0|1:0,0:0:0:0:
324,352,182168,2,0,P|372:344|400:312,1,90,2|0,1:2|1:0,0:0:0:0:
408,276,182506,1,8,1:0:0:0:
412,196,182732,2,0,P|404:148|372:120,1,90,2|8,1:2|1:0,0:0:0:0:
296,100,183183,2,0,L|252:112,2,45,0|0|8,1:0|1:0|1:0,0:0:0:0:
353,42,183634,6,0,P|400:24|440:24,1,90,2|8,1:2|1:0,0:0:0:0:
478,36,183973,2,0,P|496:83|496:123,1,90,0|2,1:0|1:2,0:0:0:0:
492,164,184311,1,8,1:0:0:0:
440,224,184537,2,0,L|388:216,1,45,2|0,1:2|1:0,0:0:0:0:
356,208,184762,1,12,1:2:0:0:
280,184,184988,1,0,1:0:0:0:
200,168,185213,2,0,L|148:176,1,45,8|8,1:0|1:0,0:0:0:0:
116,184,185439,6,0,P|88:252|100:332,2,135,4|0|8,1:0|1:0|1:0,0:0:0:0:
136,104,186341,1,0,1:0:0:0:
100,32,186567,2,0,P|56:8|12:12,2,90,8|0|8,0:0|1:0|1:0,0:0:0:0:
180,36,187243,6,0,P|224:36|262:14,1,90,2|8,1:2|1:0,0:0:0:0:
304,8,187582,2,0,L|396:24,1,90,2|0,1:2|1:0,0:0:0:0:
468,60,188033,2,0,B|484:108|484:108|480:160,1,90,8|0,1:0|1:0,0:0:0:0:
472,188,188371,1,12,1:2:0:0:
428,256,188597,1,2,1:2:0:0:
348,256,188822,2,0,L|280:248,1,45,8|8,1:0|1:0,0:0:0:0:
264,244,189048,6,0,L|168:252,2,90,4|8|0,1:0|1:0|1:0,0:0:0:0:
304,176,189724,1,8,1:0:0:0:
304,176,189837,2,0,P|320:108|288:52,1,135,2|8,1:2|1:0,0:0:0:0:
216,16,190401,1,2,1:2:0:0:
136,20,190627,1,8,1:0:0:0:
63,56,190852,6,0,P|45:96|52:140,2,90,2|8|0,1:2|0:0|1:0,0:0:0:0:
128,108,191529,1,8,1:0:0:0:
128,108,191642,2,0,L|264:118,1,135,2|12,1:2|1:2,0:0:0:0:
340,136,192206,1,0,1:0:0:0:
404,184,192431,1,12,1:2:0:0:
428,260,192657,6,0,P|420:316|400:344,1,90,4|8,1:0|1:0,0:0:0:0:
364,360,192995,2,0,P|307:366|275:354,1,90,0|2,1:0|1:2,0:0:0:0:
252,280,193446,2,0,P|192:228|136:228,1,135,2|8,1:2|1:0,0:0:0:0:
60,252,194010,1,2,1:2:0:0:
40,332,194236,1,8,1:0:0:0:
108,376,194461,6,0,L|208:372,1,90,2|8,1:2|1:0,0:0:0:0:
240,368,194800,2,0,L|335:338,1,90,8|0,1:0|1:0,0:0:0:0:
388,288,195251,2,0,P|420:224|392:156,1,135,2|12,1:2|1:2,0:0:0:0:
356,100,195815,1,0,1:0:0:0:
276,88,196040,2,0,L|232:92,1,45,8|8,1:0|1:0,0:0:0:0:
192,92,196266,6,0,L|100:80,2,90,4|8|0,1:0|1:0|0:0,0:0:0:0:
227,166,196943,1,8,1:0:0:0:
227,166,197055,2,0,P|256:240|236:288,1,135,2|8,1:2|1:0,0:0:0:0:
184,352,197619,1,2,1:2:0:0:
104,332,197845,2,0,L|52:328,1,45,8|8,1:0|1:0,0:0:0:0:
20,336,198070,6,0,L|8:382,2,45,4|8|8,1:0|1:0|1:3,0:0:0:0:
8,296,198409,1,8,1:3:0:0:
0,216,198634,1,8,1:0:0:0:
8,136,198860,2,0,P|24:84|56:56,1,90,4|0,1:2|1:0,0:0:0:0:
88,48,199198,1,8,1:0:0:0:
172,56,199424,2,0,L|272:72,1,90,2|8,1:2|1:0,0:0:0:0:
344,84,199875,6,0,P|390:83|431:56,1,90,2|8,1:2|1:0,0:0:0:0:
468,56,200213,2,0,P|483:97|475:141,1,90,2|0,1:2|1:0,0:0:0:0:
464,180,200552,1,8,1:0:0:0:
392,212,200777,1,4,1:2:0:0:
232,176,201228,1,8,0:0:0:0:
216,256,201454,1,8,0:0:0:0:
200,336,201679,6,0,L|328:328,2,108,0|8|8,1:0|0:0|0:0,0:0:0:0:
88,372,202694,2,0,L|96:244,1,108,8|8,0:0|0:0,0:0:0:0:
104,184,203258,1,0,1:0:0:0:
140,112,203484,6,0,B|176:80|176:80|233:63,2,108,4|8|8,1:2|1:0|1:0,0:0:0:0:
236,180,204499,2,0,B|293:163|293:163|329:131,1,108,8|8,1:0|1:0,0:0:0:0:
348,55,205063,1,0,1:0:0:0:
280,16,205288,6,0,L|164:28,2,108,4|8|8,1:2|1:0|1:0,0:0:0:0:
272,136,206303,2,0,L|156:148,1,108,8|8,1:0|1:0,0:0:0:0:
88,136,206867,1,0,1:0:0:0:
32,192,207093,6,0,B|32:244|32:244|36:268|36:268|36:312,2,108,4|8|8,1:2|1:0|1:0,0:0:0:0:
52,76,208108,2,0,L|104:80,1,36,8|2,1:0|0:0,0:0:0:0:
168,88,208446,1,12,1:2:0:0:
320,36,208897,6,0,P|372:24|412:36,1,90,4|10,1:0|0:0,0:0:0:0:
472,80,209349,2,0,P|484:132|472:172,1,90,0|10,1:0|0:0,0:0:0:0:
448,196,209687,2,2,L|312:216,1,135,4|8,1:2|0:0,0:0:0:0:
236,204,210251,2,0,L|168:184,2,45,2|0|8,1:0|0:0|0:0,0:0:0:0:
266,277,210702,6,0,L|256:372,1,90,0|10,1:0|0:0,0:0:0:0:
175,366,211153,2,0,L|165:276,1,90,0|10,0:0|0:0,0:0:0:0:
156,236,211491,2,2,P|156:144|192:112,1,135,4|8,0:2|0:0,0:0:0:0:
260,96,212055,1,2,0:0:0:0:
340,108,212281,2,0,L|388:116,1,45,8|8,0:0|0:0,0:0:0:0:
424,128,212506,6,0,L|408:224,2,90,4|10|0,0:0|0:0|0:0,0:0:0:0:
504,120,213183,1,10,0:0:0:0:
504,120,213296,2,2,L|480:264,1,135,4|8,0:2|0:0,0:0:0:0:
472,332,213860,2,0,L|492:376,2,45,2|0|8,0:0|0:0|0:0,0:0:0:0:
408,284,214311,6,0,L|312:272,1,90,0|10,0:0|0:0,0:0:0:0:
236,276,214762,1,0,0:0:0:0:
236,276,214875,1,2,0:0:0:0:
188,212,215100,2,2,P|172:140|204:92,1,135,4|8,1:2|0:0,0:0:0:0:
268,44,215664,2,0,P|320:44|352:64,1,90,2|2,0:0|0:0,0:0:0:0:
392,132,216115,6,0,L|376:224,1,90,4|10,0:0|0:0,0:0:0:0:
328,288,216567,2,0,L|284:304,2,45,0|2|10,0:0|0:0|0:0,0:0:0:0:
363,307,216905,2,2,P|428:293|463:238,1,135,4|8,0:2|0:0,0:0:0:0:
476,160,217469,1,0,0:0:0:0:
460,80,217694,1,10,0:0:0:0:
392,32,217920,6,2,L|296:24,1,90,2|8,0:0|0:0,0:0:0:0:
261,24,218258,2,0,L|172:32,1,90,2|2,0:0|0:0,0:0:0:0:
132,104,218709,2,2,L|240:128,1,90,4|2,0:2|0:0,0:0:0:0:
256,140,219048,1,8,0:0:0:0:
300,208,219273,2,0,P|308:264|296:296,1,90,2|8,0:0|0:0,0:0:0:0:
244,356,219724,6,2,L|156:336,1,90,6|8,0:0|0:0,0:0:0:0:
124,312,220063,2,0,P|111:269|120:225,1,90,2|2,0:0|0:0,0:0:0:0:
136,188,220401,1,8,0:0:0:0:
216,188,220627,2,0,L|303:168,1,90,2|8,0:0|0:0,0:0:0:0:
336,144,220966,2,0,P|348:101|339:57,1,90,2|10,0:0|0:0,0:0:0:0:
324,20,221304,1,8,0:0:0:0:
244,12,221529,6,0,B|184:28|184:28|104:12,1,135,8|8,0:0|0:0,0:0:0:0:
28,104,222205,2,0,B|88:88|88:88|168:104,1,135,8|8,0:0|0:0,0:0:0:0:
244,188,222882,2,0,L|240:244,1,45,8|8,0:0|0:0,0:0:0:0:
236,272,223107,6,0,B|180:288|180:288|148:288|148:288|96:304,1,135,8|8,0:0|0:0,0:0:0:0:
212,364,223784,2,0,B|268:348|268:348|300:348|300:348|352:332,1,135,8|8,0:0|0:0,0:0:0:0:
420,240,224461,2,0,L|416:192,2,45,8|8|2,0:0|0:0|0:0,0:0:0:0:
92,240,226040,2,0,L|96:192,1,45,8|8,0:0|0:0,0:0:0:0:
100,156,226265,6,0,L|136:56,1,90,10|10,0:0|0:0,0:0:0:0:
192,20,226716,2,0,L|228:120,1,90,10|10,0:0|0:0,0:0:0:0:
284,156,227168,2,0,L|320:56,1,90,10|10,0:0|0:0,0:0:0:0:
376,20,227619,1,10,0:0:0:0:
403,96,227844,1,10,0:0:0:0:
256,192,227957,12,0,229423,2:0:0:0:
