osu file format v14

[General]
AudioFilename: audio.mp3
AudioLeadIn: 0
PreviewTime: 69948
Countdown: 0
SampleSet: Soft
StackLeniency: 0.7
Mode: 0
LetterboxInBreaks: 0
WidescreenStoryboard: 1

[Editor]
Bookmarks: 4073,22073,38073,54198,70073,86073,102073,118125,122073,138073,154073,186073,202073,218073,234073,253573,254073,274073
DistanceSpacing: 1.4
BeatDivisor: 4
GridSize: 32
TimelineZoom: 2.5

[Metadata]
Title:Sanpomichi
TitleUnicode:さんぽみち
Artist:chano x 40mP
ArtistUnicode:シャノ x 40mP
Creator:Milan-
Version:Insane
Source:
Tags:shano
BeatmapID:1447690
BeatmapSetID:684061

[Difficulty]
HPDrainRate:7
CircleSize:4
OverallDifficulty:8
ApproachRate:9
SliderMultiplier:2
SliderTickRate:1

[Events]
//Background and Video events
0,0,"agg tmr.png",0,0
//Break Periods
//Storyboard Layer 0 (Background)
//Storyboard Layer 1 (Fail)
//Storyboard Layer 2 (Pass)
//Storyboard Layer 3 (Foreground)
//Storyboard Sound Samples

[TimingPoints]
2125,500,4,2,1,50,1,0
2125,-83.3333333333333,4,2,1,50,0,0
4125,-83.3333333333333,4,2,1,50,0,0
22125,-111.111111111111,4,2,1,40,0,0
37625,-100,4,2,1,45,0,0
38125,-111.111111111111,4,2,1,40,0,0
53625,-111.111111111111,4,2,1,45,0,0
54125,-66.6666666666667,4,2,1,50,0,0
54625,-66.6666666666667,4,2,1,30,0,0
56125,-66.6666666666667,4,2,1,50,0,0
56625,-66.6666666666667,4,2,1,30,0,0
58125,-66.6666666666667,4,2,1,50,0,0
58625,-66.6666666666667,4,2,1,30,0,0
60125,-66.6666666666667,4,2,1,50,0,0
60375,-100,4,2,1,50,0,0
60625,-100,4,2,1,30,0,0
61625,-100,4,2,1,35,0,0
62125,-100,4,2,1,40,0,0
66625,-111.111111111111,4,2,1,40,0,0
67125,-125,4,2,1,40,0,0
67625,-142.857142857143,4,2,1,40,0,0
68375,-100,4,2,1,40,0,0
70125,-76.9230769230769,4,2,1,50,0,1
85875,-76.9230769230769,4,2,1,50,0,0
86125,-76.9230769230769,4,2,1,50,0,1
102125,-83.3333333333333,4,2,1,50,0,0
127625,-83.3333333333333,4,2,1,5,0,0

[Colours]
Combo1 : 255,234,170
Combo2 : 179,255,179
Combo3 : 172,209,255
Combo4 : 252,194,203

[HitObjects]
288,175,2125,6,0,L|276:97,2,59.9999981689454,10|8|8,0:0|0:0|0:0,0:0:0:0:
331,53,2500,2,0,L|303:178,1,119.999996337891,10|0,0:0|0:0,0:0:0:0:
166,148,2875,6,0,L|154:70,2,59.9999981689454,10|8|8,0:0|0:0|0:0,0:0:0:0:
209,26,3250,2,0,L|181:151,1,119.999996337891,10|0,0:0|0:0,0:0:0:0:
44,122,3625,6,0,L|32:44,2,59.9999981689454,10|8|8,0:0|0:0|0:0,0:0:0:0:
87,0,4000,1,10,0:0:0:0:
63,102,4125,6,0,P|107:140|166:149,1,119.999996337891,4|0,0:0|0:0,0:0:0:0:
291,115,4500,2,0,P|232:123|187:162,1,119.999996337891,2|0,0:0|0:0,0:0:0:0:
163,243,4875,1,2,0:0:0:0:
265,378,5000,2,0,P|267:318|244:264,1,119.999996337891,2|0,0:0|0:0,0:0:0:0:
97,295,5375,1,2,0:0:0:0:
97,295,5625,6,0,P|70:287|22:280,1,59.9999981689454,2|0,0:0|0:0,0:0:0:0:
187,162,5875,2,0,P|160:170|112:177,1,59.9999981689454,2|0,0:0|0:0,0:0:0:0:
18,33,6125,6,0,P|64:62|138:62,1,119.999996337891,2|0,0:0|0:0,0:0:0:0:
390,19,6500,2,0,P|331:20|281:52,1,119.999996337891,2|0,0:0|0:0,0:0:0:0:
201,21,6875,1,2,0:0:0:0:
194,222,7000,2,0,P|208:163|209:104,1,119.999996337891,2|0,0:0|0:0,0:0:0:0:
290,361,7375,2,0,P|276:302|275:242,1,119.999996337891,2|0,0:0|0:0,0:0:0:0:
275,242,7875,5,2,0:0:0:0:
348,201,8000,1,2,0:0:0:0:
399,267,8125,2,0,P|457:274|512:251,1,119.999996337891,2|0,0:0|0:0,0:0:0:0:
495,119,8500,2,0,P|518:173|510:232,1,119.999996337891,2|0,0:0|0:0,0:0:0:0:
437,189,8875,1,2,0:0:0:0:
268,108,9000,2,0,P|327:100|382:124,1,119.999996337891,2|0,0:0|0:0,0:0:0:0:
231,32,9375,1,2,0:0:0:0:
231,32,9625,6,0,P|204:24|156:17,1,59.9999981689454,2|0,0:0|0:0,0:0:0:0:
35,119,9875,2,0,P|64:113|93:105,1,59.9999981689454,2|0,0:0|0:0,0:0:0:0:
206,237,10125,6,0,P|153:208|94:208,1,119.999996337891,2|0,0:0|0:0,0:0:0:0:
268,108,10500,2,0,P|327:107|379:79,1,119.999996337891,2|0,0:0|0:0,0:0:0:0:
300,213,10875,2,0,P|318:277|319:312,1,59.9999981689454,2|0,0:0|0:0,0:0:0:0:
395,182,11125,1,2,0:0:0:0:
416,369,11250,2,0,P|425:311|457:260,1,119.999996337891,2|0,0:0|0:0,0:0:0:0:
221,262,11625,1,2,0:0:0:0:
221,262,11875,5,0,0:0:0:0:
225,178,12000,1,0,0:0:0:0:
221,262,12125,2,0,P|190:254|146:247,1,59.9999981689454,2|0,0:0|0:0,0:0:0:0:
300,213,12375,2,0,P|316:191|336:150,1,59.9999981689454,2|0,0:0|0:0,0:0:0:0:
127,113,12625,2,0,P|140:172|144:205,1,59.9999981689454,2|0,0:0|0:0,0:0:0:0:
317,77,12875,5,2,0:0:0:0:
317,77,13000,1,0,0:0:0:0:
233,65,13125,2,0,P|195:46|98:33,1,119.999996337891,2|0,0:0|0:0,0:0:0:0:
399,105,13500,2,0,P|437:86|534:73,1,119.999996337891,2|0,0:0|0:0,0:0:0:0:
310,17,13875,2,0,P|315:46|316:76,1,59.9999981689454,2|0,0:0|0:0,0:0:0:0:
486,273,14125,6,0,P|489:181|503:143,1,119.999996337891,2|0,0:0|0:0,0:0:0:0:
298,161,14500,2,0,P|354:180|398:219,1,119.999996337891,2|0,0:0|0:0,0:0:0:0:
403,304,14875,1,2,0:0:0:0:
227,322,15000,2,0,P|283:303|328:264,1,119.999996337891,2|0,0:0|0:0,0:0:0:0:
157,274,15375,2,0,P|100:254|56:215,1,119.999996337891,2|0,0:0|0:0,0:0:0:0:
56,215,15875,5,2,0:0:0:0:
68,131,16000,1,2,0:0:0:0:
77,47,16125,2,0,P|136:44|189:16,1,119.999996337891,2|0,0:0|0:0,0:0:0:0:
315,63,16500,2,0,P|255:60|202:32,1,119.999996337891,2|0,0:0|0:0,0:0:0:0:
175,113,16875,1,2,0:0:0:0:
226,289,17000,2,0,P|241:232|233:173,1,119.999996337891,2|0,0:0|0:0,0:0:0:0:
202,32,17375,1,2,0:0:0:0:
202,32,17625,6,0,P|231:28|266:9,1,59.9999981689454
175,113,17875,2,0,P|146:109|111:90,1,59.9999981689454,2|0,0:0|0:0,0:0:0:0:
233,173,18125,2,0,P|259:161|288:134,1,59.9999981689454,2|0,0:0|0:0,0:0:0:0:
180,237,18375,6,0,L|189:312,1,59.9999981689454,8|0,0:0|0:0,0:0:0:0:
359,173,18625,2,0,L|368:248,1,59.9999981689454,8|0,0:0|0:0,0:0:0:0:
423,307,18875,5,2,0:0:0:0:
265,329,19000,2,0,P|324:334|370:372,1,119.999996337891,2|0,0:0|0:0,0:0:0:0:
487,181,19375,2,0,P|473:207|450:226,1,59.9999981689454,2|0,0:0|0:0,0:0:0:0:
278,149,19625,1,2,0:0:0:0:
359,173,19750,1,2,0:0:0:0:
273,134,19875,2,0,P|286:107|309:88,1,59.9999981689454,2|0,0:0|0:0,0:0:0:0:
292,249,20125,6,0,L|214:237,2,59.9999981689454,10|8|8,0:0|0:0|0:0,0:0:0:0:
170,292,20500,2,0,L|295:264,1,119.999996337891,10|0,0:0|0:0,0:0:0:0:
206,148,20875,6,0,L|128:136,2,59.9999981689454,10|8|8,0:0|0:0|0:0,0:0:0:0:
84,191,21250,2,0,L|209:163,1,119.999996337891,10|0,0:0|0:0,0:0:0:0:
131,40,21625,6,0,L|53:28,2,59.9999981689454,10|8|8,0:0|0:0|0:0,0:0:0:0:
9,83,22000,1,10,0:0:0:0:
151,46,22125,6,0,L|272:20,1,89.9999972534181,4|0,0:0|0:0,0:0:0:0:
440,200,22625,2,0,L|352:218,1,89.9999972534181,8|2,0:0|0:0,0:0:0:0:
280,189,23000,2,0,P|257:148|254:78,1,89.9999972534181,2|2,0:0|0:0,0:0:0:0:
326,101,23375,2,0,P|340:126|351:162,1,44.999998626709,2|0,0:0|0:0,0:0:0:0:
242,263,23625,6,0,L|311:278,1,44.999998626709,10|0,0:0|0:0,0:0:0:0:
137,213,23875,2,0,L|196:174,1,44.999998626709,2|0,0:0|0:0,0:0:0:0:
21,228,24125,6,0,L|50:112,1,89.9999972534181,2|0,0:0|0:0,0:0:0:0:
272,18,24625,2,0,L|250:105,1,89.9999972534181,8|2,0:0|0:0,0:0:0:0:
173,104,25000,2,0,P|135:80|90:76,1,89.9999972534181,2|2,0:0|0:0,0:0:0:0:
14,68,25375,2,0,P|12:47|14:12,1,44.999998626709,2|0,0:0|0:0,0:0:0:0:
103,157,25625,6,0,L|27:150,1,44.999998626709,10|0,0:0|0:0,0:0:0:0:
210,192,25875,2,0,L|151:240,1,44.999998626709,2|0,0:0|0:0,0:0:0:0:
319,158,26125,6,0,L|308:256,1,89.9999972534181,2|0,0:0|0:0,0:0:0:0:
384,282,26500,1,0,0:0:0:0:
384,282,26625,2,0,L|394:192,1,89.9999972534181,8|2,0:0|0:0,0:0:0:0:
390,116,27000,2,0,P|436:113|495:65,1,89.9999972534181,2|2,0:0|0:0,0:0:0:0:
431,27,27375,2,0,P|409:31|378:41,1,44.999998626709,2|0,0:0|0:0,0:0:0:0:
206,4,27625,6,0,L|221:59,1,44.999998626709,10|0,0:0|0:0,0:0:0:0:
293,176,27875,2,0,L|308:121,1,44.999998626709,2|0,0:0|0:0,0:0:0:0:
124,3,28125,6,0,L|152:108,1,89.9999972534181,2|0,0:0|0:0,0:0:0:0:
78,132,28500,1,0,0:0:0:0:
78,132,28625,2,0,L|54:45,1,89.9999972534181,8|0,0:0|0:0,0:0:0:0:
147,89,29000,2,0,P|154:151|136:201,1,89.9999972534181,2|2,0:0|0:0,0:0:0:0:
80,214,29375,2,0,P|54:209|16:197,1,44.999998626709,2|0,0:0|0:0,0:0:0:0:
221,219,29625,6,0,L|234:279,1,44.999998626709,10|0,0:0|0:0,0:0:0:0:
93,338,29875,2,0,L|102:294,1,44.999998626709,2|0,0:0|0:0,0:0:0:0:
293,176,30125,6,0,L|318:293,1,89.9999972534181,2|0,0:0|0:0,0:0:0:0:
380,311,30500,1,0,0:0:0:0:
380,311,30625,2,0,P|426:277|489:275,1,89.9999972534181,10|2,0:0|0:0,0:0:0:0:
372,153,31000,2,0,P|406:182|450:194,1,89.9999972534181,2|2,0:0|0:0,0:0:0:0:
444,64,31375,2,0,P|442:87|451:128,1,44.999998626709,2|0,0:0|0:0,0:0:0:0:
310,54,31625,6,0,L|389:85,1,44.999998626709,10|0,0:0|0:0,0:0:0:0:
251,192,31875,2,0,L|330:161,1,44.999998626709,2|0,0:0|0:0,0:0:0:0:
171,17,32125,6,0,P|205:55|218:128,1,89.9999972534181,2|0,0:0|0:0,0:0:0:0:
163,144,32500,1,0,0:0:0:0:
162,143,32625,2,0,P|126:118|83:108,1,89.9999972534181,10|2,0:0|0:0,0:0:0:0:
47,236,33000,2,0,P|89:221|133:224,1,89.9999972534181,2|2,0:0|0:0,0:0:0:0:
66,337,33375,2,0,P|84:317|117:296,1,44.999998626709,2|0,0:0|0:0,0:0:0:0:
260,226,33625,6,0,L|201:203,1,44.999998626709,10|0,0:0|0:0,0:0:0:0:
361,309,33875,2,0,L|302:332,1,44.999998626709,2|0,0:0|0:0,0:0:0:0:
321,133,34125,6,0,P|357:169|372:238,1,89.9999972534181,2|0,0:0|0:0,0:0:0:0:
441,162,34500,1,0,0:0:0:0:
441,162,34625,2,0,P|454:112|506:65,1,89.9999972534181,10|2,0:0|0:0,0:0:0:0:
321,47,35000,2,0,P|366:52|409:40,1,89.9999972534181,2|2,0:0|0:0,0:0:0:0:
247,89,35375,2,0,P|213:52|190:36,1,44.999998626709,2|0,0:0|0:0,0:0:0:0:
314,228,35625,6,0,L|320:174,1,44.999998626709,10|0,0:0|0:0,0:0:0:0:
173,121,35875,2,0,L|178:166,1,44.999998626709,2|0,0:0|0:0,0:0:0:0:
394,245,36125,2,0,L|400:191,1,44.999998626709,10|0,0:0|0:0,0:0:0:0:
93,138,36375,2,0,L|98:183,1,44.999998626709,10|0,0:0|0:0,0:0:0:0:
474,262,36625,2,0,L|480:208,1,44.999998626709,10|0,0:0|0:0,0:0:0:0:
12,155,36875,5,10,0:0:0:0:
31,73,37000,2,0,B|68:54|68:54|116:50,1,89.9999972534181,10|2,0:0|0:0,0:0:0:0:
425,335,37375,2,0,L|373:325,1,44.999998626709,10|0,0:0|0:0,0:0:0:0:
204,42,37625,5,10,0:0:0:0:
249,174,37750,1,8,0:0:0:0:
293,306,37875,1,10,0:0:0:0:
293,306,38125,6,0,L|172:332,1,89.9999972534181,4|0,0:0|0:0,0:0:0:0:
131,301,38500,1,0,0:0:0:0:
131,301,38625,2,0,L|43:319,1,89.9999972534181,8|2,0:0|0:0,0:0:0:0:
52,243,39000,2,0,P|67:201|67:156,1,89.9999972534181,2|2,0:0|0:0,0:0:0:0:
86,81,39375,2,0,P|72:56|61:20,1,44.999998626709,2|0,0:0|0:0,0:0:0:0:
210,87,39625,6,0,L|141:72,1,44.999998626709,10|0,0:0|0:0,0:0:0:0:
332,134,39875,2,0,L|273:173,1,44.999998626709,2|0,0:0|0:0,0:0:0:0:
457,114,40125,6,0,L|428:230,1,89.9999972534181,2|0,0:0|0:0,0:0:0:0:
206,324,40625,2,0,L|228:237,1,89.9999972534181,8|2,0:0|0:0,0:0:0:0:
305,238,41000,2,0,P|343:262|388:266,1,89.9999972534181,2|2,0:0|0:0,0:0:0:0:
464,274,41375,2,0,P|466:295|464:330,1,44.999998626709,2|0,0:0|0:0,0:0:0:0:
375,185,41625,6,0,L|451:192,1,44.999998626709,10|0,0:0|0:0,0:0:0:0:
268,150,41875,2,0,L|327:102,1,44.999998626709,2|0,0:0|0:0,0:0:0:0:
159,184,42125,6,0,L|170:86,1,89.9999972534181,2|0,0:0|0:0,0:0:0:0:
305,238,42625,2,0,L|295:328,1,89.9999972534181,8|2,0:0|0:0,0:0:0:0:
219,313,43000,2,0,P|186:282|144:268,1,89.9999972534181,2|2,0:0|0:0,0:0:0:0:
85,218,43375,2,0,P|63:224|41:228,1,44.999998626709,2|0,0:0|0:0,0:0:0:0:
220,52,43625,6,0,L|205:-3,1,44.999998626709,10|0,0:0|0:0,0:0:0:0:
159,184,43875,2,0,L|144:129,1,44.999998626709,2|0,0:0|0:0,0:0:0:0:
276,239,44125,6,0,L|248:134,1,89.9999972534181,2|0,0:0|0:0,0:0:0:0:
319,100,44500,1,0,0:0:0:0:
319,100,44625,2,0,L|343:187,1,89.9999972534181,8|0,0:0|0:0,0:0:0:0:
400,236,45000,2,0,P|448:197|471:149,1,89.9999972534181,2|2,0:0|0:0,0:0:0:0:
443,99,45375,2,0,P|424:93|399:89,1,44.999998626709,2|0,0:0|0:0,0:0:0:0:
182,113,45625,6,0,L|123:97,1,44.999998626709,10|0,0:0|0:0,0:0:0:0:
348,21,45875,2,0,L|289:5,1,44.999998626709,2|0,0:0|0:0,0:0:0:0:
342,186,46125,6,0,L|250:161,1,89.9999972534181,2|0,0:0|0:0,0:0:0:0:
188,199,46500,1,0,0:0:0:0:
188,199,46625,2,0,P|142:233|79:235,1,89.9999972534181,10|2,0:0|0:0,0:0:0:0:
6,126,47000,2,0,P|49:138|83:167,1,89.9999972534181,2|2,0:0|0:0,0:0:0:0:
34,278,47375,2,0,P|36:255|27:214,1,44.999998626709,2|0,0:0|0:0,0:0:0:0:
157,337,47625,6,0,L|78:306,1,44.999998626709,10|0,0:0|0:0,0:0:0:0:
229,182,47875,2,0,L|150:213,1,44.999998626709,2|0,0:0|0:0,0:0:0:0:
306,331,48125,6,0,P|272:293|259:220,1,89.9999972534181,2|0,0:0|0:0,0:0:0:0:
314,204,48500,1,0,0:0:0:0:
315,205,48625,2,0,P|351:230|394:240,1,89.9999972534181,10|2,0:0|0:0,0:0:0:0:
430,112,49000,2,0,P|388:127|344:124,1,89.9999972534181,2|2,0:0|0:0,0:0:0:0:
411,11,49375,2,0,P|393:31|360:52,1,44.999998626709,2|0,0:0|0:0,0:0:0:0:
218,116,49625,6,0,L|277:139,1,44.999998626709,10|0,0:0|0:0,0:0:0:0:
117,33,49875,2,0,L|176:10,1,44.999998626709,2|0,0:0|0:0,0:0:0:0:
157,209,50125,6,0,P|121:173|106:104,1,89.9999972534181,2|0,0:0|0:0,0:0:0:0:
37,180,50500,1,0,0:0:0:0:
37,180,50625,2,0,P|24:230|-28:277,1,89.9999972534181,10|2,0:0|0:0,0:0:0:0:
157,295,51000,2,0,P|112:290|69:302,1,89.9999972534181,2|2,0:0|0:0,0:0:0:0:
231,253,51375,2,0,P|265:290|288:306,1,44.999998626709,2|0,0:0|0:0,0:0:0:0:
165,138,51625,6,0,L|159:192,1,44.999998626709,10|0,0:0|0:0,0:0:0:0:
306,57,51875,2,0,L|311:102,1,44.999998626709,2|0,0:0|0:0,0:0:0:0:
85,121,52125,2,0,L|79:175,1,44.999998626709,10|0,0:0|0:0,0:0:0:0:
386,40,52375,2,0,L|391:85,1,44.999998626709,10|0,0:0|0:0,0:0:0:0:
5,104,52625,2,0,L|-1:158,1,44.999998626709,10|0,0:0|0:0,0:0:0:0:
472,79,52875,5,10,0:0:0:0:
437,151,53000,2,0,B|412:189|412:189|347:209,1,89.9999972534181,10|2,0:0|0:0,0:0:0:0:
29,27,53375,2,0,L|74:22,1,44.999998626709,10|0,0:0|0:0,0:0:0:0:
288,202,53625,5,10,0:0:0:0:
184,114,53750,1,8,0:0:0:0:
81,31,53875,1,10,0:0:0:0:
81,31,54125,6,0,L|95:133,1,75.0000028610231,4|0,0:0|0:0,0:0:0:0:
233,40,54375,1,4,0:0:0:0:
247,127,54625,1,2,0:0:0:0:
247,127,54875,1,2,0:0:0:0:
233,40,55375,5,2,0:0:0:0:
313,74,55625,1,4,0:0:0:0:
393,109,55875,1,2,0:0:0:0:
472,148,56125,6,0,L|458:250,1,75.0000028610231,4|0,0:0|0:0,0:0:0:0:
320,157,56375,1,4,0:0:0:0:
306,244,56625,1,2,0:0:0:0:
306,244,56875,1,2,0:0:0:0:
320,157,57375,5,2,0:0:0:0:
240,191,57625,1,12,0:0:0:0:
160,226,57875,1,2,0:0:0:0:
77,262,58125,6,0,L|91:364,1,75.0000028610231,4|0,0:0|0:0,0:0:0:0:
229,271,58375,1,4,0:0:0:0:
243,358,58625,1,2,0:0:0:0:
243,358,58875,1,2,0:0:0:0:
229,271,59375,5,2,0:0:0:0:
309,305,59625,1,4,0:0:0:0:
389,340,59875,1,2,0:0:0:0:
472,373,60125,6,0,L|482:298,1,75.0000028610231,4|0,0:0|0:0,0:0:0:0:
391,157,60375,6,0,L|406:258,2,100,0|2|6,0:0|0:0|0:0,0:0:0:0:
315,122,61125,1,2,0:0:0:0:
250,176,61375,1,8,0:0:0:0:
171,145,61625,5,10,0:0:0:0:
236,90,61750,1,8,0:0:0:0:
315,122,61875,1,10,0:0:0:0:
315,122,62125,6,0,P|363:112|401:81,1,100,4|0,0:0|0:0,0:0:0:0:
512,333,62625,2,0,P|474:301|425:291,1,100,8|2,0:0|0:0,0:0:0:0:
466,221,63000,2,0,L|472:118,1,100,2|2,0:0|0:0,0:0:0:0:
473,41,63375,1,2,0:0:0:0:
401,80,63625,5,10,0:0:0:0:
328,46,63875,1,2,0:0:0:0:
265,98,64125,6,0,P|287:152|281:222,1,100,2|0,0:0|0:0,0:0:0:0:
40,333,64625,2,0,P|42:283|62:237,1,100,8|2,0:0|0:0,0:0:0:0:
136,271,65000,2,0,L|249:253,1,100,2|2,0:0|0:0,0:0:0:0:
313,268,65375,1,2,0:0:0:0:
287,193,65625,5,10,0:0:0:0:
338,134,65875,2,0,P|366:142|391:143,1,50,2|2,0:0|0:0,0:0:0:0:
250,21,66125,6,0,L|242:133,1,100,6|0,0:0|0:0,0:0:0:0:
173,46,66625,6,0,L|165:158,1,89.9999972534181,6|0,0:0|0:0,0:0:0:0:
96,63,67125,6,0,L|88:175,1,80,6|0,0:0|0:0,0:0:0:0:
17,78,67625,6,0,L|11:156,1,69.9999978637696,6|4,0:0|0:0,0:0:0:0:
12,147,68375,6,0,P|38:140|65:138,1,50,10|0,0:0|0:0,0:0:0:0:
91,259,68625,2,0,P|99:235|111:213,1,50,10|0,0:0|0:0,0:0:0:0:
225,287,68875,1,2,0:0:0:0:
194,213,69000,2,0,P|210:174|266:132,1,100,10|2,0:0|0:0,0:0:0:0:
486,183,69375,6,0,P|464:182|407:167,1,50,10|0,0:0|0:0,0:0:0:0:
330,275,69625,2,0,P|314:259|285:207,1,50,10|2,0:0|0:0,0:0:0:0:
106,262,69875,2,0,P|106:240|122:183,1,50,10|2,0:0|0:0,0:0:0:0:
341,1,70125,6,0,P|373:56|374:120,1,129.999994049073,4|0,0:0|0:0,0:0:0:0:
296,134,70500,1,0,0:0:0:0:
204,200,70625,2,0,P|205:136|238:81,1,129.999994049073,10|2,0:0|0:0,0:0:0:0:
408,251,71000,2,0,P|352:218|288:222,1,129.999994049073,2|2,0:0|0:0,0:0:0:0:
154,274,71375,1,0,0:0:0:0:
154,274,71625,6,0,L|169:354,1,64.9999970245363,10|0,0:0|0:0,0:0:0:0:
374,120,71875,2,0,L|385:56,1,64.9999970245363,10|0,0:0|0:0,0:0:0:0:
103,25,72125,6,0,P|152:66|170:127,1,129.999994049073,2|0,0:0|0:0,0:0:0:0:
127,192,72500,1,0,0:0:0:0:
0,242,72625,2,0,P|18:181|68:140,1,129.999994049073,10|2,0:0|0:0,0:0:0:0:
272,194,73000,2,0,P|231:145|170:127,1,129.999994049073,2|2,0:0|0:0,0:0:0:0:
143,270,73375,1,2,0:0:0:0:
143,270,73625,6,0,L|229:283,1,64.9999970245363,10|0,0:0|0:0,0:0:0:0:
320,12,73875,2,0,L|255:21,1,64.9999970245363,10|0,0:0|0:0,0:0:0:0:
460,245,74125,6,0,P|398:228|339:253,1,129.999994049073,2|0,0:0|0:0,0:0:0:0:
48,118,74625,2,0,P|106:142|168:126,1,129.999994049073,10|2,0:0|0:0,0:0:0:0:
268,298,75000,2,0,P|259:234|223:180,1,129.999994049073,2|2,0:0|0:0,0:0:0:0:
287,57,75375,2,0,P|261:77|245:105,1,64.9999970245363,2|0,0:0|0:0,0:0:0:0:
190,330,75625,1,8,0:0:0:0:
190,330,75875,2,0,P|164:310|147:282,1,64.9999970245363,2|2,0:0|0:0,0:0:0:0:
328,133,76125,6,0,P|389:116|448:141,1,129.999994049073,2|0,0:0|0:0,0:0:0:0:
147,282,76625,2,0,P|85:298|26:273,1,129.999994049073,10|2,0:0|0:0,0:0:0:0:
245,104,77000,2,0,P|209:157|200:221,1,129.999994049073,2|2,0:0|0:0,0:0:0:0:
105,140,77375,2,0,P|108:172|119:203,1,64.9999970245363,2|0,0:0|0:0,0:0:0:0:
279,265,77625,2,0,L|417:236,1,129.999994049073,8|2,0:0|0:0,0:0:0:0:
363,332,78000,1,2,0:0:0:0:
296,176,78125,6,0,P|314:149|340:129,1,64.9999970245363,4|0,0:0|0:0,0:0:0:0:
182,160,78375,2,0,P|195:189|199:221,1,64.9999970245363,2|0,0:0|0:0,0:0:0:0:
257,71,78625,2,0,P|224:68|194:55,1,64.9999970245363,10|0,0:0|0:0,0:0:0:0:
36,127,78875,1,2,0:0:0:0:
0,46,79000,2,0,P|63:51|113:91,1,129.999994049073,2|2,0:0|0:0,0:0:0:0:
33,212,79375,2,0,L|116:182,1,64.9999970245363,2|0,0:0|0:0,0:0:0:0:
261,289,79625,2,0,L|199:311,1,64.9999970245363,10|0,0:0|0:0,0:0:0:0:
194,55,79875,1,2,0:0:0:0:
237,119,80000,1,2,0:0:0:0:
280,183,80125,6,0,P|341:155|385:86,1,129.999994049073,2|0,0:0|0:0,0:0:0:0:
89,380,80625,2,0,P|80:316|42:264,1,129.999994049073,10|2,0:0|0:0,0:0:0:0:
216,229,81000,2,0,P|152:231|94:203,1,129.999994049073,2|2,0:0|0:0,0:0:0:0:
1,127,81375,2,0,P|7:159|17:190,1,64.9999970245363,2|0,0:0|0:0,0:0:0:0:
247,154,81625,1,8,0:0:0:0:
247,154,81875,2,0,P|256:123|262:91,1,64.9999970245363,2|0,0:0|0:0,0:0:0:0:
74,85,82125,6,0,P|138:79|192:44,1,129.999994049073,2|0,0:0|0:0,0:0:0:0:
422,260,82625,2,0,P|357:254|303:219,1,129.999994049073,8|2,0:0|0:0,0:0:0:0:
389,101,83000,2,0,P|365:123|315:142,1,64.9999970245363,2|0,0:0|0:0,0:0:0:0:
262,91,83250,1,2,0:0:0:0:
263,297,83375,2,0,P|262:237|223:176,1,129.999994049073,2|8,0:0|0:0,0:0:0:0:
226,178,83875,1,2,0:0:0:0:
161,221,84000,1,2,0:0:0:0:
95,262,84125,6,0,L|26:246,1,64.9999970245363,10|0,0:0|0:0,0:0:0:0:
235,14,84375,2,0,L|304:-2,1,64.9999970245363,10|0,0:0|0:0,0:0:0:0:
68,339,84625,2,0,L|-1:323,1,64.9999970245363,10|0,0:0|0:0,0:0:0:0:
262,91,84875,5,10,0:0:0:0:
337,72,85000,2,0,B|395:90|395:90|492:70,1,129.999994049073,10|2,0:0|0:0,0:0:0:0:
28,100,85375,2,0,L|44:162,1,64.9999970245363,10|0,0:0|0:0,0:0:0:0:
319,151,85625,5,10,0:0:0:0:
112,111,85750,1,8,0:0:0:0:
182,305,85875,1,10,0:0:0:0:
182,305,86125,6,0,P|161:325|119:345,1,64.9999970245363,6|0,0:0|0:0,0:0:0:0:
112,111,86375,2,0,P|105:82|108:36,1,64.9999970245363
319,151,86625,2,0,P|346:159|385:185,1,64.9999970245363,10|0,0:0|0:0,0:0:0:0:
204,187,86875,1,2,0:0:0:0:
329,0,87000,2,0,P|261:35|226:89,1,129.999994049073,2|2,0:0|0:0,0:0:0:0:
291,264,87375,1,0,0:0:0:0:
291,264,87625,6,0,L|219:286,1,64.9999970245363,10|0,0:0|0:0,0:0:0:0:
470,69,87875,2,0,L|398:47,1,64.9999970245363,10|0,0:0|0:0,0:0:0:0:
104,116,88125,6,0,P|203:184|210:219,1,129.999994049073,2|0,0:0|0:0,0:0:0:0:
157,249,88500,1,0,0:0:0:0:
129,353,88625,2,0,P|190:333|228:282,1,129.999994049073,10|2,0:0|0:0,0:0:0:0:
47,196,89000,2,0,P|33:258|58:318,1,129.999994049073,2|2,0:0|0:0,0:0:0:0:
203,186,89375,1,2,0:0:0:0:
203,186,89625,6,0,L|185:115,1,64.9999970245363,10|0,0:0|0:0,0:0:0:0:
465,346,89875,2,0,L|482:275,1,64.9999970245363,10|0,0:0|0:0,0:0:0:0:
283,7,90125,6,0,P|262:67|281:128,1,129.999994049073,2|0,0:0|0:0,0:0:0:0:
51,362,90625,2,0,P|69:300|49:240,1,129.999994049073,10|2,0:0|0:0,0:0:0:0:
196,266,91000,2,0,P|165:209|108:180,1,129.999994049073,2|2,0:0|0:0,0:0:0:0:
179,68,91375,2,0,P|148:78|123:98,1,64.9999970245363,2|0,0:0|0:0,0:0:0:0:
281,128,91625,1,8,0:0:0:0:
281,128,91875,2,0,P|306:148|336:158,1,64.9999970245363,2|2,0:0|0:0,0:0:0:0:
479,19,92125,6,0,P|429:59|359:62,1,129.999994049073,2|0,0:0|0:0,0:0:0:0:
108,180,92625,2,0,P|171:184|221:224,1,129.999994049073,10|2,0:0|0:0,0:0:0:0:
286,381,93000,2,0,L|294:252,1,129.999994049073,2|2,0:0|0:0,0:0:0:0:
366,352,93375,2,0,L|370:287,1,64.9999970245363,2|0,0:0|0:0,0:0:0:0:
221,224,93625,2,0,P|171:264|107:268,1,129.999994049073,8|2,0:0|0:0,0:0:0:0:
284,173,94000,1,2,0:0:0:0:
186,86,94125,6,0,P|194:117|210:146,1,64.9999970245363,4|0,0:0|0:0,0:0:0:0:
413,93,94375,2,0,P|381:84|349:83,1,64.9999970245363,2|0,0:0|0:0,0:0:0:0:
295,284,94625,2,0,P|317:260|334:233,1,64.9999970245363,10|0,0:0|0:0,0:0:0:0:
295,154,94875,1,2,0:0:0:0:
124,223,95000,2,0,P|186:238|246:215,1,129.999994049073,2|2,0:0|0:0,0:0:0:0:
68,101,95375,2,0,P|97:131|139:154,1,64.9999970245363,2|0,0:0|0:0,0:0:0:0:
98,308,95625,2,0,P|72:327|37:342,1,64.9999970245363,10|0,0:0|0:0,0:0:0:0:
157,69,95875,1,2,0:0:0:0:
232,54,96000,1,2,0:0:0:0:
308,39,96125,6,0,P|331:101|313:181,1,129.999994049073,2|0,0:0|0:0,0:0:0:0:
498,380,96625,2,0,P|489:316|512:256,1,129.999994049073,10|2,0:0|0:0,0:0:0:0:
452,205,97000,2,0,P|397:238|333:241,1,129.999994049073,2|2,0:0|0:0,0:0:0:0:
484,126,97375,2,0,P|497:59|493:37,1,64.9999970245363,2|0,0:0|0:0,0:0:0:0:
255,208,97625,1,8,0:0:0:0:
255,208,97875,2,0,P|268:275|264:297,1,64.9999970245363,2|2,0:0|0:0,0:0:0:0:
68,312,98125,6,0,P|132:306|186:271,1,129.999994049073,2|0,0:0|0:0,0:0:0:0:
424,40,98625,2,0,P|359:34|305:-1,1,129.999994049073,8|2,0:0|0:0,0:0:0:0:
176,55,99000,2,0,P|205:40|229:18,1,64.9999970245363,2|0,0:0|0:0,0:0:0:0:
103,11,99250,1,2,0:0:0:0:
133,206,99375,2,0,P|131:142|97:88,1,129.999994049073,2|8,0:0|0:0,0:0:0:0:
97,88,99875,1,2,0:0:0:0:
173,103,100000,1,2,0:0:0:0:
249,121,100125,6,0,L|319:99,1,64.9999970245363,10|0,0:0|0:0,0:0:0:0:
145,311,100375,2,0,L|75:289,1,64.9999970245363,10|0,0:0|0:0,0:0:0:0:
306,185,100625,2,0,L|376:163,1,64.9999970245363,10|0,0:0|0:0,0:0:0:0:
88,375,100875,5,10,0:0:0:0:
12,342,101000,2,0,B|-4:284|-4:284|22:217,1,129.999994049073,10|2,0:0|0:0,0:0:0:0:
414,235,101375,2,0,L|402:309,1,64.9999970245363,10|0,0:0|0:0,0:0:0:0:
107,111,101625,5,10,0:0:0:0:
306,185,101750,1,8,0:0:0:0:
145,313,101875,1,10,0:0:0:0:
145,313,102125,6,0,P|182:269|192:210,1,119.999996337891,4|0,0:0|0:0,0:0:0:0:
107,111,102500,2,0,P|115:170|154:215,1,119.999996337891,2|0,0:0|0:0,0:0:0:0:
269,260,102875,1,2,0:0:0:0:
418,163,103000,2,0,P|359:161|305:185,1,119.999996337891,2|0,0:0|0:0,0:0:0:0:
257,345,103375,1,2,0:0:0:0:
257,345,103625,6,0,P|286:343|332:360,1,59.9999981689454,2|0,0:0|0:0,0:0:0:0:
163,216,103875,2,0,P|185:197|231:180,1,59.9999981689454,2|0,0:0|0:0,0:0:0:0:
42,128,104125,6,0,P|76:80|139:45,1,119.999996337891,2|0,0:0|0:0,0:0:0:0:
276,87,104500,2,0,P|335:91|388:64,1,119.999996337891,2|0,0:0|0:0,0:0:0:0:
210,35,104875,1,2,0:0:0:0:
200,118,105000,2,0,P|186:177|185:236,1,119.999996337891,2|0,0:0|0:0,0:0:0:0:
365,360,105375,2,0,P|351:301|350:241,1,119.999996337891,2|0,0:0|0:0,0:0:0:0:
349,241,105875,5,2,0:0:0:0:
270,270,106000,1,2,0:0:0:0:
190,243,106125,2,0,P|132:236|77:259,1,119.999996337891,2|0,0:0|0:0,0:0:0:0:
38,131,106500,2,0,P|29:189|52:244,1,119.999996337891,2|0,0:0|0:0,0:0:0:0:
113,93,106875,1,2,0:0:0:0:
296,153,107000,2,0,P|237:161|183:138,1,119.999996337891,2|0,0:0|0:0,0:0:0:0:
91,11,107375,1,2,0:0:0:0:
91,11,107625,6,0,P|118:19|166:26,1,59.9999981689454,2|0,0:0|0:0,0:0:0:0:
319,56,107875,2,0,P|290:62|261:70,1,59.9999981689454,2|0,0:0|0:0,0:0:0:0:
401,155,108125,6,0,P|454:184|513:184,1,119.999996337891,2|0,0:0|0:0,0:0:0:0:
329,233,108500,2,0,P|270:234|218:262,1,119.999996337891,2|0,0:0|0:0,0:0:0:0:
421,268,108875,2,0,P|427:297|438:325,1,59.9999981689454,2|0,0:0|0:0,0:0:0:0:
342,219,109125,1,2,0:0:0:0:
399,138,109250,2,0,P|408:79|440:28,1,119.999996337891,2|0,0:0|0:0,0:0:0:0:
333,214,109625,1,2,0:0:0:0:
333,214,109875,5,0,0:0:0:0:
315,124,110000,1,0,0:0:0:0:
333,214,110125,2,0,P|303:208|274:201,1,59.9999981689454,2|0,0:0|0:0,0:0:0:0:
400,266,110375,2,0,P|384:288|364:329,1,59.9999981689454,2|0,0:0|0:0,0:0:0:0:
227,129,110625,2,0,P|214:70|210:37,1,59.9999981689454,2|0,0:0|0:0,0:0:0:0:
203,247,110875,5,2,0:0:0:0:
203,247,111000,1,0,0:0:0:0:
147,175,111125,2,0,P|87:166|33:141,1,119.999996337891,2|0,0:0|0:0,0:0:0:0:
153,319,111500,2,0,P|115:338|18:351,1,119.999996337891,2|0,0:0|0:0,0:0:0:0:
245,384,111875,2,0,P|240:355|239:325,1,59.9999981689454,2|0,0:0|0:0,0:0:0:0:
361,113,112125,6,0,P|358:205|344:243,1,119.999996337891,2|0,0:0|0:0,0:0:0:0:
424,370,112500,2,0,P|368:350|324:311,1,119.999996337891,2|0,0:0|0:0,0:0:0:0:
271,244,112875,1,2,0:0:0:0:
283,64,113000,2,0,P|227:83|182:122,1,119.999996337891,2|0,0:0|0:0,0:0:0:0:
18,120,113375,2,0,P|75:140|120:180,1,119.999996337891,2|0,0:0|0:0,0:0:0:0:
120,180,113875,5,2,0:0:0:0:
132,264,114000,1,2,0:0:0:0:
144,347,114125,2,0,P|203:344|256:316,1,119.999996337891,2|0,0:0|0:0,0:0:0:0:
390,335,114500,2,0,P|449:338|502:366,1,119.999996337891,2|0,0:0|0:0,0:0:0:0:
330,277,114875,1,2,0:0:0:0:
288,91,115000,2,0,P|273:148|282:208,1,119.999996337891,2|0,0:0|0:0,0:0:0:0:
312,367,115375,1,2,0:0:0:0:
312,367,115625,6,0,P|283:371|248:390,1,59.9999981689454
330,277,115875,2,0,P|359:281|394:300,1,59.9999981689454,2|0,0:0|0:0,0:0:0:0:
282,208,116125,2,0,P|256:220|227:247,1,59.9999981689454,2|0,0:0|0:0,0:0:0:0:
339,140,116375,6,0,L|330:65,1,59.9999981689454,8|0,0:0|0:0,0:0:0:0:
153,211,116625,2,0,L|144:136,1,59.9999981689454,8|0,0:0|0:0,0:0:0:0:
89,77,116875,5,2,0:0:0:0:
247,55,117000,2,0,P|188:50|142:12,1,119.999996337891,2|0,0:0|0:0,0:0:0:0:
25,203,117375,2,0,P|39:177|62:158,1,59.9999981689454,2|0,0:0|0:0,0:0:0:0:
234,235,117625,1,2,0:0:0:0:
153,211,117750,1,2,0:0:0:0:
239,250,117875,2,0,P|226:277|203:296,1,59.9999981689454,2|0,0:0|0:0,0:0:0:0:
220,135,118125,6,0,L|298:147,2,59.9999981689454,10|8|8,0:0|0:0|0:0,0:0:0:0:
342,92,118500,2,0,L|217:120,1,119.999996337891,10|0,0:0|0:0,0:0:0:0:
306,236,118875,6,0,L|384:248,2,59.9999981689454,10|8|8,0:0|0:0|0:0,0:0:0:0:
428,193,119250,2,0,L|303:221,1,119.999996337891,10|0,0:0|0:0,0:0:0:0:
381,344,119625,6,0,L|459:356,2,59.9999981689454,10|8|8,0:0|0:0|0:0,0:0:0:0:
503,301,120000,1,10,0:0:0:0:
361,329,120125,6,0,L|283:341,2,59.9999981689454,10|8|8,0:0|0:0|0:0,0:0:0:0:
239,286,120500,2,0,L|364:314,1,119.999996337891,10|0,0:0|0:0,0:0:0:0:
242,197,120875,6,0,L|164:209,2,59.9999981689454,10|8|8,0:0|0:0|0:0,0:0:0:0:
120,154,121250,2,0,L|245:182,1,119.999996337891,10|0,0:0|0:0,0:0:0:0:
126,66,121625,6,0,L|48:78,2,59.9999981689454,10|8|8,0:0|0:0|0:0,0:0:0:0:
4,23,122000,1,10,0:0:0:0:
45,193,122125,5,6,0:0:0:0:
256,192,122250,12,0,127625,0:0:0:0:
