osu file format v14

[General]
AudioFilename: audio.mp3
AudioLeadIn: 0
PreviewTime: 67183
Countdown: 0
SampleSet: None
StackLeniency: 0.5
Mode: 0
LetterboxInBreaks: 0
SkinPreference:new skin (1)
WidescreenStoryboard: 0

[Editor]
Bookmarks: 66803
DistanceSpacing: 1
BeatDivisor: 4
GridSize: 8
TimelineZoom: 1

[Metadata]
Title:Natsukoi Hanabi
TitleUnicode:夏恋花火
Artist:chano & 40mP
ArtistUnicode:シャノ & 40mP
Creator:someguy33
Version:Summer Festival
Source:
Tags:
BeatmapID:1881520
BeatmapSetID:901025

[Difficulty]
HPDrainRate:5
CircleSize:4
OverallDifficulty:8
ApproachRate:8.4
SliderMultiplier:1.7
SliderTickRate:1

[Events]
//Background and Video events
0,0,"cropped-1920-1080-290580.jpg",0,0
//Break Periods
//Storyboard Layer 0 (Background)
//Storyboard Layer 1 (Fail)
//Storyboard Layer 2 (Pass)
//Storyboard Layer 3 (Foreground)
//Storyboard Sound Samples

[TimingPoints]
348,379.746835443038,4,1,0,60,1,0
18193,-125,4,1,0,60,0,0
18572,-100,4,1,0,80,0,0
21613,-100,4,1,0,100,0,0
27689,-100,4,1,0,88,0,0
51993,-100,4,1,0,65,0,0
64145,-100,4,1,0,100,0,0
65664,-166.666666666667,4,1,0,100,0,0
66044,-166.666666666667,4,1,0,5,0,0
66423,-166.666666666667,4,1,0,5,0,0
67183,-100,4,1,0,100,0,1
84841,-100,4,1,0,5,0,1
85031,-100,4,1,0,100,0,1
91487,-100,4,1,0,100,0,0

[Colours]
Combo1 : 0,117,0
Combo2 : 85,0,85
Combo3 : 245,245,0
Combo4 : 0,72,145

[HitObjects]
119,60,12120,5,0,0:0:0:0:
119,60,12214,1,0,0:0:0:0:
119,60,12309,1,0,0:0:0:0:
119,60,12404,1,0,0:0:0:0:
119,60,12499,6,0,L|114:174,1,85
130,310,12879,1,0,0:0:0:0:
240,178,13069,2,0,P|272:142|408:166,1,170
468,232,13639,1,0,0:0:0:0:
318,379,13829,2,0,L|325:205,1,170
402,82,14398,1,0,0:0:0:0:
256,154,14588,2,0,B|162:119|190:198|78:167,1,170
0,75,15158,1,0,0:0:0:0:
41,279,15348,1,0,0:0:0:0:
123,75,15537,6,0,P|165:54|238:40,1,85
349,69,15917,1,0,0:0:0:0:
204,132,16107,2,0,P|165:170|174:305,1,170
268,384,16677,1,0,0:0:0:0:
419,233,16866,2,0,B|322:258|352:200|240:222,1,170
82,296,17436,1,0,0:0:0:0:
145,163,17626,2,0,P|186:131|323:119,1,170
468,279,18196,6,0,L|472:190,1,68
387,58,18575,6,0,P|397:116|381:169,1,85
273,351,18955,2,0,P|269:309|272:267,1,85
340,190,19335,5,0,0:0:0:0:
241,108,19525,1,0,0:0:0:0:
407,49,19715,1,0,0:0:0:0:
159,19,19904,1,0,0:0:0:0:
134,270,20094,6,0,L|130:161,1,85
226,357,20474,2,0,L|230:248,1,85
299,135,20854,1,0,0:0:0:0:
335,228,21044,1,0,0:0:0:0:
412,27,21234,1,0,0:0:0:0:
147,121,21423,1,0,0:0:0:0:
335,228,21613,6,0,L|329:330,1,85
213,299,21993,2,0,L|219:401,1,85
118,107,22373,1,0,0:0:0:0:
93,276,22563,1,0,0:0:0:0:
238,90,22753,1,0,0:0:0:0:
238,90,22942,6,0,B|332:64|313:121|413:86,1,170
503,35,23512,1,0,0:0:0:0:
474,157,23702,2,0,L|467:333,1,170
370,384,24272,1,0,0:0:0:0:
370,384,24366,1,0,0:0:0:0:
370,384,24461,1,0,0:0:0:0:
370,384,24556,1,0,0:0:0:0:
370,384,24651,6,0,P|293:358|188:369,1,170
99,384,25221,1,0,0:0:0:0:
173,257,25411,1,0,0:0:0:0:
0,322,25601,1,0,0:0:0:0:
105,132,25791,1,0,0:0:0:0:
105,132,25980,6,0,B|206:99|175:168|295:139,1,170
348,98,26550,1,0,0:0:0:0:
147,384,26740,2,0,L|152:211,1,170
134,38,27310,5,0,0:0:0:0:
62,124,27499,1,0,0:0:0:0:
318,97,27689,1,0,0:0:0:0:
318,97,29208,5,0,0:0:0:0:
318,97,30158,5,0,0:0:0:0:
371,276,30348,1,0,0:0:0:0:
260,199,30727,2,0,P|200:190|99:228,1,170
36,320,31297,1,0,0:0:0:0:
61,150,31487,6,0,P|101:125|168:108,1,85
238,150,31866,1,0,0:0:0:0:
136,370,32056,2,0,L|142:191,1,170
209,56,32626,1,0,0:0:0:0:
389,183,32816,2,0,B|280:193|324:124|196:137,1,170
137,173,33385,1,0,0:0:0:0:
237,382,33765,6,0,L|242:190,1,170
294,100,34335,1,0,0:0:0:0:
111,179,34525,2,0,P|57:170|9:145,1,85
201,102,34904,5,0,0:0:0:0:
301,206,35094,2,0,P|361:203|402:190,1,85
477,96,35474,2,0,P|417:93|376:80,1,85
236,9,35854,2,0,L|229:203,1,170
145,356,36423,1,0,0:0:0:0:
78,172,36613,1,0,0:0:0:0:
185,261,36803,6,0,B|297:284|248:203|374:233,1,170
485,343,37373,2,0,P|418:315|314:321,1,170
216,375,37942,1,0,0:0:0:0:
129,291,38132,2,0,L|134:121,1,170
200,30,38702,1,0,0:0:0:0:
252,149,38892,1,0,0:0:0:0:
452,37,39272,1,0,0:0:0:0:
368,194,39841,5,0,0:0:0:0:
368,194,41360,5,0,0:0:0:0:
326,11,42310,5,0,0:0:0:0:
368,194,42499,1,0,0:0:0:0:
269,251,42879,6,0,P|211:260|117:180,1,170
238,89,43449,1,0,0:0:0:0:
334,183,43639,2,0,P|356:231|352:296,1,85
302,347,44018,1,0,0:0:0:0:
170,194,44208,2,0,P|122:177|37:258,1,170
119,259,44778,1,0,0:0:0:0:
246,149,44968,2,0,P|326:137|377:200,1,170
296,214,45538,1,0,0:0:0:0:
386,367,45917,6,0,L|392:263,1,85
422,165,46297,1,0,0:0:0:0:
287,295,46487,1,0,0:0:0:0:
215,193,46677,2,0,P|177:174|116:167,1,85
0,196,47056,1,0,0:0:0:0:
108,65,47246,2,0,P|176:66|294:120,1,170
354,213,47816,1,0,0:0:0:0:
223,280,48006,2,0,P|173:271|133:250,1,85
26,181,48385,2,0,P|76:172|116:151,1,85
207,30,48765,1,0,0:0:0:0:
207,30,48955,6,0,L|203:234,1,170
332,291,49525,2,0,P|279:271|252:269,1,85
57,361,49904,2,0,P|110:341|137:339,1,85
234,383,50284,2,0,L|336:369,1,85
407,331,50664,1,0,0:0:0:0:
326,245,50854,6,0,B|368:139|280:187|322:48,1,170
470,134,51423,2,0,P|396:115|361:116,1,85
224,215,51803,1,0,0:0:0:0:
224,215,51898,1,0,0:0:0:0:
224,215,51993,6,0,L|229:115,1,85
128,276,52373,2,0,L|123:176,1,85
196,356,52753,2,0,P|239:336|299:340,1,85
366,368,53132,2,0,P|408:365|445:346,1,85
390,289,53512,6,0,L|398:104,1,170
363,30,54082,1,0,0:0:0:0:
266,100,54272,2,0,P|207:88|161:94,1,85
77,134,54651,1,0,0:0:0:0:
156,254,54841,1,0,0:0:0:0:
156,254,55031,6,0,P|194:216|285:267,1,170
337,345,55601,2,0,P|397:396|465:353,1,170
501,258,56170,1,0,0:0:0:0:
424,149,56360,1,0,0:0:0:0:
424,149,56550,6,0,P|373:141|304:152,1,85
273,208,56930,2,0,P|230:206|189:194,1,85
106,84,57310,2,0,L|96:288,1,170
26,349,57879,1,0,0:0:0:0:
26,349,57974,1,0,0:0:0:0:
26,349,58069,6,0,P|57:317|190:337,1,170
233,379,58639,1,0,0:0:0:0:
293,305,58829,2,0,P|365:283|397:281,1,85
458,209,59208,2,0,P|386:187|354:185,1,85
266,104,59588,6,0,P|273:154|258:217,1,85
190,265,59968,2,0,P|185:307|192:348,1,85
371,307,60348,2,0,L|279:301,1,85
428,227,60727,2,0,L|520:221,1,85
324,124,61107,1,0,0:0:0:0:
324,124,61487,5,0,0:0:0:0:
269,348,61677,1,0,0:0:0:0:
208,97,62056,1,0,0:0:0:0:
40,280,62436,6,0,P|75:262|137:261,1,85
191,377,62816,2,0,P|148:373|111:354,1,85
86,165,63196,1,0,0:0:0:0:
270,335,63575,1,0,0:0:0:0:
270,335,63955,1,0,0:0:0:0:
301,38,64145,5,0,0:0:0:0:
417,272,64335,1,0,0:0:0:0:
471,93,64525,5,0,0:0:0:0:
199,201,64715,1,0,0:0:0:0:
396,31,64904,5,0,0:0:0:0:
272,307,65094,1,0,0:0:0:0:
92,146,65284,2,0,P|49:147|8:158,1,85
0,191,65664,6,0,B|190:199|127:80|297:81,1,305.999990661621
412,203,67183,6,0,L|404:321,1,85
313,84,67563,2,0,L|307:-1,1,85
257,236,67942,1,0,0:0:0:0:
143,32,68132,1,0,0:0:0:0:
80,282,68322,1,0,0:0:0:0:
185,141,68512,2,0,P|248:117|281:116,1,85
423,251,68892,2,0,P|360:227|327:226,1,85
241,370,69272,6,0,L|245:192,1,170
287,62,69841,1,0,0:0:0:0:
339,292,70031,1,0,0:0:0:0:
120,125,70221,2,0,P|59:118|-4:129,1,85
220,210,70601,2,0,P|281:203|344:214,1,85
427,251,70980,1,0,0:0:0:0:
428,94,71170,1,0,0:0:0:0:
264,312,71360,1,0,0:0:0:0:
164,89,71550,2,0,P|124:65|72:60,1,85
264,176,71930,2,0,P|304:152|356:147,1,85
442,344,72310,6,0,B|485:245|412:274|434:158,1,170
488,82,72879,1,0,0:0:0:0:
311,181,73069,1,0,0:0:0:0:
181,70,73259,6,0,P|140:49|91:43,1,85
16,208,73639,2,0,P|57:187|106:181,1,85
190,251,74018,1,0,0:0:0:0:
299,140,74208,1,0,0:0:0:0:
363,355,74398,1,0,0:0:0:0:
363,355,74588,6,0,P|357:292|362:241,1,85
468,144,74968,2,0,P|474:207|469:258,1,85
390,63,75348,2,0,B|284:25|314:101|188:49,1,170
127,0,75917,1,0,0:0:0:0:
91,201,76107,1,0,0:0:0:0:
203,354,76297,6,0,P|256:331|397:305,1,170
474,376,76866,2,0,L|481:207,1,170
434,114,77436,1,0,0:0:0:0:
326,311,77626,1,0,0:0:0:0:
235,244,77816,2,0,B|140:236|177:305|79:292,1,170
8,220,78385,1,0,0:0:0:0:
237,97,78765,1,0,0:0:0:0:
303,263,78955,5,0,0:0:0:0:
180,20,79145,1,0,0:0:0:0:
180,20,79335,6,0,P|154:76|144:109,1,85
317,103,79715,2,0,P|335:141|350:181,1,85
320,282,80094,1,0,0:0:0:0:
220,230,80284,1,0,0:0:0:0:
298,384,80474,1,0,0:0:0:0:
426,172,80664,6,0,P|481:157|531:154,1,85
294,82,81044,2,0,P|239:67|189:64,1,85
226,323,81423,2,0,B|193:213|278:284|236:147,1,170
163,73,81993,1,0,0:0:0:0:
333,0,82183,1,0,0:0:0:0:
433,135,82373,6,0,P|482:124|530:92,1,85
329,220,82753,2,0,P|280:209|232:177,1,85
150,56,83132,2,0,L|147:151,1,85
114,284,83512,1,0,0:0:0:0:
256,119,83702,2,0,P|301:96|368:81,1,85
444,113,84082,1,0,0:0:0:0:
307,311,84272,1,0,0:0:0:0:
385,267,84461,2,0,P|331:228|216:336,1,255
266,135,85221,5,0,0:0:0:0:
164,25,85411,5,0,0:0:0:0:
97,286,85601,1,0,0:0:0:0:
0,188,85791,5,0,0:0:0:0:
233,72,85980,1,0,0:0:0:0:
170,300,86170,2,0,L|165:396,1,85
280,228,86550,2,0,L|275:143,1,85
319,17,86930,5,0,0:0:0:0:
460,221,87120,1,0,0:0:0:0:
352,174,87310,5,0,0:0:0:0:
242,305,87499,1,0,0:0:0:0:
124,195,87689,2,0,P|70:185|10:187,1,85
254,74,88069,2,0,P|308:64|368:66,1,85
462,170,88449,5,0,0:0:0:0:
405,343,88639,1,0,0:0:0:0:
380,203,88829,5,0,0:0:0:0:
243,305,89018,1,0,0:0:0:0:
305,140,89208,5,0,0:0:0:0:
61,114,89398,1,0,0:0:0:0:
140,289,89588,1,0,0:0:0:0:
205,104,89778,6,0,P|239:78|378:43,1,170
466,75,90348,1,0,0:0:0:0:
370,342,90537,2,0,L|375:159,1,170
312,64,91107,1,0,0:0:0:0:
226,303,91297,1,0,0:0:0:0:
226,303,91392,1,0,0:0:0:0:
226,303,91487,1,0,0:0:0:0:
256,192,91582,12,0,94525,0:0:0:0:
