osu file format v14

[General]
AudioFilename: audio.mp3
AudioLeadIn: 0
PreviewTime: 66978
Countdown: 0
SampleSet: Soft
StackLeniency: 0.4
Mode: 0
LetterboxInBreaks: 0
WidescreenStoryboard: 0

[Editor]
DistanceSpacing: 3.1
BeatDivisor: 4
GridSize: 32
TimelineZoom: 1.5

[Metadata]
Title:Natsukoi Hanabi
TitleUnicode:夏恋花火
Artist:chano & 40mP
ArtistUnicode:シャノ & 40mP
Creator:andemuu
Version:Everlasting Dream
Source:
Tags:japanese song vocal anime short version jump
BeatmapID:2937298
BeatmapSetID:1426389

[Difficulty]
HPDrainRate:6
CircleSize:3.8
OverallDifficulty:8.5
ApproachRate:9.2
SliderMultiplier:1.9
SliderTickRate:1

[Events]
//Background and Video events
0,0,"BG.jpg",0,0
//Break Periods
//Storyboard Layer 0 (Background)
//Storyboard Layer 1 (Fail)
//Storyboard Layer 2 (Pass)
//Storyboard Layer 3 (Foreground)
//Storyboard Layer 4 (Overlay)
//Storyboard Sound Samples

[TimingPoints]
355,379.746835443038,4,2,0,40,1,0
355,-125,4,2,0,40,0,0
10798,-83.3333333333333,4,2,0,40,0,0
12317,-90.9090909090909,4,2,0,40,0,0
12443,-90.9090909090909,4,2,0,60,0,0
12506,-90.9090909090909,4,2,0,60,0,0
18582,-90.9090909090909,4,2,0,60,0,1
23044,-90.9090909090909,4,2,0,60,0,0
27633,-1000,4,2,0,40,0,0
28456,-250,4,2,0,40,0,0
29215,-1000,4,2,0,40,0,0
30355,-250,4,2,0,40,0,0
30734,-125,4,2,0,40,0,0
33772,-90.9090909090909,4,2,0,60,0,0
38899,-76.9230769230769,4,2,0,60,0,0
39279,-90.9090909090909,4,2,0,60,0,0
39785,-1000,4,2,0,40,0,0
41367,-333.333333333333,4,2,0,40,0,0
42886,-90.9090909090909,4,2,0,40,0,0
45861,-90.9090909090909,4,2,0,50,0,0
49532,-111.111111111111,4,2,0,50,0,0
49911,-90.9090909090909,4,2,0,50,0,0
51937,-142.857142857143,4,2,0,30,0,0
61051,-100,4,2,0,50,0,0
64089,-100,4,2,0,60,0,0
65671,-100,4,2,0,50,0,0
66557,-500,4,2,0,20,0,0
67127,-76.9230769230769,4,2,0,70,0,1
78392,-166.666666666667,4,2,0,70,0,0
78772,-76.9230769230769,4,2,0,70,0,0
79342,-76.9230769230769,4,2,0,70,0,1
85228,-76.9230769230769,4,2,0,70,0,0
85355,-76.9230769230769,4,2,0,70,0,1
85544,-76.9230769230769,4,2,0,50,0,1
85734,-76.9230769230769,4,2,0,70,0,1
85923,-76.9230769230769,4,2,0,50,0,1
86130,-76.9230769230769,4,2,0,70,0,1
86319,-76.9230769230769,4,2,0,50,0,1
86430,-76.9230769230769,4,2,0,70,0,1
86619,-76.9230769230769,4,2,0,50,0,1
86873,-76.9230769230769,4,2,0,70,0,1
87062,-76.9230769230769,4,2,0,50,0,1
87253,-76.9230769230769,4,2,0,70,0,1
87442,-76.9230769230769,4,2,0,50,0,1
87570,-76.9230769230769,4,2,0,70,0,1
87759,-76.9230769230769,4,2,0,50,0,1
88013,-76.9230769230769,4,2,0,70,0,1
88202,-76.9230769230769,4,2,0,50,0,1
88329,-76.9230769230769,4,2,0,70,0,1
88518,-76.9230769230769,4,2,0,50,0,1
88772,-76.9230769230769,4,2,0,70,0,1
88961,-76.9230769230769,4,2,0,50,0,1
89089,-76.9230769230769,4,2,0,70,0,1
89278,-76.9230769230769,4,2,0,50,0,1
89532,-76.9230769230769,4,2,0,70,0,1
89785,-76.9230769230769,4,2,0,50,0,0
89975,-76.9230769230769,4,2,0,80,0,0
91114,-100,4,2,0,80,0,0
91557,-76.9230769230769,4,2,0,45,0,0
92760,-76.9230769230769,4,2,0,35,0,0
93954,-76.9230769230769,4,2,0,20,0,0
94468,-76.9230769230769,4,2,0,5,0,0

[HitObjects]
175,187,355,6,0,P|200:216|208:253,1,76
175,338,734,1,0,0:0:0:0:
69,207,924,2,0,L|97:58,1,152
238,44,1494,5,0,0:0:0:0:
238,44,1684,2,0,L|312:56,1,76
289,152,2063,2,0,L|363:164,1,76
307,74,2443,2,0,L|381:86,1,76
358,182,2823,2,0,L|432:194,1,76
96,210,3392,6,0,P|97:172|113:138,2,76
188,74,3962,2,0,P|122:41|49:57,1,152
278,245,4532,1,0,0:0:0:0:
278,245,4722,2,0,B|302:196|302:196|284:100,1,152
189,292,5291,1,0,0:0:0:0:
404,181,5481,2,0,P|403:218|389:253,1,76
195,115,5861,2,0,P|196:78|295:29,1,152
357,334,6430,6,0,L|281:343,2,76
233,243,7000,2,0,P|178:292|169:366,1,152
421,212,7570,1,0,0:0:0:0:
421,212,7760,2,0,L|396:61,1,152
115,61,8519,2,0,L|91:212,1,152
256,252,9279,1,0,0:0:0:0:
272,79,9468,6,0,P|293:111|305:147,1,76
254,355,9848,1,0,0:0:0:0:
112,117,10038,1,0,0:0:0:0:
426,284,10418,2,0,L|409:358,1,76
59,228,10798,6,0,B|177:174|168:296|296:245,1,227.999993041992
475,39,11367,1,0,0:0:0:0:
350,195,11557,1,0,0:0:0:0:
492,346,11937,5,0,0:0:0:0:
453,136,12127,1,0,0:0:0:0:
277,343,12317,1,0,0:0:0:0:
277,343,12411,1,0,0:0:0:0:
276,342,12506,2,0,P|232:316|211:269,1,104.500003189087
264,82,12886,1,0,0:0:0:0:
114,234,13076,2,0,L|10:245,1,104.500003189087
314,253,13456,5,0,0:0:0:0:
258,100,13646,1,0,0:0:0:0:
430,212,13836,2,0,B|450:248|450:248|444:311,1,104.500003189087
162,124,14215,2,0,P|169:73|197:29,1,104.500003189087
342,323,14595,2,0,B|178:318|178:318|144:287,1,209.000006378174
69,62,15165,6,0,L|61:166,1,104.500003189087
61,166,15449,1,0,0:0:0:0:
61,166,15544,1,0,0:0:0:0:
332,122,15734,1,0,0:0:0:0:
194,57,15924,1,0,0:0:0:0:
258,234,16114,6,0,L|361:247,1,104.500003189087
109,151,16494,1,0,0:0:0:0:
153,331,16684,1,0,0:0:0:0:
92,133,16873,2,0,P|111:85|149:51,1,104.500003189087
394,80,17253,1,0,0:0:0:0:
188,43,17443,1,0,0:0:0:0:
292,209,17633,5,0,0:0:0:0:
292,209,17728,1,0,0:0:0:0:
292,209,17823,1,0,0:0:0:0:
288,79,18013,1,0,0:0:0:0:
237,306,18203,1,0,0:0:0:0:
400,192,18392,1,0,0:0:0:0:
128,180,18582,6,0,L|23:180,1,104.500003189087,8|0,0:0|0:0,0:0:0:0:
399,205,18962,2,0,L|503:204,1,104.500003189087,8|0,0:0|0:0,0:0:0:0:
289,87,19342,5,8,0:0:0:0:
285,318,19532,1,0,0:0:0:0:
160,153,19722,1,8,0:0:0:0:
416,189,19911,1,0,0:0:0:0:
172,257,20101,6,0,P|121:249|80:217,1,104.500003189087,8|0,0:0|0:0,0:0:0:0:
269,41,20481,2,0,P|320:49|361:81,1,104.500003189087,8|0,0:0|0:0,0:0:0:0:
324,285,20861,1,8,0:0:0:0:
505,212,21051,1,0,0:0:0:0:
297,140,21241,1,8,0:0:0:0:
425,341,21430,5,0,0:0:0:0:
425,341,21525,1,0,0:0:0:0:
425,341,21620,2,0,L|413:237,1,104.500003189087,8|0,0:0|0:0,0:0:0:0:
382,35,22000,5,8,0:0:0:0:
407,205,22190,1,0,0:0:0:0:
249,59,22380,5,8,0:0:0:0:
262,230,22570,1,0,0:0:0:0:
107,43,22760,5,8,0:0:0:0:
120,214,22950,1,2,0:0:0:0:
121,228,23329,5,2,0:0:0:0:
108,77,23519,1,0,0:0:0:0:
318,153,23709,1,2,0:0:0:0:
221,283,23899,1,0,0:0:0:0:
206,30,24089,1,2,0:0:0:0:
405,179,24279,5,0,0:0:0:0:
404,214,24373,1,0,0:0:0:0:
408,255,24468,1,0,0:0:0:0:
407,299,24563,1,0,0:0:0:0:
410,337,24658,1,4,0:0:0:0:
137,166,25038,5,0,0:0:0:0:
235,58,25228,1,0,0:0:0:0:
32,138,25418,2,0,P|23:188|38:238,2,104.500003189087
321,231,25987,2,0,P|255:307|154:306,1,209.000006378174
254,32,26557,5,0,0:0:0:0:
144,254,26747,2,0,P|188:256|171:297,1,104.500003189087
259,17,27127,1,0,0:0:0:0:
105,124,27317,1,0,0:0:0:0:
339,200,27506,1,0,0:0:0:0:
218,126,27696,6,0,L|191:134,1,28.5
83,244,28456,2,0,P|65:237|46:232,2,38
149,333,29025,1,0,0:0:0:0:
356,165,29215,6,0,L|351:127,1,38
339,24,30165,1,0,0:0:0:0:
374,346,30355,2,0,L|336:350,1,38
220,235,30734,6,0,P|170:289|168:363,1,152
358,149,31304,2,0,L|344:74,1,76
88,48,31684,1,0,0:0:0:0:
341,170,31873,1,0,0:0:0:0:
85,228,32063,6,0,P|63:259|52:296,1,76
253,56,32443,1,0,0:0:0:0:
230,324,32633,1,0,0:0:0:0:
440,128,32823,6,0,L|447:52,1,76
102,144,33203,1,0,0:0:0:0:
87,316,33392,2,0,L|94:240,1,76
247,90,33772,6,0,P|225:176|314:169,1,209.000006378174
131,47,34342,1,0,0:0:0:0:
129,47,34532,2,0,P|104:92|100:144,1,104.500003189087
153,341,34911,1,0,0:0:0:0:
13,214,35101,1,0,0:0:0:0:
253,266,35291,6,0,L|355:283,2,104.500003189087
162,43,35861,1,0,0:0:0:0:
135,166,36051,2,0,P|125:116|142:67,1,104.500003189087
366,52,36430,1,0,0:0:0:0:
161,168,36620,1,0,0:0:0:0:
406,288,36810,5,0,0:0:0:0:
328,160,37000,1,0,0:0:0:0:
284,303,37190,1,0,0:0:0:0:
458,172,37380,1,0,0:0:0:0:
458,172,37475,1,0,0:0:0:0:
458,172,37570,1,0,0:0:0:0:
209,223,37760,1,0,0:0:0:0:
368,60,37949,2,0,L|472:50,1,104.500003189087
59,101,38519,5,0,0:0:0:0:
206,36,38709,1,0,0:0:0:0:
58,267,38899,2,0,P|110:271|89:223,1,123.499994346619
424,184,39279,1,0,0:0:0:0:
86,198,39468,1,0,0:0:0:0:
435,339,39848,6,0,L|492:347,1,57
330,227,41367,2,0,P|320:282|339:335,1,113.999996520996
114,205,42317,1,0,0:0:0:0:
403,75,42507,1,0,0:0:0:0:
187,345,42886,6,0,L|196:240,1,104.500003189087
214,56,43266,1,0,0:0:0:0:
494,229,43456,2,0,B|368:187|413:295|274:248,1,209.000006378174
410,45,44025,1,0,0:0:0:0:
368,338,44215,6,0,P|317:342|263:327,1,104.500003189087
161,122,44595,1,0,0:0:0:0:
446,171,44785,1,0,0:0:0:0:
84,357,44975,2,0,L|77:201,1,156.750004783631
173,125,45355,1,0,0:0:0:0:
299,209,45544,1,0,0:0:0:0:
173,293,45734,1,0,0:0:0:0:
280,91,45924,6,0,B|330:78|330:78|382:89,1,104.500003189087
374,300,46304,1,0,0:0:0:0:
473,127,46494,1,0,0:0:0:0:
210,211,46684,2,0,P|207:262|223:312,2,104.500003189087
331,72,47253,1,0,0:0:0:0:
481,276,47443,6,0,L|376:271,1,104.500003189087
216,108,47823,1,0,0:0:0:0:
266,340,48013,2,0,L|250:131,1,209.000006378174
73,62,48582,2,0,P|88:109|138:113,1,104.500003189087
460,115,48962,6,0,P|390:167|468:207,1,209.000006378174
323,61,49532,2,0,L|195:74,1,128.249996086121
98,127,49911,2,0,L|254:114,1,156.750004783631
433,102,50291,1,0,0:0:0:0:
405,307,50671,5,0,0:0:0:0:
426,130,50861,1,0,0:0:0:0:
201,322,51051,2,0,L|305:330,1,104.500003189087
182,122,51430,1,0,0:0:0:0:
336,190,51620,1,0,0:0:0:0:
123,244,51810,1,0,0:0:0:0:
336,61,52000,6,0,B|280:101|280:101|411:71|443:195,1,265.999991882324
390,288,52949,1,0,0:0:0:0:
258,203,53139,2,0,P|238:230|228:262,1,66.4999979705811
195,93,53519,2,0,B|242:60|288:85|288:85|222:14|136:58,1,265.999991882324
72,188,54468,2,0,L|6:197,2,66.4999979705811
285,274,55038,6,0,P|230:304|178:268,1,132.999995941162
344,159,55608,2,0,P|389:208|405:272,1,132.999995941162
215,55,56177,2,0,P|246:41|279:39,1,66.4999979705811
115,223,56557,2,0,L|119:156,2,66.4999979705811
266,222,57127,2,0,B|280:271|280:271|258:351,1,132.999995941162
218,107,57696,2,0,L|284:99,1,66.4999979705811
487,257,58076,6,0,P|473:193|428:146,1,132.999995941162
150,229,58646,2,0,P|197:185|262:173,1,132.999995941162
342,326,59215,1,0,0:0:0:0:
240,257,59405,1,0,0:0:0:0:
377,178,59595,2,0,L|394:242,2,66.4999979705811
250,51,60165,2,0,B|280:153|280:153|289:128,1,132.999995941162
35,149,60734,6,0,L|133:166,1,99.7499969558717
292,197,61114,1,0,0:0:0:0:
148,307,61494,5,0,0:0:0:0:
239,36,61684,1,0,0:0:0:0:
432,361,62063,1,0,0:0:0:0:
59,104,62443,6,0,P|134:56|196:118,1,190
217,276,63013,1,0,0:0:0:0:
454,74,63203,2,0,B|416:105|416:105|432:62,1,95
251,170,63582,2,0,B|289:139|289:139|272:181,1,95
198,341,63962,5,0,0:0:0:0:
29,131,64152,1,0,0:0:0:0:
234,189,64342,1,0,0:0:0:0:
49,272,64532,1,0,0:0:0:0:
181,52,64722,1,0,0:0:0:0:
367,265,64911,1,0,0:0:0:0:
108,187,65101,1,0,0:0:0:0:
318,40,65291,1,0,0:0:0:0:
284,370,65481,1,0,0:0:0:0:
53,268,65861,5,0,0:0:0:0:
252,228,66051,1,0,0:0:0:0:
452,188,66241,1,0,0:0:0:0:
52,275,66620,6,0,L|5:283,1,47.5
146,200,67190,6,0,P|206:205|253:168,1,123.499994346619,2|0,0:0|0:0,0:0:0:0:
352,7,67570,1,0,0:0:0:0:
330,279,67760,1,0,0:0:0:0:
330,279,67855,1,0,0:0:0:0:
330,279,67949,1,0,0:0:0:0:
472,120,68139,1,0,0:0:0:0:
179,128,68329,1,0,0:0:0:0:
303,359,68519,6,0,P|364:356|413:319,1,123.499994346619
346,52,68899,1,0,0:0:0:0:
418,281,69089,1,0,0:0:0:0:
204,90,69279,2,0,B|167:86|143:53|143:53|178:150|144:222,1,246.999988693238
53,339,69848,2,0,P|23:287|27:226,1,123.499994346619
367,118,70228,5,0,0:0:0:0:
188,352,70418,1,0,0:0:0:0:
408,165,70608,1,0,0:0:0:0:
145,302,70798,1,0,0:0:0:0:
424,227,70987,1,0,0:0:0:0:
129,240,71177,1,0,0:0:0:0:
413,290,71367,1,0,0:0:0:0:
235,115,71557,6,0,P|175:101|120:126,1,123.499994346619
358,375,71937,2,0,L|376:252,1,123.499994346619
405,49,72317,1,0,0:0:0:0:
198,200,72506,1,0,0:0:0:0:
272,11,72696,1,0,0:0:0:0:
385,214,72886,1,0,0:0:0:0:
114,139,73076,5,0,0:0:0:0:
114,139,73171,1,0,0:0:0:0:
114,139,73266,2,0,P|92:196|96:257,1,123.499994346619
407,229,73646,1,0,0:0:0:0:
189,212,73836,1,0,0:0:0:0:
385,92,74025,1,0,0:0:0:0:
435,353,74215,1,0,0:0:0:0:
236,230,74405,1,0,0:0:0:0:
504,126,74595,6,0,B|460:73|460:73|484:249,1,246.999988693238
296,131,75165,2,0,L|278:8,1,123.499994346619
437,38,75544,1,0,0:0:0:0:
291,258,75734,1,0,0:0:0:0:
158,91,75924,1,0,0:0:0:0:
431,169,76114,5,0,0:0:0:0:
431,169,76209,1,0,0:0:0:0:
431,169,76304,2,0,L|424:293,1,123.499994346619
282,59,76684,1,0,0:0:0:0:
102,226,76873,1,0,0:0:0:0:
278,149,77063,5,0,0:0:0:0:
86,73,77253,1,0,0:0:0:0:
251,288,77443,1,0,0:0:0:0:
437,89,77633,1,0,0:0:0:0:
150,202,77823,6,0,P|121:256|115:317,2,123.499994346619
472,232,78392,2,0,L|418:251,1,56.9999982604981
316,132,78772,1,0,0:0:0:0:
412,356,78962,1,0,0:0:0:0:
371,29,79152,1,0,0:0:0:0:
284,349,79342,6,0,L|161:336,1,123.499994346619,2|0,0:0|0:0,0:0:0:0:
35,189,79722,1,0,0:0:0:0:
271,112,79911,1,0,0:0:0:0:
131,235,80101,2,0,P|115:175|123:114,1,123.499994346619
308,16,80481,1,0,0:0:0:0:
382,337,80671,6,0,L|409:91,1,246.999988693238
136,183,81241,1,0,0:0:0:0:
327,148,81430,1,0,0:0:0:0:
246,315,81620,1,0,0:0:0:0:
206,57,81810,1,0,0:0:0:0:
265,348,82000,1,0,0:0:0:0:
294,22,82190,5,0,0:0:0:0:
294,22,82285,1,0,0:0:0:0:
293,22,82380,2,0,P|354:10|413:25,1,123.499994346619,2|0,0:0|0:0,0:0:0:0:
251,211,82760,1,0,0:0:0:0:
145,56,82949,1,0,0:0:0:0:
379,140,83139,1,0,0:0:0:0:
130,275,83329,1,0,0:0:0:0:
249,75,83519,1,0,0:0:0:0:
285,343,83709,6,0,B|359:329|359:329|380:338|380:338|482:320|482:320|442:297,1,246.999988693238
135,248,84279,2,0,B|47:265|47:265|21:286,1,123.499994346619
21,286,84563,1,0,0:0:0:0:
21,286,84658,1,0,0:0:0:0:
291,258,84848,1,0,0:0:0:0:
114,71,85038,1,0,0:0:0:0:
178,362,85228,1,0,0:0:0:0:
405,73,85418,5,8,0:0:0:0:
426,309,85608,1,0,0:0:0:0:
275,77,85798,5,8,0:0:0:0:
294,323,85987,1,0,0:0:0:0:
151,84,86177,5,8,0:0:0:0:
167,328,86367,1,0,0:0:0:0:
14,84,86557,5,8,0:0:0:0:
24,338,86746,1,0,0:0:0:0:
145,127,86937,5,8,0:0:0:0:
75,249,87126,1,0,0:0:0:0:
185,224,87317,5,8,0:0:0:0:
70,112,87506,1,0,0:0:0:0:
141,314,87696,5,8,0:0:0:0:
238,125,87886,1,0,0:0:0:0:
42,181,88076,5,8,0:0:0:0:
253,332,88266,1,0,0:0:0:0:
321,110,88456,5,8,0:0:0:0:
114,307,88646,1,0,0:0:0:0:
359,316,88836,5,8,0:0:0:0:
163,97,89025,1,0,0:0:0:0:
246,345,89215,5,8,0:0:0:0:
415,49,89405,1,0,0:0:0:0:
37,40,89595,5,8,0:0:0:0:
445,203,89785,1,6,0:0:0:0:
437,198,90165,5,2,0:0:0:0:
270,44,90355,1,0,0:0:0:0:
283,315,90544,1,2,0:0:0:0:
435,102,90734,1,0,0:0:0:0:
118,156,90924,1,2,0:0:0:0:
343,4,91114,6,0,P|357:35|358:51,1,47.5,2|0,0:0|0:0,0:0:0:0:
297,149,91304,2,0,P|301:178|307:197,1,47.5,2|0,0:0|0:0,0:0:0:0:
427,258,91494,1,4,0:0:0:0:
256,192,91589,12,4,94532,0:0:0:0:
