osu file format v14

[General]
AudioFilename: audio.mp3
AudioLeadIn: 0
PreviewTime: 66949
Countdown: 0
SampleSet: Soft
StackLeniency: 0.7
Mode: 0
LetterboxInBreaks: 0
WidescreenStoryboard: 0

[Editor]
DistanceSpacing: 1.1
BeatDivisor: 4
GridSize: 4
TimelineZoom: 1.3

[Metadata]
Title:Natsukoi Hanabi
TitleUnicode:夏恋花火
Artist:chano & 40mP
ArtistUnicode:シャノ & 40mP
Creator:Xayah
Version:Fireworks of Love
Source:
Tags:Sugar Panoram a Note Summer Festival Fireworks Shano DakiniBrave Japanese
BeatmapID:2017366
BeatmapSetID:963553

[Difficulty]
HPDrainRate:5
CircleSize:4
OverallDifficulty:8.7
ApproachRate:9
SliderMultiplier:1.9
SliderTickRate:1

[Events]
//Background and Video events
0,0,"bg.png",0,0
//Break Periods
//Storyboard Layer 0 (Background)
//Storyboard Layer 1 (Fail)
//Storyboard Layer 2 (Pass)
//Storyboard Layer 3 (Foreground)
//Storyboard Sound Samples

[TimingPoints]
304,379.746835443038,4,2,1,50,1,0
304,-166.666666666667,4,2,1,50,0,0
9417,-125,4,2,1,50,0,0
12455,-100,4,2,1,50,0,0
24607,-125,4,2,1,50,0,0
27645,-166.666666666667,4,2,1,50,0,0
30588,-166.666666666667,4,2,1,5,0,0
30683,-125,4,2,1,50,0,0
39797,-166.666666666667,4,2,1,50,0,0
42740,-166.666666666667,4,2,1,5,0,0
42835,-125,4,2,1,50,0,0
51949,-166.666666666667,4,2,1,50,0,0
61063,-125,4,2,1,50,0,0
66569,-250,4,2,1,50,0,0
67139,-100,4,2,1,70,0,1
91443,-125,4,2,1,50,0,0
97519,-166.666666666667,4,2,1,50,0,0
100462,-166.666666666667,4,2,1,5,0,0
100557,-125,4,2,1,50,0,0
109671,-166.666666666667,4,2,1,50,0,0
112614,-166.666666666667,4,2,1,5,0,0
112709,-125,4,2,1,50,0,0
121822,-166.666666666667,4,2,1,50,0,0
130936,-125,4,2,1,50,0,0
136443,-250.000000000001,4,2,1,50,0,0
137012,-100,4,2,1,70,0,1
161316,-100,4,2,1,60,0,0
179544,-100,4,2,1,70,0,1
189987,-166.666666666667,4,2,1,50,0,0
191696,-250.000000000001,4,2,1,50,0,0
194354,-250.000000000001,4,2,1,5,0,0
194734,-166.666666666667,4,2,1,50,0,0
212962,-125,4,2,1,50,0,0
216000,-100,4,2,1,50,0,0
219038,-100,4,2,1,70,0,1
243341,-100,4,2,1,50,0,0
261569,-83.3333333333333,4,2,1,70,0,1
267645,-100,4,2,1,70,0,1
270683,-250.000000000001,4,2,1,50,0,0
272202,-333.333333333334,4,2,1,50,0,0
276759,-333.333333333334,4,2,1,5,0,0

[Colours]
Combo1 : 202,40,215
Combo2 : 230,141,62
Combo3 : 37,72,235
Combo4 : 58,207,189

[HitObjects]
128,103,304,5,2,0:0:0:0:
164,173,493,1,0,0:0:0:0:
207,107,683,1,2,0:0:0:0:
78,170,873,2,0,P|86:230|91:304,1,113.999996520996,2|2,0:0|0:0,0:0:0:0:
177,359,1633,2,0,P|185:299|190:225,1,113.999996520996,2|2,0:0|0:0,0:0:0:0:
269,176,2392,2,0,P|277:236|282:310,1,113.999996520996,2|2,0:0|0:0,0:0:0:0:
504,200,3341,5,2,0:0:0:0:
434,164,3531,1,0,0:0:0:0:
500,121,3721,1,2,0:0:0:0:
437,250,3911,2,0,P|377:242|303:237,1,113.999996520996,2|2,0:0|0:0,0:0:0:0:
402,45,4671,2,0,P|397:101|389:158,1,113.999996520996,2|2,0:0|0:0,0:0:0:0:
194,114,5430,2,0,P|250:106|307:101,1,113.999996520996,2|2,0:0|0:0,0:0:0:0:
217,297,6379,5,2,0:0:0:0:
287,333,6569,1,0,0:0:0:0:
221,376,6759,1,2,0:0:0:0:
132,349,6949,2,0,L|146:215,1,113.999996520996,2|2,0:0|0:0,0:0:0:0:
236,156,7709,2,0,L|247:269,1,113.999996520996,2|2,0:0|0:0,0:0:0:0:
44,206,8468,2,0,P|99:243|155:228,1,113.999996520996,2|2,0:0|0:0,0:0:0:0:
314,154,9228,1,2,0:0:0:0:
391,218,9417,6,0,P|319:204|254:274,1,152,8|4,0:1|0:3,0:0:0:0:
473,276,9987,2,0,L|490:181,1,76,2|0,0:0|0:0,0:0:0:0:
385,56,10367,2,0,L|398:130,1,76,8|0,0:0|0:0,0:0:0:0:
244,200,10747,6,0,B|325:180|309:236|398:216,1,152,6|8,0:0|0:1,0:0:0:0:
396,212,11221,1,8,0:1:0:0:
399,205,11316,1,8,0:0:0:0:
482,337,11506,2,0,L|321:312,1,152,10|10,0:1|0:0,0:0:0:0:
198,351,12076,2,0,P|212:301|205:250,1,76,8|0,0:1|0:0,0:0:0:0:
150,107,12455,5,6,0:0:0:0:
247,177,12645,1,2,0:0:0:0:
218,16,12835,1,8,0:0:0:0:
46,78,13025,2,0,P|50:123|62:193,1,95,10|0,0:1|0:0,0:0:0:0:
144,332,13405,2,0,P|151:285|156:237,1,95,10|8,0:1|0:0,0:0:0:0:
54,71,13785,6,0,P|94:83|171:85,1,95,10|0,0:1|0:0,0:0:0:0:
339,160,14164,2,0,P|291:163|246:176,1,95,10|8,0:1|0:0,0:0:0:0:
79,172,14544,2,0,P|102:236|106:290,1,95,10|0,0:1|0:0,0:0:0:0:
205,384,14924,1,10,0:1:0:0:
399,264,15114,2,0,P|351:260|306:247,1,95,8|0,0:0|0:0,0:0:0:0:
92,143,15493,5,10,0:1:0:0:
193,51,15683,1,2,0:0:0:0:
161,233,15873,1,8,0:0:0:0:
0,30,16063,2,0,P|57:47|112:46,1,95,10|0,0:1|0:0,0:0:0:0:
302,127,16443,2,0,P|254:130|209:145,1,95,10|8,0:1|0:0,0:0:0:0:
271,336,16822,6,0,P|280:285|274:221,1,95,10|0,0:1|0:0,0:0:0:0:
195,46,17202,2,0,P|193:93|202:139,1,95,10|8,0:1|0:0,0:0:0:0:
381,259,17582,1,8,0:1:0:0:
381,259,17677,1,8,0:0:0:0:
381,259,17772,1,8,0:0:0:0:
316,88,17962,1,8,0:0:0:0:
187,266,18152,2,0,P|235:261|288:234,1,95,8|0,0:1|0:0,0:0:0:0:
411,18,18531,6,0,L|427:128,1,95,14|8,0:0|0:1,0:0:0:0:
271,345,18911,2,0,L|284:250,1,95,10|8,0:0|0:1,0:0:0:0:
227,32,19291,1,10,0:0:0:0:
173,253,19481,1,8,0:1:0:0:
308,139,19671,1,10,0:0:0:0:
100,146,19860,6,0,P|40:141|-5:127,1,95,8|10,0:1|0:0,0:0:0:0:
235,38,20240,2,0,P|280:26|328:23,1,95,8|10,0:1|0:0,0:0:0:0:
134,249,20620,2,0,P|74:244|29:230,1,95,8|10,0:1|0:0,0:0:0:0:
205,119,21000,1,8,0:1:0:0:
311,244,21190,2,0,P|322:289|325:337,1,95,10|8,0:0|0:1,0:0:0:0:
134,249,21569,5,8,0:0:0:0:
296,119,21759,2,0,P|344:123|401:149,1,95,10|8,0:1|0:0,0:0:0:0:
160,68,22139,2,0,P|187:28|238:-7,1,95,10|8,0:1|0:0,0:0:0:0:
47,160,22519,2,0,P|26:116|20:54,1,95,10|8,0:1|0:0,0:0:0:0:
204,264,22898,6,0,B|97:248|119:311|9:287,1,190,12|10,0:1|0:0,0:0:0:0:
159,139,23468,1,8,0:0:0:0:
221,361,23658,1,10,0:0:0:0:
264,78,23848,1,8,0:0:0:0:
211,270,24038,1,8,0:0:0:0:
53,123,24228,1,10,0:0:0:0:
80,100,24322,1,8,0:0:0:0:
113,87,24417,1,8,0:0:0:0:
148,86,24512,1,8,0:0:0:0:
181,104,24607,6,0,B|217:148|217:148|203:274,1,152,4|8,0:0|0:0,0:0:0:0:
111,183,25177,1,4,0:3:0:0:
306,205,25367,1,2,0:0:0:0:
194,319,25557,1,8,0:0:0:0:
176,112,25747,1,8,0:0:0:0:
229,234,25936,6,0,L|403:216,1,152,2|8,0:0|0:0,0:0:0:0:
479,155,26506,1,8,0:0:0:0:
325,55,26696,2,0,P|287:118|314:204,1,152,12|4,0:1|0:3,0:0:0:0:
496,298,27266,2,0,P|458:279|413:281,1,76,8|2,0:1|0:0,0:0:0:0:
295,355,27645,5,6,0:0:0:0:
223,96,29164,5,10,0:1:0:0:
145,256,30114,5,8,0:0:0:0:
229,212,30304,2,0,L|322:234,1,85.4999973907472,4|0,0:3|0:0,0:0:0:0:
322,249,30683,6,0,L|341:94,1,152,12|8,0:1|0:0,0:0:0:0:
362,330,31253,2,0,P|323:276|222:284,1,152,10|8,0:1|0:0,0:0:0:0:
153,353,31822,1,8,0:0:0:0:
76,246,32012,2,0,B|160:230|146:279|226:263,1,152,10|8,0:1|0:0,0:0:0:0:
315,184,32582,1,8,0:0:0:0:
223,74,32772,2,0,L|207:157,1,76,10|0,0:1|0:0,0:0:0:0:
231,270,33152,1,10,0:1:0:0:
106,137,33341,2,0,L|120:211,1,76,8|0,0:0|0:0,0:0:0:0:
282,198,33721,6,0,P|364:187|417:255,1,152,12|8,0:1|0:0,0:0:0:0:
442,334,34291,1,10,0:1:0:0:
494,177,34481,2,0,P|507:208|506:262,1,76,2|8,0:0|0:1,0:0:0:0:
439,344,34860,1,8,0:0:0:0:
307,341,35050,6,0,P|327:276|347:247,1,76,8|10,0:1|0:1,0:0:0:0:
192,384,35430,2,0,P|172:319|152:290,1,76,2|8,0:0|0:0,0:0:0:0:
91,194,35810,2,0,B|181:171|149:227|240:204,1,152,10|8,0:1|0:1,0:0:0:0:
324,97,36379,1,8,0:0:0:0:
379,229,36569,1,10,0:1:0:0:
211,113,36759,6,0,P|210:75|222:39,1,76,10|0,0:1|0:0,0:0:0:0:
324,97,37139,1,8,0:0:0:0:
290,229,37329,2,0,P|229:193|143:222,1,152,10|10,0:1|0:1,0:0:0:0:
80,290,37898,1,8,0:0:0:0:
85,130,38088,6,0,L|70:295,1,152,10|8,0:1|0:1,0:0:0:0:
127,366,38658,1,8,0:0:0:0:
268,330,38848,2,0,P|210:309|193:309,1,76,10|0,0:1|0:0,0:0:0:0:
127,366,39228,1,10,0:0:0:0:
8,311,39417,2,0,P|45:306|79:289,1,76,4|0,0:3|0:0,0:0:0:0:
136,194,39797,5,6,0:0:0:0:
261,361,41316,5,10,0:1:0:0:
253,132,42266,5,8,0:0:0:0:
329,73,42455,2,0,L|342:168,1,85.4999973907472,4|0,0:3|0:0,0:0:0:0:
349,171,42835,6,0,P|266:165|226:244,1,152,12|8,0:1|0:0,0:0:0:0:
201,304,43405,2,0,L|173:140,1,152,10|8,0:1|0:0,0:0:0:0:
104,255,43974,1,8,0:0:0:0:
23,150,44164,2,0,B|107:134|93:183|173:167,1,152,10|8,0:1|0:0,0:0:0:0:
240,48,44734,1,8,0:0:0:0:
319,167,44924,2,0,L|303:250,1,76,10|0,0:1|0:0,0:0:0:0:
236,55,45304,1,10,0:1:0:0:
346,66,45493,2,0,L|420:80,1,76,8|0,0:0|0:0,0:0:0:0:
512,209,45873,6,0,P|430:198|377:266,1,152,12|8,0:1|0:0,0:0:0:0:
336,354,46443,1,10,0:1:0:0:
262,250,46633,2,0,L|252:165,1,76,2|8,0:0|0:1,0:0:0:0:
350,98,47012,1,8,0:0:0:0:
169,7,47202,6,0,P|234:27|263:47,1,76,8|10,0:1|0:1,0:0:0:0:
79,91,47582,2,0,P|44:106|7:114,1,76,2|8,0:0|0:0,0:0:0:0:
183,151,47962,2,0,L|165:320,1,152,10|8,0:1|0:1,0:0:0:0:
65,384,48531,1,8,0:0:0:0:
127,219,48721,1,10,0:1:0:0:
216,370,48911,6,0,L|321:350,1,76,10|0,0:1|0:0,0:0:0:0:
407,328,49291,1,8,0:0:0:0:
472,197,49481,2,0,P|411:233|325:204,1,152,10|10,0:1|0:1,0:0:0:0:
253,117,50050,1,8,0:0:0:0:
231,280,50240,6,0,L|244:128,1,152,10|8,0:1|0:1,0:0:0:0:
366,66,50810,1,8,0:0:0:0:
242,8,51000,2,0,P|184:29|167:29,1,76,10|0,0:1|0:0,0:0:0:0:
54,0,51379,1,10,0:0:0:0:
5,134,51569,2,0,P|42:139|76:156,1,76,4|0,0:3|0:0,0:0:0:0:
122,277,51949,6,0,L|246:258,1,113.999996520996,6|2,0:0|0:0,0:0:0:0:
310,309,52519,1,0,0:0:0:0:
310,309,52709,2,0,P|353:321|375:323,1,56.9999982604981,2|0,0:0|0:0,0:0:0:0:
451,231,53088,2,0,P|422:235|395:244,1,56.9999982604981,2|0,0:0|0:0,0:0:0:0:
294,196,53468,6,0,L|312:326,1,113.999996520996,2|0,0:0|0:0,0:0:0:0:
199,237,54038,2,0,L|215:125,1,113.999996520996,2|0,0:0|0:0,0:0:0:0:
307,111,54607,2,0,P|340:111|368:98,1,56.9999982604981,2|0,0:0|0:0,0:0:0:0:
468,232,54987,6,0,P|428:194|361:198,1,113.999996520996,2|2,0:0|0:0,0:0:0:0:
304,261,55557,2,0,L|185:240,1,113.999996520996,0|0,0:0|0:0,0:0:0:0:
129,171,56126,1,2,0:0:0:0:
129,171,56316,1,0,0:0:0:0:
28,325,56506,6,0,P|101:332|144:301,1,113.999996520996,2|2,0:0|0:0,0:0:0:0:
191,241,57076,1,0,0:0:0:0:
191,241,57171,1,0,0:0:0:0:
191,241,57266,1,2,0:0:0:0:
260,322,57455,1,0,0:0:0:0:
300,202,57645,1,2,0:0:0:0:
378,294,57835,1,0,0:0:0:0:
422,160,58025,6,0,L|305:188,1,113.999996520996,6|2,0:0|0:0,0:0:0:0:
196,229,58595,2,0,P|197:150|227:97,1,113.999996520996,0|0,0:0|0:0,0:0:0:0:
305,70,59164,1,2,0:0:0:0:
305,70,59354,1,0,0:0:0:0:
202,123,59544,6,0,L|77:100,1,113.999996520996,2|0,0:0|0:0,0:0:0:0:
305,70,60114,2,0,P|313:116|293:199,1,113.999996520996,2|0,0:0|0:0,0:0:0:0:
225,284,60683,1,2,0:0:0:0:
114,124,60873,1,0,0:0:0:0:
114,124,60968,1,0,0:0:0:0:
114,124,61063,6,0,P|151:122|197:111,1,76,10|0,0:1|0:0,0:0:0:0:
301,181,61443,1,0,0:0:0:0:
154,340,61633,2,0,P|148:293|125:252,1,76,10|0,0:1|0:0,0:0:0:0:
221,49,62012,2,0,P|206:83|203:121,1,76,10|0,0:1|0:0,0:0:0:0:
0,240,62392,6,0,B|85:223|68:271|153:256,1,152,10|10,0:1|0:1,0:0:0:0:
211,129,62962,1,0,0:0:0:0:
296,334,63152,2,0,P|308:291|306:246,1,76,10|0,0:1|0:0,0:0:0:0:
218,134,63531,1,8,0:0:0:0:
358,32,63721,2,0,P|359:69|370:106,1,76,4|2,0:3|0:0,0:0:0:0:
483,248,64101,5,8,0:0:0:0:
183,328,64291,1,8,0:0:0:0:
455,372,64481,1,8,0:0:0:0:
241,155,64671,1,8,0:0:0:0:
311,383,64860,1,8,0:0:0:0:
410,110,65050,1,8,0:0:0:0:
463,384,65240,1,8,0:0:0:0:
298,115,65430,6,0,P|214:112|162:167,1,152,14|8,0:1|0:0,0:0:0:0:
127,328,66000,1,8,0:0:0:0:
0,236,66190,2,0,L|95:221,1,76,10|0,0:1|0:0,0:0:0:0:
295,354,66569,6,0,L|219:342,1,76,10|0,0:1|0:0,0:0:0:0:
39,306,67139,5,12,0:1:0:0:
156,108,67329,1,2,0:0:0:0:
211,355,67519,1,8,0:0:0:0:
58,178,67709,1,10,0:1:0:0:
281,248,67898,1,2,0:0:0:0:
29,314,68088,1,8,0:1:0:0:
86,60,68278,1,8,0:0:0:0:
184,274,68468,6,0,P|228:276|285:252,1,95,10|0,0:1|0:0,0:0:0:0:
481,355,68848,2,0,P|436:338|389:339,1,95,10|8,0:1|0:0,0:0:0:0:
378,138,69228,2,0,L|400:346,1,190,10|8,0:1|0:1,0:0:0:0:
267,121,69797,2,0,P|299:66|335:51,1,95,8|0,0:0|0:0,0:0:0:0:
424,227,70177,5,10,0:1:0:0:
186,139,70367,1,2,0:0:0:0:
270,326,70557,1,8,0:0:0:0:
326,68,70747,1,10,0:1:0:0:
398,351,70936,1,2,0:0:0:0:
289,154,71126,1,8,0:1:0:0:
477,262,71316,1,8,0:0:0:0:
251,336,71506,6,0,L|149:311,1,95,10|0,0:1|0:0,0:0:0:0:
383,190,71886,2,0,L|475:167,1,95,10|8,0:1|0:0,0:0:0:0:
200,77,72266,2,0,P|273:122|268:237,1,190,10|8,0:1|0:1,0:0:0:0:
172,365,72835,1,8,0:0:0:0:
116,236,73025,1,0,0:0:0:0:
332,264,73215,5,10,0:1:0:0:
71,342,73405,1,2,0:0:0:0:
357,360,73595,1,8,0:0:0:0:
110,220,73785,1,10,0:1:0:0:
331,129,73974,1,2,0:0:0:0:
245,355,74164,1,8,0:1:0:0:
173,157,74354,1,8,0:0:0:0:
345,269,74544,6,0,P|401:270|448:238,1,95,10|0,0:1|0:0,0:0:0:0:
184,294,74924,2,0,P|141:273|94:277,1,95,10|8,0:1|0:0,0:0:0:0:
328,363,75304,2,0,P|343:293|260:175,1,190,10|8,0:1|0:1,0:0:0:0:
109,151,75873,1,8,0:0:0:0:
183,302,76063,1,0,0:0:0:0:
230,72,76253,6,0,B|126:47|145:125|36:98,1,190,10|8,0:1|0:0,0:0:0:0:
167,346,76822,2,0,L|195:141,1,190,10|8,0:1|0:1,0:0:0:0:
367,89,77392,2,0,P|346:130|304:149,1,95,8|8,0:0|0:1,0:0:0:0:
94,80,77772,5,2,0:0:0:0:
171,278,77962,1,8,0:1:0:0:
223,23,78152,1,10,0:0:0:0:
0,240,78341,2,0,B|104:215|80:290|192:264,1,190,10|8,0:1|0:0,0:0:0:0:
386,353,78911,2,0,P|335:328|282:337,1,95,4|0,0:3|0:0,0:0:0:0:
126,367,79291,5,12,0:1:0:0:
193,153,79481,1,2,0:0:0:0:
297,338,79671,1,8,0:0:0:0:
104,240,79860,1,10,0:1:0:0:
315,179,80050,1,2,0:0:0:0:
180,297,80240,1,8,0:1:0:0:
227,83,80430,1,8,0:0:0:0:
305,348,80620,6,0,P|310:301|334:260,1,95,10|0,0:1|0:0,0:0:0:0:
488,148,81000,2,0,P|444:166|397:165,1,95,10|8,0:1|0:0,0:0:0:0:
185,46,81379,2,0,P|272:68|286:172,1,190,10|8,0:1|0:1,0:0:0:0:
185,279,81949,1,8,0:0:0:0:
173,168,82139,1,0,0:0:0:0:
63,306,82329,5,10,0:1:0:0:
269,337,82519,1,2,0:0:0:0:
163,154,82709,1,8,0:0:0:0:
163,384,82898,2,0,P|244:352|360:369,1,190,10|8,0:1|0:1,0:0:0:0:
484,227,83468,1,10,0:0:0:0:
275,137,83658,6,0,L|288:239,1,95,2|0,0:1|0:0,0:0:0:0:
482,335,84038,2,0,L|494:240,1,95,8|8,0:1|0:0,0:0:0:0:
393,77,84417,1,10,0:1:0:0:
393,77,84512,1,8,0:0:0:0:
393,77,84607,1,8,0:0:0:0:
294,243,84797,1,8,0:0:0:0:
132,57,84987,2,0,P|185:61|218:100,1,95,4|0,0:3|0:0,0:0:0:0:
241,353,85367,5,14,0:0:0:0:
130,68,85557,1,8,0:1:0:0:
139,374,85747,1,10,0:0:0:0:
265,158,85936,1,8,0:1:0:0:
66,309,86126,5,10,0:0:0:0:
332,265,86316,1,8,0:1:0:0:
110,172,86506,1,10,0:0:0:0:
250,384,86696,6,0,P|255:343|239:271,1,95,8|10,0:1|0:0,0:0:0:0:
379,69,87076,2,0,P|340:85|286:135,1,95,8|10,0:1|0:0,0:0:0:0:
42,115,87455,2,0,P|75:139|145:161,1,95,8|10,0:1|0:0,0:0:0:0:
375,75,87835,1,8,0:1:0:0:
198,51,88025,2,0,L|213:163,1,95,10|8,0:0|0:1,0:0:0:0:
275,350,88405,5,10,0:0:0:0:
383,93,88595,1,8,0:1:0:0:
401,370,88785,5,10,0:0:0:0:
275,64,88974,1,8,0:1:0:0:
263,360,89164,5,10,0:0:0:0:
494,293,89354,1,8,0:1:0:0:
196,205,89544,1,10,0:0:0:0:
397,87,89734,6,0,L|373:309,1,190,12|8,0:1|0:0,0:0:0:0:
189,366,90304,1,8,0:0:0:0:
136,160,90493,1,8,0:0:0:0:
87,367,90683,1,8,0:0:0:0:
223,137,90873,1,8,0:0:0:0:
450,307,91063,1,8,0:0:0:0:
418,289,91158,1,8,0:0:0:0:
383,287,91253,1,8,0:0:0:0:
350,300,91348,1,8,0:0:0:0:
325,321,91443,6,0,P|257:351|170:328,1,152,12|8,0:1|0:0,0:0:0:0:
234,159,92012,2,0,L|248:259,1,76,4|0,0:3|0:0,0:0:0:0:
74,100,92392,2,0,L|60:200,1,76,4|8,0:3|0:0,0:0:0:0:
307,135,92772,6,0,B|234:157|234:157|137:109,1,152,12|8,0:1|0:0,0:0:0:0:
243,33,93341,1,8,0:0:0:0:
232,257,93531,2,0,P|230:219|220:182,1,76,4|0,0:3|0:0,0:0:0:0:
373,14,93911,2,0,P|362:50|361:88,1,76,4|0,0:3|0:0,0:0:0:0:
442,230,94291,1,8,0:0:0:0:
209,170,94481,6,0,B|300:153|271:207|359:188,1,152,12|8,0:1|0:0,0:0:0:0:
138,99,95050,2,0,P|117:127|113:171,1,76,4|0,0:3|0:0,0:0:0:0:
256,325,95430,2,0,P|252:287|231:256,1,76,4|8,0:3|0:0,0:0:0:0:
25,331,95810,6,0,L|175:312,1,152,10|0,0:1|0:0,0:0:0:0:
288,191,96379,1,4,0:3:0:0:
350,344,96569,1,4,0:3:0:0:
350,344,96949,1,8,0:0:0:0:
421,127,97139,1,4,0:3:0:0:
463,259,97329,1,0,0:0:0:0:
463,259,97424,1,0,0:0:0:0:
463,259,97519,5,10,0:1:0:0:
240,351,99038,5,10,0:1:0:0:
202,82,99987,5,8,0:0:0:0:
303,65,100177,2,0,P|286:104|278:146,1,85.4999973907472,4|0,0:3|0:0,0:0:0:0:
285,164,100557,6,0,B|204:156|221:208|139:194,1,152,12|8,0:1|0:0,0:0:0:0:
40,288,101126,2,0,L|198:269,1,152,10|8,0:1|0:0,0:0:0:0:
307,296,101696,1,8,0:0:0:0:
330,148,101886,6,0,B|296:177|294:214|294:214|316:246|311:295,1,152,10|8,0:1|0:0,0:0:0:0:
234,375,102455,1,8,0:0:0:0:
149,276,102645,2,0,P|139:239|139:198,1,76,10|0,0:1|0:0,0:0:0:0:
198,35,103025,1,10,0:1:0:0:
289,135,103215,2,0,P|288:172|278:209,1,76,8|0,0:0|0:0,0:0:0:0:
43,142,103595,6,0,B|129:121|105:175|192:157,1,152,12|8,0:1|0:0,0:0:0:0:
297,49,104164,1,10,0:1:0:0:
348,236,104354,1,2,0:0:0:0:
281,143,104544,1,8,0:1:0:0:
246,264,104734,1,8,0:0:0:0:
356,85,104924,6,0,P|371:118|372:171,1,76,8|10,0:1|0:1,0:0:0:0:
421,309,105304,2,0,P|424:271|439:236,1,76,2|8,0:0|0:0,0:0:0:0:
211,262,105683,2,0,P|271:220|346:238,1,152,10|8,0:1|0:1,0:0:0:0:
227,348,106253,2,0,L|134:327,1,76,8|10,0:0|0:1,0:0:0:0:
39,255,106633,6,0,P|89:302|96:391,1,152,10|8,0:1|0:0,0:0:0:0:
278,257,107202,2,0,B|196:240|216:298|130:282,1,152,10|10,0:1|0:1,0:0:0:0:
63,176,107772,1,8,0:0:0:0:
179,48,107962,6,0,L|155:201,1,152,10|8,0:1|0:1,0:0:0:0:
251,122,108531,1,8,0:0:0:0:
42,163,108721,2,0,P|39:200|55:261,1,76,10|0,0:1|0:0,0:0:0:0:
138,317,109101,1,10,0:0:0:0:
239,197,109291,2,0,P|202:196|161:211,1,76,4|0,0:3|0:0,0:0:0:0:
71,371,109671,5,6,0:0:0:0:
212,98,111190,5,10,0:1:0:0:
286,345,112139,5,8,0:0:0:0:
359,279,112329,2,0,L|343:175,1,85.4999973907472,4|0,0:3|0:0,0:0:0:0:
354,179,112709,6,0,P|303:196|206:147,1,152,12|8,0:1|0:0,0:0:0:0:
47,274,113278,2,0,P|112:238|185:255,1,152,10|8,0:1|0:0,0:0:0:0:
270,340,113848,1,8,0:0:0:0:
431,198,114038,6,0,L|279:215,1,152,10|8,0:1|0:0,0:0:0:0:
382,313,114607,1,8,0:0:0:0:
378,94,114797,2,0,P|356:131|357:196,1,76,10|0,0:1|0:0,0:0:0:0:
385,323,115177,1,10,0:1:0:0:
482,232,115367,2,0,P|475:194|455:162,1,76,8|0,0:0|0:0,0:0:0:0:
217,75,115747,6,0,B|314:53|284:115|383:84,1,152,12|8,0:1|0:0,0:0:0:0:
430,23,116316,1,10,0:1:0:0:
370,174,116506,1,2,0:0:0:0:
310,29,116696,1,8,0:1:0:0:
284,210,116886,1,8,0:0:0:0:
134,101,117076,6,0,P|187:94|216:80,1,76,8|10,0:1|0:1,0:0:0:0:
362,236,117455,2,0,P|326:222|288:220,1,76,2|8,0:0|0:0,0:0:0:0:
189,323,117835,2,0,P|177:248|159:174,1,152,10|8,0:1|0:1,0:0:0:0:
66,350,118405,2,0,P|79:314|81:276,1,76,8|10,0:0|0:1,0:0:0:0:
8,112,118785,6,0,P|90:117|141:67,1,152,10|8,0:1|0:0,0:0:0:0:
261,160,119354,2,0,L|160:175,1,76,10|0,0:1|0:0,0:0:0:0:
55,50,119734,2,0,L|130:61,1,76,10|8,0:1|0:0,0:0:0:0:
130,269,120114,6,0,P|79:217|78:140,1,152,10|8,0:1|0:1,0:0:0:0:
152,32,120683,1,8,0:0:0:0:
175,175,120873,1,10,0:1:0:0:
318,62,121063,2,0,P|287:77|244:84,1,76,0|10,0:0|0:0,0:0:0:0:
351,181,121443,2,0,P|388:186|422:202,1,76,4|0,0:3|0:0,0:0:0:0:
275,319,121822,6,0,L|256:195,1,113.999996520996,6|2,0:0|0:0,0:0:0:0:
202,115,122392,1,0,0:0:0:0:
202,115,122582,2,0,P|159:103|137:101,1,56.9999982604981,2|0,0:0|0:0,0:0:0:0:
97,183,122962,2,0,P|68:187|41:196,1,56.9999982604981,2|0,0:0|0:0,0:0:0:0:
31,332,123341,6,0,P|79:300|138:306,1,113.999996520996,2|0,0:0|0:0,0:0:0:0:
223,247,123911,2,0,P|271:279|330:273,1,113.999996520996,2|0,0:0|0:0,0:0:0:0:
417,324,124481,2,0,P|426:297|425:269,1,56.9999982604981,2|0,0:0|0:0,0:0:0:0:
476,153,124860,6,0,L|347:168,1,113.999996520996,2|2,0:0|0:0,0:0:0:0:
290,90,125430,2,0,L|171:69,1,113.999996520996,0|0,0:0|0:0,0:0:0:0:
94,135,126000,1,2,0:0:0:0:
94,135,126190,1,0,0:0:0:0:
181,231,126379,6,0,P|188:304|157:347,1,113.999996520996,2|2,0:0|0:0,0:0:0:0:
85,267,126949,1,0,0:0:0:0:
85,267,127044,1,0,0:0:0:0:
85,267,127139,1,2,0:0:0:0:
185,227,127329,1,0,0:0:0:0:
98,152,127519,1,2,0:0:0:0:
204,127,127709,1,0,0:0:0:0:
13,61,127898,6,0,P|72:66|124:43,1,113.999996520996,6|2,0:0|0:0,0:0:0:0:
204,127,128468,2,0,P|263:122|315:145,1,113.999996520996,0|0,0:0|0:0,0:0:0:0:
366,244,129038,1,2,0:0:0:0:
366,244,129228,1,0,0:0:0:0:
401,39,129417,6,0,L|421:151,1,113.999996520996,2|0,0:0|0:0,0:0:0:0:
488,280,129987,2,0,P|436:254|376:265,1,113.999996520996,2|0,0:0|0:0,0:0:0:0:
295,354,130557,1,2,0:0:0:0:
255,213,130747,1,0,0:0:0:0:
255,213,130841,1,0,0:0:0:0:
255,213,130936,6,0,P|215:227|160:233,1,76,10|0,0:1|0:0,0:0:0:0:
37,159,131316,1,0,0:0:0:0:
180,329,131506,2,0,P|140:315|85:309,1,76,10|0,0:1|0:0,0:0:0:0:
47,155,131886,2,0,P|84:148|120:135,1,76,10|0,0:1|0:0,0:0:0:0:
255,33,132266,6,0,L|269:119,1,76,10|0,0:1|0:0,0:0:0:0:
378,90,132645,2,0,L|365:165,1,76,10|0,0:1|0:0,0:0:0:0:
250,221,133025,2,0,L|264:307,1,76,10|0,0:1|0:0,0:0:0:0:
382,284,133405,2,0,L|369:359,1,76,8|4,0:0|0:3,0:0:0:0:
252,306,133785,1,2,0:0:0:0:
395,162,133974,5,8,0:0:0:0:
442,341,134164,1,8,0:0:0:0:
478,82,134354,1,8,0:0:0:0:
382,273,134544,1,8,0:0:0:0:
371,78,134734,1,8,0:0:0:0:
476,255,134924,1,8,0:0:0:0:
429,13,135114,1,8,0:0:0:0:
361,179,135304,6,0,B|279:164|289:219|209:196,1,152,14|8,0:1|0:0,0:0:0:0:
126,128,135873,1,8,0:0:0:0:
219,31,136063,2,0,L|232:105,1,76,10|0,0:1|0:0,0:0:0:0:
99,211,136443,6,0,L|112:136,1,76,10|0,0:1|0:0,0:0:0:0:
207,307,137012,5,12,0:1:0:0:
132,48,137202,1,2,0:0:0:0:
76,293,137392,1,8,0:0:0:0:
209,120,137582,1,10,0:1:0:0:
283,357,137772,1,2,0:0:0:0:
185,211,137962,1,8,0:1:0:0:
354,230,138152,1,8,0:0:0:0:
141,364,138341,6,0,P|128:315|132:264,1,95,10|0,0:1|0:0,0:0:0:0:
241,54,138721,2,0,P|243:101|230:146,1,95,10|8,0:1|0:0,0:0:0:0:
17,225,139101,2,0,B|131:203|103:272|205:247,1,190,10|8,0:1|0:1,0:0:0:0:
377,138,139671,2,0,P|329:149|292:189,1,95,8|0,0:0|0:0,0:0:0:0:
221,358,140050,5,10,0:1:0:0:
157,165,140240,2,0,P|111:150|48:149,1,95,2|8,0:0|0:0,0:0:0:0:
271,271,140620,2,0,P|318:267|363:253,1,95,10|2,0:1|0:0,0:0:0:0:
448,117,141000,1,8,0:1:0:0:
498,308,141190,1,8,0:0:0:0:
271,102,141379,6,0,P|310:157|310:186,1,95,10|0,0:1|0:0,0:0:0:0:
216,353,141759,2,0,P|223:306|255:272,1,95,10|8,0:1|0:0,0:0:0:0:
482,322,142139,2,0,B|374:303|405:374|299:343,1,190,10|8,0:1|0:1,0:0:0:0:
191,199,142709,1,8,0:0:0:0:
147,303,142898,1,0,0:0:0:0:
305,235,143088,6,0,P|309:191|284:122,1,95,10|2,0:1|0:0,0:0:0:0:
208,2,143468,2,0,P|195:47|199:94,1,95,8|10,0:0|0:1,0:0:0:0:
401,175,143848,1,2,0:0:0:0:
308,59,144038,1,8,0:1:0:0:
295,243,144228,1,8,0:0:0:0:
105,105,144417,6,0,P|196:92|236:183,1,190,10|10,0:1|0:1,0:0:0:0:
240,347,144987,1,8,0:0:0:0:
389,231,145177,2,0,B|281:211|306:282|195:257,1,190,10|8,0:1|0:1,0:0:0:0:
53,370,145747,2,0,P|54:322|39:277,1,95,8|0,0:0|0:0,0:0:0:0:
8,116,146126,6,0,P|76:130|163:44,1,190,10|8,0:1|0:0,0:0:0:0:
298,159,146696,2,0,L|102:135,1,190,10|8,0:1|0:1,0:0:0:0:
312,53,147266,2,0,P|360:66|392:112,1,95,8|8,0:0|0:1,0:0:0:0:
388,284,147645,5,2,0:0:0:0:
484,40,147835,1,8,0:1:0:0:
494,347,148025,1,10,0:0:0:0:
264,178,148215,2,0,B|372:156|346:229|445:210,1,190,10|8,0:1|0:0,0:0:0:0:
361,73,148785,1,4,0:3:0:0:
303,268,148974,1,0,0:0:0:0:
158,75,149164,5,12,0:1:0:0:
208,257,149354,1,2,0:0:0:0:
261,34,149544,1,8,0:0:0:0:
155,175,149734,1,10,0:1:0:0:
89,17,149924,1,2,0:0:0:0:
248,139,150114,1,8,0:1:0:0:
74,212,150304,1,8,0:0:0:0:
194,45,150493,6,0,P|240:31|305:49,1,95,10|0,0:1|0:0,0:0:0:0:
462,167,150873,2,0,P|415:174|370:160,1,95,10|8,0:1|0:0,0:0:0:0:
249,233,151253,2,0,L|281:25,1,190,10|8,0:1|0:1,0:0:0:0:
395,57,151822,1,8,0:0:0:0:
305,140,152012,1,0,0:0:0:0:
369,310,152202,5,10,0:1:0:0:
480,36,152392,1,2,0:0:0:0:
461,349,152582,1,8,0:0:0:0:
357,181,152772,2,0,P|311:188|274:218,1,95,10|0,0:1|0:0,0:0:0:0:
216,360,153152,1,8,0:1:0:0:
170,136,153341,1,10,0:0:0:0:
45,339,153531,6,0,B|116:332|116:332|152:353|152:353|228:346,1,190,2|8,0:1|0:1,0:0:0:0:
361,162,154101,1,8,0:0:0:0:
164,128,154291,1,10,0:1:0:0:
164,128,154386,1,8,0:0:0:0:
164,128,154481,1,8,0:0:0:0:
334,340,154671,1,8,0:0:0:0:
289,91,154860,2,0,P|264:127|262:195,1,95,4|0,0:3|0:0,0:0:0:0:
329,355,155240,5,14,0:0:0:0:
381,41,155430,1,8,0:1:0:0:
441,362,155620,1,10,0:0:0:0:
343,137,155810,1,8,0:1:0:0:
211,316,156000,5,10,0:0:0:0:
399,218,156190,1,8,0:1:0:0:
245,104,156379,1,10,0:0:0:0:
302,376,156569,6,0,P|318:333|311:271,1,95,8|10,0:1|0:0,0:0:0:0:
149,147,156949,2,0,P|177:183|235:207,1,95,8|10,0:1|0:0,0:0:0:0:
423,128,157329,2,0,P|377:134|327:172,1,95,8|10,0:1|0:0,0:0:0:0:
297,368,157709,1,8,0:1:0:0:
231,112,157898,1,10,0:0:0:0:
146,315,158088,1,8,0:1:0:0:
95,78,158278,5,10,0:0:0:0:
272,209,158468,1,8,0:1:0:0:
196,22,158658,1,10,0:0:0:0:
172,241,158848,1,8,0:1:0:0:
284,65,159038,1,10,0:0:0:0:
329,289,159228,1,8,0:1:0:0:
389,104,159417,1,10,0:0:0:0:
153,286,159607,6,0,B|254:263|229:332|341:300,1,190,12|8,0:1|0:0,0:0:0:0:
401,122,160177,1,8,0:0:0:0:
300,221,160367,1,8,0:0:0:0:
437,257,160557,1,8,0:0:0:0:
309,111,160747,1,8,0:0:0:0:
278,371,160936,1,8,0:0:0:0:
284,336,161031,1,8,0:0:0:0:
291,301,161126,1,8,0:0:0:0:
297,266,161221,1,8,0:0:0:0:
304,231,161316,5,6,0:0:0:0:
84,265,161506,2,0,P|128:280|175:277,1,95,2|8,0:0|0:0,0:0:0:0:
211,71,161886,2,0,P|176:101|155:143,1,95,10|0,0:1|0:0,0:0:0:0:
315,277,162266,2,0,P|305:231|279:192,1,95,10|8,0:1|0:0,0:0:0:0:
416,97,162645,6,0,L|216:80,1,190,10|10,0:1|0:1,0:0:0:0:
95,26,163215,1,8,0:0:0:0:
154,205,163405,2,0,P|152:139|134:90,1,95,10|0,0:1|0:0,0:0:0:0:
49,265,163785,1,10,0:1:0:0:
178,316,163974,2,0,P|234:281|267:241,1,95,8|0,0:0|0:0,0:0:0:0:
320,88,164354,5,6,0:0:0:0:
386,227,164544,2,0,P|388:275|365:324,1,95,2|8,0:0|0:0,0:0:0:0:
190,194,164924,2,0,B|302:170|277:238|394:213,1,190,10|10,0:1|0:1,0:0:0:0:
456,98,165493,1,8,0:0:0:0:
258,11,165683,6,0,L|284:202,1,190,10|10,0:1|0:1,0:0:0:0:
208,360,166253,1,8,0:0:0:0:
34,256,166443,2,0,P|81:256|124:238,1,95,10|0,0:1|0:0,0:0:0:0:
230,150,166822,1,10,0:1:0:0:
387,256,167012,2,0,P|339:255|295:272,1,95,8|0,0:0|0:0,0:0:0:0:
137,138,167392,5,6,0:0:0:0:
91,322,167582,1,2,0:0:0:0:
222,238,167772,1,8,0:0:0:0:
65,77,167962,2,0,P|47:120|54:184,1,95,10|0,0:1|0:0,0:0:0:0:
173,347,168341,2,0,P|174:299|156:256,1,95,10|8,0:1|0:0,0:0:0:0:
238,117,168721,6,0,L|118:135,1,95,10|0,0:1|0:0,0:0:0:0:
276,246,169101,2,0,L|396:264,1,95,10|8,0:1|0:0,0:0:0:0:
381,49,169481,2,0,P|356:89|347:135,1,95,10|0,0:1|0:0,0:0:0:0:
488,268,169860,2,0,P|479:221|454:181,1,95,10|8,0:1|0:0,0:0:0:0:
338,142,170240,1,0,0:0:0:0:
273,340,170430,6,0,B|267:272|267:272|236:231|236:231|230:160,1,190,10|8,0:1|0:0,0:0:0:0:
381,49,171000,2,0,P|370:103|339:141,1,95,10|0,0:1|0:0,0:0:0:0:
169,71,171379,2,0,P|221:52|269:60,1,95,10|8,0:1|0:0,0:0:0:0:
419,210,171759,6,0,L|212:172,1,190,10|8,0:1|0:1,0:0:0:0:
154,321,172329,1,8,0:0:0:0:
276,348,172519,2,0,P|273:295|256:250,1,95,10|0,0:1|0:0,0:0:0:0:
147,310,172898,1,8,0:0:0:0:
378,285,173088,2,0,P|380:232|398:187,1,95,4|0,0:3|0:0,0:0:0:0:
269,73,173468,6,0,B|377:55|341:119|454:102,1,190,12|8,0:1|0:0,0:0:0:0:
190,54,174038,2,0,P|221:102|224:146,1,95,8|0,0:1|0:0,0:0:0:0:
165,288,174417,1,10,0:1:0:0:
27,135,174607,1,8,0:0:0:0:
300,111,174797,6,0,P|269:159|266:203,1,95,10|0,0:1|0:0,0:0:0:0:
443,275,175177,2,0,P|416:224|380:199,1,95,10|8,0:1|0:0,0:0:0:0:
229,316,175557,2,0,P|286:318|325:299,1,95,10|0,0:1|0:0,0:0:0:0:
382,126,175936,1,10,0:1:0:0:
169,48,176126,2,0,L|191:152,1,95,8|0,0:0|0:0,0:0:0:0:
123,366,176506,6,0,P|134:318|123:260,1,95,10|0,0:1|0:0,0:0:0:0:
26,162,176886,1,8,0:0:0:0:
229,281,177076,2,0,B|122:256|143:330|46:308,1,190,8|10,0:1|0:1,0:0:0:0:
21,168,177645,1,8,0:0:0:0:
155,91,177835,6,0,P|172:134|171:182,1,95,10|0,0:1|0:0,0:0:0:0:
219,370,178215,2,0,P|218:322|235:278,1,95,10|8,0:1|0:0,0:0:0:0:
351,169,178595,1,10,0:1:0:0:
351,169,178690,1,8,0:0:0:0:
351,169,178785,1,8,0:0:0:0:
373,340,178974,1,10,0:0:0:0:
146,274,179164,2,0,P|219:274|255:253,1,95,4|0,0:3|0:0,0:0:0:0:
360,47,179544,5,14,0:0:0:0:
93,181,179734,1,8,0:1:0:0:
385,282,179924,1,8,0:0:0:0:
169,25,180114,5,10,0:1:0:0:
251,357,180304,1,8,0:0:0:0:
364,69,180493,1,8,0:1:0:0:
84,193,180683,5,10,0:0:0:0:
394,269,180873,1,8,0:1:0:0:
277,36,181063,1,8,0:0:0:0:
216,358,181253,5,10,0:1:0:0:
437,173,181443,1,8,0:0:0:0:
143,114,181633,1,8,0:1:0:0:
298,284,181822,2,0,P|350:289|403:271,1,95,10|8,0:0|0:1,0:0:0:0:
138,196,182202,2,0,P|91:190|45:201,1,95,10|8,0:0|0:1,0:0:0:0:
221,364,182582,5,10,0:0:0:0:
337,21,182772,1,8,0:1:0:0:
446,345,182962,1,8,0:0:0:0:
153,126,183152,5,10,0:1:0:0:
502,100,183341,1,8,0:0:0:0:
301,352,183531,1,8,0:1:0:0:
405,37,183721,5,4,0:3:0:0:
456,333,183911,1,8,0:1:0:0:
250,111,184101,6,0,P|246:60|260:18,1,95,12|10,0:1|0:0,0:0:0:0:
436,184,184481,1,8,0:0:0:0:
217,226,184671,1,8,0:0:0:0:
321,375,184860,1,10,0:0:0:0:
340,76,185050,1,8,0:0:0:0:
68,257,185240,5,8,0:0:0:0:
104,239,185335,1,8,0:0:0:0:
144,234,185430,1,8,0:0:0:0:
185,243,185525,1,8,0:0:0:0:
224,271,185620,6,0,P|316:321|418:305,1,190,12|8,0:1|0:0,0:0:0:0:
396,69,186190,2,0,P|321:119|339:220,1,190,8|10,0:1|0:1,0:0:0:0:
506,186,186759,1,8,0:0:0:0:
201,58,186949,6,0,B|311:28|276:109|393:73,1,190,10|8,0:1|0:1,0:0:0:0:
249,211,187519,1,8,0:0:0:0:
249,211,187614,1,8,0:0:0:0:
249,211,187709,1,10,0:1:0:0:
249,211,188088,5,10,0:1:0:0:
331,42,188278,2,0,L|349:148,1,95,8|0,0:0|0:0,0:0:0:0:
433,342,188658,6,0,P|428:285|309:279,1,190,12|4,0:1|0:3,0:0:0:0:
136,352,189228,2,0,P|162:297|168:258,1,95,10|0,0:1|0:0,0:0:0:0:
310,139,189607,2,0,P|284:84|278:45,1,95,10|4,0:1|0:3,0:0:0:0:
34,227,189987,6,0,B|217:162|169:307|379:259|379:259|322:258|278:222,1,455.999986083985,12|2,0:1|0:0,0:0:0:0:
362,157,191601,1,2,0:0:0:0:
362,156,191696,6,0,P|471:319|287:230,1,532,2|0,0:0|0:0,0:0:0:0:
195,65,194734,6,0,L|180:137,1,56.9999982604981,2|0,0:0|0:0,0:0:0:0:
115,173,195114,1,0,0:0:0:0:
115,173,195304,1,0,0:0:0:0:
198,214,195493,2,0,P|229:203|268:205,2,56.9999982604981,2|0|0,0:0|0:0|0:0,0:0:0:0:
53,274,196063,6,0,L|134:288,1,56.9999982604981,2|0,0:0|0:0,0:0:0:0:
180,357,196443,2,0,L|236:347,1,56.9999982604981,0|0,0:0|0:0,0:0:0:0:
315,283,196822,2,0,L|432:301,1,113.999996520996,2|0,0:0|0:0,0:0:0:0:
259,202,197392,1,0,0:0:0:0:
259,202,197772,6,0,P|262:172|272:140,2,56.9999982604981,2|0|0,0:0|0:0|0:0,0:0:0:0:
183,156,198341,1,0,0:0:0:0:
220,82,198531,2,0,P|218:52|211:19,1,56.9999982604981,2|0,0:0|0:0,0:0:0:0:
183,156,198911,1,0,0:0:0:0:
232,78,199101,6,0,L|355:101,1,113.999996520996,2|0,0:0|0:0,0:0:0:0:
412,47,199671,1,0,0:0:0:0:
432,133,199860,1,0,0:0:0:0:
377,233,200050,2,0,L|355:152,1,56.9999982604981,2|0,0:0|0:0,0:0:0:0:
478,232,200430,2,0,L|463:287,1,56.9999982604981,2|0,0:0|0:0,0:0:0:0:
313,367,200810,6,0,P|309:323|312:296,1,56.9999982604981,2|0,0:0|0:0,0:0:0:0:
249,246,201190,2,0,P|253:202|250:175,1,56.9999982604981,0|0,0:0|0:0,0:0:0:0:
197,116,201569,1,2,0:0:0:0:
155,203,201759,1,0,0:0:0:0:
252,189,201949,1,0,0:0:0:0:
194,107,202139,6,0,P|140:103|71:148,1,113.999996520996,2|0,0:0|0:0,0:0:0:0:
74,215,202709,1,0,0:0:0:0:
174,306,202898,2,0,L|160:182,1,113.999996520996,2|0,0:0|0:0,0:0:0:0:
277,100,203468,2,0,P|275:134|260:178,1,56.9999982604981,2|0,0:0|0:0,0:0:0:0:
216,245,203848,6,0,P|271:238|323:260,1,113.999996520996,2|0,0:0|0:0,0:0:0:0:
477,161,204417,2,0,P|425:183|370:177,1,113.999996520996,2|0,0:0|0:0,0:0:0:0:
292,106,204987,1,0,0:0:0:0:
292,106,205177,1,0,0:0:0:0:
268,265,205367,6,0,P|277:212|276:185,2,56.9999982604981,2|0|2,0:0|0:0|0:0,0:0:0:0:
189,339,205936,1,2,0:0:0:0:
189,339,206031,1,0,0:0:0:0:
189,339,206126,1,0,0:0:0:0:
161,239,206316,1,2,0:0:0:0:
87,299,206506,2,0,P|80:327|81:358,1,56.9999982604981,0|0,0:0|0:0,0:0:0:0:
163,228,206886,6,0,P|163:199|156:171,1,56.9999982604981,2|0,0:0|0:0,0:0:0:0:
70,134,207266,2,0,P|63:161|63:190,1,56.9999982604981,0|0,0:0|0:0,0:0:0:0:
151,90,207645,2,0,L|144:24,2,56.9999982604981,2|0|0,0:0|0:0|0:0,0:0:0:0:
300,74,208215,6,0,L|244:62,1,56.9999982604981,2|0,0:0|0:0,0:0:0:0:
366,155,208595,2,0,L|304:168,1,56.9999982604981,0|0,0:0|0:0,0:0:0:0:
447,110,208974,2,0,L|431:248,1,113.999996520996,2|0,0:0|0:0,0:0:0:0:
484,315,209544,1,0,0:0:0:0:
484,315,209734,1,0,0:0:0:0:
365,318,209924,6,0,P|324:323|293:339,2,56.9999982604981,2|0|0,0:0|0:0|0:0,0:0:0:0:
299,230,210493,2,0,P|258:224|227:209,1,56.9999982604981,2|0,0:0|0:0,0:0:0:0:
207,132,210873,1,0,0:0:0:0:
207,132,211063,1,0,0:0:0:0:
287,47,211253,6,0,L|159:30,1,113.999996520996,2|0,0:0|0:0,0:0:0:0:
109,139,211822,1,0,0:0:0:0:
0,49,212012,2,0,P|51:59|101:8,1,113.999996520996,2|0,0:0|0:0,0:0:0:0:
194,190,212582,2,0,L|203:119,1,56.9999982604981,0|0,0:0|0:0,0:0:0:0:
115,332,212962,6,0,L|99:231,1,76,12|0,0:1|0:0,0:0:0:0:
288,174,213341,2,0,L|276:249,1,76,8|2,0:1|0:0,0:0:0:0:
131,150,213721,1,8,0:1:0:0:
338,59,213911,1,0,0:0:0:0:
274,261,214101,1,10,0:1:0:0:
197,83,214291,6,0,P|163:65|126:59,1,76,0|10,0:0|0:1,0:0:0:0:
329,143,214671,2,0,P|366:137|399:119,1,76,0|8,0:0|0:1,0:0:0:0:
186,8,215050,2,0,P|200:74|212:162,1,152,2|0,0:0|0:0,0:0:0:0:
166,321,215620,1,10,0:1:0:0:
139,200,215810,1,0,0:0:0:0:
355,329,216000,5,8,0:0:0:0:
77,271,216190,1,8,0:0:0:0:
381,187,216379,1,8,0:0:0:0:
159,348,216569,1,8,0:0:0:0:
224,50,216759,1,8,0:0:0:0:
329,352,216949,1,8,0:0:0:0:
396,29,217139,1,8,0:0:0:0:
512,243,217329,6,0,B|400:226|422:289|313:271,1,190,10|8,0:1|0:0,0:0:0:0:
190,181,217898,1,8,0:0:0:0:
190,181,217993,1,8,0:0:0:0:
190,181,218088,2,0,P|182:242|170:284,1,95,10|0,0:1|0:0,0:0:0:0:
86,206,218468,1,10,0:1:0:0:
270,107,218658,2,0,P|278:168|290:210,1,95,4|0,0:3|0:0,0:0:0:0:
359,45,219038,5,12,0:1:0:0:
116,116,219228,1,2,0:0:0:0:
244,286,219417,1,8,0:0:0:0:
272,49,219607,1,10,0:1:0:0:
352,321,219797,1,2,0:0:0:0:
237,151,219987,1,8,0:1:0:0:
187,373,220177,1,8,0:0:0:0:
420,233,220367,6,0,P|338:211|330:213,1,95,10|0,0:1|0:0,0:0:0:0:
119,296,220747,2,0,P|166:297|207:275,1,95,10|8,0:1|0:0,0:0:0:0:
211,78,221126,2,0,P|197:168|199:270,1,190,10|8,0:1|0:1,0:0:0:0:
346,111,221696,1,8,0:0:0:0:
220,70,221886,1,0,0:0:0:0:
443,46,222076,5,10,0:1:0:0:
355,256,222266,1,2,0:0:0:0:
351,33,222455,1,8,0:0:0:0:
454,292,222645,1,10,0:1:0:0:
496,123,222835,1,2,0:0:0:0:
267,199,223025,1,8,0:1:0:0:
462,295,223215,1,8,0:0:0:0:
339,40,223405,6,0,P|331:87|347:151,1,95,10|0,0:1|0:0,0:0:0:0:
333,369,223785,2,0,P|341:322|333:275,1,95,10|8,0:1|0:0,0:0:0:0:
165,130,224164,2,0,B|276:108|252:172|352:148,1,190,10|8,0:1|0:1,0:0:0:0:
443,47,224734,1,8,0:0:0:0:
492,192,224924,1,0,0:0:0:0:
210,210,225114,5,10,0:1:0:0:
291,48,225304,1,2,0:0:0:0:
310,292,225493,1,8,0:0:0:0:
204,102,225683,1,10,0:1:0:0:
200,343,225873,1,2,0:0:0:0:
306,188,226063,1,8,0:1:0:0:
376,361,226253,1,8,0:0:0:0:
126,265,226443,6,0,L|230:250,1,95,10|0,0:1|0:0,0:0:0:0:
405,196,226822,2,0,L|310:182,1,95,10|8,0:1|0:0,0:0:0:0:
137,99,227202,2,0,P|214:144|203:233,1,190,10|8,0:1|0:1,0:0:0:0:
75,339,227772,1,8,0:0:0:0:
34,174,227962,1,0,0:0:0:0:
194,248,228152,6,0,B|304:221|272:296|386:279,1,190,10|8,0:1|0:0,0:0:0:0:
363,97,228721,2,0,P|338:134|331:194,1,95,10|0,0:1|0:0,0:0:0:0:
435,344,229101,1,8,0:1:0:0:
512,152,229291,2,0,L|407:169,1,95,8|8,0:0|0:1,0:0:0:0:
175,104,229671,5,2,0:0:0:0:
377,33,229860,1,8,0:1:0:0:
289,281,230050,1,10,0:0:0:0:
281,28,230240,2,0,B|319:82|319:82|298:225,1,190,10|8,0:1|0:0,0:0:0:0:
195,345,230810,2,0,P|180:297|188:240,1,95,4|0,0:3|0:0,0:0:0:0:
394,154,231190,5,12,0:1:0:0:
281,291,231379,1,2,0:0:0:0:
294,64,231569,1,8,0:0:0:0:
372,250,231759,1,10,0:1:0:0:
392,23,231949,1,2,0:0:0:0:
264,183,232139,1,8,0:1:0:0:
203,15,232329,1,8,0:0:0:0:
387,145,232519,6,0,P|396:194|378:253,1,95,10|0,0:1|0:0,0:0:0:0:
193,118,232898,2,0,P|183:71|192:25,1,95,10|8,0:1|0:0,0:0:0:0:
296,236,233278,2,0,L|102:264,1,190,10|8,0:1|0:1,0:0:0:0:
196,158,233848,1,8,0:0:0:0:
118,356,234038,1,0,0:0:0:0:
60,140,234228,5,10,0:1:0:0:
222,318,234417,1,2,0:0:0:0:
21,247,234607,1,8,0:0:0:0:
211,157,234797,2,0,L|323:179,1,95,10|0,0:1|0:0,0:0:0:0:
211,310,235177,1,8,0:1:0:0:
134,82,235367,1,10,0:0:0:0:
374,114,235557,6,0,P|391:157|393:205,1,95,2|0,0:1|0:0,0:0:0:0:
289,370,235936,2,0,P|290:322|308:278,1,95,8|8,0:1|0:0,0:0:0:0:
479,159,236316,1,10,0:1:0:0:
479,159,236411,1,8,0:0:0:0:
479,159,236506,1,8,0:0:0:0:
431,337,236696,1,8,0:0:0:0:
272,149,236886,2,0,P|271:100|291:48,1,95,4|0,0:3|0:0,0:0:0:0:
435,243,237266,5,14,0:0:0:0:
186,326,237455,1,8,0:1:0:0:
487,374,237645,1,10,0:0:0:0:
262,164,237835,1,8,0:1:0:0:
401,42,238025,5,10,0:0:0:0:
338,288,238215,1,8,0:1:0:0:
255,71,238405,1,10,0:0:0:0:
455,219,238595,6,0,P|470:258|470:321,1,95,8|10,0:1|0:0,0:0:0:0:
160,98,238974,2,0,P|160:50|176:6,1,95,8|10,0:1|0:0,0:0:0:0:
366,276,239354,2,0,P|381:315|381:378,1,95,8|10,0:1|0:0,0:0:0:0:
113,242,239734,1,8,0:1:0:0:
320,121,239924,2,0,L|458:139,1,95,10|8,0:0|0:1,0:0:0:0:
176,327,240304,5,10,0:0:0:0:
231,66,240493,1,8,0:1:0:0:
286,365,240683,1,10,0:0:0:0:
217,148,240873,1,8,0:1:0:0:
374,276,241063,5,10,0:0:0:0:
127,177,241253,1,8,0:1:0:0:
397,100,241443,1,10,0:0:0:0:
282,291,241633,6,0,B|191:266|199:335|93:311,1,190,12|8,0:1|0:0,0:0:0:0:
12,158,242202,1,8,0:0:0:0:
93,326,242392,1,8,0:0:0:0:
162,94,242582,1,8,0:0:0:0:
94,233,242772,1,8,0:0:0:0:
38,80,242962,5,8,0:0:0:0:
68,61,243057,1,8,0:0:0:0:
103,58,243152,1,8,0:0:0:0:
136,69,243247,1,8,0:0:0:0:
162,94,243341,6,0,L|149:201,1,95,6|0,0:0|0:0,0:0:0:0:
237,299,243721,1,8,0:0:0:0:
342,130,243911,2,0,P|301:153|254:159,1,95,10|0,0:1|0:0,0:0:0:0:
391,287,244291,2,0,P|437:292|478:316,1,95,10|8,0:1|0:0,0:0:0:0:
260,384,244671,6,0,L|245:281,1,95,10|0,0:1|0:0,0:0:0:0:
350,123,245050,2,0,L|336:217,1,95,10|8,0:1|0:0,0:0:0:0:
126,177,245430,2,0,P|170:192|218:194,1,95,10|0,0:1|0:0,0:0:0:0:
362,136,245810,1,10,0:1:0:0:
493,275,246000,2,0,P|445:276|401:292,1,95,8|0,0:0|0:0,0:0:0:0:
271,369,246379,5,6,0:0:0:0:
198,120,246569,1,0,0:0:0:0:
106,350,246759,1,8,0:0:0:0:
336,230,246949,2,0,P|290:216|243:215,1,95,10|0,0:1|0:0,0:0:0:0:
19,159,247329,2,0,P|66:158|111:144,1,95,10|8,0:1|0:0,0:0:0:0:
291,22,247709,6,0,P|270:64|266:131,1,95,10|0,0:1|0:0,0:0:0:0:
182,310,248088,2,0,P|175:263|154:220,1,95,10|8,0:1|0:0,0:0:0:0:
383,191,248468,2,0,P|335:187|284:202,1,95,10|0,0:1|0:0,0:0:0:0:
87,296,248848,1,10,0:1:0:0:
363,383,249038,2,0,P|358:324|347:284,1,95,8|0,0:0|0:0,0:0:0:0:
180,83,249417,5,6,0:0:0:0:
228,270,249607,1,0,0:0:0:0:
337,95,249797,1,8,0:0:0:0:
66,160,249987,2,0,P|113:163|157:179,1,95,10|0,0:1|0:0,0:0:0:0:
434,73,250367,2,0,P|389:89|342:92,1,95,10|8,0:1|0:0,0:0:0:0:
153,7,250747,6,0,P|176:46|186:100,1,95,10|0,0:1|0:0,0:0:0:0:
142,307,251126,2,0,P|164:267|206:231,1,95,10|8,0:1|0:0,0:0:0:0:
408,167,251506,2,0,P|362:167|310:149,1,95,10|0,0:1|0:0,0:0:0:0:
25,184,251886,2,0,P|69:169|117:169,1,95,10|8,0:1|0:0,0:0:0:0:
248,361,252266,6,0,L|219:159,1,190,2|8,0:0|0:1,0:0:0:0:
299,33,252835,1,8,0:0:0:0:
431,280,253025,2,0,L|304:251,1,95,10|0,0:1|0:0,0:0:0:0:
46,92,253405,2,0,L|173:63,1,95,10|8,0:1|0:0,0:0:0:0:
473,173,253785,6,0,B|371:156|389:219|289:198,1,190,10|8,0:1|0:1,0:0:0:0:
149,79,254354,1,8,0:0:0:0:
230,318,254544,2,0,L|261:117,1,190,10|8,0:1|0:0,0:0:0:0:
130,279,255114,1,4,0:3:0:0:
149,383,255304,1,0,0:0:0:0:
349,124,255493,5,6,0:0:0:0:
162,187,255683,1,0,0:0:0:0:
380,273,255873,1,8,0:0:0:0:
262,61,256063,2,0,P|241:110|244:170,1,95,10|0,0:1|0:0,0:0:0:0:
468,302,256443,2,0,P|465:254|445:211,1,95,10|8,0:1|0:0,0:0:0:0:
210,339,256822,6,0,L|309:318,1,95,10|0,0:1|0:0,0:0:0:0:
110,190,257202,2,0,L|11:169,1,95,10|8,0:1|0:0,0:0:0:0:
239,96,257582,2,0,P|263:137|270:209,1,95,10|0,0:1|0:0,0:0:0:0:
81,356,257962,2,0,P|89:309|113:268,1,95,10|8,0:1|0:0,0:0:0:0:
279,190,258341,1,0,0:0:0:0:
213,338,258531,5,6,0:0:0:0:
151,125,258721,1,2,0:0:0:0:
106,349,258911,1,8,0:0:0:0:
288,181,259101,2,0,P|294:126|277:76,1,95,10|0,0:1|0:0,0:0:0:0:
223,347,259481,2,0,P|217:292|234:242,1,95,10|8,0:1|0:0,0:0:0:0:
87,131,259860,6,0,P|136:146|212:129,1,95,10|0,0:1|0:0,0:0:0:0:
377,72,260240,2,0,P|329:69|284:83,1,95,10|8,0:1|0:0,0:0:0:0:
227,254,260620,1,8,0:1:0:0:
227,254,260715,1,8,0:0:0:0:
227,254,260810,1,8,0:0:0:0:
441,161,261000,1,8,0:0:0:0:
161,43,261190,2,0,L|173:150,1,95,8|0,0:1|0:0,0:0:0:0:
206,337,261569,5,14,0:0:0:0:
325,62,261759,1,8,0:1:0:0:
361,378,261949,1,10,0:0:0:0:
172,53,262139,1,8,0:1:0:0:
411,268,262329,5,10,0:0:0:0:
81,188,262519,1,8,0:1:0:0:
418,102,262709,1,10,0:0:0:0:
187,353,262898,1,8,0:1:0:0:
249,43,263088,5,10,0:0:0:0:
332,357,263278,1,0,0:0:0:0:
359,25,263468,1,10,0:0:0:0:
241,275,263658,1,0,0:0:0:0:
89,77,263848,5,10,0:0:0:0:
392,169,264038,1,0,0:0:0:0:
111,256,264228,1,10,0:0:0:0:
334,84,264417,1,0,0:0:0:0:
298,351,264607,5,8,0:0:0:0:
210,23,264797,2,0,P|186:69|187:148,1,113.999996520996,10|8,0:1|0:0,0:0:0:0:
427,302,265177,2,0,P|399:258|330:219,1,113.999996520996,10|8,0:1|0:0,0:0:0:0:
76,350,265557,2,0,P|127:347|195:307,1,113.999996520996,10|8,0:1|0:0,0:0:0:0:
307,99,265936,6,0,L|337:341,1,227.999993041992,12|10,0:1|0:0,0:0:0:0:
415,116,266506,1,8,0:0:0:0:
243,291,266696,1,10,0:0:0:0:
228,45,266886,1,8,0:0:0:0:
351,223,267076,1,8,0:0:0:0:
148,112,267266,1,10,0:0:0:0:
181,137,267360,1,8,0:0:0:0:
223,144,267455,1,8,0:0:0:0:
264,133,267550,1,8,0:0:0:0:
295,104,267645,6,0,P|357:79|437:170,1,190,4|8,0:0|0:0,0:0:0:0:
362,329,268215,1,4,0:3:0:0:
154,141,268405,1,2,0:0:0:0:
352,172,268595,1,8,0:0:0:0:
222,337,268785,1,8,0:0:0:0:
224,42,268974,6,0,B|187:101|187:101|205:235,1,190,2|8,0:0|0:0,0:0:0:0:
222,337,269544,1,8,0:0:0:0:
369,150,269734,2,0,P|325:132|278:134,1,95,12|0,0:1|0:0,0:0:0:0:
187,223,270114,1,4,0:3:0:0:
59,100,270304,2,0,P|106:101|149:84,1,95,8|2,0:1|0:0,0:0:0:0:
248,66,270588,1,0,0:0:0:0:
248,66,270683,6,0,B|250:114|226:147|226:147|252:186|237:235|237:235|218:279|238:327,1,266,6|2,0:0|0:0,0:0:0:0:
360,343,272107,1,2,0:0:0:0:
360,343,272202,6,0,B|370:311|410:295|410:295|467:269|503:231|508:161|481:127|441:112|400:117|368:168|368:168|343:113|303:102|261:111|231:142|226:211|255:254|311:283,1,684,2|0,0:0|0:0,0:0:0:0:
