osu file format v14

[General]
AudioFilename: audio.mp3
AudioLeadIn: 0
PreviewTime: 60590
Countdown: 0
SampleSet: Soft
StackLeniency: 0.4
Mode: 0
LetterboxInBreaks: 0
WidescreenStoryboard: 1

[Editor]
DistanceSpacing: 0.8
BeatDivisor: 4
GridSize: 4
TimelineZoom: 1

[Metadata]
Title:Natsukoi Hanabi (Sped Up Ver.)
TitleUnicode:夏恋花火 (Sped Up Ver.)
Artist:chano & 40mP
ArtistUnicode:シャノ & 40mP
Creator:Log Off Now
Version:Normal
Source:
Tags:nightcore speed up cut ver jpop japanese pop panoram a note j-pop rock jrock j-rock edit version shano 40meterp sugar kuki1537 pikaquors browiec
BeatmapID:2587326
BeatmapSetID:1244123

[Difficulty]
HPDrainRate:3.5
CircleSize:3
OverallDifficulty:4
ApproachRate:5
SliderMultiplier:1
SliderTickRate:1

[Events]
//Background and Video events
0,0,"hanabi.jpg",0,0
//Break Periods
//Storyboard Layer 0 (Background)
//Storyboard Layer 1 (Fail)
//Storyboard Layer 2 (Pass)
//Storyboard Layer 3 (Foreground)
//Storyboard Layer 4 (Overlay)
//Storyboard Sound Samples

[TimingPoints]
471,342.075256556442,4,2,1,55,1,0
9193,-100,4,2,1,60,0,0
11417,-100,4,2,1,75,0,0
21166,-100,4,2,1,55,0,0
21508,-100,4,2,1,65,0,0
21850,-100,4,2,1,75,0,0
22534,-100,4,2,1,65,0,0
25100,-100,4,2,1,55,0,0
27494,-100,4,2,1,55,0,0
30573,-100,4,2,1,65,0,0
34507,-100,4,2,1,65,0,0
34849,-100,4,2,1,65,0,0
36046,-100,4,2,1,55,0,0
41520,-100,4,2,1,65,0,0
46993,-100,4,2,2,45,0,0
55203,-100,4,2,2,55,0,0
57426,-100,4,2,1,65,0,0
57939,-100,4,2,1,55,0,0
58623,-100,4,2,1,65,0,0
59136,-100,4,2,1,75,0,0
60676,-100,4,2,1,85,0,1
71280,-100,4,2,1,85,0,1
71622,-100,4,2,1,85,0,1
81371,-100,4,2,1,65,0,1
82569,-100,4,2,1,75,0,0
93173,-100,4,2,1,75,0,0
93515,-100,4,2,1,75,0,0
103264,-100,4,2,1,55,0,0
103777,-100,4,2,1,65,0,0
104461,-100,4,2,1,75,0,0
104974,-100,4,2,1,65,0,0
105659,-100,4,2,1,55,0,0
107027,-100,4,2,1,45,0,0
108395,-100,4,2,1,30,0,0
109935,-111.111111111111,4,2,1,15,0,0
112671,-111.111111111111,4,2,1,5,0,0

[Colours]
Combo1 : 10,82,120
Combo2 : 239,199,75
Combo3 : 245,118,118
Combo4 : 179,117,219

[HitObjects]
388,82,471,6,0,P|361:126|370:222,1,150,2|2,0:0|0:0,0:0:0:0:
423,292,1326,1,2,0:0:0:0:
356,352,1668,2,0,P|300:333|242:334,1,100,2|2,0:0|0:0,0:0:0:0:
193,270,2352,1,2,0:0:0:0:
122,326,2694,1,2,0:0:0:0:
72,200,3207,6,0,B|101:164|101:164|89:51,1,150,2|2,0:0|0:0,0:0:0:0:
158,2,4062,1,2,0:0:0:0:
227,58,4404,2,0,P|281:44|325:50,1,100,2|2,0:0|0:0,0:0:0:0:
382,118,5089,2,0,P|367:166|363:225,1,100,2|2,0:0|0:0,0:0:0:0:
381,256,5602,1,2,0:0:0:0:
331,331,5944,6,0,L|266:321,2,50,2|0|2,0:0|0:0|0:0,0:0:0:0:
356,367,6457,1,2,0:0:0:0:
445,365,6799,1,2,0:0:0:0:
497,291,7141,2,0,L|485:180,1,100,2|2,0:0|0:0,0:0:0:0:
417,133,7825,1,2,0:0:0:0:
348,190,8167,1,2,0:0:0:0:
282,128,8509,1,2,0:0:0:0:
282,128,8680,6,0,P|220:158|172:164,1,100,2|8,1:2|0:3,0:0:0:0:
152,138,9193,1,2,0:0:0:0:
194,58,9535,1,8,0:0:0:0:
119,7,9878,1,6,1:2:0:0:
58,73,10220,2,0,L|3:62,2,50,8|8|2,0:3|0:0|1:3,0:0:0:0:
114,143,10904,1,8,0:0:0:0:
114,143,11075,1,4,0:3:0:0:
195,104,11417,6,0,L|184:49,2,50,4|2|8,1:0|0:0|0:0,0:0:0:0:
230,131,11930,2,0,P|216:187|209:238,1,100,2|2,1:2|1:2,0:0:0:0:
263,301,12614,2,0,P|310:282|369:280,1,100,2|2,1:2|1:2,0:0:0:0:
428,222,13298,1,2,1:2:0:0:
370,153,13640,1,0,1:0:0:0:
370,153,13811,1,8,0:0:0:0:
417,76,14154,6,0,L|479:85,2,50,0|2|8,1:0|0:0|0:0,0:0:0:0:
389,40,14667,2,0,L|277:52,1,100,2|2,1:2|1:2,0:0:0:0:
228,116,15351,1,2,1:2:0:0:
163,52,15693,1,2,1:2:0:0:
87,100,16035,1,0,1:0:0:0:
87,100,16206,2,0,L|96:157,1,50,8|8,0:0|0:0,0:0:0:0:
74,189,16548,1,2,1:2:0:0:
130,259,16890,6,0,P|192:245|241:243,1,100,14|10,1:2|0:0,0:0:0:0:
302,191,17574,2,0,L|295:121,2,50,10|2|10,0:0|1:2|0:0,0:0:0:0:
338,217,18087,1,2,1:2:0:0:
338,217,18258,5,8,0:0:0:0:
427,191,18600,1,8,0:0:0:0:
427,191,18772,2,0,P|439:237|442:299,1,100,2|2,1:2|1:2,0:0:0:0:
425,330,19285,1,8,0:0:0:0:
347,296,19627,5,10,0:0:0:0:
347,296,19798,2,0,P|297:302|240:324,1,100,2|2,1:2|1:2,0:0:0:0:
177,265,20482,1,0,1:0:0:0:
237,198,20824,6,0,L|224:78,1,100,6|8,1:2|0:0,0:0:0:0:
217,54,21337,1,8,0:0:0:0:
136,94,21679,1,8,0:0:0:0:
49,69,22021,2,0,L|55:124,1,50,8|8,0:0|0:0,0:0:0:0:
73,159,22363,6,0,L|57:275,1,100,4|8,1:2|0:0,0:0:0:0:
53,302,22876,1,8,0:3:0:0:
136,335,23219,2,0,L|127:397,2,50,8|8|4,0:0|0:3|0:3,0:0:0:0:
214,290,23903,2,0,L|205:228,2,50,8|8|4,0:0|0:0|0:0,0:0:0:0:
290,337,24587,1,8,0:3:0:0:
371,295,24929,1,2,0:0:0:0:
371,295,25100,1,2,1:2:0:0:
323,74,26468,5,2,1:2:0:0:
197,262,27323,5,8,0:0:0:0:
197,262,27494,1,8,0:3:0:0:
118,216,27837,2,0,P|129:160|125:101,1,100,2|8,1:2|0:0,0:0:0:0:
105,78,28350,1,2,1:2:0:0:
190,48,28692,2,0,L|182:-5,2,50,8|8|2,0:0|0:0|1:2,0:0:0:0:
261,103,29376,2,0,L|253:156,2,50,8|8|8,0:0|0:0|0:3,0:0:0:0:
332,48,30060,1,4,0:3:0:0:
332,48,30231,1,8,0:0:0:0:
403,102,30573,6,0,P|393:150|389:211,1,100,4|8,1:2|0:0,0:0:0:0:
448,268,31257,1,2,0:0:0:0:
391,338,31599,1,10,0:0:0:0:
391,338,31770,1,2,1:2:0:0:
316,287,32112,1,2,0:0:0:0:
247,346,32455,2,0,P|189:331|132:326,1,100,2|2,1:2|1:2,0:0:0:0:
89,259,33139,1,2,1:2:0:0:
89,259,33310,6,0,P|118:202|114:156,1,100,2|8,1:2|0:0,0:0:0:0:
88,132,33823,1,2,1:2:0:0:
163,82,34165,2,0,L|234:91,1,50,2|10,1:2|0:0,0:0:0:0:
244,120,34507,2,0,P|313:99|357:101,1,100,2|0,1:2|1:0,0:0:0:0:
377,124,35020,1,8,0:0:0:0:
377,124,35191,1,2,1:2:0:0:
453,76,35533,1,8,0:0:0:0:
453,76,35704,1,4,0:3:0:0:
380,22,36046,5,4,1:2:0:0:
242,207,37415,5,4,1:2:0:0:
110,105,38270,5,8,0:0:0:0:
110,105,38441,1,8,0:3:0:0:
31,151,38783,2,0,P|42:207|38:266,1,100,2|8,1:2|0:0,0:0:0:0:
18,289,39297,1,2,1:2:0:0:
99,327,39639,2,0,L|91:380,2,50,8|8|2,0:0|0:0|1:2,0:0:0:0:
170,272,40323,2,0,L|162:219,2,50,8|8|8,0:0|0:0|0:3,0:0:0:0:
241,327,41007,1,4,0:3:0:0:
241,327,41178,1,8,0:0:0:0:
315,275,41520,6,0,P|305:227|301:166,1,100,4|8,1:2|0:2,0:0:0:0:
343,96,42204,1,2,0:0:0:0:
432,127,42546,1,10,0:0:0:0:
432,127,42717,1,0,1:0:0:0:
406,213,43059,1,2,0:0:0:0:
490,245,43402,2,0,P|475:303|470:360,1,100,2|2,1:2|1:2,0:0:0:0:
389,374,44086,1,0,1:0:0:0:
389,374,44257,6,0,P|332:345|286:349,1,100,2|0,1:2|0:0,0:0:0:0:
262,375,44770,1,2,1:2:0:0:
190,323,45112,2,0,L|199:252,1,50,2|0,1:2|0:0,0:0:0:0:
234,249,45454,2,0,L|222:139,1,100,2|0,1:2|1:0,0:0:0:0:
192,111,45967,1,10,0:0:0:0:
192,111,46138,1,2,1:2:0:0:
231,29,46480,1,8,0:0:0:0:
231,29,46651,1,8,0:3:0:0:
312,66,46993,6,0,L|426:46,2,100,12|8|8,0:0|0:0|0:0,0:0:0:0:
264,142,48019,1,8,0:0:0:0:
309,221,48361,2,0,L|423:241,2,100,10|8|8,0:0|0:0|0:0,0:0:0:0:
265,299,49387,1,8,0:0:0:0:
212,227,49729,6,0,P|155:242|106:243,1,100,10|10,0:0|0:0,0:0:0:0:
70,256,50242,1,2,0:0:0:0:
47,343,50585,2,0,L|-15:335,2,50,2|10|2,0:0|0:0|0:0,0:0:0:0:
84,368,51098,2,0,P|143:352|192:352,1,100,8|8,0:0|0:0,0:0:0:0:
216,322,51611,1,2,0:0:0:0:
171,250,51953,1,2,0:0:0:0:
171,250,52124,1,10,0:0:0:0:
231,183,52466,6,0,L|345:163,2,100,6|8|8,1:2|0:0|0:0,0:0:0:0:
163,124,53492,1,10,0:0:0:0:
109,196,53834,2,0,L|-5:176,2,100,10|8|8,0:0|0:0|0:0,0:0:0:0:
155,273,54860,1,10,0:0:0:0:
232,226,55203,6,0,P|291:202|341:216,1,100,2|0,1:2|0:0,0:0:0:0:
363,232,55716,1,2,1:2:0:0:
426,167,56058,1,2,1:2:0:0:
374,92,56400,2,0,L|260:106,1,100,2|2,1:2|1:2,0:0:0:0:
220,175,57084,1,2,1:2:0:0:
144,126,57426,2,0,L|152:64,2,50,10|8|4,0:0|0:3|0:3,0:0:0:0:
110,156,57939,6,0,L|124:260,1,100,8|8,0:0|0:0,0:0:0:0:
132,299,58452,1,8,0:0:0:0:
217,269,58794,2,0,L|225:207,1,50,8|8,0:0|0:0,0:0:0:0:
233,175,59136,1,4,1:2:0:0:
313,215,59478,2,0,P|347:224|368:227,1,50,8|8,0:0|0:0,0:0:0:0:
395,255,59821,1,4,1:2:0:0:
456,189,60163,1,4,1:2:0:0:
385,76,60676,6,0,P|345:101|280:108,1,100,4|10,1:0|0:0,0:0:0:0:
203,155,61360,2,0,L|211:93,2,50,2|2|10,0:0|1:2|0:0,0:0:0:0:
194,199,61873,2,0,P|142:184|89:200,1,100,2|2,1:2|1:2,0:0:0:0:
23,244,62557,2,0,B|13:193|13:193|32:127,1,100,2|0,1:2|1:0,0:0:0:0:
37,103,63070,1,8,0:0:0:0:
119,67,63412,6,0,L|113:12,2,50,2|2|10,1:2|0:0|0:0,0:0:0:0:
170,140,64096,2,0,L|164:195,2,50,2|2|10,0:0|1:2|0:0,0:0:0:0:
211,122,64610,1,2,1:2:0:0:
278,182,64952,1,2,1:2:0:0:
360,147,65294,2,0,L|345:28,1,100,2|0,1:2|1:0,0:0:0:0:
380,17,65807,1,8,0:0:0:0:
464,47,66149,6,0,P|458:104|486:161,1,100,2|10,1:2|0:0,0:0:0:0:
414,211,66833,2,0,L|408:266,2,50,2|2|10,0:0|1:2|0:0,0:0:0:0:
373,190,67346,2,0,P|309:216|259:213,1,100,2|2,1:2|1:2,0:0:0:0:
198,175,68030,1,2,1:2:0:0:
126,229,68372,1,2,1:2:0:0:
126,229,68543,1,8,0:0:0:0:
151,315,68886,6,0,L|253:304,1,100,2|10,1:2|0:0,0:0:0:0:
279,269,69399,1,2,1:2:0:0:
339,335,69741,2,0,L|412:326,1,50,2|10,1:2|0:0,0:0:0:0:
413,291,70083,2,0,P|392:229|407:181,1,100,2|0,1:2|1:0,0:0:0:0:
433,168,70596,1,8,0:0:0:0:
433,168,70767,1,2,1:2:0:0:
379,95,71109,1,10,0:0:0:0:
379,95,71280,1,8,0:3:0:0:
305,146,71622,6,0,L|193:134,1,100,6|10,1:2|0:0,0:0:0:0:
148,65,72306,2,0,L|84:76,2,50,2|2|10,0:0|1:2|0:0,0:0:0:0:
173,28,72819,2,0,P|228:45|281:28,1,100,2|2,1:2|1:2,0:0:0:0:
342,86,73504,2,0,P|330:133|334:192,1,100,2|0,1:2|1:0,0:0:0:0:
363,216,74017,1,8,0:0:0:0:
314,291,74359,6,0,L|241:280,2,50,2|2|10,1:2|0:0|0:0,0:0:0:0:
346,322,74872,2,0,L|463:307,1,100,2|2,1:2|1:2,0:0:0:0:
480,226,75556,1,2,1:2:0:0:
419,159,75898,1,2,1:2:0:0:
459,80,76240,1,2,1:2:0:0:
459,80,76411,2,0,L|527:89,2,50,8|8|2,0:0|0:0|0:0,0:0:0:0:
389,22,77095,6,0,P|344:46|278:42,1,100,14|10,1:2|0:0,0:0:0:0:
222,99,77780,2,0,L|172:92,2,50,10|2|10,0:0|1:2|0:0,0:0:0:0:
252,132,78293,2,0,P|239:184|238:237,1,100,2|2,1:2|1:2,0:0:0:0:
291,302,78977,1,2,1:2:0:0:
224,362,79319,1,2,1:2:0:0:
224,362,79490,1,10,0:0:0:0:
149,312,79832,6,0,L|95:324,1,50,10|2,0:0|1:2,0:0:0:0:
55,327,80174,2,0,P|72:266|58:214,1,100,10|8,0:0|0:0,0:0:0:0:
24,150,80858,1,10,0:0:0:0:
24,150,81029,1,6,1:2:0:0:
91,89,81371,1,8,0:0:0:0:
159,146,81713,2,0,L|280:131,1,100,8|8,0:0|0:0,0:0:0:0:
291,103,82226,2,0,L|361:110,1,50,8|8,0:0|0:0,0:0:0:0:
373,139,82569,5,6,1:2:0:0:
462,114,82911,1,8,0:0:0:0:
462,114,83082,2,0,P|458:156|468:222,1,100,2|2,1:2|1:2,0:0:0:0:
422,292,83766,2,0,P|371:274|310:280,1,100,2|2,1:2|1:2,0:0:0:0:
245,315,84450,1,2,1:2:0:0:
195,246,84792,1,2,1:2:0:0:
195,246,84963,1,8,0:0:0:0:
240,168,85305,6,0,L|313:176,2,50,2|2|8,1:2|0:0|0:0,0:0:0:0:
215,129,85818,2,0,P|177:147|103:152,1,100,2|2,1:2|1:2,0:0:0:0:
34,126,86502,1,2,1:2:0:0:
5,211,86845,1,2,1:2:0:0:
63,279,87187,1,2,1:2:0:0:
142,236,87529,1,2,1:2:0:0:
142,236,87700,2,0,L|251:253,1,100,10|2,0:0|1:2,0:0:0:0:
316,202,88384,5,8,0:0:0:0:
316,202,88555,1,2,1:2:0:0:
392,249,88897,2,0,L|381:354,1,100,2|2,1:2|1:2,0:0:0:0:
296,377,89581,1,2,1:2:0:0:
220,327,89923,1,2,1:2:0:0:
141,370,90265,1,2,1:2:0:0:
75,308,90607,1,2,1:2:0:0:
75,308,90778,6,0,P|94:253|76:201,1,100,2|8,1:2|0:0,0:0:0:0:
56,178,91291,1,2,1:2:0:0:
126,121,91634,1,2,1:2:0:0:
195,177,91976,2,0,L|311:159,1,100,2|2,1:2|1:2,0:0:0:0:
329,133,92489,1,8,0:0:0:0:
329,133,92660,1,2,1:2:0:0:
398,190,93002,1,10,0:0:0:0:
398,190,93173,1,8,0:3:0:0:
457,122,93515,6,0,L|520:129,2,50,6|2|8,1:2|0:0|0:0,0:0:0:0:
430,86,94028,2,0,L|330:98,1,100,2|2,1:2|1:2,0:0:0:0:
263,157,94712,2,0,P|273:209|249:265,1,100,2|2,1:2|1:2,0:0:0:0:
195,316,95396,1,2,1:2:0:0:
131,261,95738,1,0,1:0:0:0:
131,261,95909,1,8,0:0:0:0:
54,308,96252,6,0,L|44:366,2,50,2|2|8,1:2|0:0|0:0,0:0:0:0:
21,276,96765,2,0,L|7:163,1,100,2|2,1:2|1:2,0:0:0:0:
68,109,97449,1,2,1:2:0:0:
143,157,97791,1,2,1:2:0:0:
207,94,98133,1,0,1:0:0:0:
207,94,98304,2,0,L|264:103,1,50,8|8,0:0|0:0,0:0:0:0:
291,73,98646,1,2,0:0:0:0:
364,125,98988,6,0,L|350:229,1,100,14|10,1:2|0:0,0:0:0:0:
406,294,99672,2,0,L|410:343,2,50,10|2|10,0:0|1:2|0:0,0:0:0:0:
443,267,100185,1,2,1:2:0:0:
443,267,100356,5,8,0:0:0:0:
399,188,100698,1,8,0:0:0:0:
399,188,100870,2,0,P|361:212|301:220,1,100,2|2,1:2|1:2,0:0:0:0:
267,199,101383,1,8,0:0:0:0:
191,244,101725,5,10,0:0:0:0:
191,244,101896,2,0,P|167:202|105:183,1,100,2|2,1:2|1:2,0:0:0:0:
68,109,102580,1,2,1:2:0:0:
114,32,102922,6,0,L|234:45,1,100,6|8,1:2|0:0,0:0:0:0:
238,79,103435,1,8,0:0:0:0:
292,150,103777,1,8,0:0:0:0:
361,92,104119,2,0,L|416:98,1,50,8|8,0:0|0:0,0:0:0:0:
454,106,104461,6,0,P|435:160|438:222,1,100,4|8,1:2|0:0,0:0:0:0:
452,243,104974,1,8,0:3:0:0:
390,315,105317,2,0,L|381:377,2,50,8|8|4,0:0|0:3|0:3,0:0:0:0:
316,262,106001,2,0,L|307:200,2,50,8|8|4,0:0|0:0|0:0,0:0:0:0:
255,328,106685,1,8,0:3:0:0:
188,275,107027,1,2,0:0:0:0:
188,275,107198,1,2,0:0:0:0:
256,192,107369,12,0,112671,0:0:0:0:
