osu file format v14

[General]
AudioFilename: audio.mp3
AudioLeadIn: 0
PreviewTime: 66805
Countdown: 0
SampleSet: Soft
StackLeniency: 0.4
Mode: 0
LetterboxInBreaks: 0
WidescreenStoryboard: 0

[Editor]
DistanceSpacing: 0.7
BeatDivisor: 4
GridSize: 32
TimelineZoom: 1.6

[Metadata]
Title:Natsukoi Hanabi
TitleUnicode:夏恋花火
Artist:chano & 40mP
ArtistUnicode:シャノ & 40mP
Creator:Sakura Blossom
Version:Fire flowers
Source:
Tags:Fire flowers, Rocket, HappyRocket88, Sakura Blossom, SakuraStyle, 40meterP, chano, シャノ, Hailie
BeatmapID:1738379
BeatmapSetID:829754

[Difficulty]
HPDrainRate:5
CircleSize:4
OverallDifficulty:8
ApproachRate:8.5
SliderMultiplier:1.6
SliderTickRate:1

[Events]
//Background and Video events
0,0,"image (2).jpg",0,0
//Break Periods
//Storyboard Layer 0 (Background)
//Storyboard Layer 1 (Fail)
//Storyboard Layer 2 (Pass)
//Storyboard Layer 3 (Foreground)
//Storyboard Sound Samples

[TimingPoints]
350,379.746835443038,4,2,12,35,1,0
1299,-100,4,2,12,45,0,0
1489,-100,4,2,12,10,0,0
1679,-100,4,2,12,45,0,0
1868,-100,4,2,12,10,0,0
2058,-100,4,2,12,45,0,0
2248,-100,4,2,12,10,0,0
2438,-100,4,2,12,45,0,0
2628,-100,4,2,12,10,0,0
2818,-100,4,2,12,45,0,0
3387,-100,4,2,12,48,0,0
4717,-100,4,2,12,48,0,0
4906,-100,4,2,12,10,0,0
5096,-100,4,2,12,48,0,0
5286,-100,4,2,12,10,0,0
5476,-100,4,2,12,48,0,0
5666,-100,4,2,12,10,0,0
5856,-100,4,2,12,50,0,0
6046,-100,4,2,12,10,0,0
6425,-100,4,2,12,50,0,0
6615,-100,4,2,12,50,0,0
6805,-100,4,2,12,50,0,0
6995,-100,4,2,12,50,0,0
7375,-100,4,2,12,50,0,0
7565,-100,4,2,12,10,0,0
7755,-100,4,2,12,50,0,0
7944,-100,4,2,12,10,0,0
8134,-100,4,2,12,50,0,0
8324,-100,4,2,12,10,0,0
8514,-100,4,2,12,80,0,0
8704,-100,4,2,12,10,0,0
8894,-100,4,2,12,50,0,0
9084,-100,4,2,12,10,0,0
9274,-100,4,2,12,40,0,0
9463,-100,4,2,12,70,0,0
9843,-100,4,2,12,80,0,0
10033,-100,4,2,12,70,0,0
10413,-100,4,2,12,70,0,0
11932,-100,4,2,12,50,0,0
12122,-100,4,2,12,80,0,0
12501,-100,4,2,12,50,0,0
13071,-100,4,2,12,50,0,0
13451,-100,4,2,12,50,0,0
13831,-100,4,2,12,50,0,0
14210,-100,4,2,12,50,0,0
16109,-100,4,2,12,50,0,0
16489,-100,4,2,12,50,0,0
16868,-100,4,2,12,50,0,0
17248,-100,4,2,12,50,0,0
17628,-100,4,2,12,60,0,0
18008,-100,4,2,12,50,0,0
18198,-100,4,2,12,50,0,0
18957,-100,4,2,12,50,0,0
20096,-100,4,2,12,50,0,0
21236,-100,4,2,12,50,0,0
22185,-100,4,2,12,50,0,0
22944,-100,4,2,12,50,0,0
24274,-285.714285714286,4,2,12,60,0,0
24558,-100,4,2,12,50,0,0
24653,-100,4,2,12,50,0,0
25223,-100,4,2,12,50,0,0
25603,-100,4,2,12,50,0,0
27312,-100,4,2,12,50,0,0
30350,-100,4,2,12,50,0,0
30729,-100,4,2,12,50,0,0
31299,-100,4,2,12,50,0,0
32058,-100,4,2,12,50,0,0
32818,-100,4,2,12,50,0,0
33767,-100,4,2,12,50,0,0
34337,-100,4,2,12,50,0,0
34906,-100,4,2,12,50,0,0
35286,-100,4,2,12,60,0,0
35666,-100,4,2,12,50,0,0
35856,-100,4,2,12,50,0,0
36805,-100,4,2,12,60,0,0
37185,-100,4,2,12,50,0,0
37375,-100,4,2,12,50,0,0
38894,-100,4,2,12,50,0,0
39463,-100,4,2,12,50,0,0
39843,-100,4,2,12,80,0,0
42881,-80,4,2,12,50,0,0
43451,-100,4,2,12,50,0,0
44210,-100,4,2,12,50,0,0
44970,-100,4,2,12,50,0,0
45919,-100,4,2,12,50,0,0
46299,-100,4,2,12,50,0,0
46489,-100,4,2,12,50,0,0
46679,-100,4,2,12,50,0,0
47248,-100,4,2,12,50,0,0
47438,-100,4,2,12,50,0,0
47818,-100,4,2,12,50,0,0
48008,-100,4,2,12,50,0,0
48387,-100,4,2,12,50,0,0
48957,-100,4,2,12,50,0,0
49527,-100,4,2,12,50,0,0
49906,-100,4,2,12,50,0,0
50286,-100,4,2,12,50,0,0
53514,-100,4,2,12,50,0,0
53894,-100,4,2,12,50,0,0
54274,-100,4,2,12,50,0,0
54653,-100,4,2,12,50,0,0
57312,-125,4,2,12,50,0,0
58071,-100,4,2,12,50,0,0
58831,-100,4,2,12,50,0,0
59210,-100,4,2,12,50,0,0
59590,-100,4,2,12,50,0,0
59970,-100,4,2,12,50,0,0
60350,-100,4,2,12,50,0,0
60729,-100,4,2,12,50,0,0
64147,-100,4,2,12,65,0,0
67185,-100,4,2,12,65,0,1
67944,-90.9090909090909,4,2,12,65,0,1
68514,-90.9090909090909,4,2,12,65,0,1
68894,-90.9090909090909,4,2,12,65,0,1
69274,-90.9090909090909,4,2,12,65,0,1
71552,-90.9090909090909,4,2,12,65,0,1
71932,-90.9090909090909,4,2,12,65,0,1
72312,-90.9090909090909,4,2,12,65,0,1
80666,-90.9090909090909,4,2,12,65,0,1
81046,-90.9090909090909,4,2,12,65,0,1
81425,-90.9090909090909,4,2,12,65,0,1
91489,-90.9090909090909,4,2,12,75,0,1
91584,-90.9090909090909,4,2,12,35,0,0
93767,-90.9090909090909,4,2,12,10,0,0

[Colours]
Combo1 : 43,153,131
Combo2 : 184,73,7
Combo3 : 33,89,92
Combo4 : 234,121,53

[HitObjects]
333,305,350,6,0,P|380:248|380:218,1,80
376,140,729,1,0,0:0:0:0:
300,112,919,1,0,0:0:0:0:
305,94,1299,6,0,P|350:66|380:60,1,80
218,107,1679,2,0,P|234:56|253:32,1,80
148,161,2058,2,0,P|137:109|141:78,1,80
130,247,2438,2,0,P|88:214|72:188,1,80
158,325,2818,5,0,0:0:0:0:
305,94,3387,6,0,B|332:128|337:186,1,80
292,260,3767,1,0,0:0:0:0:
411,134,3957,1,0,0:0:0:0:
409,273,4337,5,0,0:0:0:0:
431,278,4717,6,0,P|483:278|512:268,1,80
349,311,5097,2,0,P|388:346|417:357,1,80
261,301,5476,2,0,P|278:351|297:375,1,80
202,236,5856,2,0,P|182:285|182:316,1,80
202,236,6425,5,0,0:0:0:0:
261,301,6615,1,0,0:0:0:0:
349,311,6805,1,0,0:0:0:0:
431,278,6995,1,0,0:0:0:0:
433,260,7375,6,0,P|433:195|417:160,1,80
388,90,7755,2,0,P|324:71|289:79,1,80
209,105,8134,2,0,P|172:121|133:119,1,80
62,180,8514,6,0,P|40:120|51:80,1,80
89,5,8894,2,0,P|127:13|159:38,1,80
230,201,9274,1,0,0:0:0:0:
166,316,9463,6,0,P|115:331|73:325,1,80
112,257,9843,5,8,0:0:0:0:
64,169,10033,2,0,B|93:127|93:127|141:94,1,80,8|0,0:0|0:0,0:0:0:0:
218,107,10413,2,0,B|268:117|268:117|326:105,1,80
420,240,10793,6,0,B|384:203|325:188,1,80,4|0,0:0|0:0,0:0:0:0:
230,201,11172,1,8,0:0:0:0:
125,99,11362,1,8,0:0:0:0:
105,200,11552,2,0,B|53:196|4:160,1,80
0,98,11932,5,0,0:0:0:0:
2,78,12122,5,8,0:0:0:0:
194,64,12501,5,0,0:0:0:0:
276,184,12691,1,0,0:0:0:0:
289,75,12881,1,0,0:0:0:0:
188,181,13071,6,0,P|193:221|227:261,1,80
168,311,13451,2,0,P|205:326|257:316,1,80
281,384,13831,2,0,P|313:359|326:309,1,80
403,331,14210,2,0,P|397:290|363:250,1,80
271,197,14590,1,0,0:0:0:0:
323,309,14780,1,0,0:0:0:0:
281,384,14970,2,0,L|242:299,1,80
323,309,15539,5,0,0:0:0:0:
198,369,15729,1,0,0:0:0:0:
271,197,15919,1,0,0:0:0:0:
227,281,16109,6,0,P|199:242|186:207,1,80
115,243,16489,2,0,P|110:195|117:158,1,80
30,168,16868,2,0,P|49:124|73:96,1,80
3,58,17248,2,0,P|41:30|76:17,1,80
153,68,17628,1,8,0:0:0:0:
164,79,17723,1,8,0:0:0:0:
174,91,17818,1,12,0:0:0:0:
138,259,18008,1,8,0:0:0:0:
319,300,18198,2,0,P|331:260|334:214,1,80,0|0,0:3|0:0,0:0:0:0:
323,116,18577,5,2,0:0:0:0:
246,239,18767,1,2,0:0:0:0:
379,362,18957,2,0,P|342:379|277:381,1,80,4|2,0:0|0:0,0:0:0:0:
176,269,19337,5,2,0:0:0:0:
141,115,19527,1,2,0:0:0:0:
102,284,19717,5,2,0:0:0:0:
247,132,19907,1,2,0:0:0:0:
151,341,20096,6,0,P|195:339|240:312,1,80,4|2,0:0|0:0,0:0:0:0:
343,252,20476,1,2,0:0:0:0:
184,178,20666,1,2,0:0:0:0:
176,269,20856,5,4,0:0:0:0:
247,132,21046,1,4,0:0:0:0:
102,284,21236,2,0,P|65:254|29:212,1,80,4|2,0:0|0:0,0:0:0:0:
184,178,21615,5,2,0:0:0:0:
227,325,21805,1,2,0:0:0:0:
66,179,21995,5,4,0:0:0:0:
96,262,22185,2,0,P|135:267|175:269,1,80,4|2,0:0|0:0,0:0:0:0:
272,137,22564,1,4,0:0:0:0:
310,239,22755,5,4,0:0:0:0:
184,178,22944,2,0,P|182:128|178:99,1,80,4|0,0:0|0:0,0:0:0:0:
167,25,23324,5,4,0:0:0:0:
280,117,23514,1,4,0:0:0:0:
278,22,23704,1,4,0:0:0:0:
106,137,23894,1,4,0:0:0:0:
350,66,24084,1,4,0:0:0:0:
167,25,24274,1,8,0:0:0:0:
153,24,24368,1,8,0:0:0:0:
139,23,24463,1,8,0:0:0:0:
125,23,24558,1,8,0:0:0:0:
113,23,24653,6,4,P|66:21|2:27,1,80
0,103,25033,1,4,0:0:0:0:
121,122,25223,2,0,P|132:163|136:212,1,80,4|0,0:3|0:0,0:0:0:0:
187,276,25603,2,0,P|144:286|95:280,1,80,4|2,0:0|0:0,0:0:0:0:
4,267,25982,1,4,0:0:0:0:
209,175,26362,5,8,0:0:0:0:
42,189,26552,1,8,0:0:0:0:
187,276,26742,1,4,0:0:0:0:
121,122,27122,5,4,0:0:0:0:
83,285,27312,2,0,P|75:320|77:372,1,80,4|0,3:0|0:0,0:0:0:0:
80,384,27691,5,4,0:0:0:0:
286,301,29210,5,4,0:0:0:0:
411,160,30160,5,4,0:0:0:0:
272,194,30350,2,0,P|256:144|262:104,1,80
453,34,30729,6,0,B|404:94|364:68|328:138,1,160,4|8,0:0|0:0,0:0:0:0:
272,194,31299,2,0,B|261:234|261:234|312:355,1,160,4|8,0:0|0:0,0:0:0:0:
321,358,31868,1,4,0:0:0:0:
191,177,32058,6,0,P|189:261|197:341,1,160,4|8,0:0|0:0,0:0:0:0:
272,194,32628,1,12,0:0:0:0:
352,183,32818,2,0,P|344:262|327:347,1,160,4|2,0:0|0:0,0:0:0:0:
191,177,33387,1,4,0:0:0:0:
191,177,33767,6,0,P|171:141|119:113,1,80,4|0,0:0|0:0,0:0:0:0:
69,157,34147,1,4,0:0:0:0:
263,214,34337,1,0,0:0:0:0:
108,286,34527,2,0,P|116:229|124:206,1,80
249,52,34907,2,0,P|266:88|266:132,1,80,8|0,0:0|0:0,0:0:0:0:
195,0,35286,6,0,P|176:35|173:76,1,80,8|0,0:0|0:0,0:0:0:0:
263,214,35665,1,8,0:0:0:0:
161,305,35856,2,0,B|133:261|133:261|149:138,1,160,8|8,0:0|0:0,0:0:0:0:
251,27,36425,1,8,0:0:0:0:
172,74,36615,1,8,0:0:0:0:
264,135,36805,6,0,P|266:177|264:213,1,80,8|0,0:0|0:0,0:0:0:0:
281,318,37185,1,8,0:0:0:0:
373,230,37375,2,0,B|369:199|367:171|367:171|344:150|329:105|350:63,1,160,8|2,0:0|0:0,0:0:0:0:
264,214,37944,5,2,0:0:0:0:
419,107,38134,1,2,0:0:0:0:
264,214,38514,5,4,0:0:0:0:
344,78,38704,1,8,0:0:0:0:
164,86,38894,1,0,0:0:0:0:
172,74,39274,5,4,0:0:0:0:
169,222,39463,2,0,B|176:254|153:281|153:281|175:304|158:348,1,120,8|0,0:3|0:0,0:0:0:0:
158,353,39843,5,4,0:0:0:0:
132,282,41362,5,4,0:0:0:0:
132,282,42312,5,2,0:3:0:0:
200,160,42501,1,2,0:0:0:0:
132,282,42881,6,0,B|100:259|100:259|184:265|216:182|194:141,1,200,4|8,0:0|0:0,0:0:0:0:
266,116,43451,2,0,P|234:139|182:170,1,80,8|0,0:0|0:0,0:0:0:0:
111,173,43831,1,8,0:0:0:0:
231,308,44020,1,8,0:0:0:0:
151,38,44210,6,0,B|159:59|167:84|167:84|108:113|111:192,1,160,8|8,0:0|0:0,0:0:0:0:
140,297,44780,1,8,0:0:0:0:
338,239,44970,2,0,P|259:190|184:153,1,160,8|2,0:0|0:0,0:0:0:0:
93,140,45539,1,4,0:0:0:0:
212,254,45729,1,4,0:0:0:0:
346,170,45919,6,0,B|297:226|248:208|207:257,1,160,4|8,0:0|0:0,0:0:0:0:
267,137,46489,1,0,0:0:0:0:
188,329,46679,2,0,P|197:291|211:253,1,80
162,178,47058,1,0,0:0:0:0:
436,152,47248,2,0,P|406:112|373:88,1,80
346,13,47628,2,0,P|312:48|294:85,1,80
211,253,48008,2,0,B|247:276|247:276|364:275,1,160,0|2,0:0|0:0,0:0:0:0:
188,330,48577,1,0,0:0:0:0:
331,199,48767,1,0,0:0:0:0:
354,354,48957,6,0,P|359:305|371:245,1,80
512,167,49337,1,0,0:0:0:0:
344,120,49527,2,0,P|338:165|332:199,1,80
198,234,49906,2,0,P|230:199|254:177,1,80,0|8,0:0|0:0,0:0:0:0:
453,95,50286,6,0,P|388:154|328:201,1,160,0|2,0:0|0:0,0:0:0:0:
312,271,50856,6,0,P|276:252|250:206,1,80,2|0,0:0|0:0,0:0:0:0:
183,231,51236,2,0,P|181:190|211:148,1,80,2|0,0:0|0:0,0:0:0:0:
145,103,51615,2,0,P|180:81|232:81,1,80,2|0,0:0|0:0,0:0:0:0:
423,29,51995,6,0,B|402:66|346:85|305:68|305:68|284:97,1,160,4|2,0:0|0:3,0:0:0:0:
287,164,52565,1,4,0:0:0:0:
381,253,52755,2,0,P|335:244|302:236,1,80,2|0,0:3|0:0,0:0:0:0:
371,172,53134,2,0,P|416:163|451:160,1,80,2|0,0:3|0:0,0:0:0:0:
287,164,53514,6,0,P|311:117|334:97,1,80,2|0,0:0|0:0,0:0:0:0:
216,217,53894,2,0,P|204:164|208:134,1,80,2|0,0:0|0:0,0:0:0:0:
183,299,54273,2,0,P|147:259|135:230,1,80,2|0,0:0|0:0,0:0:0:0:
210,383,54653,2,0,P|157:375|130:360,1,80,2|0,0:0|0:0,0:0:0:0:
341,282,55033,6,0,P|265:282|183:300,1,160,8|2,0:3|0:3,0:0:0:0:
79,177,55603,2,0,P|86:224|89:269,1,80,4|2,0:0|0:3,0:0:0:0:
229,295,55982,2,0,P|216:250|217:213,1,80,4|2,0:0|0:3,0:0:0:0:
253,119,56362,1,4,0:0:0:0:
297,241,56552,6,0,B|319:248|343:257|343:257|372:198|451:201,1,160,4|8,0:0|0:0,0:0:0:0:
416,348,57122,1,2,0:0:0:0:
416,348,57217,1,2,0:0:0:0:
416,348,57312,6,0,L|419:261,1,64,4|0,0:3|0:0,0:0:0:0:
446,138,57691,2,0,L|429:215,1,64,4|0,0:3|0:0,0:0:0:0:
253,119,58071,6,6,B|258:144|264:166|264:166|202:189|197:267,1,160,4|12,0:3|0:3,0:3:0:0:
206,384,58641,1,4,0:0:0:0:
280,246,58831,6,0,P|272:283|268:325,1,80,2|0,0:3|0:0,0:0:0:0:
424,329,59210,2,0,P|384:328|345:323,1,80,2|0,0:3|0:0,0:0:0:0:
366,173,59590,2,0,P|358:210|354:252,1,80,2|0,0:3|0:0,0:0:0:0:
511,246,59970,2,0,P|472:251|431:252,1,80,2|0,0:3|0:0,0:0:0:0:
450,173,60350,6,0,P|478:146|506:115,1,80,2|0,0:3|0:0,0:0:0:0:
334,97,60729,2,0,P|372:95|414:97,1,80,2|0,0:3|0:0,0:0:0:0:
437,103,61109,5,8,0:0:0:0:
280,246,61489,1,8,0:0:0:0:
280,246,61679,2,0,B|259:245|242:247|242:247|186:279|126:233,1,160,8|2,0:0|0:0,0:0:0:0:
122,46,62438,6,0,B|157:69|157:69|197:181,1,160,4|8,0:0|0:0,0:0:0:0:
268,324,63008,1,4,0:3:0:0:
75,303,63198,2,0,P|70:265|80:222,1,80,4|0,0:0|0:0,0:0:0:0:
122,46,63577,1,4,0:0:0:0:
260,149,63767,2,0,P|278:189|280:235,1,80,4|0,0:0|0:0,0:0:0:0:
200,208,64147,5,8,0:0:0:0:
336,310,64337,1,8,0:0:0:0:
265,299,64527,1,8,0:0:0:0:
490,255,64717,1,8,0:0:0:0:
438,305,64906,5,8,0:0:0:0:
501,88,65096,1,8,0:0:0:0:
502,161,65286,1,8,0:0:0:0:
286,15,65476,1,8,0:0:0:0:
289,33,65856,5,4,0:0:0:0:
165,139,66046,1,4,0:0:0:0:
320,192,66236,1,4,0:0:0:0:
207,41,66615,5,0,0:0:0:0:
320,192,67185,5,4,0:2:0:0:
254,103,67375,1,4,0:0:0:0:
275,292,67565,1,4,0:0:0:0:
320,192,67755,1,4,0:3:0:0:
165,304,67945,1,4,0:0:0:0:
275,292,68134,1,4,0:1:0:0:
100,218,68324,1,4,0:3:0:0:
165,304,68514,6,0,P|191:272|197:217,1,88.000002685547,2|0,0:0|0:0,0:0:0:0:
220,151,68894,2,0,P|254:178|270:219,1,88.000002685547,2|0,0:0|0:0,0:0:0:0:
260,86,69273,2,0,P|219:77|169:95,1,88.000002685547,2|0,0:0|0:0,0:0:0:0:
98,143,69653,1,4,0:0:0:0:
77,313,69843,2,0,P|126:310|190:297,1,88.000002685547,4|0,0:0|0:0,0:0:0:0:
275,292,70223,5,4,0:2:0:0:
164,303,70413,1,4,0:0:0:0:
320,191,70603,1,4,0:0:0:0:
275,292,70793,1,4,0:3:0:0:
253,100,70983,1,4,0:0:0:0:
320,191,71172,1,4,0:1:0:0:
146,112,71362,1,4,0:3:0:0:
253,100,71552,6,0,P|214:136|183:152,1,88.000002685547,2|0,0:0|0:0,0:0:0:0:
308,148,71932,2,0,P|328:109|331:66,1,88.000002685547,2|0,0:0|0:0,0:0:0:0:
388,0,72311,2,0,P|408:47|409:82,1,88.000002685547,2|0,0:0|0:0,0:0:0:0:
373,226,72691,1,4,0:0:0:0:
283,317,72881,1,4,0:0:0:0:
246,197,73071,1,4,0:0:0:0:
140,171,73261,6,0,P|170:142|211:119,1,88.000002685547,4|0,0:0|0:0,0:0:0:0:
322,153,73641,2,0,P|289:178|246:198,1,88.000002685547,4|0,0:0|0:0,0:0:0:0:
109,236,74020,1,4,0:0:0:0:
130,333,74210,1,4,0:0:0:0:
210,119,74400,1,4,0:0:0:0:
322,320,74590,6,0,P|364:316|429:313,1,88.000002685547,2|0,0:0|0:0,0:0:0:0:
351,228,74970,2,0,P|307:223|263:223,1,88.000002685547,2|8,0:0|0:0,0:0:0:0:
210,119,75350,2,0,P|253:114|316:111,1,88.000002685547,2|0,0:0|0:0,0:0:0:0:
351,228,75729,1,4,0:0:0:0:
394,63,75919,1,4,0:0:0:0:
210,119,76109,1,4,0:0:0:0:
319,141,76299,6,0,B|392:129|419:174|494:164,1,176.000005371094,4|8,0:0|0:0,0:0:0:0:
249,201,76868,2,0,B|176:213|149:168|75:178,1,176.000005371094,4|8,0:0|0:0,0:0:0:0:
83,342,77438,2,0,P|103:302|115:261,1,88.000002685547,4|2,0:0|0:0,0:0:0:0:
209,118,77818,5,4,0:0:0:0:
199,277,78008,1,4,0:0:0:0:
351,228,78198,1,4,0:0:0:0:
201,31,78387,2,0,B|161:44|161:44|86:155,1,176.000005371094,4|8,0:0|0:0,0:0:0:0:
297,121,78957,2,0,B|259:126|209:118,1,88.000002685547,4|2,0:3|0:0,0:0:0:0:
199,277,79337,5,4,0:2:0:0:
288,211,79527,1,4,0:0:0:0:
99,232,79717,1,4,0:0:0:0:
199,277,79907,1,4,0:3:0:0:
87,122,80097,1,4,0:0:0:0:
99,232,80286,1,4,0:1:0:0:
173,57,80476,1,4,0:3:0:0:
87,122,80666,6,0,P|45:136|3:127,1,88.000002685547,2|0,0:0|0:0,0:0:0:0:
136,58,81046,2,0,P|164:92|172:135,1,88.000002685547,2|8,0:0|0:0,0:0:0:0:
115,190,81425,2,0,P|149:217|192:223,1,88.000002685547,2|0,0:0|0:0,0:0:0:0:
286,215,81805,1,4,0:0:0:0:
308,43,81995,2,0,P|308:93|299:151,1,88.000002685547,4|0,0:0|0:0,0:0:0:0:
214,212,82375,5,4,0:0:0:0:
369,307,82565,1,4,0:0:0:0:
377,160,82755,1,4,0:0:0:0:
303,130,82944,2,0,P|289:174|287:217,1,88.000002685547,4|0,0:0|0:0,0:0:0:0:
326,370,83324,1,4,0:0:0:0:
240,296,83514,1,4,0:0:0:0:
203,373,83704,6,0,P|170:342|157:301,1,88.000002685547,4|0,0:0|0:0,0:0:0:0:
145,155,84084,1,4,0:0:0:0:
62,292,84274,1,4,0:0:0:0:
287,229,84463,1,8,0:0:0:0:
287,229,84558,1,8,0:0:0:0:
287,229,84653,1,8,0:0:0:0:
157,302,84843,1,8,0:0:0:0:
323,155,85033,2,0,P|355:185|368:226,1,88.000002685547,8|0,0:0|0:0,0:0:0:0:
157,302,85413,5,4,0:0:0:0:
287,229,85603,1,4,0:0:0:0:
144,154,85793,2,0,P|104:127|40:105,1,88.000002685547,4|2,0:0|0:0,0:0:0:0:
221,264,86173,5,8,0:0:0:0:
278,108,86363,1,8,0:0:0:0:
287,229,86553,1,8,0:0:0:0:
381,156,86742,2,0,P|416:131|481:100,1,88.000002685547,8|2,0:0|0:0,0:0:0:0:
432,256,87122,5,8,0:0:0:0:
455,110,87312,1,8,0:0:0:0:
436,268,87502,1,8,0:0:0:0:
419,87,87692,1,8,0:0:0:0:
440,282,87882,1,8,0:0:0:0:
385,69,88072,2,0,P|342:92|307:139,1,88.000002685547,8|2,0:0|0:0,0:0:0:0:
474,254,88451,5,4,0:0:0:0:
385,156,88641,1,4,0:0:0:0:
390,277,88831,5,4,0:0:0:0:
451,114,89021,1,4,0:0:0:0:
316,121,89210,2,0,P|272:121|227:134,1,88.000002685547,4|2,0:0|0:0,0:0:0:0:
130,204,89591,5,4,0:0:0:0:
277,282,89780,2,0,P|285:237|271:187,1,88.000002685547,4|0,0:0|0:0,0:0:0:0:
229,132,90160,5,4,0:0:0:0:
99,238,90350,1,4,0:0:0:0:
272,292,90539,1,4,0:0:0:0:
221,124,90729,1,4,0:0:0:0:
99,251,90919,1,4,0:0:0:0:
275,192,91110,5,8,0:0:0:0:
302,184,91204,1,8,0:0:0:0:
333,176,91298,1,8,0:0:0:0:
360,169,91394,1,8,0:0:0:0:
390,163,91489,5,4,0:0:0:0:
256,192,91584,12,0,93767,0:0:0:0:
