osu file format v14

[General]
AudioFilename: audio.mp3
AudioLeadIn: 0
PreviewTime: 67088
Countdown: 0
SampleSet: Soft
StackLeniency: 0.2
Mode: 0
LetterboxInBreaks: 0
WidescreenStoryboard: 0

[Editor]
Bookmarks: 8417,39841,86550
DistanceSpacing: 1.35
BeatDivisor: 4
GridSize: 4
TimelineZoom: 1.6

[Metadata]
Title:Natsukoi Hanabi
TitleUnicode:夏恋花火
Artist:chano & 40mP
ArtistUnicode:シャノ & 40mP
Creator:Riven
Version:Smokeman's Advanced
Source:
Tags:Panoram a note sugar summer fireworks smokeman N_a_s_y_a nasya 40meterP Shano
BeatmapID:1298490
BeatmapSetID:538998

[Difficulty]
HPDrainRate:4
CircleSize:3.8
OverallDifficulty:4
ApproachRate:6
SliderMultiplier:1.3
SliderTickRate:1

[Events]
//Background and Video events
0,0,"daisuki.jpg",0,0
//Break Periods
//Storyboard Layer 0 (Background)
//Storyboard Layer 1 (Fail)
//Storyboard Layer 2 (Pass)
//Storyboard Layer 3 (Foreground)
//Storyboard Sound Samples

[TimingPoints]
350,379.746835443038,4,2,12,50,1,0
350,-100,4,2,12,50,0,0
10793,-100,4,2,1,50,0,0
12501,-100,4,2,1,60,0,0
27691,-100,4,2,12,40,0,0
29210,-100,4,2,1,40,0,0
30160,-125,4,2,1,40,0,0
30729,-100,4,2,1,40,0,0
42312,-125,4,2,1,40,0,0
42881,-100,4,2,1,40,0,0
51995,-111.111111111111,4,2,1,60,0,0
61109,-100,4,2,1,60,0,0
67185,-90.9090909090909,4,2,1,65,0,1
78767,-100,4,2,1,65,0,1
79147,-100,4,2,1,65,0,0
79337,-90.9090909090909,4,2,1,65,0,1
91394,-100,4,2,1,65,0,0
91489,-100,4,2,1,65,0,0
94527,-100,4,2,1,35,0,0

[Colours]
Combo1 : 33,243,154
Combo2 : 198,172,164
Combo3 : 165,197,196
Combo4 : 243,33,217
Combo5 : 243,165,33
Combo6 : 217,243,33

[HitObjects]
423,275,350,6,0,P|476:258|500:261,2,65,2|2|2,0:0|0:0|0:0,0:0:0:0:
378,339,919,2,0,P|333:304|257:299,1,130,2|2,0:0|0:0,0:0:0:0:
136,204,1679,2,0,P|174:161|248:143,1,130,2|2,0:0|0:0,0:0:0:0:
175,283,2438,1,2,0:0:0:0:
19,298,2818,1,2,0:0:0:0:
119,108,3387,6,0,P|115:137|107:180,2,65,2|2|2,0:0|0:0|0:0,0:0:0:0:
79,39,3957,2,0,P|142:28|208:16,1,130,2|2,0:0|0:0,0:0:0:0:
240,169,4717,2,0,P|303:179|369:192,1,130,2|2,0:0|0:0,0:0:0:0:
402,343,5476,1,2,0:0:0:0:
248,370,5856,1,2,0:0:0:0:
248,370,6046,2,0,P|242:338|237:305,1,65,2|0,0:0|0:0,0:0:0:0:
166,272,6425,70,0,L|150:355,2,65,2|2|2,0:0|0:0|0:0,0:0:0:0:
177,194,6995,2,0,P|115:164|50:172,1,130,2|2,0:0|0:0,0:0:0:0:
169,63,7755,2,0,P|231:33|295:41,1,130,2|2,0:0|0:0,0:0:0:0:
352,183,8514,2,0,L|376:55,1,130,2|2,0:0|0:0,0:0:0:0:
248,145,9274,1,2,0:0:0:0:
248,145,9463,6,0,B|235:211|235:211|274:287,1,130,0|4,0:0|0:3,0:0:0:0:
342,267,10033,1,2,0:3:0:0:
190,303,10413,1,2,0:0:0:0:
401,331,10793,70,0,P|422:275|404:202,1,130,4|8,0:0|0:0,0:0:0:0:
335,178,11362,1,8,0:0:0:0:
380,114,11552,2,0,P|325:100|260:157,1,130,2|8,0:3|0:0,0:0:0:0:
259,216,12122,1,4,0:3:0:0:
120,287,12501,22,0,P|114:320|104:354,2,65,4|0|8,0:0|0:0|0:0,0:0:0:0:
56,240,13071,2,0,P|29:198|67:123,1,130,2|2,0:0|0:0,0:0:0:0:
133,111,13641,1,8,0:0:0:0:
205,139,13831,2,0,P|238:87|301:60,1,130,2|2,0:0|0:0,0:0:0:0:
376,69,14400,1,8,0:0:0:0:
432,123,14590,2,0,L|445:199,1,65,2|0,0:0|0:0,0:0:0:0:
370,216,14970,2,0,L|358:151,1,65,2|8,0:0|0:0,0:0:0:0:
408,314,15539,6,0,L|485:300,2,65,2|0|8,0:0|0:0|0:0,0:0:0:0:
347,364,16109,2,0,P|301:320|219:318,1,130,2|2,0:0|0:0,0:0:0:0:
169,352,16679,1,8,0:0:0:0:
108,303,16868,2,0,P|93:249|119:171,1,130,2|2,0:0|0:0,0:0:0:0:
184,148,17438,1,8,0:0:0:0:
240,94,17628,2,0,P|191:70|161:74,2,65,2|8|8,0:0|0:0|0:0,0:0:0:0:
317,85,18198,1,2,0:0:0:0:
458,150,18577,6,0,L|470:239,1,65,12|2,0:0|0:0,0:0:0:0:
394,243,18957,2,0,L|384:178,1,65,8|2,0:0|0:0,0:0:0:0:
311,150,19337,2,0,L|301:214,1,65,8|2,0:0|0:0,0:0:0:0:
288,291,19717,1,8,0:0:0:0:
212,274,19906,6,0,L|80:294,1,130,8|2,0:0|0:0,0:0:0:0:
50,222,20476,1,8,0:0:0:0:
111,170,20666,2,0,L|175:161,1,65,8|2,0:0|0:0,0:0:0:0:
230,105,21046,2,0,L|365:123,1,130,2|2,0:0|0:0,0:0:0:0:
390,193,21615,38,0,L|398:257,2,65,8|2|8,0:0|0:0|0:0,0:0:0:0:
462,163,22185,2,0,P|471:101|438:42,1,130,2|2,0:0|0:0,0:0:0:0:
367,12,22755,1,8,0:0:0:0:
297,47,22944,6,0,B|251:14|251:14|151:31,1,130,6|2,0:0|0:0,0:0:0:0:
138,93,23514,1,8,0:0:0:0:
198,141,23704,2,0,B|213:233,1,65,2|8,0:0|0:0,0:0:0:0:
170,273,24084,2,0,B|154:365,2,65,2|8|2,0:0|0:0|0:0,0:0:0:0:
248,275,24653,6,0,P|306:270|371:309,1,130,4|8,0:0|0:0,0:0:0:0:
428,255,25223,1,8,0:3:0:0:
483,198,25413,2,0,P|420:176|356:220,1,130,0|8,0:0|0:0,0:0:0:0:
303,158,25982,1,8,0:0:0:0:
165,232,26362,6,0,P|155:201|154:168,1,65,8|8,0:0|0:0,0:0:0:0:
185,96,26742,1,4,0:0:0:0:
262,231,27122,2,0,P|261:263|251:294,1,65,8|4,0:0|3:0,0:0:0:0:
106,353,27691,5,2,0:0:0:0:
423,233,29210,1,2,0:0:0:0:
174,89,30160,2,0,L|166:162,1,52,8|4,0:0|0:3,0:0:0:0:
280,249,30729,22,0,P|268:183|265:106,1,130,2|8,0:0|0:0,0:0:0:0:
342,129,31299,2,0,P|353:63|376:-9,1,130,2|8,0:0|0:0,0:0:0:0:
437,45,31868,1,8,0:0:0:0:
478,111,32058,6,0,P|489:176|492:253,1,130,2|8,0:0|0:0,0:0:0:0:
416,231,32628,1,8,0:0:0:0:
404,308,32818,2,0,P|395:339|383:369,1,65,2|0,0:0|0:0,0:0:0:0:
318,327,33198,2,0,P|295:349|269:370,1,65,2|8,0:0|0:0,0:0:0:0:
149,270,33767,6,0,P|184:243|217:228,2,65,6|0|8,0:0|0:0|0:0,0:0:0:0:
109,337,34337,1,2,0:0:0:0:
48,287,34527,2,0,P|40:255|40:223,1,65,2|0,0:0|0:0,0:0:0:0:
55,146,34906,2,0,L|126:163,1,65
196,150,35286,2,0,P|203:118|203:86,1,65,2|0,0:0|0:0,0:0:0:0:
243,18,35666,1,8,0:0:0:0:
321,8,35856,2,0,P|383:22|427:69,1,130,2|2,0:0|0:0,0:0:0:0:
410,146,36425,1,8,0:0:0:0:
337,174,36615,1,0,0:0:0:0:
300,243,36805,6,0,P|351:282|417:294,1,130,2|8,0:0|0:0,0:0:0:0:
451,365,37375,2,0,P|389:372|304:347,1,130,2|2,0:0|0:0,0:0:0:0:
256,315,37944,1,8,0:0:0:0:
188,356,38134,2,0,P|125:371|61:365,1,130,2|2,0:0|0:0,0:0:0:0:
18,298,38704,1,8,0:0:0:0:
50,226,38894,2,0,P|114:219|144:224,1,65,2|0,0:0|0:0,0:0:0:0:
153,150,39274,2,0,P|121:143|88:143,1,65,2|4,0:0|0:3,0:0:0:0:
188,264,39843,5,6,0:0:0:0:
306,39,41362,1,2,0:0:0:0:
390,238,42312,2,0,L|454:231,1,52,8|4,0:0|0:3,0:0:0:0:
329,353,42881,22,0,P|273:338|193:332,1,130,2|8,0:0|0:0,0:0:0:0:
214,254,43451,2,0,P|166:220|93:187,1,130,2|8,0:0|0:0,0:0:0:0:
142,123,44020,1,8,0:0:0:0:
215,151,44211,2,0,P|248:103|305:47,1,130,2|8,0:0|0:0,0:0:0:0:
349,112,44780,1,8,0:0:0:0:
408,60,44970,2,0,P|440:53|473:53,1,65,2|0,0:0|0:3,0:0:0:0:
511,136,45350,2,0,P|447:129|417:134,1,65,2|8,0:0|0:0,0:0:0:0:
307,219,45919,6,0,L|379:210,2,65,6|0|8,0:0|0:0|0:0,0:0:0:0:
242,264,46489,1,2,0:0:0:0:
200,330,46679,2,0,P|166:331|135:324,1,65,0|2,0:0|0:0,0:0:0:0:
91,260,47058,2,0,L|118:178,1,65
76,128,47438,2,0,P|46:115|13:112,1,65,0|2,0:0|0:0,0:0:0:0:
47,38,47818,1,8,0:0:0:0:
121,63,48008,2,0,P|188:54|258:28,1,130,2|2,0:0|0:0,0:0:0:0:
316,68,48577,1,8,0:0:0:0:
342,141,48767,1,0,0:0:0:0:
317,215,48957,6,0,P|270:209|199:158,1,130,2|8,0:0|0:0,0:0:0:0:
125,177,49527,2,0,P|143:220|134:307,1,130,2|2,0:0|0:0,0:0:0:0:
176,369,50096,1,8,0:0:0:0:
252,355,50286,2,0,P|280:317|360:281,1,130,2|2,0:0|0:0,0:0:0:0:
430,298,50856,1,8,0:0:0:0:
447,221,51046,2,0,P|400:180|330:172,1,130,2|2,0:0|0:0,0:0:0:0:
267,211,51615,1,4,0:3:0:0:
209,72,51995,21,4,0:0:0:0:
27,296,52944,1,0,0:0:0:0:
98,263,53134,2,0,L|105:321,1,58.4999982147217,2|2,0:3|0:0,0:0:0:0:
170,362,53514,1,2,0:3:0:0:
360,336,54653,5,2,0:3:0:0:
447,215,55033,2,0,P|396:181|342:180,1,116.999996429443,2|2,0:3|0:3,0:0:0:0:
302,250,55603,2,0,P|251:284|197:285,1,116.999996429443,0|0,0:0|0:0,0:0:0:0:
127,247,56172,2,0,P|100:268|81:309,1,58.4999982147217,2|0,0:3|0:0,0:0:0:0:
135,351,56552,1,2,0:3:0:0:
216,160,57122,70,0,P|268:106|331:93,1,116.999996429443,0|0,0:0|0:0,0:0:0:0:
330,168,57691,1,2,0:3:0:0:
190,55,58071,2,0,P|128:30|68:37,1,116.999996429443,4|2,0:0|0:3,0:0:0:0:
118,111,58641,2,0,P|108:160|48:208,1,116.999996429443,0|0,0:0|0:0,0:0:0:0:
12,266,59210,1,2,0:3:0:0:
133,356,59590,6,0,P|196:264|317:220,1,233.999992858887,2|2,0:3|0:3,0:0:0:0:
424,317,60729,1,2,0:0:0:0:
494,163,61109,70,0,L|366:140,1,130,8|2,0:0|0:0,0:0:0:0:
321,205,61679,1,8,0:0:0:0:
256,63,62058,1,2,0:0:0:0:
191,205,62438,2,0,P|126:231|58:225,1,130,8|2,0:0|0:0,0:0:0:0:
19,73,63198,2,0,P|45:116|125:146,1,130,2|8,0:0|0:0,0:0:0:0:
156,79,63767,1,2,0:0:0:0:
251,183,64147,6,0,P|219:190|191:205,1,65,8|8,0:0|0:0,0:0:0:0:
167,279,64527,1,8,0:0:0:0:
221,335,64717,2,0,P|253:340|285:336,1,65,8|8,0:0|0:0,0:0:0:0:
342,282,65096,1,8,0:0:0:0:
332,204,65286,1,8,0:0:0:0:
353,128,65476,1,4,0:0:0:0:
220,44,65856,70,0,L|242:127,2,65,8|8|2,0:0|0:0|0:0,0:0:0:0:
363,116,66615,1,2,0:0:0:0:
391,313,67185,22,0,P|425:303|462:299,2,71.5000021820069,4|0|8,0:0|0:0|0:0,0:0:0:0:
321,363,67755,1,2,0:0:0:0:
264,299,67944,2,0,P|230:289|193:285,2,71.5000021820069,0|2|8,0:0|0:0|0:0,0:0:0:0:
332,247,68514,2,0,P|341:212|347:169,1,71.5000021820069,2|0,0:0|0:0,0:0:0:0:
265,155,68894,2,0,P|262:119|252:76,1,71.5000021820069,2|8,0:0|0:0,0:0:0:0:
167,89,69274,2,0,P|88:93|42:148,1,143.000004364014,2|2,0:0|0:0,0:0:0:0:
132,176,69843,1,8,0:0:0:0:
262,64,70223,6,0,P|314:45|337:43,2,71.5000021820069,2|0|8,0:0|0:0|0:0,0:0:0:0:
246,148,70793,1,2,0:0:0:0:
287,222,70982,2,0,P|339:241|362:243,2,71.5000021820069,0|2|8,0:0|0:0|0:0,0:0:0:0:
243,143,71552,2,0,P|207:149|175:163,1,71.5000021820069,2|0,0:0|0:0,0:0:0:0:
127,234,71932,2,0,P|94:219|59:213,1,71.5000021820069,2|8,0:0|0:0,0:0:0:0:
29,294,72312,1,2,0:0:0:0:
102,339,72501,2,0,P|134:324|169:318,1,71.5000021820069,0|2,0:0|0:0,0:0:0:0:
251,345,72881,1,8,0:0:0:0:
373,224,73261,6,0,P|382:168|394:148,1,71.5000021820069,2|0,0:0|0:0,0:0:0:0:
453,252,73641,2,0,P|432:281|404:302,1,71.5000021820069,8|2,0:0|0:0,0:0:0:0:
307,279,74020,2,0,P|292:247|287:212,2,71.5000021820069,0|2|8,0:0|0:0|0:0,0:0:0:0:
251,345,74590,2,0,P|216:284|211:260,1,71.5000021820069,2|0,0:0|0:0,0:0:0:0:
145,233,74970,2,0,P|169:166|184:147,1,71.5000021820069,2|8,0:0|0:0,0:0:0:0:
144,83,75350,2,0,P|210:58|286:65,1,143.000004364014,2|2,0:0|0:0,0:0:0:0:
349,115,75919,1,8,0:0:0:0:
319,195,76109,1,0,0:0:0:0:
344,276,76299,6,0,P|394:244|426:161,1,143.000004364014,2|8,0:0|0:0,0:0:0:0:
495,118,76868,2,0,P|509:195|481:276,1,143.000004364014,2|2,0:0|0:0,0:0:0:0:
435,321,77438,2,0,P|385:354|362:362,1,71.5000021820069,8|2,0:0|0:0,0:0:0:0:
289,343,77818,2,0,P|260:321|228:305,2,71.5000021820069,2|0|8,0:0|0:0|0:0,0:0:0:0:
344,276,78387,1,2,0:0:0:0:
251,150,78767,6,0,L|243:220,1,65,2|8,0:0|0:3,0:0:0:0:
83,277,79337,22,0,P|72:229|50:192,1,71.5000021820069,6|0,0:0|0:0,0:0:0:0:
136,165,79717,2,0,P|102:128|64:107,1,71.5000021820069,8|2,0:0|0:0,0:0:0:0:
139,51,80096,2,0,P|91:36|48:37,2,71.5000021820069,0|2|8,0:0|0:0|0:0,0:0:0:0:
205,105,80666,2,0,P|267:82|344:87,1,143.000004364014,2|2,0:0|0:0,0:0:0:0:
401,150,81236,1,8,0:0:0:0:
352,220,81425,2,0,P|290:197|213:202,1,143.000004364014,2|2,0:0|0:0,0:0:0:0:
180,280,81995,1,8,0:0:0:0:
391,298,82375,6,0,P|388:330|373:369,2,71.5000021820069,2|0|8,0:0|0:0|0:0,0:0:0:0:
463,252,82944,2,0,P|430:192|456:106,1,143.000004364014,2|2,0:0|0:0,0:0:0:0:
491,49,83514,1,8,0:0:0:0:
405,45,83704,2,0,P|336:61|280:14,1,143.000004364014,2|2,0:0|0:0,0:0:0:0:
211,68,84274,1,8,0:0:0:0:
187,150,84463,2,0,L|197:226,2,71.5000021820069,0|8|8,0:0|0:0|0:0,0:0:0:0:
120,95,85033,1,2,0:0:0:0:
103,339,85413,6,0,L|177:325,1,71.5000021820069,12|2,0:0|0:0,0:0:0:0:
256,350,85793,2,0,L|330:336,1,71.5000021820069,8|2,0:0|0:0,0:0:0:0:
410,320,86172,2,0,L|431:235,1,71.5000021820069,8|2,0:0|0:0,0:0:0:0:
345,237,86552,2,0,L|324:152,1,71.5000021820069,8|2,0:0|0:0,0:0:0:0:
258,227,86932,6,0,L|184:213,1,71.5000021820069,8|2,0:0|0:0,0:0:0:0:
110,251,87312,1,8,0:0:0:0:
70,175,87501,2,0,L|-1:188,2,71.5000021820069,2|8|2,0:0|0:0|0:0,0:0:0:0:
129,112,88071,1,8,0:0:0:0:
154,29,88261,1,2,0:0:0:0:
213,91,88451,38,0,P|260:97|291:92,1,71.5000021820069,8|2,0:0|0:0,0:0:0:0:
350,148,88831,2,0,P|320:168|287:180,1,71.5000021820069,8|2,0:0|0:0,0:0:0:0:
263,262,89210,2,0,P|298:262|333:253,1,71.5000021820069,8|2,0:0|0:0,0:0:0:0:
417,273,89590,1,8,0:0:0:0:
354,332,89780,1,6,0:0:0:0:
186,295,90160,6,0,P|151:284|116:282,1,71.5000021820069,2|8,0:0|0:0,0:0:0:0:
68,210,90539,2,0,P|102:199|137:197,1,71.5000021820069,2|8,0:0|0:0,0:0:0:0:
190,129,90919,1,2,0:0:0:0:
267,166,91109,2,0,B|273:201|273:201|294:236,1,71.5000021820069,2|2,0:0|0:0,0:0:0:0:
363,202,91489,1,4,0:0:0:0:
256,192,91679,12,4,94527,0:0:0:0:
