osu file format v14

[General]
AudioFilename: audio.mp3
AudioLeadIn: 0
PreviewTime: 67088
Countdown: 0
SampleSet: Soft
StackLeniency: 0.7
Mode: 0
LetterboxInBreaks: 0
WidescreenStoryboard: 0

[Editor]
DistanceSpacing: 1.5
BeatDivisor: 4
GridSize: 4
TimelineZoom: 1.4

[Metadata]
Title:Natsukoi Hanabi
TitleUnicode:夏恋花火
Artist:chano & 40mP
ArtistUnicode:シャノ & 40mP
Creator:Riven
Version:Hard
Source:
Tags:Panoram a note sugar summer fireworks smokeman N_a_s_y_a nasya 40meterP Shano
BeatmapID:1298485
BeatmapSetID:538998

[Difficulty]
HPDrainRate:5
CircleSize:3.7
OverallDifficulty:6
ApproachRate:8
SliderMultiplier:1.4
SliderTickRate:1

[Events]
//Background and Video events
0,0,"daisuki.jpg",0,0
//Break Periods
//Storyboard Layer 0 (Background)
//Storyboard Layer 1 (Fail)
//Storyboard Layer 2 (Pass)
//Storyboard Layer 3 (Foreground)
//Storyboard Sound Samples

[TimingPoints]
350,379.746835443038,4,2,12,40,1,0
350,-125,4,2,12,40,0,0
9463,-125,4,2,1,40,0,0
10982,-125,4,2,1,40,0,0
12501,-100,4,2,1,60,0,0
21615,-100,4,2,1,65,0,0
22375,-100,4,2,1,60,0,0
27122,-100,4,2,1,47,0,0
27691,-111.111111111111,4,2,12,40,0,0
29210,-111.111111111111,4,2,1,47,0,0
30160,-125,4,2,1,47,0,0
30729,-111.111111111111,4,2,1,47,0,0
39843,-111.111111111111,4,2,1,40,0,0
41362,-111.111111111111,4,2,1,47,0,0
51995,-133.333333333333,4,2,1,40,0,0
61109,-100,4,2,1,50,0,0
65476,-100,4,2,1,65,0,0
65856,-100,4,2,1,58,0,0
66615,-100,4,2,1,48,0,0
67185,-100,4,2,1,60,0,1
78957,-100,4,2,1,40,0,1
79147,-100,4,2,1,30,0,0
79337,-100,4,2,1,65,0,1
91109,-100,4,2,1,50,0,1
91489,-100,4,2,1,55,0,0
92248,-100,4,2,1,50,0,0
93008,-100,4,2,1,40,0,0
93767,-100,4,2,1,35,0,0
94527,-100,4,2,1,30,0,0

[Colours]
Combo1 : 43,153,131
Combo2 : 184,73,7
Combo3 : 33,89,92
Combo4 : 234,121,53

[HitObjects]
88,271,350,6,0,L|84:338,2,56,2|2|2,0:0|0:0|0:0,0:0:0:0:
128,197,919,2,0,P|178:217|231:203,1,112,2|2,0:0|0:0,0:0:0:0:
352,118,1679,6,0,L|345:6,2,112,2|2|2,0:0|0:0|0:0,0:0:0:0:
430,235,2818,1,2,0:0:0:0:
430,235,3387,6,0,P|457:242|492:226,2,56,2|2|2,0:0|0:0|0:0,0:0:0:0:
349,208,3957,2,0,L|356:343,2,112,2|2|2,0:0|0:0|0:0,0:0:0:0:
247,98,5096,6,0,P|193:83|132:107,1,112,2|2,0:0|0:0,0:0:0:0:
107,228,5856,2,0,L|119:349,1,112,2|0,0:0|0:0,0:0:0:0:
195,371,6425,6,0,P|223:374|263:360,2,56,2|2|2,0:0|0:0|0:0,0:0:0:0:
218,288,6995,2,0,P|273:286|318:317,1,112,2|2,0:0|0:0,0:0:0:0:
431,193,7755,6,0,P|375:191|330:222,1,112,2|2,0:0|0:0,0:0:0:0:
218,97,8514,2,0,P|273:95|318:126,2,112,2|2|2,0:0|0:0|0:0,0:0:0:0:
249,177,9463,6,0,L|258:312,1,112,2|4,0:0|0:3,0:0:0:0:
325,338,10033,2,0,P|375:350|447:312,2,112,2|8|4,0:3|0:0|0:0,0:0:0:0:
464,244,11172,6,0,L|468:188,1,56,8|8,0:0|0:0,0:0:0:0:
396,142,11552,2,0,P|340:157|287:133,1,112,2|8,0:3|0:0,0:0:0:0:
218,94,12122,1,4,0:3:0:0:
218,94,12501,6,0,L|213:187,1,70,4|0,0:0|0:0,0:0:0:0:
259,243,12881,1,8,0:0:0:0:
224,327,13071,2,0,L|81:316,1,140,2|2,0:0|0:0,0:0:0:0:
35,239,13641,1,8,0:0:0:0:
84,162,13831,6,0,P|91:82|47:15,1,140,2|2,0:0|0:0,0:0:0:0:
154,24,14400,1,8,0:0:0:0:
212,93,14590,2,0,L|357:81,1,140,2|2,0:0|0:0,0:0:0:0:
442,77,15160,1,8,0:0:0:0:
442,77,15539,6,0,L|434:167,1,70,2|0,0:0|0:0,0:0:0:0:
491,219,15919,1,8,0:0:0:0:
440,295,16109,2,0,P|371:318|300:276,1,140,2|2,0:0|0:0,0:0:0:0:
237,239,16679,1,8,0:0:0:0:
173,303,16868,6,0,L|183:392,1,70,2|0,0:0|0:0,0:0:0:0:
81,301,17248,2,0,L|88:231,1,70,2|8,0:0|0:0,0:0:0:0:
144,150,17628,1,2,0:0:0:0:
144,150,17723,1,8,0:0:0:0:
144,150,17818,1,8,0:0:0:0:
226,203,18008,1,8,0:0:0:0:
289,128,18198,1,8,0:3:0:0:
289,128,18577,6,0,L|281:45,1,70,12|2,0:0|0:0,0:0:0:0:
378,1,18957,2,0,L|372:71,1,70,8|2,0:0|0:0,0:0:0:0:
468,128,19337,2,0,L|461:58,2,70,8|2|8,0:0|0:0|0:0,0:0:0:0:
418,195,19906,1,2,0:0:0:0:
485,245,20096,6,0,L|479:315,1,70,8|2,0:0|0:0,0:0:0:0:
396,353,20476,2,0,L|389:283,1,70,8|2,0:0|0:0,0:0:0:0:
307,245,20856,2,0,L|300:315,1,70,8|2,0:0|0:0,0:0:0:0:
213,346,21236,2,0,L|206:276,1,70,8|2,0:0|0:0,0:0:0:0:
151,159,21615,5,8,0:0:0:0:
77,213,21805,1,2,0:0:0:0:
70,129,21995,2,0,L|83:54,1,70,8|2,0:0|0:0,0:0:0:0:
161,89,22375,2,0,L|151:158,1,70,8|2,0:0|0:0,0:0:0:0:
77,213,22755,1,8,0:0:0:0:
165,297,22944,6,0,P|236:303|304:239,1,140,6|2,0:0|0:0,0:0:0:0:
335,177,23514,1,8,0:0:0:0:
394,254,23703,1,2,0:0:0:0:
348,341,23893,5,8,0:0:0:0:
290,265,24083,1,2,0:0:0:0:
227,350,24273,1,8,0:0:0:0:
227,350,24368,1,8,0:0:0:0:
227,350,24463,1,8,0:0:0:0:
227,350,24558,1,0,0:0:0:0:
227,350,24653,6,0,L|299:354,1,70,4|0,0:0|0:0,0:0:0:0:
389,360,25033,1,8,0:0:0:0:
389,360,25223,1,8,0:3:0:0:
427,273,25413,2,0,L|357:269,1,70,0|8,0:0|0:0,0:0:0:0:
484,350,25793,1,2,0:0:0:0:
499,222,25982,6,0,L|476:71,1,140,2|8,0:0|0:0,0:0:0:0:
391,113,26552,1,8,0:0:0:0:
345,34,26742,2,0,B|293:30|293:30|257:38|257:38|197:34,2,140,4|8|0,0:0|0:0|0:0,0:0:0:0:
306,119,27691,5,2,0:0:0:0:
259,248,29210,5,2,0:0:0:0:
256,268,30160,6,0,L|264:336,1,56,8|4,0:0|0:3,0:0:0:0:
56,352,30729,6,0,P|120:368|184:340,1,125.999996154785,2|8,0:0|0:0,0:0:0:0:
181,265,31299,2,0,L|186:194,1,62.9999980773926,2|0,0:0|0:0,0:0:0:0:
233,135,31679,1,8,0:0:0:0:
280,201,31868,1,8,0:0:0:0:
258,312,32058,6,0,P|324:334|379:300,1,125.999996154785,2|8,0:0|0:0,0:0:0:0:
416,241,32628,1,8,0:0:0:0:
489,332,32818,2,0,B|495:198,1,125.999996154785,2|2,0:0|0:0,0:0:0:0:
442,144,33387,2,0,P|428:106|437:70,1,62.9999980773926,8|2,0:0|3:0,0:0:0:0:
329,159,33767,6,0,L|334:221,1,62.9999980773926,6|0,0:0|0:0,0:0:0:0:
244,104,34147,2,0,L|238:166,1,62.9999980773926,8|2,0:0|0:0,0:0:0:0:
152,55,34527,2,0,L|157:117,1,62.9999980773926,0|2,0:0|0:0,0:0:0:0:
166,199,34906,1,8,0:0:0:0:
87,175,35096,1,0,0:0:0:0:
98,269,35286,6,0,L|105:331,1,62.9999980773926,2|0,0:0|0:0,0:0:0:0:
171,380,35666,1,8,0:0:0:0:
247,312,35856,2,0,P|304:297|380:328,1,125.999996154785,2|2,0:0|0:0,0:0:0:0:
437,357,36425,2,0,P|449:317|445:267,1,62.9999980773926,8|0,0:0|0:0,0:0:0:0:
507,196,36805,6,0,P|450:211|374:180,1,125.999996154785,2|8,0:0|0:0,0:0:0:0:
315,132,37375,2,0,P|256:112|195:127,1,125.999996154785,2|2,0:0|0:0,0:0:0:0:
143,189,37944,1,8,0:0:0:0:
23,135,38134,6,0,P|18:81|59:12,1,125.999996154785,2|2,0:0|0:0,0:0:0:0:
141,48,38704,1,8,0:0:0:0:
235,24,38894,2,0,L|317:37,1,62.9999980773926,2|0,0:0|0:0,0:0:0:0:
356,91,39274,1,2,0:0:0:0:
319,163,39463,1,4,0:3:0:0:
495,135,39843,5,6,0:0:0:0:
467,307,41362,5,2,0:0:0:0:
461,326,42312,6,0,P|425:331|392:318,1,62.9999980773926,8|4,0:0|0:3,0:0:0:0:
203,235,42881,6,0,L|198:388,1,125.999996154785,2|8,0:0|0:0,0:0:0:0:
96,317,43451,2,0,L|93:254,1,62.9999980773926,2|0,0:0|0:0,0:0:0:0:
129,180,43831,1,8,0:0:0:0:
91,107,44020,1,8,0:0:0:0:
167,27,44210,6,0,P|225:10|293:30,1,125.999996154785,2|8,0:0|0:0,0:0:0:0:
348,81,44780,1,8,0:0:0:0:
425,53,44970,2,0,L|432:192,1,125.999996154785,2|2,0:0|0:0,0:0:0:0:
420,260,45539,2,0,P|388:264|353:250,1,62.9999980773926,8|0,0:0|0:0,0:0:0:0:
253,246,45919,6,0,P|244:275|255:322,1,62.9999980773926,6|0,0:0|0:0,0:0:0:0:
205,175,46299,2,0,P|182:195|168:241,1,62.9999980773926,8|2,0:0|0:0,0:0:0:0:
198,89,46679,2,0,P|168:95|133:128,1,62.9999980773926,0|2,0:0|0:0,0:0:0:0:
234,11,47058,1,8,0:0:0:0:
300,59,47248,1,2,0:0:0:0:
375,27,47438,6,0,L|450:42,1,62.9999980773926,0|2,0:0|0:0,0:0:0:0:
478,110,47818,1,8,0:0:0:0:
430,177,48008,2,0,P|421:240|470:304,1,125.999996154785,2|2,0:0|0:0,0:0:0:0:
387,342,48577,2,0,L|301:332,1,62.9999980773926,8|0,0:0|0:0,0:0:0:0:
219,261,48957,6,0,P|237:315|204:384,1,125.999996154785,2|8,0:0|0:0,0:0:0:0:
122,323,49527,2,0,P|97:266|115:207,1,125.999996154785,2|2,0:0|0:0,0:0:0:0:
174,151,50096,1,8,0:0:0:0:
268,194,50286,6,0,L|414:188,1,125.999996154785,2|2,0:0|0:0,0:0:0:0:
452,246,50856,1,8,0:0:0:0:
497,160,51046,2,0,L|491:98,1,62.9999980773926,2|0,0:0|0:0,0:0:0:0:
423,37,51425,1,8,0:0:0:0:
369,108,51615,2,0,P|333:115|291:102,1,62.9999980773926,4|8,0:3|0:3,0:0:0:0:
204,38,51995,6,0,B|198:98|198:98|219:186|219:186|211:267,1,210.000008010865,4|2,0:0|0:3,0:0:0:0:
135,193,52944,1,0,0:0:0:0:
78,255,53135,2,0,P|52:258|26:252,1,52.5000020027161,0|2,0:0|0:3,0:0:0:0:
127,332,53514,6,0,P|178:313|244:320,1,105.000004005432,2|2,0:3|0:3,0:0:0:0:
309,318,54084,1,0,0:0:0:0:
379,359,54274,2,0,L|446:347,1,52.5000020027161,2|0,0:3|0:0,0:0:0:0:
486,276,54653,2,0,L|419:264,1,52.5000020027161,2|0,0:3|0:0,0:0:0:0:
377,178,55033,6,0,P|360:128|376:79,1,105.000004005432,2|2,0:3|0:3,0:0:0:0:
307,39,55603,2,0,L|178:33,1,105.000004005432,0|0,0:0|0:0,0:0:0:0:
142,85,56172,2,0,P|139:122|148:147,1,52.5000020027161,2|0,0:3|0:0,0:0:0:0:
185,225,56552,6,0,P|134:212|68:238,1,105.000004005432,2|2,0:3|0:3,0:0:0:0:
64,302,57122,2,0,L|58:340,2,26.2500010013581,0|0|2,0:0|0:0|0:3,0:0:0:0:
139,353,57501,1,0,0:0:0:0:
209,317,57691,2,0,L|283:327,1,52.5000020027161,2|0,0:3|0:0,0:0:0:0:
379,363,58071,6,0,P|362:316|383:258,1,105.000004005432,4|2,0:0|0:3,0:0:0:0:
428,200,58641,2,0,P|443:150|426:101,1,105.000004005432,0|0,0:0|0:0,0:0:0:0:
359,60,59210,2,0,L|306:65,1,52.5000020027161,2|0,0:3|0:0,0:0:0:0:
207,32,59590,6,0,L|218:159,1,105.000004005432,2|2,0:3|0:3,0:0:0:0:
256,211,60160,1,0,0:0:0:0:
192,268,60350,2,0,P|160:275|124:265,1,52.5000020027161,2|0,0:3|0:0,0:0:0:0:
55,269,60729,2,0,L|61:345,1,52.5000020027161,2|0,0:0|0:0,0:0:0:0:
99,187,61109,6,0,P|118:122|82:53,1,140,2|2,0:0|0:0,0:0:0:0:
205,151,61679,2,0,L|371:133,2,140,2|2|2,0:0|0:0|0:0,0:0:0:0:
370,56,62818,6,0,L|464:63,1,70,2|2,0:0|0:3,0:0:0:0:
487,135,63198,2,0,P|509:198|481:268,1,140,2|8,0:0|0:0,0:0:0:0:
405,308,63767,2,0,L|309:296,1,70,2|0,0:0|0:0,0:0:0:0:
176,234,64147,5,8,0:0:0:0:
285,135,64337,1,8,0:0:0:0:
255,280,64527,1,8,0:0:0:0:
195,145,64717,1,8,0:0:0:0:
323,219,64906,5,8,0:0:0:0:
176,234,65096,1,8,0:0:0:0:
285,135,65286,1,8,0:0:0:0:
255,280,65476,6,0,P|181:326|116:306,1,140,4|8,0:0|0:0,0:0:0:0:
53,277,66046,1,8,0:0:0:0:
47,194,66236,2,0,L|133:183,1,70,2|0,0:0|0:0,0:0:0:0:
241,174,66615,2,0,P|186:206|112:182,1,140,2|0,0:0|0:0,0:0:0:0:
164,53,67185,6,0,L|172:122,1,70,4|0,0:0|0:0,0:0:0:0:
269,15,67565,2,0,L|259:95,1,70,8|2,0:0|0:0,0:0:0:0:
325,147,67944,2,0,P|362:156|411:142,1,70,0|2,0:0|0:0,0:0:0:0:
451,80,68324,1,8,0:0:0:0:
501,211,68514,6,0,L|496:294,1,70,2|0,0:0|0:0,0:0:0:0:
434,347,68894,2,0,P|399:354|366:346,1,70,2|8,0:0|0:0,0:0:0:0:
251,270,69274,2,0,P|285:264|319:273,1,70,2|0,0:0|0:0,0:0:0:0:
175,329,69653,1,2,0:0:0:0:
104,271,69843,2,0,L|111:184,1,70,8|0,0:0|0:0,0:0:0:0:
119,71,70223,5,2,0:0:0:0:
177,140,70413,1,0,0:0:0:0:
251,87,70603,2,0,P|287:81|332:91,1,70,8|2,0:0|0:0,0:0:0:0:
393,139,70982,2,0,L|388:222,1,70,0|2,0:0|0:0,0:0:0:0:
322,266,71362,1,8,0:0:0:0:
183,213,71552,6,0,P|149:208|116:217,1,70,2|0,0:0|0:0,0:0:0:0:
124,350,71932,2,0,P|145:322|154:289,1,70,2|8,0:0|0:0,0:0:0:0:
51,165,72312,2,0,P|33:220|74:290,1,140,2|2,0:0|0:0,0:0:0:0:
253,209,72881,2,0,L|174:214,1,70,8|0,0:0|0:0,0:0:0:0:
350,296,73261,6,0,L|280:291,1,70,2|0,0:0|0:0,0:0:0:0:
412,201,73641,2,0,L|342:205,1,70,8|2,0:0|0:0,0:0:0:0:
502,306,74020,2,0,L|432:301,1,70,0|2,0:0|0:0,0:0:0:0:
350,296,74400,1,8,0:0:0:0:
491,221,74590,6,0,P|481:157|397:117,1,140,2|2,0:0|0:0,0:0:0:0:
359,183,75160,1,8,0:0:0:0:
289,98,75350,2,0,L|299:22,2,70,2|0|2,0:0|0:0|0:0,0:0:0:0:
213,199,75919,2,0,L|203:123,1,70,8|0,0:0|0:0,0:0:0:0:
85,177,76299,6,0,B|98:260|98:260|140:312,1,140,2|8,0:0|0:0,0:0:0:0:
213,199,76868,2,0,P|264:153|332:161,1,140,2|2,0:0|0:0,0:0:0:0:
396,255,77438,2,0,L|409:159,1,70,8|2,0:0|0:0,0:0:0:0:
276,345,77818,6,0,P|311:360|356:358,1,70,6|2,0:0|0:0,0:0:0:0:
426,364,78198,1,8,0:0:0:0:
512,266,78387,2,0,P|519:198|465:129,1,140,6|2,0:0|0:0,0:0:0:0:
363,212,78957,2,0,L|433:221,1,70,8|2,0:3|0:0,0:0:0:0:
294,72,79337,6,0,L|303:141,1,70,6|0,0:0|0:0,0:0:0:0:
274,224,79717,2,0,L|205:216,1,70,8|2,0:0|0:0,0:0:0:0:
156,298,80096,1,0,0:0:0:0:
109,215,80286,1,2,0:0:0:0:
153,135,80476,1,8,0:0:0:0:
78,33,80666,6,0,P|35:79|51:162,1,140,2|2,0:0|0:0,0:0:0:0:
109,215,81236,1,8,0:0:0:0:
153,135,81425,2,0,L|299:119,1,140,2|2,0:0|0:0,0:0:0:0:
376,110,81995,2,0,L|368:36,1,70,8|0,0:0|0:0,0:0:0:0:
362,205,82375,6,0,L|354:274,1,70,2|0,0:0|0:0,0:0:0:0:
306,353,82755,1,8,0:0:0:0:
421,383,82944,2,0,P|452:322|439:254,1,140,2|2,0:0|0:0,0:0:0:0:
362,205,83514,1,8,0:0:0:0:
246,235,83704,6,0,P|215:179|236:106,1,140,2|2,0:0|0:0,0:0:0:0:
300,57,84274,1,8,0:0:0:0:
200,15,84463,1,2,0:0:0:0:
200,15,84558,1,8,0:0:0:0:
200,15,84653,1,8,0:0:0:0:
149,107,84843,1,8,0:0:0:0:
58,52,85033,1,8,0:3:0:0:
22,273,85413,6,0,L|96:267,1,70,12|2,0:0|0:0,0:0:0:0:
194,265,85793,2,0,L|199:334,1,70,8|2,0:0|0:0,0:0:0:0:
289,201,86172,2,0,L|283:270,1,70,8|2,0:0|0:0,0:0:0:0:
371,137,86552,2,0,L|376:206,1,70,8|2,0:0|0:0,0:0:0:0:
224,142,86932,6,0,P|254:119|289:117,1,70,8|2,0:0|0:0,0:0:0:0:
209,224,87312,2,0,P|177:210|156:183,1,70,8|2,0:0|0:0,0:0:0:0:
289,201,87691,2,0,P|294:236|280:268,1,70,8|2,0:0|0:0,0:0:0:0:
224,142,88071,1,8,0:0:0:0:
307,115,88261,1,2,0:0:0:0:
176,47,88451,6,0,L|99:57,1,70,8|2,0:0|0:0,0:0:0:0:
12,134,88831,2,0,L|89:144,1,70,8|2,0:0|0:0,0:0:0:0:
176,221,89210,2,0,L|99:231,1,70,8|2,0:0|0:0,0:0:0:0:
216,308,89590,1,8,0:0:0:0:
292,191,89780,6,0,P|360:169|441:216,1,140,6|2,0:0|0:0,0:0:0:0:
462,282,90350,1,8,0:0:0:0:
511,198,90539,1,2,0:0:0:0:
473,107,90729,5,8,0:0:0:0:
421,193,90919,1,2,0:0:0:0:
384,109,91109,1,8,0:0:0:0:
384,109,91204,1,8,0:0:0:0:
384,109,91299,1,8,0:0:0:0:
384,109,91394,1,8,0:0:0:0:
384,109,91489,5,4,0:0:0:0:
256,192,91584,12,4,94527,0:0:0:0:
