osu file format v14

[General]
AudioFilename: audio.mp3
AudioLeadIn: 0
PreviewTime: 67088
Countdown: 0
SampleSet: Soft
StackLeniency: 0.7
Mode: 0
LetterboxInBreaks: 0
WidescreenStoryboard: 1

[Editor]
DistanceSpacing: 0.1
BeatDivisor: 4
GridSize: 4
TimelineZoom: 1.800006

[Metadata]
Title:Natsukoi Hanabi
TitleUnicode:夏恋花火
Artist:chano & 40mP
ArtistUnicode:シャノ & 40mP
Creator:Riven
Version:Spark of Light
Source:
Tags:Panoram a note sugar summer fireworks smokeman N_a_s_y_a nasya 40meterP Shano
BeatmapID:1514898
BeatmapSetID:538998

[Difficulty]
HPDrainRate:6.3
CircleSize:4
OverallDifficulty:9
ApproachRate:9
SliderMultiplier:1.8
SliderTickRate:1

[Events]
//Background and Video events
0,0,"daisuki.jpg",0,0
//Break Periods
//Storyboard Layer 0 (Background)
//Storyboard Layer 1 (Fail)
//Storyboard Layer 2 (Pass)
//Storyboard Layer 3 (Foreground)
//Storyboard Sound Samples

[TimingPoints]
350,379.746835443038,4,2,12,40,1,0
350,-125,4,2,12,40,0,0
6046,-125,4,2,4,40,0,0
6331,-125,4,2,12,5,0,0
6425,-125,4,2,12,40,0,0
9463,-125,4,2,1,35,0,0
9843,-100,4,2,1,47,0,0
12501,-100,4,2,1,60,0,0
21615,-100,4,2,1,65,0,0
22375,-100,4,2,1,60,0,0
27122,-100,4,2,1,47,0,0
27691,-100,4,2,12,40,0,0
29210,-100,4,2,1,47,0,0
39748,-100,4,2,1,5,0,0
39843,-100,4,2,1,40,0,0
41362,-100,4,2,1,47,0,0
51995,-125,4,2,1,40,0,0
60729,-100,4,2,1,50,0,0
61489,-111.111111111111,4,2,1,50,0,0
62438,-100,4,2,1,50,0,0
64147,-100,4,2,1,49,0,0
64337,-100,4,2,1,49,0,0
64527,-100,4,2,1,53,0,0
64717,-100,4,2,1,57,0,0
64906,-100,4,2,1,61,0,0
65096,-100,4,2,1,64,0,0
65286,-100,4,2,1,66,0,0
65476,-100,4,2,1,65,0,0
65856,-100,4,2,1,58,0,0
66615,-200,4,2,1,48,0,0
67090,-200,4,2,1,5,0,0
67185,-100,4,2,1,60,0,1
78957,-100,4,2,1,40,0,1
79147,-100,4,2,1,30,0,0
79337,-100,4,2,1,65,0,1
88451,-100,4,2,1,75,0,1
89210,-100,4,2,1,65,0,1
91109,-100,4,2,1,50,0,1
91489,-100,4,2,1,55,0,0
92248,-100,4,2,1,50,0,0
93008,-100,4,2,1,40,0,0
93767,-100,4,2,1,35,0,0
94527,-100,4,2,1,30,0,0

[Colours]
Combo1 : 43,153,131
Combo2 : 184,73,7
Combo3 : 33,89,92
Combo4 : 234,121,53

[HitObjects]
97,283,350,6,0,P|129:292|186:270,1,72,2|2,0:0|0:0,0:0:0:0:
231,216,729,1,2,0:0:0:0:
219,123,919,1,2,0:0:0:0:
316,269,1299,1,2,0:0:0:0:
144,288,1679,1,2,0:0:0:0:
392,194,2058,6,0,L|398:337,1,144,2|2,0:0|0:0,0:0:0:0:
262,198,2818,1,2,0:0:0:0:
262,198,3387,6,0,P|227:191|181:203,1,72,2|2,0:0|0:0,0:0:0:0:
136,274,3767,1,2,0:0:0:0:
170,361,3957,1,2,0:0:0:0:
320,265,4337,1,2,0:0:0:0:
236,65,4717,1,2,0:0:0:0:
143,210,5096,6,0,L|-22:192,1,144,2|2,0:0|0:0,0:0:0:0:
203,278,5856,1,2,0:0:0:0:
203,278,6046,2,0,P|254:257|316:276,1,108,2|0,0:0|0:0,0:0:0:0:
330,286,6425,6,0,L|322:187,1,72,2|2,0:0|0:0,0:0:0:0:
314,120,6805,1,2,0:0:0:0:
242,180,6995,1,2,0:0:0:0:
440,244,7375,1,2,0:0:0:0:
225,338,7755,1,2,0:0:0:0:
35,232,8134,6,0,P|100:252|169:212,1,144,2|2,0:0|0:0,0:0:0:0:
161,53,8894,2,0,L|178:195,1,144,2|2,0:0|0:0,0:0:0:0:
196,313,9463,5,2,0:0:0:0:
416,177,9843,1,4,0:3:0:0:
416,177,10033,2,0,P|407:278|470:344,1,180,2|8,0:3|0:0,0:0:0:0:
80,313,10793,6,0,P|181:322|247:259,1,180,4|8,0:0|0:0,0:0:0:0:
263,112,11362,1,8,0:0:0:0:
348,199,11552,2,0,B|168:192,1,180,2|8,0:3|0:0,0:0:0:0:
256,22,12122,2,0,B|266:149,1,90,4|0,0:3|0:3,0:0:0:0:
33,48,12501,5,6,0:0:0:0:
180,113,12691,1,0,0:0:0:0:
92,211,12881,1,8,0:0:0:0:
246,282,13071,2,0,P|256:325|245:371,1,90,2|0,0:0|0:0,0:0:0:0:
180,199,13451,2,0,P|170:156|181:110,1,90,2|8,0:0|0:0,0:0:0:0:
335,280,13831,6,0,L|245:282,1,90,2|0,0:0|0:0,0:0:0:0:
422,138,14210,2,0,L|512:140,1,90,2|8,0:0|0:0,0:0:0:0:
241,62,14590,2,0,L|151:60,1,90,2|0,0:0|0:0,0:0:0:0:
351,21,14970,1,2,0:0:0:0:
336,244,15160,2,0,L|330:333,1,90,8|0,0:0|0:0,0:0:0:0:
411,118,15539,5,2,0:0:0:0:
238,246,15729,1,0,0:0:0:0:
428,205,15919,1,8,0:0:0:0:
206,163,16109,2,0,P|167:193|151:238,1,90,2|0,0:0|0:0,0:0:0:0:
411,118,16489,2,0,P|404:69|373:32,1,90,2|8,0:0|0:0,0:0:0:0:
348,317,16868,6,0,P|393:335|440:327,1,90,2|0,0:0|0:0,0:0:0:0:
289,174,17248,1,2,0:0:0:0:
230,372,17438,1,8,0:0:0:0:
99,221,17628,5,2,0:0:0:0:
99,221,17723,1,8,0:0:0:0:
99,221,17818,1,8,0:0:0:0:
314,168,18008,1,8,0:0:0:0:
122,101,18198,2,0,L|2:111,1,90,8|0,0:3|0:0,0:0:0:0:
259,334,18577,6,0,L|272:220,1,90,8|2,0:0|0:0,0:0:0:0:
238,3,18957,2,0,L|248:92,1,90,8|2,0:0|0:0,0:0:0:0:
270,245,19337,5,8,0:0:0:0:
328,40,19527,1,2,0:0:0:0:
332,302,19717,1,8,0:0:0:0:
399,99,19906,1,2,0:0:0:0:
183,224,20096,6,0,L|199:321,1,90,8|2,0:0|0:0,0:0:0:0:
304,99,20476,1,8,0:0:0:0:
56,142,20665,1,2,0:0:0:0:
332,220,20856,5,8,0:0:0:0:
84,221,21046,1,2,0:0:0:0:
382,153,21236,2,0,P|410:197|414:238,1,90,8|2,0:0|0:0,3:0:0:0:
149,359,21615,5,8,0:0:0:0:
258,86,21805,1,2,0:0:0:0:
270,379,21995,5,8,0:0:0:0:
184,128,22185,1,2,0:0:0:0:
494,193,22375,5,8,0:0:0:0:
245,190,22565,1,2,0:0:0:0:
439,291,22755,1,8,0:0:0:0:
273,18,22944,2,0,L|292:126,1,90,6|0,0:0|0:0,0:0:0:0:
312,241,23324,5,2,0:0:0:0:
161,23,23514,1,8,0:0:0:0:
157,291,23704,1,2,0:0:0:0:
315,75,23894,1,8,0:0:0:0:
62,154,24084,1,2,0:0:0:0:
288,323,24274,1,8,0:0:0:0:
288,323,24368,1,8,0:0:0:0:
288,323,24463,2,0,L|298:263,1,45,8|8,0:0|0:0,0:0:0:0:
270,146,24653,6,0,P|314:157|369:139,1,90,4|0,0:0|0:0,0:0:0:0:
468,32,25033,1,8,0:0:0:0:
482,198,25223,2,0,L|477:298,1,90,8|0,0:3|0:0,0:0:0:0:
235,171,25603,1,8,0:0:0:0:
405,272,25793,1,2,0:0:0:0:
239,370,25982,1,2,0:0:0:0:
293,71,26362,5,8,0:0:0:0:
297,270,26552,1,8,0:0:0:0:
210,24,26742,1,4,0:0:0:0:
210,24,27122,5,8,0:0:0:0:
147,171,27312,2,0,L|142:81,1,90,4|0,3:0|0:0,0:0:0:0:
226,210,27691,5,2,0:0:0:0:
235,223,29210,5,2,0:0:0:0:
200,114,30160,5,8,0:0:0:0:
275,288,30350,1,4,0:3:0:0:
321,197,30729,6,0,B|257:193|257:193|213:207|213:207|126:199,1,180,2|8,0:0|0:0,0:0:0:0:
398,260,31299,2,0,L|409:170,1,90,2|0,0:0|0:0,0:0:0:0:
421,87,31678,1,8,0:0:0:0:
505,224,31868,1,8,0:0:0:0:
359,336,32058,6,0,L|166:319,1,180,2|8,0:0|0:0,0:0:0:0:
0,306,32628,1,8,0:0:0:0:
78,203,32818,2,0,L|95:396,1,180,2|2,0:0|0:0,0:0:0:0:
196,208,33387,1,8,0:0:0:0:
196,208,33767,6,0,P|241:220|306:184,1,90,6|0,0:0|0:0,0:0:0:0:
238,138,34147,1,8,0:0:0:0:
155,282,34337,2,0,P|110:294|45:258,1,90,2|0,0:0|0:0,0:0:0:0:
113,212,34717,1,2,0:0:0:0:
196,356,34906,2,0,L|309:348,1,90,8|0,0:0|0:0,0:0:0:0:
438,292,35286,6,0,L|348:285,1,90,2|0,0:0|0:0,0:0:0:0:
265,239,35665,1,8,0:0:0:0:
345,111,35856,2,0,B|367:154|367:154|347:292,1,180,2|2,0:0|0:0,0:0:0:0:
335,373,36425,1,8,0:0:0:0:
468,215,36615,1,0,0:0:0:0:
348,285,36805,6,0,P|303:291|255:252,1,90,2|0,0:0|0:0,0:0:0:0:
169,124,37185,1,8,0:0:0:0:
224,357,37375,2,0,P|251:274|221:191,1,180,2|2,0:0|0:0,0:0:0:0:
95,289,37944,1,8,0:0:0:0:
350,345,38134,1,2,0:0:0:0:
41,359,38514,5,2,0:0:0:0:
281,290,38704,1,8,0:0:0:0:
41,221,38894,1,2,0:0:0:0:
291,64,39274,5,2,0:0:0:0:
291,64,39463,2,0,L|286:237,1,135,4|0,0:3|0:0,0:0:0:0:
282,291,39843,5,6,0:0:0:0:
274,307,41362,5,2,0:0:0:0:
430,166,42312,5,8,0:0:0:0:
212,203,42501,1,4,0:3:0:0:
456,84,42881,6,0,P|512:148|455:249,1,180,2|8,0:0|0:0,0:0:0:0:
304,367,43451,2,0,L|296:277,1,90,2|0,0:0|0:0,0:0:0:0:
336,147,43830,1,8,0:0:0:0:
189,263,44020,1,8,0:0:0:0:
393,342,44210,6,0,P|454:319|487:212,1,180,2|8,0:0|0:0,0:0:0:0:
386,64,44780,1,8,0:0:0:0:
396,244,44970,2,0,L|386:64,1,180,2|2,0:0|0:0,0:0:0:0:
226,337,45539,2,0,L|234:248,1,90,8|2,0:0|0:0,0:0:0:0:
396,244,45919,6,0,P|313:280|225:238,1,180,6|8,0:0|0:0,0:0:0:0:
126,158,46489,2,0,L|226:145,1,90,2|0,0:0|0:0,0:0:0:0:
305,136,46868,1,2,0:0:0:0:
78,88,47058,2,0,P|50:122|43:181,1,90,8|2,0:0|0:0,0:0:0:0:
176,259,47438,6,0,L|282:269,1,90,2|0,0:0|0:0,0:0:0:0:
39,325,47818,1,8,0:0:0:0:
126,158,48008,2,0,L|145:336,1,180,2|2,0:0|0:0,0:0:0:0:
220,102,48577,1,8,0:0:0:0:
53,225,48767,1,2,0:0:0:0:
241,309,48957,6,0,L|229:192,1,90,2|0,0:0|0:0,0:0:0:0:
212,9,49337,1,8,0:0:0:0:
66,144,49527,2,0,L|155:154,1,90,2|0,0:0|0:0,0:0:0:0:
270,169,49906,1,2,0:0:0:0:
64,242,50096,1,8,0:0:0:0:
347,277,50286,6,0,L|150:253,1,180,2|2,0:0|0:0,0:0:0:0:
385,196,50856,1,8,0:0:0:0:
405,360,51046,1,2,0:0:0:0:
302,174,51236,2,0,P|327:130|379:111,1,90,0|8,0:0|0:0,0:0:0:0:
347,277,51615,2,0,L|245:264,1,90,4|8,0:3|0:3,0:0:0:0:
49,162,51995,6,0,L|55:337,1,144,4|2,0:0|0:3,0:0:0:0:
143,339,52565,1,0,0:0:0:0:
199,262,52755,2,0,P|227:240|262:234,1,72,2|0,0:3|0:0,0:0:0:0:
238,154,53134,2,0,P|273:150|307:161,1,72,2|0,0:3|0:0,0:0:0:0:
503,292,53514,6,0,P|465:286|423:250,1,72,2|0,0:3|0:0,0:0:0:0:
394,348,53894,2,0,P|362:324|347:272,1,72,2|0,0:3|0:0,0:0:0:0:
272,341,54274,2,0,P|257:304|269:252,1,72,2|0,0:3|0:0,0:0:0:0:
170,273,54653,2,0,P|175:234|212:194,1,72,2|0,0:3|0:0,0:0:0:0:
272,341,55033,6,0,L|98:321,1,144,2|2,0:3|0:3,0:0:0:0:
83,240,55603,2,0,L|12:250,1,72,0|2,0:0|0:3,0:0:0:0:
158,179,55982,1,0,0:0:0:0:
289,260,56172,2,0,P|300:218|278:164,1,72,2|0,0:3|0:0,0:0:0:0:
184,81,56552,6,0,P|243:106|333:64,1,144,2|2,0:3|0:3,0:0:0:0:
414,11,57122,1,0,0:0:0:0:
414,11,57217,1,0,0:0:0:0:
414,11,57312,2,0,L|419:111,1,72,2|0,0:3|0:0,0:0:0:0:
493,231,57691,2,0,L|488:131,1,72,2|0,0:3|0:0,0:0:0:0:
275,238,58071,6,0,P|339:265|411:230,1,144,4|2,0:0|0:3,0:0:0:0:
339,177,58641,1,0,0:0:0:0:
275,238,58831,2,0,L|281:309,1,72,2|0,0:3|0:0,0:0:0:0:
358,375,59210,2,0,L|364:304,1,72,2|0,0:3|0:0,0:0:0:0:
149,191,59590,6,0,L|142:262,1,72,2|0,0:3|0:0,0:0:0:0:
231,120,59970,2,0,L|237:191,1,72,2|0,0:3|0:0,0:0:0:0:
325,57,60350,2,0,L|318:128,1,72,2|0,0:3|0:0,0:0:0:0:
282,343,60729,2,0,P|316:307|384:295,1,90,2|0,0:0|0:0,0:0:0:0:
449,328,61014,1,0,0:0:0:0:
449,328,61109,6,0,L|352:314,1,90,2|0,0:0|0:0,0:0:0:0:
105,270,61489,1,2,0:0:0:0:
168,65,61679,2,0,L|179:227,1,161.999995056153,8|2,0:0|0:0,0:0:0:0:
185,314,62248,1,0,0:0:0:0:
423,169,62438,6,0,B|336:137|336:137|248:173,1,180,2|2,0:0|0:0,0:0:0:0:
200,247,63008,1,2,0:3:0:0:
123,144,63198,2,0,L|131:47,1,90,2|0,0:0|0:0,0:0:0:0:
312,288,63577,1,8,0:0:0:0:
380,177,63767,2,0,L|491:160,1,90,2|0,0:0|0:0,0:0:0:0:
220,111,64147,5,8,0:0:0:0:
312,288,64337,1,8,0:0:0:0:
298,57,64527,5,8,0:0:0:0:
234,334,64717,1,8,0:0:0:0:
217,26,64906,5,8,0:0:0:0:
307,376,65096,1,8,0:0:0:0:
30,206,65286,5,8,0:0:0:0:
482,160,65476,1,4,0:0:0:0:
140,195,65856,5,8,0:0:0:0:
350,37,66046,1,8,0:0:0:0:
381,297,66236,1,2,0:0:0:0:
190,75,66615,6,0,L|78:86,1,112.5,2|0,0:0|0:0,0:0:0:0:
50,105,67185,5,6,0:0:0:0:
239,221,67375,1,0,0:0:0:0:
57,309,67565,1,8,0:0:0:0:
179,153,67755,1,2,0:0:0:0:
288,295,67944,2,0,L|279:408,1,90,0|2,0:0|0:0,0:0:0:0:
445,214,68324,1,8,0:0:0:0:
312,130,68514,6,0,P|295:89|311:36,1,90,2|0,0:0|0:0,0:0:0:0:
357,246,68894,2,0,P|330:281|287:294,1,90,2|8,0:0|0:0,0:0:0:0:
436,132,69274,2,0,P|479:137|512:167,1,90,2|0,0:0|0:0,0:0:0:0:
282,213,69653,1,2,0:0:0:0:
452,303,69843,2,0,L|445:214,1,90,8|0,0:0|0:0,0:0:0:0:
192,169,70223,5,2,0:0:0:0:
360,287,70413,1,0,0:0:0:0:
146,331,70603,1,8,0:0:0:0:
329,185,70793,1,2,0:0:0:0:
119,124,70982,2,0,P|105:162|116:214,1,90,0|2,0:0|0:0,0:0:0:0:
274,259,71362,1,8,0:0:0:0:
189,24,71552,6,0,L|77:32,1,90,2|0,0:0|0:0,0:0:0:0:
350,99,71932,2,0,L|400:-2,1,90,2|8,0:0|0:0,0:0:0:0:
205,200,72312,2,0,L|268:292,1,90,2|0,0:0|0:0,0:0:0:0:
355,384,72691,1,2,0:0:0:0:
512,229,72881,2,0,P|469:241|426:228,1,90,8|0,0:0|0:0,0:0:0:0:
251,122,73261,5,2,0:0:0:0:
238,299,73451,1,0,0:0:0:0:
386,133,73641,1,8,0:0:0:0:
373,310,73831,1,2,0:0:0:0:
218,210,74020,2,0,L|311:217,1,90,0|2,0:0|0:0,0:0:0:0:
172,368,74400,1,8,0:0:0:0:
54,191,74590,6,0,L|62:299,1,90,2|0,0:0|0:0,0:0:0:0:
124,128,74970,2,0,P|86:103|11:111,1,90,2|8,0:0|0:0,0:0:0:0:
217,245,75350,2,0,P|262:242|299:217,1,90,2|0,0:0|0:0,0:0:0:0:
386,53,75729,1,2,0:0:0:0:
234,158,75919,1,8,0:0:0:0:
408,230,76109,1,0,0:0:0:0:
303,1,76299,6,0,L|295:114,1,90,2|0,0:0|0:0,0:0:0:0:
272,289,76679,1,8,0:0:0:0:
144,159,76868,2,0,L|249:157,1,90,2|0,0:0|0:0,0:0:0:0:
463,148,77248,1,2,0:0:0:0:
366,351,77438,1,8,0:0:0:0:
234,157,77628,1,2,0:0:0:0:
505,271,77818,5,6,0:0:0:0:
229,298,78008,1,2,0:0:0:0:
343,45,78198,1,8,0:0:0:0:
301,350,78387,6,0,L|88:339,1,180,6|2,0:0|0:0,0:0:0:0:
0,249,78957,2,0,P|44:251|84:232,1,90,8|2,0:0|0:0,0:0:0:0:
205,38,79337,5,6,0:0:0:0:
229,236,79527,1,0,0:0:0:0:
28,166,79717,1,8,0:0:0:0:
258,129,79906,1,2,0:0:0:0:
137,301,80096,2,0,L|127:211,1,90,0|2,0:0|0:0,0:0:0:0:
110,36,80476,1,8,0:0:0:0:
343,107,80666,6,0,P|344:152|321:191,1,90,2|0,0:0|0:0,0:0:0:0:
67,154,81046,2,0,P|105:130|150:131,1,90,2|8,0:0|0:0,0:0:0:0:
246,370,81425,2,0,P|206:348|184:308,1,90,2|0,0:0|0:0,0:0:0:0:
235,143,81805,1,2,0:0:0:0:
448,283,81995,2,0,L|325:288,1,90,8|0,0:0|0:0,0:0:0:0:
122,293,82375,5,2,0:0:0:0:
287,231,82565,1,0,0:0:0:0:
97,190,82755,1,8,0:0:0:0:
216,381,82944,2,0,L|210:286,1,90,2|0,0:0|0:0,0:0:0:0:
201,153,83324,1,2,0:0:0:0:
68,331,83514,1,8,0:0:0:0:
323,274,83704,6,0,L|413:282,1,90,2|0,0:0|0:0,0:0:0:0:
504,244,84084,1,2,0:0:0:0:
290,364,84274,1,8,0:0:0:0:
343,156,84463,5,2,0:0:0:0:
343,156,84558,1,8,0:0:0:0:
343,156,84653,1,8,0:0:0:0:
448,368,84843,1,8,0:0:0:0:
475,161,85033,2,0,L|482:56,1,90,8|0,0:3|0:0,0:0:0:0:
202,236,85413,6,0,L|300:249,1,90,8|2,0:0|0:0,0:0:0:0:
182,27,85793,2,0,L|83:40,1,90,8|2,0:0|0:0,0:0:0:0:
369,128,86172,5,8,0:0:0:0:
75,241,86362,1,2,0:0:0:0:
290,53,86552,1,8,0:0:0:0:
155,311,86742,1,2,0:0:0:0:
182,27,86932,5,8,0:0:0:0:
264,284,87122,2,0,L|254:406,1,90,2|8,0:0|0:0,0:0:0:0:
420,104,87501,2,0,L|410:-18,1,90,2|8,0:0|0:0,0:0:0:0:
147,158,87881,5,2,0:0:0:0:
427,263,88071,1,8,0:0:0:0:
316,19,88261,1,2,0:0:0:0:
187,268,88451,6,0,L|293:281,1,90,8|2,0:0|0:0,0:0:0:0:
467,135,88831,1,8,0:0:0:0:
209,12,89020,2,0,L|222:118,1,90,2|8,0:0|0:0,0:0:0:0:
173,282,89400,5,2,0:0:0:0:
329,65,89590,1,8,0:0:0:0:
380,365,89780,2,0,P|327:373|268:326,1,90,6|0,0:0|0:0,0:0:0:0:
97,77,90160,5,2,0:0:0:0:
423,188,90350,1,8,0:0:0:0:
92,291,90539,1,2,0:0:0:0:
301,12,90729,1,8,0:0:0:0:
295,360,90919,1,2,0:0:0:0:
203,69,91109,5,8,0:0:0:0:
205,120,91203,1,8,0:0:0:0:
208,174,91298,1,8,0:0:0:0:
211,227,91393,1,8,0:0:0:0:
214,281,91489,5,12,0:0:0:0:
256,192,91584,12,4,94527,0:0:0:0:
