osu file format v14

[General]
AudioFilename: audio.mp3
AudioLeadIn: 0
PreviewTime: 67088
Countdown: 0
SampleSet: Soft
StackLeniency: 0.7
Mode: 0
LetterboxInBreaks: 0
WidescreenStoryboard: 0

[Editor]
DistanceSpacing: 0.8
BeatDivisor: 2
GridSize: 4
TimelineZoom: 1.7

[Metadata]
Title:Natsukoi Hanabi
TitleUnicode:夏恋花火
Artist:chano & 40mP
ArtistUnicode:シャノ & 40mP
Creator:Riven
Version:Normal
Source:
Tags:Panoram a note sugar summer fireworks smokeman N_a_s_y_a nasya 40meterP Shano
BeatmapID:1298489
BeatmapSetID:538998

[Difficulty]
HPDrainRate:3.4
CircleSize:3
OverallDifficulty:3
ApproachRate:3
SliderMultiplier:1.1
SliderTickRate:1

[Events]
//Background and Video events
0,0,"daisuki.jpg",0,0
//Break Periods
//Storyboard Layer 0 (Background)
//Storyboard Layer 1 (Fail)
//Storyboard Layer 2 (Pass)
//Storyboard Layer 3 (Foreground)
//Storyboard Sound Samples

[TimingPoints]
350,379.746835443038,4,2,12,40,1,0
350,-100,4,2,12,40,0,0
9463,-100,4,2,1,47,0,0
12501,-100,4,2,12,60,0,0
18577,-100,4,2,1,60,0,0
21615,-100,4,2,1,65,0,0
22185,-100,4,2,1,60,0,0
27312,-100,4,2,1,47,0,0
27691,-100,4,2,12,47,0,0
29210,-100,4,2,1,47,0,0
39843,-100,4,2,1,40,0,0
51995,-100,4,2,1,40,0,0
61109,-100,4,2,1,50,0,0
67185,-100,4,2,1,60,0,1
78957,-100,4,2,1,40,0,1
79337,-100,4,2,1,65,0,1
91109,-100,4,2,1,50,0,1
91489,-100,4,2,1,50,0,0
92248,-100,4,2,1,45,0,0
93008,-100,4,2,1,40,0,0
93767,-100,4,2,1,35,0,0
94527,-100,4,2,1,30,0,0

[Colours]
Combo1 : 43,153,131
Combo2 : 184,73,7
Combo3 : 33,89,92
Combo4 : 234,121,53

[HitObjects]
110,94,350,6,0,P|161:77|211:96,1,110,2|2,0:0|0:0,0:0:0:0:
234,134,919,2,0,B|228:262,1,110,2|2,0:0|0:0,0:0:0:0:
302,292,1679,2,0,B|411:286,2,110,2|2|2,0:0|0:0|0:0,0:0:0:0:
239,354,2818,1,2,0:0:0:0:
130,279,3387,6,0,P|181:256|209:210,1,110,2|2,0:0|0:0,0:0:0:0:
212,167,3957,2,0,P|241:122|291:101,1,110,2|2,0:0|0:0,0:0:0:0:
380,87,4717,2,0,P|351:34|298:8,2,110,2|2|2,0:0|0:0|0:0,0:0:0:0:
348,169,5856,1,2,0:0:0:0:
262,269,6425,6,0,L|151:247,1,110,2|2,0:0|0:0,0:0:0:0:
137,206,6995,2,0,P|155:154|196:119,1,110,2|2,0:0|0:0,0:0:0:0:
278,152,7755,2,0,P|330:166|380:146,1,110,2|2,0:0|0:0,0:0:0:0:
457,104,8514,2,0,B|471:225,2,110,2|2|2,0:0|0:0|0:0,0:0:0:0:
449,60,9463,6,0,P|397:72|339:52,1,110,2|4,0:0|0:3,0:0:0:0:
308,29,10033,2,0,P|255:13|202:25,1,110,2|8,0:3|0:0,0:0:0:0:
135,81,10793,1,4,0:0:0:0:
168,162,11172,2,0,L|240:166,2,55,2|8|2,0:0|0:0|0:3,0:0:0:0:
95,210,11932,2,0,L|99:283,1,55,8|4,0:3|0:3,0:0:0:0:
133,341,12501,6,0,P|208:366|277:325,1,165,6|2,0:0|0:0,0:0:0:0:
350,274,13451,2,0,L|364:384,1,110,2|2,0:0|0:0,0:0:0:0:
445,350,14210,1,2,0:0:0:0:
433,262,14590,2,0,L|419:152,1,110,2|2,0:0|0:0,0:0:0:0:
303,88,15539,6,0,P|224:117|138:81,1,165,2|2,0:0|0:0,0:0:0:0:
89,27,16489,1,2,0:0:0:0:
38,98,16868,2,0,L|41:218,1,110,2|2,0:0|0:0,0:0:0:0:
85,283,17628,2,0,P|136:267|225:323,1,165,2|8,0:0|0:3,0:0:0:0:
293,268,18577,6,0,L|385:194,1,110,12|8,0:0|0:0,0:0:0:0:
454,154,19337,2,0,L|472:270,1,110,8|8,0:0|0:0,0:0:0:0:
474,350,20096,2,0,L|363:307,1,110,8|8,0:0|0:0,0:0:0:0:
291,347,20856,2,0,P|233:356|175:331,1,110,8|8,0:0|0:0,0:0:0:0:
132,269,21615,6,0,B|126:208|126:208|138:157|138:157|131:97,1,165,8|2,0:0|0:0,0:0:0:0:
94,26,22565,1,2,0:0:0:0:
181,31,22944,2,0,L|297:39,1,110,6|2,0:0|0:0,0:0:0:0:
334,43,23514,1,8,0:0:0:0:
377,48,23704,2,0,P|405:123|366:207,1,165,2|8,0:0|0:0,0:0:0:0:
318,266,24653,5,4,0:0:0:0:
361,342,25033,2,0,L|426:339,2,55,8|8|2,0:0|0:3|0:0,0:0:0:0:
280,377,25793,2,0,L|215:374,1,55,2|2,0:0|0:0,0:0:0:0:
169,305,26362,1,8,0:0:0:0:
158,217,26742,2,0,L|178:46,1,165,4|4,0:0|3:0,0:0:0:0:
89,48,27691,5,2,0:0:0:0:
89,48,29210,5,2,0:0:0:0:
89,48,30729,6,0,P|76:99|102:160,1,110,2|8,0:0|0:0,0:0:0:0:
130,177,31299,2,0,L|263:175,1,110,2|8,0:0|0:0,0:0:0:0:
320,139,32058,2,0,L|314:370,1,220,2|2,0:0|0:0,0:0:0:0:
236,318,33198,2,0,P|178:302|123:318,1,110,2|2,0:0|0:0,0:0:0:0:
94,337,33767,6,0,L|90:216,1,110,6|8,0:0|0:0,0:0:0:0:
112,141,34527,2,0,L|243:160,1,110,2|8,0:0|0:0,0:0:0:0:
264,151,35096,1,2,0:0:0:0:
324,220,35476,2,0,L|316:335,2,110,2|2|2,0:0|0:0|0:0,0:0:0:0:
352,186,36425,2,0,L|349:119,1,55,8|0,0:0|0:0,0:0:0:0:
337,88,36805,6,0,P|256:58|171:94,1,165,2|2,0:0|0:0,0:0:0:0:
142,159,37755,2,0,L|138:215,2,55,2|8|2,0:0|0:0|0:0,0:0:0:0:
77,99,38514,2,0,L|73:43,2,55,2|8|2,0:0|0:0|0:0,0:0:0:0:
15,162,39274,2,0,L|18:216,1,55,2|4,0:0|0:3,0:0:0:0:
73,285,39843,5,6,0:0:0:0:
73,285,41362,5,2,0:0:0:0:
73,285,42881,6,0,L|188:278,1,110,2|8,0:0|0:0,0:0:0:0:
225,289,43451,2,0,P|240:238|198:175,1,110,2|8,0:0|0:0,0:0:0:0:
166,116,44210,2,0,B|208:104|208:104|334:119,1,165,2|8,0:0|0:0,0:0:0:0:
360,148,44970,1,2,0:0:0:0:
406,222,45350,2,0,L|402:294,1,55,2|8,0:0|0:0,0:0:0:0:
340,339,45919,6,0,P|289:354|236:329,1,110,6|8,0:0|0:0,0:0:0:0:
181,265,46679,2,0,P|131:243|79:258,1,110,2|8,0:0|0:0,0:0:0:0:
16,319,47438,2,0,B|-3:268|-3:268|15:137,1,165,2|2,0:0|0:0,0:0:0:0:
69,92,48387,2,0,P|95:86|127:92,1,55,2|8,0:0|0:0,0:0:0:0:
189,148,48957,6,0,L|319:141,1,110,2|8,0:0|0:0,0:0:0:0:
334,115,49527,1,2,0:0:0:0:
399,173,49906,2,0,P|415:249|391:293,1,110,2|2,0:0|0:0,0:0:0:0:
335,332,50666,1,2,0:0:0:0:
292,328,50856,2,0,L|158:314,1,110,8|0,0:0|0:0,0:0:0:0:
146,291,51425,2,0,L|67:299,1,55,8|4,0:0|0:3,0:0:0:0:
21,350,51995,6,0,P|5:298|30:231,1,110,4|2,0:0|0:3,0:0:0:0:
89,191,52755,2,0,P|105:139|80:72,1,110,2|2,0:3|0:3,0:0:0:0:
148,20,53514,2,0,L|284:30,1,110,2|2,0:3|0:3,0:0:0:0:
325,84,54274,1,2,0:3:0:0:
400,39,54653,1,2,0:3:0:0:
463,101,55033,6,0,P|476:155|455:210,1,110,2|2,0:3|0:3,0:0:0:0:
423,231,55603,2,0,L|250:219,1,165,2|2,0:3|0:3,0:0:0:0:
179,181,56552,2,0,L|57:194,1,110,2|2,0:3|0:3,0:0:0:0:
23,267,57312,1,2,0:3:0:0:
70,340,57691,1,2,0:3:0:0:
152,308,58071,6,0,L|340:320,1,165,4|2,0:0|0:3,0:0:0:0:
395,278,59020,2,0,P|407:224|383:169,1,110,2|0,0:3|0:0,0:0:0:0:
345,159,59590,2,0,L|229:165,1,110,2|2,0:3|0:3,0:0:0:0:
170,224,60350,2,0,L|60:218,1,110,2|2,0:3|0:0,0:0:0:0:
13,143,61109,6,0,P|2:92|37:27,1,110,2|2,0:0|0:0,0:0:0:0:
66,51,61679,2,0,L|189:45,1,110,2|2,0:0|0:0,0:0:0:0:
262,62,62438,1,2,0:0:0:0:
314,132,62818,2,0,L|303:264,1,110,2|2,0:0|0:0,0:0:0:0:
331,325,63577,1,8,0:0:0:0:
256,192,64147,12,2,66236,0:0:0:0:
304,321,67185,6,0,P|355:337|425:307,1,110,4|8,0:0|0:0,0:0:0:0:
437,288,67755,1,2,0:0:0:0:
449,245,67944,2,0,L|441:72,1,165,2|2,0:0|0:0,0:0:0:0:
367,31,68894,2,0,P|314:17|246:37,1,110,2|2,0:0|0:0,0:0:0:0:
208,99,69653,2,0,L|216:180,1,55,2|8,0:0|0:0,0:0:0:0:
194,239,70223,6,0,B|141:245|141:245|78:223,2,110,2|8|2,0:0|0:0|0:0,0:0:0:0:
265,290,71362,2,0,L|333:278,1,55,8|2,0:0|0:0,0:0:0:0:
395,235,71932,2,0,B|411:102,2,110,2|2|2,0:0|0:0|0:0,0:0:0:0:
423,268,72881,1,8,0:0:0:0:
365,334,73261,6,0,P|311:348|249:323,1,110,2|8,0:0|0:0,0:0:0:0:
247,244,74020,2,0,L|234:134,1,110,2|8,0:0|0:0,0:0:0:0:
225,91,74590,2,0,P|288:103|333:79,1,110,2|2,0:0|0:0,0:0:0:0:
391,22,75350,2,0,P|441:1|493:15,1,110,2|2,0:0|0:0,0:0:0:0:
510,55,75919,6,0,L|496:177,1,110,8|2,0:0|0:0,0:0:0:0:
484,251,76679,1,8,0:0:0:0:
476,294,76868,2,0,B|418:307|418:307|374:299|374:299|306:309,1,165,2|8,0:0|0:0,0:0:0:0:
230,336,77818,2,0,P|196:263|222:179,1,165,6|6,0:0|0:0,0:0:0:0:
283,126,78767,2,0,L|359:130,1,55,2|8,0:0|0:3,0:0:0:0:
317,42,79337,6,0,P|260:39|197:38,1,110,6|8,0:0|0:0,0:0:0:0:
163,36,79906,1,2,0:0:0:0:
119,34,80096,2,0,B|92:116|92:116|120:197,1,165,2|2,0:0|0:0,0:0:0:0:
190,239,81046,2,0,L|302:235,1,110,2|2,0:0|0:0,0:0:0:0:
387,234,81805,2,0,L|379:288,1,55,2|8,0:0|0:0,0:0:0:0:
318,352,82375,6,0,P|267:333|201:360,1,110,2|8,0:0|0:0,0:0:0:0:
175,365,82944,2,0,L|185:255,1,110,2|2,0:0|0:0,0:0:0:0:
190,211,83514,1,8,0:0:0:0:
195,167,83704,2,0,P|271:197|349:168,1,165,2|8,0:0|0:0,0:0:0:0:
402,102,84653,2,0,P|456:124|478:173,1,110,8|8,0:0|0:3,0:0:0:0:
412,229,85413,5,12,0:0:0:0:
436,313,85793,1,8,0:0:0:0:
359,356,86172,2,0,L|240:325,1,110,8|8,0:0|0:0,0:0:0:0:
169,297,86932,2,0,L|200:178,1,110,8|8,0:0|0:0,0:0:0:0:
227,108,87691,2,0,L|346:139,1,110,8|8,0:0|0:0,0:0:0:0:
417,164,88451,6,0,L|389:270,1,110,8|8,0:0|0:0,0:0:0:0:
337,341,89210,2,0,P|281:322|225:343,1,110,8|8,0:0|0:0,0:0:0:0:
196,359,89780,1,6,0:0:0:0:
109,345,90160,2,0,L|105:273,1,55,2|8,0:0|0:0,0:0:0:0:
75,258,90539,2,0,L|85:127,1,110,2|2,0:0|0:0,0:0:0:0:
87,104,91109,2,0,P|134:81|208:89,1,110,8|4,0:0|0:0,0:0:0:0:
256,192,91868,12,4,94527,0:0:0:0:
