osu file format v14

[General]
AudioFilename: audio.mp3
AudioLeadIn: 0
PreviewTime: 67088
Countdown: 0
SampleSet: Soft
StackLeniency: 0.7
Mode: 0
LetterboxInBreaks: 0
WidescreenStoryboard: 0

[Editor]
DistanceSpacing: 2.1
BeatDivisor: 4
GridSize: 4
TimelineZoom: 1.6

[Metadata]
Title:Natsukoi Hanabi
TitleUnicode:夏恋花火
Artist:chano & 40mP
ArtistUnicode:シャノ & 40mP
Creator:Riven
Version:Insane
Source:
Tags:Panoram a note sugar summer fireworks smokeman N_a_s_y_a nasya 40meterP Shano
BeatmapID:1298486
BeatmapSetID:538998

[Difficulty]
HPDrainRate:5.5
CircleSize:4
OverallDifficulty:7.9
ApproachRate:8.5
SliderMultiplier:1.6
SliderTickRate:1

[Events]
//Background and Video events
0,0,"daisuki.jpg",0,0
//Break Periods
//Storyboard Layer 0 (Background)
//Storyboard Layer 1 (Fail)
//Storyboard Layer 2 (Pass)
//Storyboard Layer 3 (Foreground)
//Storyboard Sound Samples

[TimingPoints]
350,379.746835443038,4,2,12,40,1,0
350,-142.857142857143,4,2,12,40,0,0
9463,-100,4,2,1,35,0,0
9843,-100,4,2,1,47,0,0
12501,-100,4,2,1,60,0,0
21615,-100,4,2,1,65,0,0
22375,-100,4,2,1,60,0,0
27122,-100,4,2,1,47,0,0
27691,-100,4,2,12,40,0,0
29210,-100,4,2,1,47,0,0
39748,-100,4,2,1,5,0,0
39843,-100,4,2,1,40,0,0
41362,-100,4,2,1,47,0,0
51995,-125,4,2,1,40,0,0
58071,-111.111111111111,4,2,1,40,0,0
61489,-111.111111111111,4,2,1,50,0,0
62438,-100,4,2,1,50,0,0
64147,-100,4,2,1,45,0,0
64337,-100,4,2,1,49,0,0
64527,-100,4,2,1,53,0,0
64717,-100,4,2,1,57,0,0
64906,-100,4,2,1,61,0,0
65096,-100,4,2,1,64,0,0
65286,-100,4,2,1,66,0,0
65476,-100,4,2,1,65,0,0
65856,-100,4,2,1,58,0,0
66615,-200,4,2,1,48,0,0
67090,-200,4,2,1,5,0,0
67185,-90.9090909090909,4,2,1,60,0,1
78957,-100,4,2,1,40,0,1
79147,-100,4,2,1,30,0,0
79337,-90.9090909090909,4,2,1,65,0,1
91109,-100,4,2,1,50,0,1
91489,-100,4,2,1,55,0,0
92248,-100,4,2,1,50,0,0
93008,-100,4,2,1,40,0,0
93767,-100,4,2,1,35,0,0
94527,-100,4,2,1,30,0,0

[Colours]
Combo1 : 43,153,131
Combo2 : 184,73,7
Combo3 : 33,89,92
Combo4 : 234,121,53

[HitObjects]
134,264,350,6,0,L|209:270,1,56,2|2,0:0|0:0,0:0:0:0:
275,240,729,1,2,0:0:0:0:
256,327,919,1,2,0:0:0:0:
203,155,1299,1,2,0:0:0:0:
377,195,1679,1,2,0:0:0:0:
256,327,2058,6,0,L|126:312,1,112,2|2,0:0|0:0,0:0:0:0:
27,177,2818,1,2,0:0:0:0:
27,177,3387,6,0,P|53:169|102:182,1,56,2|2,0:0|0:0,0:0:0:0:
156,220,3766,1,2,0:0:0:0:
243,198,3956,1,2,0:0:0:0:
218,20,4336,1,2,0:0:0:0:
383,89,4716,1,2,0:0:0:0:
243,198,5096,6,0,P|237:261|273:321,1,112,2|2,0:0|0:0,0:0:0:0:
425,241,5856,1,2,0:0:0:0:
425,241,6425,6,0,L|501:232,1,56,2|2,0:0|0:0,0:0:0:0:
457,147,6805,1,2,0:0:0:0:
481,60,6995,1,2,0:0:0:0:
305,22,7375,1,2,0:0:0:0:
256,194,7755,1,2,0:0:0:0:
124,72,8134,6,0,P|64:75|8:125,1,112,2|2,0:0|0:0,0:0:0:0:
71,276,8894,2,0,P|131:273|187:223,1,112,2|2,0:0|0:0,0:0:0:0:
96,176,9463,5,2,0:0:0:0:
326,136,9843,1,4,0:3:0:0:
326,136,10033,2,0,B|332:192|332:192|316:233|316:233|326:296,1,160,2|8,0:3|0:0,0:0:0:0:
108,203,10793,2,0,P|174:160|250:177,1,160,4|8,0:0|0:0,0:0:0:0:
394,254,11362,5,8,0:0:0:0:
199,317,11552,2,0,P|185:280|188:241,1,80,2|0,0:3|0:0,0:0:0:0:
283,102,11932,1,8,0:0:0:0:
393,253,12122,2,0,L|304:261,1,80,4|0,0:3|0:3,0:0:0:0:
107,284,12501,5,4,0:0:0:0:
246,178,12691,1,0,0:0:0:0:
281,339,12881,1,8,0:0:0:0:
100,201,13071,2,0,P|56:218|29:261,1,80,2|0,0:0|0:0,0:0:0:0:
135,124,13451,2,0,P|88:116|43:140,1,80,2|8,0:0|0:0,0:0:0:0:
316,262,13831,6,0,P|360:245|387:202,1,80,2|0,0:0|0:0,0:0:0:0:
281,339,14211,2,0,P|327:346|372:322,1,80,2|8,0:0|0:0,0:0:0:0:
191,303,14590,2,0,L|198:389,1,80,2|0,0:0|0:0,0:0:0:0:
115,258,14970,1,2,0:0:0:0:
180,150,15160,2,0,P|217:136|256:140,1,80,8|0,0:0|0:0,0:0:0:0:
380,274,15539,5,2,0:0:0:0:
354,96,15729,1,0,0:0:0:0:
225,215,15919,1,8,0:0:0:0:
430,131,16109,2,0,P|437:84|413:39,1,80,2|0,0:0|0:0,0:0:0:0:
478,201,16489,2,0,P|507:164|509:113,1,80,2|8,0:0|0:0,0:0:0:0:
309,292,16868,6,0,P|325:327|358:350,1,80,2|0,0:0|0:0,0:0:0:0:
231,267,17248,2,0,P|227:306|244:342,1,80,2|8,0:0|0:0,0:0:0:0:
287,203,17628,1,2,0:0:0:0:
287,203,17723,1,8,0:0:0:0:
287,203,17818,1,8,0:0:0:0:
138,259,18008,1,8,0:0:0:0:
309,292,18198,2,0,L|394:279,1,80,8|0,0:3|0:0,0:0:0:0:
195,174,18577,5,12,0:0:0:0:
168,358,18767,1,2,0:0:0:0:
27,248,18957,2,0,L|43:146,1,80,8|2,0:0|0:0,0:0:0:0:
98,41,19337,5,8,0:0:0:0:
133,231,19527,1,2,0:0:0:0:
211,11,19717,5,8,0:0:0:0:
195,174,19907,1,2,0:0:0:0:
313,43,20096,6,0,L|407:49,1,80,8|2,0:0|0:0,0:0:0:0:
469,181,20476,1,8,0:0:0:0:
512,35,20666,1,2,0:0:0:0:
493,269,20856,5,8,0:0:0:0:
457,100,21046,1,2,0:0:0:0:
429,335,21236,2,0,L|327:327,1,80,8|2,0:0|0:0,0:0:0:0:
150,311,21615,5,8,0:0:0:0:
358,238,21805,1,2,0:0:0:0:
81,249,21995,5,8,0:0:0:0:
278,280,22185,1,2,0:0:0:0:
169,132,22375,2,0,L|162:217,1,80,8|2,0:0|0:0,0:0:0:0:
209,354,22755,5,8,0:0:0:0:
357,237,22944,2,0,L|351:158,1,80,6|0,0:0|0:0,0:0:0:0:
340,2,23324,5,2,0:0:0:0:
256,137,23514,1,8,0:0:0:0:
416,81,23704,1,2,0:0:0:0:
244,37,23894,1,8,0:0:0:0:
350,157,24084,1,2,0:0:0:0:
173,94,24274,5,8,0:0:0:0:
152,95,24368,1,8,0:0:0:0:
133,103,24463,1,8,0:0:0:0:
117,114,24558,1,8,0:0:0:0:
105,129,24653,6,0,L|109:240,1,80,4|0,0:0|0:0,0:0:0:0:
172,305,25033,1,8,0:0:0:0:
283,262,25223,2,0,L|375:266,1,80,8|0,0:3|0:0,0:0:0:0:
501,337,25603,2,0,L|409:341,1,80,8|2,0:0|0:0,0:0:0:0:
462,184,25982,1,2,0:0:0:0:
462,184,26362,5,8,0:0:0:0:
363,159,26552,1,8,0:0:0:0:
264,134,26742,1,4,0:0:0:0:
63,216,27122,5,8,0:0:0:0:
162,241,27312,2,0,L|156:328,1,80,4|0,3:0|0:0,0:0:0:0:
261,266,27691,5,2,0:0:0:0:
291,54,29210,5,2,0:0:0:0:
313,173,30160,5,8,0:0:0:0:
468,113,30350,1,4,0:3:0:0:
390,65,30729,6,0,B|384:121|384:121|398:165|398:165|391:222,1,160,2|8,0:0|0:0,0:0:0:0:
332,288,31299,2,0,P|252:303|171:248,1,160,2|8,0:0|0:0,0:0:0:0:
136,166,31868,1,8,0:0:0:0:
97,329,32058,6,0,L|261:323,1,160,2|8,0:0|0:0,0:0:0:0:
420,321,32628,1,8,0:0:0:0:
347,197,32818,2,0,L|334:363,1,160,2|2,0:0|0:0,0:0:0:0:
152,235,33387,1,8,0:0:0:0:
152,235,33767,6,0,P|192:243|247:221,1,80,6|0,0:0|0:0,0:0:0:0:
359,149,34147,1,8,0:0:0:0:
312,225,34337,2,0,L|333:385,1,160,2|2,0:0|0:0,0:0:0:0:
477,278,34907,2,0,P|438:265|395:275,1,80,8|0,0:0|0:0,0:0:0:0:
246,349,35286,6,0,P|207:356|170:344,1,80,2|0,0:0|0:0,0:0:0:0:
65,238,35665,1,8,0:0:0:0:
133,174,35856,2,0,L|317:189,1,160,2|2,0:0|0:0,0:0:0:0:
463,203,36425,1,8,0:0:0:0:
403,133,36615,1,0,0:0:0:0:
415,281,36805,6,0,L|421:360,1,80,2|0,0:0|0:0,0:0:0:0:
250,291,37185,1,8,0:0:0:0:
304,214,37375,2,0,P|330:155|266:51,1,160,2|2,0:0|0:0,0:0:0:0:
108,120,37944,1,8,0:0:0:0:
202,25,38134,1,2,0:0:0:0:
156,265,38514,5,2,0:0:0:0:
244,200,38704,1,8,0:0:0:0:
258,304,38894,2,0,L|272:403,1,80,2|0,0:0|0:0,0:0:0:0:
169,361,39274,1,2,0:0:0:0:
350,311,39463,2,0,L|477:322,1,120,4|0,0:3|0:0,0:0:0:0:
495,326,39843,5,6,0:0:0:0:
466,198,41362,5,2,0:0:0:0:
428,85,42312,5,8,0:0:0:0:
289,107,42501,1,4,0:3:0:0:
417,244,42881,6,0,L|428:77,1,160,2|8,0:0|0:0,0:0:0:0:
327,245,43451,2,0,L|340:343,1,80,2|0,0:0|0:0,0:0:0:0:
225,193,43831,1,8,0:0:0:0:
189,327,44020,1,8,0:0:0:0:
4,246,44210,6,0,P|84:274|163:234,1,160,2|8,0:0|0:0,0:0:0:0:
298,89,44780,1,8,0:0:0:0:
298,89,44970,2,0,L|310:264,1,160,2|2,0:0|0:0,0:0:0:0:
318,351,45539,1,8,0:0:0:0:
231,307,45729,1,0,0:0:0:0:
456,255,45919,6,0,P|375:277|294:233,1,160,6|8,0:0|0:0,0:0:0:0:
262,176,46489,2,0,L|267:87,1,80,2|0,0:0|0:0,0:0:0:0:
271,14,46868,1,2,0:0:0:0:
141,140,47058,1,8,0:0:0:0:
148,224,47248,6,0,L|155:313,1,80,2|0,0:0|0:0,0:0:0:0:
259,163,47628,2,0,L|252:252,1,80,2|8,0:0|0:0,0:0:0:0:
311,324,48008,2,0,P|388:306|470:352,1,160,2|2,0:0|0:0,0:0:0:0:
248,384,48577,1,8,0:0:0:0:
340,220,48767,1,0,0:0:0:0:
170,303,48957,6,0,L|61:286,1,80,2|0,0:0|0:0,0:0:0:0:
142,147,49337,1,8,0:0:0:0:
256,248,49527,2,0,L|268:327,1,80,2|0,0:0|0:0,0:0:0:0:
333,167,49906,2,0,L|345:246,1,80,2|8,0:0|0:0,0:0:0:0:
412,129,50286,6,0,L|250:108,1,160,2|2,0:0|0:0,0:0:0:0:
96,251,50856,2,0,P|139:265|199:238,1,80,8|2,0:0|0:0,0:0:0:0:
185,120,51236,2,0,P|151:150|144:215,1,80,0|8,0:0|0:0,0:0:0:0:
253,262,51615,2,0,P|243:217|190:179,1,80,4|8,0:3|0:3,0:0:0:0:
125,272,51995,6,0,L|252:262,1,128,4|2,0:0|0:3,0:0:0:0:
325,214,52565,1,0,0:0:0:0:
397,256,52755,2,0,L|389:319,1,64,2|0,0:3|0:0,0:0:0:0:
468,193,53134,2,0,L|476:256,1,64,2|0,0:3|0:0,0:0:0:0:
366,97,53514,6,0,P|400:108|432:99,1,64,2|0,0:3|0:0,0:0:0:0:
297,143,53894,2,0,P|320:169|353:177,1,64,2|0,0:3|0:0,0:0:0:0:
214,148,54274,2,0,P|221:182|245:206,1,64,2|0,0:3|0:0,0:0:0:0:
139,110,54653,2,0,P|127:143|137:176,1,64,2|0,0:3|0:0,0:0:0:0:
204,60,55033,6,0,L|54:43,1,128,2|2,0:3|0:3,0:0:0:0:
18,112,55603,2,0,L|28:204,1,64,0|2,0:0|0:3,0:0:0:0:
83,246,55982,2,0,L|76:310,1,64,0|2,0:0|0:3,0:0:0:0:
12,365,56362,1,0,0:0:0:0:
161,281,56552,6,0,P|226:265|292:300,1,128,2|2,0:3|0:3,0:0:0:0:
363,366,57122,1,0,0:0:0:0:
363,366,57217,1,0,0:0:0:0:
363,366,57312,2,0,L|367:276,1,64,2|0,0:3|0:0,0:0:0:0:
439,183,57691,2,0,L|441:246,1,64,2|0,0:3|0:0,0:0:0:0:
245,109,58071,6,0,P|311:132|383:103,1,143.999995605469,4|2,0:0|0:3,0:0:0:0:
310,45,58641,1,0,0:0:0:0:
213,191,58831,2,0,L|220:263,1,71.9999978027344,2|0,0:3|0:0,0:0:0:0:
281,366,59210,2,0,L|208:360,1,71.9999978027344,2|0,0:3|0:0,0:0:0:0:
376,278,59590,6,0,L|305:285,1,72,2|0,0:3|0:0,0:0:0:0:
447,196,59970,2,0,L|376:190,1,72,2|0,0:3|0:0,0:0:0:0:
510,98,60350,2,0,L|439:105,1,72,2|0,0:3|0:0,0:0:0:0:
232,278,60729,2,0,L|303:285,1,72,2|0,0:0|0:0,0:0:0:0:
348,116,61109,5,2,0:0:0:0:
76,56,61489,1,2,0:0:0:0:
76,56,61679,2,0,P|144:80|220:48,1,143.999995605469,2|2,0:0|0:0,0:0:0:0:
384,280,62438,6,0,B|391:120,1,160,2|2,0:0|0:0,0:0:0:0:
472,184,63008,1,2,0:3:0:0:
308,243,63198,2,0,P|269:251|232:240,1,80,2|0,0:0|0:0,0:0:0:0:
175,101,63577,1,8,0:0:0:0:
128,232,63767,2,0,L|136:324,1,80,2|0,0:0|0:0,0:0:0:0:
275,170,64147,5,8,0:0:0:0:
342,327,64337,1,8,0:0:0:0:
262,146,64527,5,8,0:0:0:0:
353,352,64717,1,8,0:0:0:0:
351,118,64906,5,8,0:0:0:0:
257,337,65096,1,8,0:0:0:0:
365,94,65286,5,8,0:0:0:0:
245,361,65476,1,4,0:0:0:0:
289,32,65856,5,8,0:0:0:0:
320,192,66046,1,8,0:0:0:0:
165,138,66236,1,2,0:0:0:0:
448,149,66615,6,0,L|451:266,1,100,2|0,0:0|0:0,0:0:0:0:
451,275,67185,5,4,0:0:0:0:
351,145,67375,1,0,0:0:0:0:
292,303,67565,1,8,0:0:0:0:
451,275,67755,1,2,0:0:0:0:
275,211,67944,2,0,L|173:233,1,88.000002685547,0|2,0:0|0:0,0:0:0:0:
116,325,68324,1,8,0:0:0:0:
36,229,68514,6,0,P|21:188|35:134,1,88.000002685547,2|0,0:0|0:0,0:0:0:0:
169,131,68894,2,0,P|142:166|99:178,1,88.000002685547,2|8,0:0|0:0,0:0:0:0:
21,66,69274,2,0,P|64:71|97:100,1,88.000002685547,2|0,0:0|0:0,0:0:0:0:
158,250,69653,1,2,0:0:0:0:
261,164,69843,2,0,L|374:180,1,88.000002685547,8|0,0:0|0:0,0:0:0:0:
428,292,70223,5,2,0:0:0:0:
432,136,70413,1,0,0:0:0:0:
346,259,70603,1,8,0:0:0:0:
480,218,70793,1,2,0:0:0:0:
348,176,70982,2,0,P|301:190|267:230,1,88.000002685547,0|2,0:0|0:0,0:0:0:0:
265,340,71362,1,8,0:0:0:0:
159,247,71552,6,0,L|164:158,1,88.000002685547,2|0,0:0|0:0,0:0:0:0:
94,304,71932,2,0,L|168:352,1,88.000002685547,2|8,0:0|0:0,0:0:0:0:
78,219,72312,2,0,L|-1:259,1,88.000002685547,2|0,0:0|0:0,0:0:0:0:
228,292,72691,1,2,0:0:0:0:
274,104,72881,1,8,0:0:0:0:
323,202,73071,1,0,0:0:0:0:
223,39,73261,6,0,P|263:23|306:28,1,88.000002685547,2|0,0:0|0:0,0:0:0:0:
236,193,73641,2,0,P|192:198|152:182,1,88.000002685547,8|2,0:0|0:0,0:0:0:0:
43,78,74020,1,0,0:0:0:0:
67,233,74210,1,2,0:0:0:0:
203,117,74400,1,8,0:0:0:0:
213,275,74590,6,0,L|220:382,1,88.000002685547,2|0,0:0|0:0,0:0:0:0:
319,149,74970,2,0,L|312:255,1,88.000002685547,2|8,0:0|0:0,0:0:0:0:
196,29,75350,2,0,L|204:135,1,88.000002685547,2|0,0:0|0:0,0:0:0:0:
232,199,75729,1,2,0:0:0:0:
282,41,75919,1,8,0:0:0:0:
118,87,76109,1,0,0:0:0:0:
302,129,76299,6,0,L|497:101,1,176.000005371094,2|8,0:0|0:0,0:0:0:0:
310,245,76868,2,0,L|115:217,1,176.000005371094,2|2,0:0|0:0,0:0:0:0:
296,45,77438,2,0,P|311:91|299:132,1,88.000002685547,8|2,0:0|0:0,0:0:0:0:
227,309,77818,5,6,0:0:0:0:
217,147,78008,1,2,0:0:0:0:
355,239,78198,1,8,0:0:0:0:
140,207,78387,2,0,P|125:144|198:43,1,176.000005371094,6|2,0:0|0:0,0:0:0:0:
295,147,78957,2,0,B|255:156|255:156|214:146,1,80,8|2,0:3|0:0,0:0:0:0:
413,43,79337,5,6,0:0:0:0:
370,201,79527,1,0,0:0:0:0:
256,75,79717,1,8,0:0:0:0:
439,132,79906,1,2,0:0:0:0:
293,232,80096,2,0,P|283:269|306:331,1,88.000002685547,0|2,0:0|0:0,0:0:0:0:
394,372,80476,1,8,0:0:0:0:
202,303,80666,6,0,P|154:295|98:329,1,88.000002685547,2|0,0:0|0:0,0:0:0:0:
13,355,81046,2,0,P|43:317|42:251,1,88.000002685547,2|8,0:0|0:0,0:0:0:0:
62,166,81425,2,0,P|79:211|136:243,1,88.000002685547,2|0,0:0|0:0,0:0:0:0:
181,135,81805,1,2,0:0:0:0:
318,286,81995,2,0,L|309:394,1,88.000002685547,8|0,0:0|0:0,0:0:0:0:
391,212,82375,5,2,0:0:0:0:
237,307,82565,1,0,0:0:0:0:
392,377,82755,1,8,0:0:0:0:
282,203,82944,2,0,L|301:93,1,88.000002685547,2|0,0:0|0:0,0:0:0:0:
317,34,83324,1,2,0:0:0:0:
406,122,83514,1,8,0:0:0:0:
209,160,83704,6,0,P|165:164|125:146,1,88.000002685547,2|0,0:0|0:0,0:0:0:0:
27,64,84084,1,2,0:0:0:0:
80,220,84274,1,8,0:0:0:0:
180,82,84463,1,2,0:0:0:0:
180,82,84558,1,8,0:0:0:0:
180,82,84653,1,8,0:0:0:0:
160,276,84843,1,8,0:0:0:0:
300,192,85033,2,0,L|421:216,1,88.000002685547,8|0,0:3|0:0,0:0:0:0:
208,198,85413,5,12,0:0:0:0:
343,86,85603,1,2,0:0:0:0:
361,289,85793,2,0,L|374:413,1,88.000002685547,8|2,0:0|0:0,0:0:0:0:
437,148,86173,5,8,0:0:0:0:
278,331,86363,1,2,0:0:0:0:
456,236,86553,5,8,0:0:0:0:
269,243,86742,2,0,L|172:254,1,88.000002685547,2|8,0:0|0:0,0:0:0:0:
21,273,87122,5,2,0:0:0:0:
97,142,87312,1,8,0:0:0:0:
160,353,87502,1,2,0:0:0:0:
162,83,87692,5,8,0:0:0:0:
89,310,87882,1,2,0:0:0:0:
269,243,88072,2,0,L|374:247,1,88.000002685547,8|2,0:0|0:0,0:0:0:0:
431,55,88451,5,8,0:0:0:0:
486,247,88641,1,2,0:0:0:0:
510,90,88831,5,8,0:0:0:0:
416,308,89021,1,2,0:0:0:0:
320,106,89210,2,0,L|231:112,1,88.000002685547,8|2,0:0|0:0,0:0:0:0:
130,204,89591,5,8,0:0:0:0:
321,355,89780,2,0,P|333:310|315:260,1,88.000002685547,6|0,0:0|0:0,0:0:0:0:
257,127,90160,5,2,0:0:0:0:
92,220,90350,1,8,0:0:0:0:
253,311,90539,1,2,0:0:0:0:
161,150,90729,1,8,0:0:0:0:
116,309,90919,1,2,0:0:0:0:
268,225,91110,5,8,0:0:0:0:
245,228,91204,1,8,0:0:0:0:
222,231,91298,1,8,0:0:0:0:
199,234,91394,1,8,0:0:0:0:
176,237,91489,5,8,0:0:0:0:
256,192,91584,12,4,94527,0:0:0:0:
