osu file format v14

[General]
AudioFilename: audio.mp3
AudioLeadIn: 0
PreviewTime: 67183
Countdown: 0
SampleSet: Soft
StackLeniency: 0.7
Mode: 0
LetterboxInBreaks: 0
WidescreenStoryboard: 0

[Editor]
Bookmarks: 348,12499,24651,25980,26740,27689,30158,30348,30727,33765,38132,38892,39272,39841,41360,42310,42499,42879,45917,48955,51993,53132,53512,53892,54272,55031,56550,58069,59208,59588,59968,60348,61107,64145,65474,66613,67183,70221,73259,76297,77246,77436,77626,77816,79335,82373,85411,88449,89778,90158,90348,90537,90727,90917,91107,91202,91297,91392,91487,94525,97563
DistanceSpacing: 1.3
BeatDivisor: 4
GridSize: 32
TimelineZoom: 1.15

[Metadata]
Title:Natsukoi Hanabi
TitleUnicode:夏恋花火
Artist:chano & 40mP
ArtistUnicode:シャノ & 40mP
Creator:Net0
Version:Advanced
Source:
Tags:sugar panoram a note summer festival fireworks chano Trynna Mun MkGuh Shizuku- Mirash Delis Ataraxia Bariton
BeatmapID:1398289
BeatmapSetID:652293

[Difficulty]
HPDrainRate:4
CircleSize:3.5
OverallDifficulty:4
ApproachRate:6
SliderMultiplier:1.2
SliderTickRate:1

[Events]
//Background and Video events
0,0,"64535234_p0.jpg",0,0
//Break Periods
2,52193,56070
//Storyboard Layer 0 (Background)
//Storyboard Layer 1 (Fail)
//Storyboard Layer 2 (Pass)
//Storyboard Layer 3 (Foreground)
//Storyboard Sound Samples

[TimingPoints]
348,379.746835443038,4,2,1,40,1,0
348,-100,4,2,1,40,0,0
9461,-100,4,2,1,45,0,0
9841,-100,4,2,1,40,0,0
10791,-100,4,2,1,50,0,0
12499,-100,4,2,1,60,0,0
18196,-100,4,2,1,60,0,0
18575,-100,4,2,1,60,0,0
18955,-100,4,2,1,60,0,0
27120,-100,4,2,1,40,0,0
27689,-100,4,2,1,40,0,0
29208,-100,4,2,1,50,0,0
33196,-100,4,2,1,47,0,0
33765,-100,4,2,1,50,0,0
39841,-100,4,2,1,40,0,0
41360,-100,4,2,1,50,0,0
41930,-100,4,2,1,50,0,0
42499,-100,4,2,1,50,0,0
42879,-100,4,2,1,50,0,0
51993,-100,4,2,1,40,0,0
58069,-100,4,2,1,40,0,0
60727,-100,4,2,1,50,0,0
66613,-100,4,2,1,48,0,0
67183,-100,4,2,1,60,0,1
78955,-100,4,2,1,40,0,1
79145,-100,4,2,1,30,0,0
79335,-100,4,2,1,65,0,1
88449,-100,4,2,1,75,0,1
91107,-100,4,2,1,50,0,1
91487,-100,4,2,1,60,0,0
91866,-100,4,2,1,40,0,0
94525,-100,4,2,1,30,0,0
96613,-100,4,2,1,20,0,0
97563,-100,4,2,1,10,0,0

[Colours]
Combo1 : 0,71,204
Combo2 : 184,30,7
Combo3 : 33,89,50
Combo4 : 234,0,100
Combo5 : 43,153,10
Combo6 : 174,0,174

[HitObjects]
153,28,348,6,0,P|143:91|155:154,1,120,2|2,0:0|0:0,0:0:0:0:
171,221,917,2,0,L|36:222,2,120,2|2|2,0:0|0:0|0:0,0:0:0:0:
327,223,2056,1,2,0:0:0:0:
429,340,2436,1,2,0:0:0:0:
478,192,2816,1,2,0:0:0:0:
244,193,3385,6,0,P|181:183|118:195,1,120,2|2,0:0|0:0,0:0:0:0:
51,211,3955,2,0,L|50:76,1,120,2|2,0:0|0:0,0:0:0:0:
189,18,4715,1,2,0:0:0:0:
324,94,5094,1,2,0:0:0:0:
189,173,5474,1,2,0:0:0:0:
295,287,5854,1,2,0:0:0:0:
66,327,6423,6,0,P|56:264|68:201,1,120,2|2,0:0|0:0,0:0:0:0:
125,158,6993,2,0,L|260:157,2,120,2|2|2,0:0|0:0|0:0,0:0:0:0:
24,38,8132,1,2,0:0:0:0:
180,38,8512,1,2,0:0:0:0:
50,124,8892,1,2,0:0:0:0:
142,249,9272,1,2,0:0:0:0:
142,249,9461,6,0,P|191:289|222:352,1,120,2|4,0:0|0:3,0:0:0:0:
293,338,10031,2,0,P|323:286|370:249,1,120,2|2,0:3|0:0,0:0:0:0:
497,157,10791,2,0,L|497:238,1,60,4|0,0:0|0:0,0:0:0:0:
443,273,11170,2,0,L|443:354,2,60,8|8|2,0:0|0:0|0:3,0:0:0:0:
388,126,11930,1,8,0:0:0:0:
388,126,12120,1,4,0:3:0:0:
255,207,12499,6,0,L|135:207,1,120,4|8,1:0|0:0,0:0:0:0:
56,206,13069,2,0,P|85:146|142:127,1,120,2|2,0:0|0:0,0:0:0:0:
210,127,13639,1,8,0:0:0:0:
288,122,13829,2,0,P|322:125|359:113,2,60,2|0|2,0:0|0:0|0:0,0:0:0:0:
210,127,14398,1,8,0:0:0:0:
243,56,14588,2,0,P|275:43|313:43,2,60,2|0|2,0:0|0:0|0:0,0:0:0:0:
164,54,15158,1,8,0:0:0:0:
36,143,15537,6,0,L|36:263,1,120,2|8,0:0|0:0,0:0:0:0:
37,342,16107,2,0,P|97:313|116:256,1,120,2|2,0:0|0:0,0:0:0:0:
116,188,16677,1,8,0:0:0:0:
182,227,16866,2,0,P|216:230|253:218,2,60,2|0|2,0:0|0:0|0:0,0:0:0:0:
188,148,17436,1,8,0:0:0:0:
226,79,17626,2,0,L|224:1,2,60,2|8|8,0:0|0:0|0:0,0:0:0:0:
266,148,18196,1,8,0:3:0:0:
281,302,18575,6,0,P|319:321|358:327,1,60,12|2,0:0|0:0,0:0:0:0:
350,247,18955,2,0,P|391:255|430:251,1,60,8|2,0:0|0:0,0:0:0:0:
402,176,19335,2,0,P|444:173|481:159,1,60,8|2,0:0|0:0,0:0:0:0:
465,90,19715,2,0,P|462:47|448:10,1,60,8|2,0:0|0:0,0:0:0:0:
379,32,20094,2,0,P|337:40|298:36,1,60,8|2,0:0|0:0,0:0:0:0:
292,113,20474,2,0,P|254:132|215:138,1,60,8|2,0:0|0:0,0:0:0:0:
228,213,20854,2,0,P|196:241|160:257,1,60,8|2,0:0|0:0,0:0:0:0:
106,273,21234,1,8,0:0:0:0:
28,137,21613,6,0,P|30:94|44:57,1,60,8|2,0:0|0:0,0:0:0:0:
113,87,21993,2,0,P|136:51|167:26,1,60,8|2,0:0|0:0,0:0:0:0:
212,85,22373,2,0,P|250:66|289:60,1,60,8|2,0:0|0:0,0:0:0:0:
337,97,22753,1,8,0:0:0:0:
301,167,22942,2,0,P|272:177|243:180,1,60,6|0,0:0|0:0,0:0:0:0:
168,156,23322,1,2,0:0:0:0:
91,169,23512,2,0,B|83:232|83:232|96:305,1,120,8|8,0:0|0:0,0:0:0:0:
166,314,24082,2,0,L|228:312,2,60,2|8|8,0:0|0:0|0:0,0:0:0:0:
106,364,24651,5,4,0:0:0:0:
13,238,25031,2,0,P|7:205|22:162,1,60,8|8,0:0|0:3,0:0:0:0:
91,169,25411,2,0,L|236:170,1,120,0|2,0:0|0:0,0:0:0:0:
289,171,25980,1,6,0:0:0:0:
445,175,26360,2,0,P|448:205|445:235,1,60,8|8,0:0|0:0,0:0:0:0:
440,312,26739,1,4,0:0:0:0:
285,336,27120,1,8,0:0:0:0:
285,336,27310,1,4,3:0:0:0:
366,203,27689,1,4,1:0:0:0:
366,203,29208,6,0,P|369:263|261:278,1,180,2|0,0:0|0:0,0:0:0:0:
203,144,30158,2,0,L|290:144,1,60,8|4,0:0|0:3,0:0:0:0:
117,199,30727,2,0,P|101:141|119:85,1,120,2|8,0:0|0:0,0:0:0:0:
194,62,31297,1,2,0:0:0:0:
342,111,31677,2,0,L|342:171,1,60,8|8,0:0|0:0,0:0:0:0:
289,229,32056,2,0,P|346:249|400:223,1,120,2|8,0:0|0:0,0:0:0:0:
469,192,32626,1,8,0:0:0:0:
455,113,32816,2,0,P|398:94|341:110,1,120,2|2,0:0|0:0,0:0:0:0:
117,199,33765,5,6,0:0:0:0:
216,318,34145,1,8,0:0:0:0:
371,331,34525,2,0,P|402:321|422:297,1,60,0|2,0:0|0:0,0:0:0:0:
442,226,34904,1,8,0:0:0:0:
364,228,35094,2,0,P|338:242|323:268,1,60,0|2,0:0|0:0,0:0:0:0:
293,340,35474,1,0,0:0:0:0:
191,221,35854,1,2,0:0:0:0:
293,102,36234,1,2,0:0:0:0:
156,26,36613,1,0,0:0:0:0:
156,26,36803,6,0,P|147:81|156:151,1,120,2|8,0:0|0:0,0:0:0:0:
186,216,37373,2,0,P|195:271|186:341,1,120,2|0,0:0|0:0,0:0:0:0:
118,363,37942,1,8,0:0:0:0:
118,363,38132,2,0,B|101:301|101:301|57:247,1,120,2|2,0:0|0:0,0:0:0:0:
22,192,38702,1,8,0:0:0:0:
65,126,38892,2,0,B|101:83|101:83|118:21,1,120,2|2,0:0|0:0,0:0:0:0:
196,21,39461,2,0,L|212:80,1,60,4|0,0:3|0:0,0:0:0:0:
235,153,39841,5,6,0:0:0:0:
235,153,41360,6,0,P|231:210|338:230,1,180,2|0,0:0|0:0,0:0:0:0:
398,94,42310,2,0,L|311:94,1,60,8|4,0:0|0:3,0:0:0:0:
484,149,42879,2,0,P|500:91|482:35,1,120,2|8,0:0|0:0,0:0:0:0:
407,12,43449,1,2,0:0:0:0:
259,61,43829,2,0,L|259:121,1,60,8|8,0:0|0:0,0:0:0:0:
312,179,44208,2,0,P|255:199|201:173,1,120,2|8,0:0|0:0,0:0:0:0:
132,142,44778,1,8,0:0:0:0:
146,63,44968,2,0,P|203:44|260:60,1,120,2|2,0:0|0:0,0:0:0:0:
410,238,45917,5,6,0:0:0:0:
264,291,46297,1,8,0:0:0:0:
123,224,46677,2,0,P|101:199|95:169,1,60,0|2,0:0|0:0,0:0:0:0:
115,97,47056,1,8,0:0:0:0:
180,139,47246,2,0,P|195:164|195:194,1,60,2|0,0:0|0:0,0:0:0:0:
186,271,47626,1,2,0:0:0:0:
334,219,48006,1,2,0:0:0:0:
306,65,48386,1,2,0:0:0:0:
462,67,48765,1,0,0:0:0:0:
462,67,48955,6,0,P|442:119|399:175,1,120,2|8,0:0|0:0,0:0:0:0:
334,207,49525,2,0,P|298:250|271:315,1,120,2|0,0:0|0:0,0:0:0:0:
347,344,50094,1,8,0:0:0:0:
347,344,50284,2,0,B|411:344|411:344|474:372,1,120,2|2,0:0|0:0,0:0:0:0:
507,303,50854,1,8,0:0:0:0:
501,225,51044,2,0,B|492:170|492:170|508:107,1,120,2|8,0:0|0:0,0:0:0:0:
441,69,51613,2,0,L|397:112,1,60,4|8,0:3|0:3,0:0:0:0:
321,126,51993,5,4,1:0:0:0:
195,129,57120,6,0,P|151:178|257:177,1,240,0|0,0:0|0:0,0:0:0:0:
273,106,58069,1,4,0:0:0:0:
421,287,58639,2,0,P|389:340|342:381,1,120,0|0,0:0|0:0,0:0:0:0:
286,328,59208,2,0,L|225:327,1,60,2|2,3:2|0:0,0:0:0:0:
165,378,59588,2,0,P|121:338|91:287,2,120,2|2|2,0:3|0:3|0:3,0:0:0:0:
272,269,60727,2,0,L|332:261,1,60,2|0,0:0|0:0,0:0:0:0:
408,243,61107,5,6,0:0:0:0:
385,89,61487,1,6,0:0:0:0:
331,33,61677,1,2,0:0:0:0:
281,182,62056,1,2,0:0:0:0:
436,156,62436,1,6,0:0:0:0:
281,182,62816,1,2,0:0:0:0:
226,327,63196,1,2,0:0:0:0:
76,288,63575,2,0,P|51:267|27:238,1,60,8|2,0:0|3:0,0:0:0:0:
48,169,63955,1,4,3:0:0:0:
83,100,64145,6,0,L|132:51,2,60,8|8|8,0:0|0:0|0:0,0:0:0:0:
126,166,64715,2,0,L|174:215,2,60,8|8|8,0:0|0:0|0:0,0:0:0:0:
83,100,65284,1,8,0:0:0:0:
48,169,65474,1,12,0:0:0:0:
15,321,65854,2,0,P|9:348|17:384,1,60,8|8,0:0|0:0,0:0:0:0:
87,349,66234,2,0,P|144:330|201:346,1,120,2|2,0:0|0:0,0:0:0:0:
432,320,67183,6,0,B|483:285|483:285|518:224,1,120,6|8,1:0|0:0,0:0:0:0:
471,167,67753,1,2,0:0:0:0:
392,166,67942,2,0,B|363:216|363:216|358:278,1,120,0|8,0:0|0:0,0:0:0:0:
283,258,68512,2,0,L|223:213,1,60,2|0,0:0|0:0,0:0:0:0:
263,149,68892,2,0,L|217:90,1,60,2|8,0:0|0:0,0:0:0:0:
272,38,69272,2,0,P|338:55|386:103,1,120,2|2,0:0|0:0,0:0:0:0:
393,165,69841,1,8,0:0:0:0:
427,317,70221,6,0,P|381:332|298:337,1,120,6|8,0:0|0:0,0:0:0:0:
231,331,70791,1,2,0:0:0:0:
274,267,70980,2,0,P|275:207|263:148,1,120,0|8,0:0|0:0,0:0:0:0:
224,80,71550,2,0,L|187:14,1,60,2|0,0:0|0:0,0:0:0:0:
116,29,71930,2,0,L|77:94,1,60,2|8,0:0|0:0,0:0:0:0:
126,149,72310,2,0,L|201:149,2,60,2|0|0,0:0|0:0|0:0,0:0:0:0:
48,151,72879,1,8,0:0:0:0:
90,301,73259,6,0,P|151:320|220:291,1,120,6|8,0:0|0:0,0:0:0:0:
256,246,73829,1,2,0:0:0:0:
308,304,74018,2,0,P|365:319|422:301,1,120,0|8,0:0|0:0,0:0:0:0:
447,226,74588,2,0,L|500:173,1,60,2|0,0:0|0:0,0:0:0:0:
432,129,74968,2,0,L|469:64,1,60,2|8,0:0|0:0,0:0:0:0:
409,19,75348,2,0,P|345:44|302:97,1,120,2|2,0:0|0:0,0:0:0:0:
256,136,75917,1,8,0:0:0:0:
256,136,76107,1,0,0:0:0:0:
200,81,76297,6,0,P|158:39|103:19,1,120,6|8,0:0|0:0,0:0:0:0:
50,77,76866,2,0,L|80:129,1,60,2|0,0:0|0:0,0:0:0:0:
22,183,77246,2,0,L|65:226,1,60,2|8,0:0|0:0,0:0:0:0:
23,293,77626,2,0,L|74:323,1,60,2|6,0:0|0:0,0:0:0:0:
151,341,78006,1,2,0:0:0:0:
141,263,78196,1,8,0:0:0:0:
131,186,78385,1,6,0:0:0:0:
278,129,78765,2,0,P|293:186|275:243,1,120,2|4,0:0|3:0,0:0:0:0:
264,324,79335,6,0,B|317:355|317:355|375:360,1,120,6|8,0:1|0:0,0:0:0:0:
421,297,79905,1,2,0:0:0:0:
390,226,80094,2,0,B|332:220|332:220|274:242,1,120,0|8,0:0|0:0,0:0:0:0:
260,166,80664,2,0,L|275:93,1,60,2|0,0:0|0:0,0:0:0:0:
350,102,81044,2,0,L|383:35,1,60,2|8,0:0|0:0,0:0:0:0:
455,63,81424,2,0,P|467:130|444:194,1,120,2|0,0:0|0:0,0:0:0:0:
391,227,81993,1,8,0:0:0:0:
230,225,82373,6,0,P|194:192|148:123,1,120,6|8,0:0|0:0,0:0:0:0:
121,62,82943,1,2,0:0:0:0:
199,56,83132,2,0,P|258:59|316:76,1,120,0|8,0:0|0:0,0:0:0:0:
386,39,83702,2,0,L|452:76,1,60,2|0,0:0|0:0,0:0:0:0:
437,147,84082,2,0,L|371:185,1,60,2|8,0:0|0:0,0:0:0:0:
317,137,84462,2,0,L|316:61,2,60,2|8|8,0:0|0:0|0:0,0:0:0:0:
315,215,85031,1,8,0:3:0:0:
231,82,85411,6,0,P|193:63|154:57,1,60,12|2,0:0|0:0,0:0:0:0:
162,137,85791,2,0,P|121:129|82:133,1,60,8|2,0:0|0:0,0:0:0:0:
110,208,86171,2,0,P|68:211|31:225,1,60,8|2,0:0|0:0,0:0:0:0:
47,294,86551,2,0,P|50:337|64:374,1,60,8|2,0:0|0:0,0:0:0:0:
133,352,86930,2,0,P|175:344|214:348,1,60,8|2,0:0|0:0,0:0:0:0:
220,271,87310,2,0,P|258:252|297:246,1,60,8|2,0:0|0:0,0:0:0:0:
284,171,87690,2,0,P|316:143|352:127,1,60,8|2,0:0|0:0,0:0:0:0:
406,111,88070,1,8,0:0:0:0:
257,64,88449,6,0,P|219:45|179:39,1,60,8|2,0:0|0:0,0:0:0:0:
188,119,88829,2,0,P|147:112|108:116,1,60,8|2,0:0|0:0,0:0:0:0:
136,190,89208,2,0,P|94:193|57:207,1,60,8|2,0:0|0:0,0:0:0:0:
35,265,89588,1,8,0:0:0:0:
76,333,89778,2,0,P|106:340|136:340,1,60,6|0,0:0|0:0,0:0:0:0:
163,266,90158,2,0,P|192:266|222:273,2,60,2|8|2,0:0|0:0|0:0,0:0:0:0:
136,190,90727,2,0,P|94:193|57:207,1,60,8|2,0:0|0:0,0:0:0:0:
13,151,91107,2,0,L|13:84,2,60,8|8|4,0:0|0:0|1:0,0:0:0:0:
256,192,91582,12,4,94525,0:0:0:0:
