osu file format v14

[General]
AudioFilename: audio.mp3
AudioLeadIn: 0
PreviewTime: 66613
Countdown: 0
SampleSet: None
StackLeniency: 0.2
Mode: 2
LetterboxInBreaks: 0
WidescreenStoryboard: 1

[Editor]
DistanceSpacing: 0.7
BeatDivisor: 4
GridSize: 4
TimelineZoom: 1

[Metadata]
Title:Natsukoi Hanabi
TitleUnicode:夏恋花火
Artist:chano & 40mP
ArtistUnicode:シャノ & 40mP
Creator:Monstrata
Version:Salad
Source:Naruto
Tags:FREE PP I LOVE ANIME naruto sasuke i want to be the next hokage www.ppfarms.osu
BeatmapID:1415893
BeatmapSetID:669412

[Difficulty]
HPDrainRate:0
CircleSize:4
OverallDifficulty:10
ApproachRate:9
SliderMultiplier:0.400000005960464
SliderTickRate:1

[Events]
//Background and Video events
0,0,"wc1783066.jpg",0,0
//Break Periods
//Storyboard Layer 0 (Background)
//Storyboard Layer 1 (Fail)
//Storyboard Layer 2 (Pass)
//Storyboard Layer 3 (Foreground)
//Storyboard Sound Samples

[TimingPoints]
348,379.746835443038,4,2,0,60,1,0
348,-2E+47,4,2,0,60,0,0

[Colours]
Combo1 : 0,0,255
Combo2 : 255,128,0

[HitObjects]
182,134,348,5,0,0:0:0:0:
251,186,537,1,0,0:0:0:0:
320,134,727,1,0,0:0:0:0:
182,238,917,5,0,0:0:0:0:
320,238,1297,1,0,0:0:0:0:
182,134,1677,1,0,0:0:0:0:
320,134,2056,1,0,0:0:0:0:
182,238,2436,1,0,0:0:0:0:
320,238,2816,1,0,0:0:0:0:
182,134,3385,5,0,0:0:0:0:
251,186,3574,1,0,0:0:0:0:
320,134,3764,1,0,0:0:0:0:
182,238,3954,5,0,0:0:0:0:
320,238,4334,1,0,0:0:0:0:
182,134,4714,1,0,0:0:0:0:
320,134,5093,1,0,0:0:0:0:
182,238,5473,1,0,0:0:0:0:
320,238,5853,1,0,0:0:0:0:
251,186,6044,1,0,0:0:0:0:
219,217,6423,5,0,0:0:0:0:
284,217,6613,1,0,0:0:0:0:
251,134,6803,1,0,0:0:0:0:
251,238,6993,5,0,0:0:0:0:
320,134,7373,1,0,0:0:0:0:
182,134,7753,1,0,0:0:0:0:
182,238,8132,1,0,0:0:0:0:
320,238,8512,1,0,0:0:0:0:
320,134,8892,1,0,0:0:0:0:
182,134,9272,1,0,0:0:0:0:
320,238,9461,5,0,0:0:0:0:
182,134,9841,1,0,0:0:0:0:
190,160,9936,1,0,0:0:0:0:
197,186,10031,5,0,0:0:0:0:
305,186,10411,1,0,0:0:0:0:
190,160,10791,1,0,0:0:0:0:
313,160,11170,5,0,0:0:0:0:
182,134,11360,1,0,0:0:0:0:
320,134,11550,1,0,0:0:0:0:
320,238,11930,5,0,0:0:0:0:
182,134,12120,1,0,0:0:0:0:
182,134,12499,5,0,0:0:0:0:
307,163,12689,1,0,0:0:0:0:
195,209,12879,1,0,0:0:0:0:
320,238,13069,1,0,0:0:0:0:
182,134,13449,5,0,0:0:0:0:
195,209,13639,1,0,0:0:0:0:
320,238,13829,1,0,0:0:0:0:
182,134,14209,5,0,0:0:0:0:
307,163,14398,1,0,0:0:0:0:
320,238,14588,1,0,0:0:0:0:
320,238,14968,5,0,0:0:0:0:
182,134,15158,1,0,0:0:0:0:
195,163,15348,1,0,0:0:0:0:
320,134,15537,5,0,0:0:0:0:
182,238,15727,1,0,0:0:0:0:
307,209,15917,1,0,0:0:0:0:
195,163,16107,1,0,0:0:0:0:
320,134,16487,5,0,0:0:0:0:
251,207,16677,1,0,0:0:0:0:
182,134,16866,1,0,0:0:0:0:
182,134,17246,5,0,0:0:0:0:
251,238,17436,1,0,0:0:0:0:
320,134,17626,1,0,0:0:0:0:
251,169,17721,1,0,0:0:0:0:
182,203,17816,1,0,0:0:0:0:
320,203,18006,1,0,0:0:0:0:
182,134,18196,1,0,0:0:0:0:
182,134,18575,5,0,0:0:0:0:
320,238,18765,1,0,0:0:0:0:
182,134,18955,5,0,0:0:0:0:
320,238,19145,1,0,0:0:0:0:
182,134,19335,5,0,0:0:0:0:
320,238,19525,1,0,0:0:0:0:
182,134,19715,5,0,0:0:0:0:
320,238,19905,1,0,0:0:0:0:
320,134,20094,5,0,0:0:0:0:
182,238,20284,1,0,0:0:0:0:
320,134,20474,5,0,0:0:0:0:
182,238,20664,1,0,0:0:0:0:
320,134,20854,5,0,0:0:0:0:
182,238,21044,1,0,0:0:0:0:
320,134,21234,5,0,0:0:0:0:
182,238,21424,1,0,0:0:0:0:
182,134,21613,5,0,0:0:0:0:
320,238,21803,1,0,0:0:0:0:
182,134,21993,5,0,0:0:0:0:
320,238,22183,1,0,0:0:0:0:
182,134,22373,5,0,0:0:0:0:
320,238,22563,1,0,0:0:0:0:
182,134,22753,5,0,0:0:0:0:
320,238,22943,1,0,0:0:0:0:
320,134,23322,5,0,0:0:0:0:
182,238,23512,1,0,0:0:0:0:
320,134,23702,1,0,0:0:0:0:
182,238,23892,1,0,0:0:0:0:
320,134,24082,1,0,0:0:0:0:
182,238,24272,5,0,0:0:0:0:
224,151,24366,1,0,0:0:0:0:
320,134,24461,1,0,0:0:0:0:
278,221,24556,1,0,0:0:0:0:
182,238,24651,1,0,0:0:0:0:
320,134,25031,5,0,0:0:0:0:
182,238,25221,1,0,0:0:0:0:
320,134,25411,5,0,0:0:0:0:
182,238,25601,1,0,0:0:0:0:
320,134,25791,5,0,0:0:0:0:
182,238,25981,1,0,0:0:0:0:
182,238,26360,5,0,0:0:0:0:
217,161,26550,1,0,0:0:0:0:
265,230,26740,1,0,0:0:0:0:
320,134,27120,5,0,0:0:0:0:
286,211,27310,1,0,0:0:0:0:
237,143,27500,1,0,0:0:0:0:
203,219,27689,1,0,0:0:0:0:
286,211,28449,5,0,0:0:0:0:
237,143,28639,1,0,0:0:0:0:
203,219,28828,1,0,0:0:0:0:
286,211,29018,1,0,0:0:0:0:
182,134,29208,5,0,0:0:0:0:
182,134,30158,5,0,0:0:0:0:
320,238,30348,1,0,0:0:0:0:
182,186,30727,5,0,0:0:0:0:
320,186,31107,5,0,0:0:0:0:
182,186,31297,1,0,0:0:0:0:
320,164,31487,1,0,0:0:0:0:
182,164,31677,1,0,0:0:0:0:
320,207,31866,1,0,0:0:0:0:
182,207,32056,1,0,0:0:0:0:
182,207,32436,5,0,0:0:0:0:
320,164,32626,1,0,0:0:0:0:
182,238,32816,1,0,0:0:0:0:
182,238,33196,5,0,0:0:0:0:
320,134,33385,1,0,0:0:0:0:
320,134,33765,5,0,0:0:0:0:
182,134,33955,1,0,0:0:0:0:
182,238,34145,1,0,0:0:0:0:
320,238,34335,1,0,0:0:0:0:
182,134,34525,5,0,0:0:0:0:
182,238,34715,1,0,0:0:0:0:
320,134,34904,1,0,0:0:0:0:
320,238,35094,1,0,0:0:0:0:
251,134,35284,5,0,0:0:0:0:
251,238,35474,1,0,0:0:0:0:
303,186,35664,1,0,0:0:0:0:
199,186,35854,1,0,0:0:0:0:
288,149,36044,5,0,0:0:0:0:
214,223,36234,1,0,0:0:0:0:
288,223,36424,1,0,0:0:0:0:
214,149,36614,1,0,0:0:0:0:
320,238,36803,5,0,0:0:0:0:
182,134,36993,1,0,0:0:0:0:
182,238,37183,5,0,0:0:0:0:
320,134,37373,1,0,0:0:0:0:
320,238,37563,5,0,0:0:0:0:
182,134,37753,1,0,0:0:0:0:
182,238,37943,5,0,0:0:0:0:
320,134,38133,1,0,0:0:0:0:
320,134,38512,5,0,0:0:0:0:
182,238,38702,1,0,0:0:0:0:
320,134,38892,1,0,0:0:0:0:
182,238,39272,5,0,0:0:0:0:
320,134,39462,1,0,0:0:0:0:
320,134,39841,5,0,0:0:0:0:
320,134,40601,5,0,0:0:0:0:
232,155,40791,1,0,0:0:0:0:
182,238,40980,1,0,0:0:0:0:
270,216,41170,1,0,0:0:0:0:
182,134,41360,5,0,0:0:0:0:
182,134,42310,5,0,0:0:0:0:
320,238,42499,1,0,0:0:0:0:
182,134,42879,5,0,0:0:0:0:
251,238,43068,1,0,0:0:0:0:
320,134,43259,1,0,0:0:0:0:
199,186,43449,1,0,0:0:0:0:
320,238,43639,1,0,0:0:0:0:
251,134,43827,1,0,0:0:0:0:
182,238,44018,1,0,0:0:0:0:
320,134,44208,1,0,0:0:0:0:
182,238,44588,5,0,0:0:0:0:
320,134,44778,1,0,0:0:0:0:
182,238,44968,1,0,0:0:0:0:
182,238,45348,5,0,0:0:0:0:
320,186,45537,1,0,0:0:0:0:
182,134,45726,1,0,0:0:0:0:
320,238,45917,5,0,0:0:0:0:
320,134,46107,1,0,0:0:0:0:
182,238,46297,1,0,0:0:0:0:
182,134,46487,1,0,0:0:0:0:
320,238,46677,5,0,0:0:0:0:
320,134,46867,1,0,0:0:0:0:
182,238,47057,1,0,0:0:0:0:
182,134,47247,1,0,0:0:0:0:
320,238,47436,5,0,0:0:0:0:
320,134,47626,1,0,0:0:0:0:
182,238,47816,1,0,0:0:0:0:
182,134,48006,1,0,0:0:0:0:
320,238,48196,5,0,0:0:0:0:
320,134,48386,1,0,0:0:0:0:
182,238,48576,1,0,0:0:0:0:
182,134,48766,1,0,0:0:0:0:
320,238,48955,5,0,0:0:0:0:
182,134,49145,1,0,0:0:0:0:
320,238,49335,5,0,0:0:0:0:
182,134,49525,1,0,0:0:0:0:
320,238,49715,5,0,0:0:0:0:
182,134,49905,1,0,0:0:0:0:
320,238,50094,5,0,0:0:0:0:
182,134,50284,1,0,0:0:0:0:
182,238,50664,1,0,0:0:0:0:
320,134,50854,5,0,0:0:0:0:
182,238,51044,1,0,0:0:0:0:
320,134,51234,5,0,0:0:0:0:
182,238,51423,1,0,0:0:0:0:
320,134,51613,5,0,0:0:0:0:
182,238,51803,1,0,0:0:0:0:
320,134,51993,5,0,0:0:0:0:
210,186,52373,5,0,0:0:0:0:
292,186,52563,1,0,0:0:0:0:
251,145,52753,1,0,0:0:0:0:
251,227,52943,1,0,0:0:0:0:
222,157,53132,1,0,0:0:0:0:
280,215,53322,1,0,0:0:0:0:
280,157,53512,5,0,0:0:0:0:
222,215,53702,1,0,0:0:0:0:
251,145,53892,1,0,0:0:0:0:
251,227,54082,1,0,0:0:0:0:
222,157,54272,1,0,0:0:0:0:
280,215,54462,1,0,0:0:0:0:
280,157,54652,1,0,0:0:0:0:
222,215,54842,1,0,0:0:0:0:
251,145,55031,5,0,0:0:0:0:
193,169,55221,1,0,0:0:0:0:
251,227,55411,1,0,0:0:0:0:
310,203,55601,1,0,0:0:0:0:
219,146,55791,5,0,0:0:0:0:
243,205,55981,1,0,0:0:0:0:
284,226,56170,1,0,0:0:0:0:
259,167,56360,1,0,0:0:0:0:
182,238,56550,5,0,0:0:0:0:
310,203,56740,1,0,0:0:0:0:
320,134,56930,1,0,0:0:0:0:
193,169,57120,1,0,0:0:0:0:
284,236,57310,5,0,0:0:0:0:
218,135,57499,1,0,0:0:0:0:
218,236,57689,1,0,0:0:0:0:
284,135,57878,1,0,0:0:0:0:
193,203,58069,5,0,0:0:0:0:
310,169,58259,1,0,0:0:0:0:
218,135,58449,1,0,0:0:0:0:
251,238,58639,1,0,0:0:0:0:
284,135,58828,5,0,0:0:0:0:
193,203,59018,1,0,0:0:0:0:
310,169,59208,1,0,0:0:0:0:
193,169,59398,1,0,0:0:0:0:
310,203,59588,5,0,0:0:0:0:
251,149,59778,1,0,0:0:0:0:
193,203,59968,1,0,0:0:0:0:
251,149,60158,1,0,0:0:0:0:
310,203,60348,5,0,0:0:0:0:
251,149,60538,1,0,0:0:0:0:
193,203,60728,1,0,0:0:0:0:
251,149,60918,1,0,0:0:0:0:
251,238,61107,5,0,0:0:0:0:
320,186,61487,1,0,0:0:0:0:
182,186,61677,5,0,0:0:0:0:
320,134,62056,1,0,0:0:0:0:
182,134,62436,1,0,0:0:0:0:
320,238,62816,1,0,0:0:0:0:
182,238,63196,1,0,0:0:0:0:
320,134,63575,5,0,0:0:0:0:
182,185,63765,1,0,0:0:0:0:
320,238,63955,1,0,0:0:0:0:
182,134,64145,5,0,0:0:0:0:
320,238,64335,1,0,0:0:0:0:
182,134,64525,5,0,0:0:0:0:
320,238,64715,1,0,0:0:0:0:
182,134,64904,5,0,0:0:0:0:
320,238,65094,1,0,0:0:0:0:
182,134,65284,5,0,0:0:0:0:
320,238,65474,1,0,0:0:0:0:
182,134,65854,5,0,0:0:0:0:
320,238,66044,1,0,0:0:0:0:
182,134,66234,1,0,0:0:0:0:
320,238,66613,1,0,0:0:0:0:
182,238,67183,5,0,0:0:0:0:
320,134,67373,1,0,0:0:0:0:
182,238,67563,5,0,0:0:0:0:
320,134,67753,1,0,0:0:0:0:
182,238,67942,5,0,0:0:0:0:
320,134,68132,1,0,0:0:0:0:
182,238,68322,5,0,0:0:0:0:
320,134,68512,1,0,0:0:0:0:
182,238,68702,5,0,0:0:0:0:
320,134,68892,1,0,0:0:0:0:
182,238,69082,5,0,0:0:0:0:
320,134,69272,1,0,0:0:0:0:
182,238,69461,5,0,0:0:0:0:
320,134,69651,1,0,0:0:0:0:
182,238,69841,5,0,0:0:0:0:
320,134,70031,1,0,0:0:0:0:
182,238,70221,5,0,0:0:0:0:
320,134,70411,1,0,0:0:0:0:
182,238,70601,5,0,0:0:0:0:
320,134,70791,1,0,0:0:0:0:
182,238,70980,5,0,0:0:0:0:
320,134,71170,1,0,0:0:0:0:
182,238,71360,5,0,0:0:0:0:
320,134,71550,1,0,0:0:0:0:
182,238,71740,5,0,0:0:0:0:
320,134,71930,1,0,0:0:0:0:
182,238,72120,5,0,0:0:0:0:
320,134,72310,1,0,0:0:0:0:
182,238,72499,5,0,0:0:0:0:
320,134,72689,1,0,0:0:0:0:
182,238,72879,5,0,0:0:0:0:
320,134,73069,1,0,0:0:0:0:
320,238,73259,5,0,0:0:0:0:
182,134,73449,1,0,0:0:0:0:
320,238,73639,5,0,0:0:0:0:
182,134,73829,1,0,0:0:0:0:
320,238,74018,5,0,0:0:0:0:
182,134,74208,1,0,0:0:0:0:
320,238,74398,5,0,0:0:0:0:
182,134,74588,1,0,0:0:0:0:
320,238,74778,5,0,0:0:0:0:
182,134,74968,1,0,0:0:0:0:
320,238,75158,5,0,0:0:0:0:
182,134,75348,1,0,0:0:0:0:
320,238,75537,5,0,0:0:0:0:
182,134,75727,1,0,0:0:0:0:
320,238,75917,5,0,0:0:0:0:
182,134,76107,1,0,0:0:0:0:
320,238,76297,5,0,0:0:0:0:
182,134,76487,1,0,0:0:0:0:
320,238,76677,5,0,0:0:0:0:
182,134,76867,1,0,0:0:0:0:
320,238,77056,5,0,0:0:0:0:
182,134,77246,1,0,0:0:0:0:
320,238,77436,5,0,0:0:0:0:
182,134,77626,1,0,0:0:0:0:
320,238,77816,5,0,0:0:0:0:
182,134,78006,1,0,0:0:0:0:
320,238,78196,5,0,0:0:0:0:
182,134,78386,1,0,0:0:0:0:
320,238,78575,5,0,0:0:0:0:
182,134,78765,1,0,0:0:0:0:
320,238,78955,5,0,0:0:0:0:
182,134,79145,1,0,0:0:0:0:
182,238,79335,5,0,0:0:0:0:
320,134,79525,1,0,0:0:0:0:
182,238,79715,5,0,0:0:0:0:
320,134,79905,1,0,0:0:0:0:
182,238,80094,5,0,0:0:0:0:
320,134,80284,1,0,0:0:0:0:
182,238,80474,5,0,0:0:0:0:
320,134,80664,1,0,0:0:0:0:
182,238,80854,5,0,0:0:0:0:
320,134,81044,1,0,0:0:0:0:
182,238,81234,5,0,0:0:0:0:
320,134,81424,1,0,0:0:0:0:
182,238,81613,5,0,0:0:0:0:
320,134,81803,1,0,0:0:0:0:
182,238,81993,5,0,0:0:0:0:
320,134,82183,1,0,0:0:0:0:
182,238,82373,5,0,0:0:0:0:
320,134,82563,1,0,0:0:0:0:
182,238,82753,5,0,0:0:0:0:
320,134,82943,1,0,0:0:0:0:
182,238,83132,5,0,0:0:0:0:
320,134,83322,1,0,0:0:0:0:
182,238,83512,5,0,0:0:0:0:
320,134,83702,1,0,0:0:0:0:
182,238,83892,5,0,0:0:0:0:
320,134,84082,1,0,0:0:0:0:
182,238,84272,5,0,0:0:0:0:
320,134,84462,1,0,0:0:0:0:
182,238,84651,5,0,0:0:0:0:
320,134,84841,1,0,0:0:0:0:
182,238,85031,5,0,0:0:0:0:
320,134,85221,1,0,0:0:0:0:
320,238,85411,5,0,0:0:0:0:
182,134,85601,1,0,0:0:0:0:
320,238,85791,5,0,0:0:0:0:
182,134,85981,1,0,0:0:0:0:
320,238,86170,5,0,0:0:0:0:
182,134,86360,1,0,0:0:0:0:
320,238,86550,5,0,0:0:0:0:
182,134,86740,1,0,0:0:0:0:
320,238,86930,5,0,0:0:0:0:
182,134,87120,1,0,0:0:0:0:
320,238,87310,5,0,0:0:0:0:
182,134,87500,1,0,0:0:0:0:
320,238,87689,5,0,0:0:0:0:
182,134,87879,1,0,0:0:0:0:
320,238,88069,5,0,0:0:0:0:
182,134,88259,1,0,0:0:0:0:
320,238,88449,5,0,0:0:0:0:
182,134,88639,1,0,0:0:0:0:
320,238,88829,5,0,0:0:0:0:
182,134,89019,1,0,0:0:0:0:
320,238,89208,5,0,0:0:0:0:
182,134,89398,1,0,0:0:0:0:
320,238,89588,5,0,0:0:0:0:
182,134,89778,1,0,0:0:0:0:
320,238,89968,5,0,0:0:0:0:
182,134,90158,1,0,0:0:0:0:
320,238,90348,5,0,0:0:0:0:
182,134,90538,1,0,0:0:0:0:
320,238,90727,5,0,0:0:0:0:
182,134,90917,1,0,0:0:0:0:
320,238,91107,5,0,0:0:0:0:
182,134,91297,1,0,0:0:0:0:
320,238,91487,5,0,0:0:0:0:
320,134,91677,1,0,0:0:0:0:
182,134,91866,1,0,0:0:0:0:
182,238,92056,1,0,0:0:0:0:
320,134,92436,5,0,0:0:0:0:
182,238,92626,1,0,0:0:0:0:
320,134,92816,1,0,0:0:0:0:
320,238,93196,5,0,0:0:0:0:
182,134,93386,1,0,0:0:0:0:
320,238,93576,1,0,0:0:0:0:
182,238,93955,5,0,0:0:0:0:
320,134,94145,1,0,0:0:0:0:
182,238,94335,1,0,0:0:0:0:
320,134,94525,1,0,0:0:0:0:
182,134,94904,5,0,0:0:0:0:
320,238,95094,1,0,0:0:0:0:
182,134,95474,5,0,0:0:0:0:
320,238,95664,1,0,0:0:0:0:
182,134,95854,1,0,0:0:0:0:
320,238,96234,5,0,0:0:0:0:
182,134,96423,1,0,0:0:0:0:
320,238,96613,1,0,0:0:0:0:
320,134,96993,5,0,0:0:0:0:
182,238,97183,1,0,0:0:0:0:
320,134,97373,1,0,0:0:0:0:
182,238,97563,1,0,0:0:0:0:
256,192,97586,12,0,97610,0:0:0:0:
