osu file format v14

[General]
AudioFilename: audio.mp3
AudioLeadIn: 0
PreviewTime: 66613
Countdown: 0
SampleSet: None
StackLeniency: 0.2
Mode: 2
LetterboxInBreaks: 0
WidescreenStoryboard: 1

[Editor]
DistanceSpacing: 0.7
BeatDivisor: 4
GridSize: 4
TimelineZoom: 1

[Metadata]
Title:Natsukoi Hanabi
TitleUnicode:夏恋花火
Artist:chano & 40mP
ArtistUnicode:シャノ & 40mP
Creator:Monstrata
Version:Overdose
Source:Naruto
Tags:FREE PP I LOVE ANIME naruto sasuke i want to be the next hokage www.ppfarms.osu
BeatmapID:1415890
BeatmapSetID:669412

[Difficulty]
HPDrainRate:0
CircleSize:4
OverallDifficulty:10
ApproachRate:9
SliderMultiplier:0.400000005960464
SliderTickRate:1

[Events]
//Background and Video events
0,0,"wc1783066.jpg",0,0
//Break Periods
//Storyboard Layer 0 (Background)
//Storyboard Layer 1 (Fail)
//Storyboard Layer 2 (Pass)
//Storyboard Layer 3 (Foreground)
//Storyboard Sound Samples

[TimingPoints]
348,379.746835443038,4,2,0,60,1,0
348,-2E+47,4,2,0,60,0,0

[Colours]
Combo1 : 0,0,255
Combo2 : 255,128,0

[HitObjects]
130,96,348,5,0,0:0:0:0:
253,188,537,1,0,0:0:0:0:
376,96,727,1,0,0:0:0:0:
130,280,917,5,0,0:0:0:0:
376,280,1297,1,0,0:0:0:0:
130,96,1677,1,0,0:0:0:0:
376,96,2056,1,0,0:0:0:0:
130,280,2436,1,0,0:0:0:0:
376,280,2816,1,0,0:0:0:0:
130,96,3385,5,0,0:0:0:0:
253,188,3574,1,0,0:0:0:0:
376,96,3764,1,0,0:0:0:0:
130,280,3954,5,0,0:0:0:0:
376,280,4334,1,0,0:0:0:0:
130,96,4714,1,0,0:0:0:0:
376,96,5093,1,0,0:0:0:0:
130,280,5473,1,0,0:0:0:0:
376,280,5853,1,0,0:0:0:0:
253,188,6044,1,0,0:0:0:0:
196,243,6423,5,0,0:0:0:0:
311,243,6613,1,0,0:0:0:0:
253,96,6803,1,0,0:0:0:0:
253,280,6993,5,0,0:0:0:0:
376,96,7373,1,0,0:0:0:0:
130,96,7753,1,0,0:0:0:0:
130,280,8132,1,0,0:0:0:0:
376,280,8512,1,0,0:0:0:0:
376,96,8892,1,0,0:0:0:0:
130,96,9272,1,0,0:0:0:0:
376,280,9461,5,0,0:0:0:0:
130,96,9841,1,0,0:0:0:0:
144,141,9936,1,0,0:0:0:0:
157,188,10031,5,0,0:0:0:0:
349,188,10411,1,0,0:0:0:0:
144,141,10791,1,0,0:0:0:0:
363,141,11170,5,0,0:0:0:0:
130,96,11360,1,0,0:0:0:0:
376,96,11550,1,0,0:0:0:0:
376,280,11930,5,0,0:0:0:0:
130,96,12120,1,0,0:0:0:0:
130,96,12499,5,0,0:0:0:0:
353,147,12689,1,0,0:0:0:0:
153,228,12879,1,0,0:0:0:0:
376,280,13069,1,0,0:0:0:0:
130,96,13449,5,0,0:0:0:0:
153,228,13639,1,0,0:0:0:0:
376,280,13829,1,0,0:0:0:0:
130,96,14209,5,0,0:0:0:0:
353,147,14398,1,0,0:0:0:0:
376,280,14588,1,0,0:0:0:0:
376,280,14968,5,0,0:0:0:0:
130,96,15158,1,0,0:0:0:0:
153,147,15348,1,0,0:0:0:0:
376,96,15537,5,0,0:0:0:0:
130,280,15727,1,0,0:0:0:0:
353,228,15917,1,0,0:0:0:0:
153,147,16107,1,0,0:0:0:0:
376,96,16487,5,0,0:0:0:0:
253,226,16677,1,0,0:0:0:0:
130,96,16866,1,0,0:0:0:0:
130,96,17246,5,0,0:0:0:0:
253,280,17436,1,0,0:0:0:0:
376,96,17626,1,0,0:0:0:0:
253,157,17721,1,0,0:0:0:0:
130,218,17816,1,0,0:0:0:0:
376,218,18006,1,0,0:0:0:0:
130,96,18196,1,0,0:0:0:0:
130,96,18575,5,0,0:0:0:0:
376,280,18765,1,0,0:0:0:0:
130,96,18955,5,0,0:0:0:0:
376,280,19145,1,0,0:0:0:0:
130,96,19335,5,0,0:0:0:0:
376,280,19525,1,0,0:0:0:0:
130,96,19715,5,0,0:0:0:0:
376,280,19905,1,0,0:0:0:0:
376,96,20094,5,0,0:0:0:0:
130,280,20284,1,0,0:0:0:0:
376,96,20474,5,0,0:0:0:0:
130,280,20664,1,0,0:0:0:0:
376,96,20854,5,0,0:0:0:0:
130,280,21044,1,0,0:0:0:0:
376,96,21234,5,0,0:0:0:0:
130,280,21424,1,0,0:0:0:0:
130,96,21613,5,0,0:0:0:0:
376,280,21803,1,0,0:0:0:0:
130,96,21993,5,0,0:0:0:0:
376,280,22183,1,0,0:0:0:0:
130,96,22373,5,0,0:0:0:0:
376,280,22563,1,0,0:0:0:0:
130,96,22753,5,0,0:0:0:0:
376,280,22943,1,0,0:0:0:0:
376,96,23322,5,0,0:0:0:0:
130,280,23512,1,0,0:0:0:0:
376,96,23702,1,0,0:0:0:0:
130,280,23892,1,0,0:0:0:0:
376,96,24082,1,0,0:0:0:0:
130,280,24272,5,0,0:0:0:0:
205,126,24366,1,0,0:0:0:0:
376,96,24461,1,0,0:0:0:0:
301,249,24556,1,0,0:0:0:0:
130,280,24651,1,0,0:0:0:0:
376,96,25031,5,0,0:0:0:0:
130,280,25221,1,0,0:0:0:0:
376,96,25411,5,0,0:0:0:0:
130,280,25601,1,0,0:0:0:0:
376,96,25791,5,0,0:0:0:0:
130,280,25981,1,0,0:0:0:0:
130,280,26360,5,0,0:0:0:0:
191,144,26550,1,0,0:0:0:0:
278,265,26740,1,0,0:0:0:0:
376,96,27120,5,0,0:0:0:0:
316,232,27310,1,0,0:0:0:0:
228,111,27500,1,0,0:0:0:0:
168,247,27689,1,0,0:0:0:0:
316,232,28449,5,0,0:0:0:0:
228,111,28639,1,0,0:0:0:0:
168,247,28828,1,0,0:0:0:0:
316,232,29018,1,0,0:0:0:0:
130,96,29208,5,0,0:0:0:0:
130,96,30158,5,0,0:0:0:0:
376,280,30348,1,0,0:0:0:0:
130,188,30727,5,0,0:0:0:0:
376,188,31107,5,0,0:0:0:0:
130,188,31297,1,0,0:0:0:0:
376,149,31487,1,0,0:0:0:0:
130,149,31677,1,0,0:0:0:0:
376,226,31866,1,0,0:0:0:0:
130,226,32056,1,0,0:0:0:0:
130,226,32436,5,0,0:0:0:0:
376,149,32626,1,0,0:0:0:0:
130,280,32816,1,0,0:0:0:0:
130,280,33196,5,0,0:0:0:0:
376,96,33385,1,0,0:0:0:0:
376,96,33765,5,0,0:0:0:0:
130,96,33955,1,0,0:0:0:0:
130,280,34145,1,0,0:0:0:0:
376,280,34335,1,0,0:0:0:0:
130,96,34525,5,0,0:0:0:0:
130,280,34715,1,0,0:0:0:0:
376,96,34904,1,0,0:0:0:0:
376,280,35094,1,0,0:0:0:0:
253,96,35284,5,0,0:0:0:0:
253,280,35474,1,0,0:0:0:0:
345,188,35664,1,0,0:0:0:0:
161,188,35854,1,0,0:0:0:0:
318,122,36044,5,0,0:0:0:0:
188,253,36234,1,0,0:0:0:0:
318,253,36424,1,0,0:0:0:0:
188,122,36614,1,0,0:0:0:0:
376,280,36803,5,0,0:0:0:0:
130,96,36993,1,0,0:0:0:0:
130,280,37183,5,0,0:0:0:0:
376,96,37373,1,0,0:0:0:0:
376,280,37563,5,0,0:0:0:0:
130,96,37753,1,0,0:0:0:0:
130,280,37943,5,0,0:0:0:0:
376,96,38133,1,0,0:0:0:0:
376,96,38512,5,0,0:0:0:0:
130,280,38702,1,0,0:0:0:0:
376,96,38892,1,0,0:0:0:0:
130,280,39272,5,0,0:0:0:0:
376,96,39462,1,0,0:0:0:0:
376,96,39841,5,0,0:0:0:0:
376,96,40601,5,0,0:0:0:0:
220,134,40791,1,0,0:0:0:0:
130,280,40980,1,0,0:0:0:0:
286,241,41170,1,0,0:0:0:0:
130,96,41360,5,0,0:0:0:0:
130,96,42310,5,0,0:0:0:0:
376,280,42499,1,0,0:0:0:0:
130,96,42879,5,0,0:0:0:0:
253,280,43068,1,0,0:0:0:0:
376,96,43259,1,0,0:0:0:0:
161,188,43449,1,0,0:0:0:0:
376,280,43639,1,0,0:0:0:0:
253,96,43827,1,0,0:0:0:0:
130,280,44018,1,0,0:0:0:0:
376,96,44208,1,0,0:0:0:0:
130,280,44588,5,0,0:0:0:0:
376,96,44778,1,0,0:0:0:0:
130,280,44968,1,0,0:0:0:0:
130,280,45348,5,0,0:0:0:0:
376,188,45537,1,0,0:0:0:0:
130,96,45726,1,0,0:0:0:0:
376,280,45917,5,0,0:0:0:0:
376,96,46107,1,0,0:0:0:0:
130,280,46297,1,0,0:0:0:0:
130,96,46487,1,0,0:0:0:0:
376,280,46677,5,0,0:0:0:0:
376,96,46867,1,0,0:0:0:0:
130,280,47057,1,0,0:0:0:0:
130,96,47247,1,0,0:0:0:0:
376,280,47436,5,0,0:0:0:0:
376,96,47626,1,0,0:0:0:0:
130,280,47816,1,0,0:0:0:0:
130,96,48006,1,0,0:0:0:0:
376,280,48196,5,0,0:0:0:0:
376,96,48386,1,0,0:0:0:0:
130,280,48576,1,0,0:0:0:0:
130,96,48766,1,0,0:0:0:0:
376,280,48955,5,0,0:0:0:0:
130,96,49145,1,0,0:0:0:0:
376,280,49335,5,0,0:0:0:0:
130,96,49525,1,0,0:0:0:0:
376,280,49715,5,0,0:0:0:0:
130,96,49905,1,0,0:0:0:0:
376,280,50094,5,0,0:0:0:0:
130,96,50284,1,0,0:0:0:0:
130,280,50664,1,0,0:0:0:0:
376,96,50854,5,0,0:0:0:0:
130,280,51044,1,0,0:0:0:0:
376,96,51234,5,0,0:0:0:0:
130,280,51423,1,0,0:0:0:0:
376,96,51613,5,0,0:0:0:0:
130,280,51803,1,0,0:0:0:0:
376,96,51993,5,0,0:0:0:0:
180,188,52373,5,0,0:0:0:0:
326,188,52563,1,0,0:0:0:0:
253,115,52753,1,0,0:0:0:0:
253,261,52943,1,0,0:0:0:0:
201,136,53132,1,0,0:0:0:0:
304,239,53322,1,0,0:0:0:0:
304,136,53512,5,0,0:0:0:0:
201,239,53702,1,0,0:0:0:0:
253,115,53892,1,0,0:0:0:0:
253,261,54082,1,0,0:0:0:0:
201,136,54272,1,0,0:0:0:0:
304,239,54462,1,0,0:0:0:0:
304,136,54652,1,0,0:0:0:0:
201,239,54842,1,0,0:0:0:0:
253,115,55031,5,0,0:0:0:0:
149,157,55221,1,0,0:0:0:0:
253,261,55411,1,0,0:0:0:0:
357,218,55601,1,0,0:0:0:0:
196,117,55791,5,0,0:0:0:0:
238,221,55981,1,0,0:0:0:0:
311,259,56170,1,0,0:0:0:0:
268,155,56360,1,0,0:0:0:0:
130,280,56550,5,0,0:0:0:0:
357,218,56740,1,0,0:0:0:0:
376,96,56930,1,0,0:0:0:0:
149,157,57120,1,0,0:0:0:0:
312,278,57310,5,0,0:0:0:0:
194,97,57499,1,0,0:0:0:0:
194,278,57689,1,0,0:0:0:0:
312,97,57878,1,0,0:0:0:0:
149,218,58069,5,0,0:0:0:0:
357,157,58259,1,0,0:0:0:0:
194,97,58449,1,0,0:0:0:0:
253,280,58639,1,0,0:0:0:0:
312,97,58828,5,0,0:0:0:0:
149,218,59018,1,0,0:0:0:0:
357,157,59208,1,0,0:0:0:0:
149,157,59398,1,0,0:0:0:0:
357,218,59588,5,0,0:0:0:0:
253,122,59778,1,0,0:0:0:0:
149,218,59968,1,0,0:0:0:0:
253,122,60158,1,0,0:0:0:0:
357,218,60348,5,0,0:0:0:0:
253,122,60538,1,0,0:0:0:0:
149,218,60728,1,0,0:0:0:0:
253,122,60918,1,0,0:0:0:0:
253,280,61107,5,0,0:0:0:0:
376,188,61487,1,0,0:0:0:0:
130,188,61677,5,0,0:0:0:0:
376,96,62056,1,0,0:0:0:0:
130,96,62436,1,0,0:0:0:0:
376,280,62816,1,0,0:0:0:0:
130,280,63196,1,0,0:0:0:0:
376,96,63575,5,0,0:0:0:0:
130,185,63765,1,0,0:0:0:0:
376,280,63955,1,0,0:0:0:0:
130,96,64145,5,0,0:0:0:0:
376,280,64335,1,0,0:0:0:0:
130,96,64525,5,0,0:0:0:0:
376,280,64715,1,0,0:0:0:0:
130,96,64904,5,0,0:0:0:0:
376,280,65094,1,0,0:0:0:0:
130,96,65284,5,0,0:0:0:0:
376,280,65474,1,0,0:0:0:0:
130,96,65854,5,0,0:0:0:0:
376,280,66044,1,0,0:0:0:0:
130,96,66234,1,0,0:0:0:0:
376,280,66613,1,0,0:0:0:0:
130,280,67183,5,0,0:0:0:0:
376,96,67373,1,0,0:0:0:0:
130,280,67563,5,0,0:0:0:0:
376,96,67753,1,0,0:0:0:0:
130,280,67942,5,0,0:0:0:0:
376,96,68132,1,0,0:0:0:0:
130,280,68322,5,0,0:0:0:0:
376,96,68512,1,0,0:0:0:0:
130,280,68702,5,0,0:0:0:0:
376,96,68892,1,0,0:0:0:0:
130,280,69082,5,0,0:0:0:0:
376,96,69272,1,0,0:0:0:0:
130,280,69461,5,0,0:0:0:0:
376,96,69651,1,0,0:0:0:0:
130,280,69841,5,0,0:0:0:0:
376,96,70031,1,0,0:0:0:0:
130,280,70221,5,0,0:0:0:0:
376,96,70411,1,0,0:0:0:0:
130,280,70601,5,0,0:0:0:0:
376,96,70791,1,0,0:0:0:0:
130,280,70980,5,0,0:0:0:0:
376,96,71170,1,0,0:0:0:0:
130,280,71360,5,0,0:0:0:0:
376,96,71550,1,0,0:0:0:0:
130,280,71740,5,0,0:0:0:0:
376,96,71930,1,0,0:0:0:0:
130,280,72120,5,0,0:0:0:0:
376,96,72310,1,0,0:0:0:0:
130,280,72499,5,0,0:0:0:0:
376,96,72689,1,0,0:0:0:0:
130,280,72879,5,0,0:0:0:0:
376,96,73069,1,0,0:0:0:0:
376,280,73259,5,0,0:0:0:0:
130,96,73449,1,0,0:0:0:0:
376,280,73639,5,0,0:0:0:0:
130,96,73829,1,0,0:0:0:0:
376,280,74018,5,0,0:0:0:0:
130,96,74208,1,0,0:0:0:0:
376,280,74398,5,0,0:0:0:0:
130,96,74588,1,0,0:0:0:0:
376,280,74778,5,0,0:0:0:0:
130,96,74968,1,0,0:0:0:0:
376,280,75158,5,0,0:0:0:0:
130,96,75348,1,0,0:0:0:0:
376,280,75537,5,0,0:0:0:0:
130,96,75727,1,0,0:0:0:0:
376,280,75917,5,0,0:0:0:0:
130,96,76107,1,0,0:0:0:0:
376,280,76297,5,0,0:0:0:0:
130,96,76487,1,0,0:0:0:0:
376,280,76677,5,0,0:0:0:0:
130,96,76867,1,0,0:0:0:0:
376,280,77056,5,0,0:0:0:0:
130,96,77246,1,0,0:0:0:0:
376,280,77436,5,0,0:0:0:0:
130,96,77626,1,0,0:0:0:0:
376,280,77816,5,0,0:0:0:0:
130,96,78006,1,0,0:0:0:0:
376,280,78196,5,0,0:0:0:0:
130,96,78386,1,0,0:0:0:0:
376,280,78575,5,0,0:0:0:0:
130,96,78765,1,0,0:0:0:0:
376,280,78955,5,0,0:0:0:0:
130,96,79145,1,0,0:0:0:0:
130,280,79335,5,0,0:0:0:0:
376,96,79525,1,0,0:0:0:0:
130,280,79715,5,0,0:0:0:0:
376,96,79905,1,0,0:0:0:0:
130,280,80094,5,0,0:0:0:0:
376,96,80284,1,0,0:0:0:0:
130,280,80474,5,0,0:0:0:0:
376,96,80664,1,0,0:0:0:0:
130,280,80854,5,0,0:0:0:0:
376,96,81044,1,0,0:0:0:0:
130,280,81234,5,0,0:0:0:0:
376,96,81424,1,0,0:0:0:0:
130,280,81613,5,0,0:0:0:0:
376,96,81803,1,0,0:0:0:0:
130,280,81993,5,0,0:0:0:0:
376,96,82183,1,0,0:0:0:0:
130,280,82373,5,0,0:0:0:0:
376,96,82563,1,0,0:0:0:0:
130,280,82753,5,0,0:0:0:0:
376,96,82943,1,0,0:0:0:0:
130,280,83132,5,0,0:0:0:0:
376,96,83322,1,0,0:0:0:0:
130,280,83512,5,0,0:0:0:0:
376,96,83702,1,0,0:0:0:0:
130,280,83892,5,0,0:0:0:0:
376,96,84082,1,0,0:0:0:0:
130,280,84272,5,0,0:0:0:0:
376,96,84462,1,0,0:0:0:0:
130,280,84651,5,0,0:0:0:0:
376,96,84841,1,0,0:0:0:0:
130,280,85031,5,0,0:0:0:0:
376,96,85221,1,0,0:0:0:0:
376,280,85411,5,0,0:0:0:0:
130,96,85601,1,0,0:0:0:0:
376,280,85791,5,0,0:0:0:0:
130,96,85981,1,0,0:0:0:0:
376,280,86170,5,0,0:0:0:0:
130,96,86360,1,0,0:0:0:0:
376,280,86550,5,0,0:0:0:0:
130,96,86740,1,0,0:0:0:0:
376,280,86930,5,0,0:0:0:0:
130,96,87120,1,0,0:0:0:0:
376,280,87310,5,0,0:0:0:0:
130,96,87500,1,0,0:0:0:0:
376,280,87689,5,0,0:0:0:0:
130,96,87879,1,0,0:0:0:0:
376,280,88069,5,0,0:0:0:0:
130,96,88259,1,0,0:0:0:0:
376,280,88449,5,0,0:0:0:0:
130,96,88639,1,0,0:0:0:0:
376,280,88829,5,0,0:0:0:0:
130,96,89019,1,0,0:0:0:0:
376,280,89208,5,0,0:0:0:0:
130,96,89398,1,0,0:0:0:0:
376,280,89588,5,0,0:0:0:0:
130,96,89778,1,0,0:0:0:0:
376,280,89968,5,0,0:0:0:0:
130,96,90158,1,0,0:0:0:0:
376,280,90348,5,0,0:0:0:0:
130,96,90538,1,0,0:0:0:0:
376,280,90727,5,0,0:0:0:0:
130,96,90917,1,0,0:0:0:0:
376,280,91107,5,0,0:0:0:0:
130,96,91297,1,0,0:0:0:0:
376,280,91487,5,0,0:0:0:0:
376,96,91677,1,0,0:0:0:0:
130,96,91866,1,0,0:0:0:0:
130,280,92056,1,0,0:0:0:0:
376,96,92436,5,0,0:0:0:0:
130,280,92626,1,0,0:0:0:0:
376,96,92816,1,0,0:0:0:0:
376,280,93196,5,0,0:0:0:0:
130,96,93386,1,0,0:0:0:0:
376,280,93576,1,0,0:0:0:0:
130,280,93955,5,0,0:0:0:0:
376,96,94145,1,0,0:0:0:0:
130,280,94335,1,0,0:0:0:0:
376,96,94525,1,0,0:0:0:0:
130,96,94904,5,0,0:0:0:0:
376,280,95094,1,0,0:0:0:0:
130,96,95474,5,0,0:0:0:0:
376,280,95664,1,0,0:0:0:0:
130,96,95854,1,0,0:0:0:0:
376,280,96234,5,0,0:0:0:0:
130,96,96423,1,0,0:0:0:0:
376,280,96613,1,0,0:0:0:0:
376,96,96993,5,0,0:0:0:0:
130,280,97183,1,0,0:0:0:0:
376,96,97373,1,0,0:0:0:0:
130,280,97563,1,0,0:0:0:0:
256,192,97586,12,0,97610,0:0:0:0:
