osu file format v14

[General]
AudioFilename: audio.mp3
AudioLeadIn: 0
PreviewTime: 63
Countdown: 0
SampleSet: Soft
StackLeniency: 0.2
Mode: 0
LetterboxInBreaks: 0
WidescreenStoryboard: 1

[Editor]
DistanceSpacing: 1
BeatDivisor: 4
GridSize: 32
TimelineZoom: 1.7

[Metadata]
Title:Natsukoi Hanabi
TitleUnicode:夏恋花火
Artist:chano & 40mP
ArtistUnicode:シャノ & 40mP
Creator:Lasse
Version:VINXIS' Insane
Source:
Tags:Shano 40meterP Panorama Note VINXIS Bonsai deetz
BeatmapID:1383927
BeatmapSetID:650427

[Difficulty]
HPDrainRate:6
CircleSize:4
OverallDifficulty:7
ApproachRate:8
SliderMultiplier:1.7
SliderTickRate:1

[Events]
//Background and Video events
0,0,"a.jpg",0,0
//Break Periods
//Storyboard Layer 0 (Background)
//Storyboard Layer 1 (Fail)
//Storyboard Layer 2 (Pass)
//Storyboard Layer 3 (Foreground)
//Storyboard Sound Samples

[TimingPoints]
348,379.746835443038,4,2,0,80,1,0

[Colours]
Combo1 : 250,210,110
Combo2 : 250,110,110
Combo3 : 250,170,110
Combo4 : 250,130,190

[HitObjects]
143,247,348,6,0,P|138:307|147:352,2,85,2|0|0,0:0|0:0|0:0,0:0:0:0:
218,83,917,1,0,0:0:0:0:
187,98,1297,1,0,0:0:0:0:
156,113,1677,1,0,0:0:0:0:
125,128,2056,1,0,0:0:0:0:
94,143,2436,1,0,0:0:0:0:
63,158,2816,1,0,0:0:0:0:
369,247,3385,6,0,P|374:307|365:352,2,85,2|0|0,0:0|0:0|0:0,0:0:0:0:
294,83,3955,1,0,0:0:0:0:
325,98,4335,1,0,0:0:0:0:
356,113,4715,1,2,0:0:0:0:
387,98,5094,1,0,0:0:0:0:
418,83,5474,1,0,0:0:0:0:
369,247,5854,1,2,0:0:0:0:
256,93,6423,6,0,L|256:8,2,85,2|0|0,0:0|0:0|0:0,0:0:0:0:
256,295,6993,1,0,0:0:0:0:
256,338,7373,1,0,0:0:0:0:
96,192,7753,5,2,0:0:0:0:
416,272,8132,1,0,0:0:0:0:
96,80,8512,5,2,0:0:0:0:
416,0,8892,1,0,0:0:0:0:
299,105,9272,1,0,0:0:0:0:
245,42,9461,6,0,P|144:45|32:0,1,212.5,2|0,0:0|0:0,0:0:0:0:
41,5,10031,2,0,P|28:64|12:108,1,85,2|0,0:0|0:0,0:0:0:0:
210,263,10411,2,0,P|223:204|239:160,1,85,2|0,0:0|0:0,0:0:0:0:
413,41,10791,6,0,B|371:53|325:42|325:42|284:32|243:42,1,170,2|0,0:0|0:0,0:0:0:0:
503,369,11550,2,0,P|469:292|480:209,1,170,2|0,0:0|0:0,0:0:0:0:
480,209,12499,6,0,P|484:262|481:305,2,85,6|0|2,0:0|0:0|0:1,0:0:0:0:
158,65,13069,2,0,L|74:47,1,85,2|0,0:1|0:0,0:0:0:0:
315,149,13449,2,0,L|398:131,1,85,2|0,0:1|0:0,0:0:0:0:
124,184,13829,2,0,L|77:255,1,85,2|0,0:1|0:0,0:0:0:0:
359,352,14208,2,0,L|312:280,1,85,2|0,0:1|0:0,0:0:0:0:
230,180,14588,6,0,P|234:115|247:69,1,85,2|0,0:1|0:0,0:0:0:0:
230,180,14968,2,2,P|347:184|404:222,1,170,2|0,0:1|0:0,0:1:0:0:
438,288,15537,6,0,P|440:344|434:390,2,85,2|0|2,0:1|0:0|0:1,0:0:0:0:
118,164,16107,2,0,L|220:144,1,85,2|0,0:1|0:0,0:0:0:0:
240,355,16487,2,0,L|138:335,1,85,2|0,0:1|0:0,0:0:0:0:
331,105,16866,2,0,L|429:130,1,85,2|0,0:1|0:0,0:0:0:0:
352,329,17246,2,0,L|324:219,1,85,2|0,0:1|0:0,0:0:0:0:
290,12,17626,6,2,P|259:60|267:185,1,170,2|0,0:1|0:0,0:1:0:0:
331,246,18196,2,2,P|372:255|416:253,1,85,2|0,0:0|0:0,0:1:0:0:
188,295,18575,6,0,L|-4:271,1,170,6|0,0:0|0:0,0:0:0:0:
0,56,19145,1,0,0:0:0:0:
19,138,19335,5,2,0:1:0:0:
90,184,19525,1,2,0:1:0:0:
174,178,19715,1,2,0:1:0:0:
245,132,19904,2,0,P|330:142|421:166,2,170,2|0|2,0:1|0:0|0:1,0:0:0:0:
96,288,20854,1,2,0:1:0:0:
172,337,21044,6,0,P|196:282|165:167,1,170,2|0,0:1|0:0,0:0:0:0:
119,86,21613,5,2,0:1:0:0:
351,223,21803,1,2,0:1:0:0:
350,223,22183,2,0,P|390:208|432:201,1,85,2|0,0:1|0:0,0:0:0:0:
486,333,22563,2,0,P|500:292|507:251,1,85,2|0,0:1|0:0,0:0:0:0:
404,372,22942,6,0,P|371:344|344:312,1,85,6|0,0:0|0:0,0:0:0:0:
414,62,23322,2,2,P|386:94|354:121,1,85,2|0,0:1|0:0,0:1:0:0:
266,255,23702,2,2,L|92:240,1,170,2|2,0:1|0:0,0:1:0:0:
17,198,24272,2,0,P|-1:258|7:321,1,127.5,2|0,0:0|0:0,0:0:0:0:
28,336,24651,6,6,B|98:327|98:327|126:340|126:340|200:328,1,170,6|0,0:0|0:0,0:0:0:0:
481,39,25411,1,2,0:0:0:0:
452,125,25601,1,0,0:0:0:0:
375,171,25791,1,2,0:0:0:0:
286,179,25980,6,0,B|204:195|204:195|119:179,1,170,6|0,0:0|0:0,0:0:0:0:
493,216,26740,2,0,L|471:384,1,170,2|0,0:0|0:0,0:0:0:0:
195,23,27689,5,6,0:0:0:0:
195,23,28449,6,2,P|240:30|297:27,1,85
291,116,28829,2,0,P|336:109|393:112,1,85
456,47,29208,5,2,0:0:0:0:
456,47,29398,2,0,P|463:87|457:228,1,170
52,215,30158,2,0,P|45:131|56:47,1,170
256,103,30727,6,0,L|255:276,1,170,2|0,0:0|0:0,0:0:0:0:
65,332,31297,1,2,0:0:0:0:
65,332,31487,2,0,P|118:320|165:318,2,85
181,228,32056,2,0,P|232:239|398:360,1,255,2|0,0:0|0:0,0:0:0:0:
487,342,32816,1,2,0:0:0:0:
419,179,33196,1,2,0:0:0:0:
419,179,33765,6,0,L|243:138,1,170,6|0,0:0|0:0,0:0:0:0:
152,91,34335,1,2,0:0:0:0:
152,91,34525,2,0,P|143:139|148:181,2,85
349,193,35094,2,0,P|286:247|203:240,2,170,2|0|2,0:0|0:0|0:0,0:0:0:0:
349,193,36234,2,0,P|327:110|322:26,1,170,2|0,0:0|0:0,0:0:0:0:
322,26,36803,6,0,B|415:-4|397:69|485:38,1,170,2|0,0:0|0:0,0:0:0:0:
511,206,37373,2,0,B|418:236|436:163|347:193,1,170,2|0,0:0|0:0,0:0:0:0:
266,251,37942,1,0,0:0:0:0:
186,202,38132,6,0,L|15:232,1,170,2|0,0:0|0:0,0:0:0:0:
18,231,38892,2,0,L|23:328,1,85,2|0,0:0|0:0,0:0:0:0:
324,104,39272,1,2,0:0:0:0:
324,104,39841,5,6,0:0:0:0:
324,103,40601,6,0,P|319:146|324:188,1,85
478,186,40980,2,0,P|483:143|478:101,1,85
400,272,41360,5,2,0:0:0:0:
400,272,41550,2,0,P|369:302|238:348,1,170
8,384,42310,2,0,P|74:331|155:308,1,170
235,250,42879,6,0,L|255:66,1,170,2|0,0:0|0:0,0:0:0:0:
178,9,43449,1,2,0:0:0:0:
178,8,43639,2,0,P|136:18|102:42,2,85
293,57,44208,6,0,P|354:66|461:36,1,170,2|0,0:0|0:0,0:0:0:0:
457,38,44778,1,0,0:0:0:0:
477,134,44968,2,0,P|420:141|320:208,1,170,2|2,0:0|0:0,0:0:0:0:
86,281,45917,6,0,L|273:251,1,170,6|0,0:0|0:0,0:0:0:0:
288,170,46487,1,2,0:0:0:0:
288,170,46677,2,0,P|330:178|373:177,2,85
208,108,47246,6,0,P|148:113|59:198,1,170,2|0,0:0|0:0,0:0:0:0:
321,23,48006,2,0,P|380:82|462:96,1,170,2|0,0:0|0:0,0:0:0:0:
225,344,48765,1,0,0:0:0:0:
225,344,48955,6,0,B|268:258|183:265|226:162,1,170,2|0,0:0|0:0,0:0:0:0:
300,212,49525,2,0,P|381:192|450:143,1,170,2|0,0:0|0:0,0:0:0:0:
159,305,50284,6,0,P|77:284|8:235,1,170,2|0,0:0|0:0,0:0:0:0:
0,134,50854,2,0,P|26:98|91:68,1,85,2|0,0:0|0:0,0:0:0:0:
161,59,51234,5,2,0:0:0:0:
167,67,51613,1,2,0:0:0:0:
173,75,51993,6,0,P|240:81|114:213,1,425,6|0,0:0|0:0,0:0:0:0:
116,217,53132,2,0,P|94:253|84:295,1,85,2|0,0:0|0:0,0:0:0:0:
176,354,53512,6,0,L|367:324,1,170,2|0,0:0|0:0,0:0:0:0:
322,228,54082,2,0,L|513:258,1,170,2|0,0:0|0:0,0:0:0:0:
489,254,54651,2,0,P|493:308|486:356,1,85,2|0,0:0|0:0,0:0:0:0:
256,288,55031,6,0,P|233:235|285:100,1,170,2|0,0:0|0:0,0:0:0:0:
144,0,55601,2,0,P|167:53|115:188,1,170,2|0,0:0|0:0,0:0:0:0:
44,227,56170,1,2,0:0:0:0:
114,324,56360,1,2,0:0:0:0:
114,324,56550,6,0,L|296:318,1,170,2|0,0:0|0:0,0:0:0:0:
318,221,57120,2,0,P|379:231|472:157,1,170,2|0,0:0|0:0,0:0:0:0:
480,92,57689,2,0,P|473:50|447:17,1,85,2|0,0:0|0:0,0:0:0:0:
394,85,58069,6,0,P|340:58|206:62,1,170,6|0,0:0|0:0,0:0:0:0:
144,168,58639,2,0,P|198:141|332:145,1,170,2|0,0:0|0:0,0:0:0:0:
394,85,59208,1,2,0:0:0:0:
306,29,59398,1,2,0:0:0:0:
394,85,59588,6,0,L|378:253,1,170,2|0,0:0|0:0,0:0:0:0:
259,213,60158,2,0,L|274:399,1,170,2|0,0:0|0:0,0:0:0:0:
149,356,60727,2,0,P|146:304|171:251,1,85,2|0,0:1|0:0,0:0:0:0:
114,101,61107,6,2,P|102:181|42:286,1,170,2|0,0:1|0:0,0:1:0:0:
198,9,61677,2,2,P|211:92|249:168,2,170,2|2|2,0:1|0:1|0:1,0:1:0:0:
443,233,62816,5,2,0:1:0:0:
126,333,63196,1,2,0:1:0:0:
256,188,63575,1,2,0:1:0:0:
256,188,63955,1,2,0:1:0:0:
312,100,64145,6,2,P|364:104|424:116,1,85,6|2,0:0|0:1,0:1:0:0:
381,304,64525,1,0,0:0:0:0:
200,284,64715,6,2,P|148:280|88:268,1,85,6|2,0:0|0:1,0:1:0:0:
131,80,65094,1,0,0:0:0:0:
256,188,65284,1,0,0:0:0:0:
28,360,65474,5,6,0:0:0:0:
468,104,66234,5,2,0:0:0:0:
28,360,66613,1,2,0:0:0:0:
28,360,67183,6,0,P|30:317|39:276,1,85,6|0,0:0|0:0,0:0:0:0:
274,134,67563,2,0,P|282:175|285:217,1,85
432,345,67942,2,0,P|394:363|352:371,2,85
307,34,68512,6,0,P|244:40|184:62,1,127.5,2|0,0:0|0:0,0:0:0:0:
130,125,68892,2,0,P|109:173|103:266,1,127.5,2|0,0:0|0:0,0:0:0:0:
132,324,69272,2,0,P|181:351|386:336,1,255,2|0,0:0|0:0,0:0:0:0:
61,113,70221,6,0,P|100:97|142:90,1,85,2|0,0:0|0:0,0:0:0:0:
305,170,70601,2,0,P|346:176|386:192,1,85
131,323,70980,2,0,P|126:273|132:231,2,85
479,76,71550,6,0,P|416:82|360:113,1,127.5,2|0,0:0|0:0,0:0:0:0:
300,192,71930,2,0,P|283:255|297:346,1,127.5,2|0,0:0|0:0,0:0:0:0:
408,290,72310,2,0,P|412:226|368:110,1,170,2|0,0:0|0:0,0:0:0:0:
379,126,72879,1,0,0:0:0:0:
300,192,73069,1,0,0:0:0:0:
380,127,73259,6,0,P|420:137|462:131,1,85,2|0,0:0|0:0,0:0:0:0:
230,269,73639,2,0,P|189:258|147:264,1,85
264,30,74018,2,0,P|254:71|251:113,2,85
149,133,74588,6,0,P|146:197|164:290,1,127.5,2|0,0:0|0:0,0:0:0:0:
198,345,74968,2,0,P|263:372|350:372,1,127.5,2|0,0:0|0:0,0:0:0:0:
392,331,75348,2,0,P|456:305|441:249,1,127.5,2|0,0:0|0:0,0:0:0:0:
378,207,75727,2,0,P|380:161|395:101,2,85,2|0|0,0:0|0:0|0:0,0:0:0:0:
288,107,76297,6,0,P|323:52|425:16,1,170,2|0,0:0|0:0,0:0:0:0:
183,186,76866,2,0,P|196:92|235:1,1,170
223,22,77436,2,0,P|161:35|122:33,1,85
0,107,77816,6,0,L|90:97,2,85,2|0|0,0:0|0:0|0:0,0:0:0:0:
161,65,78385,2,0,B|158:125|158:125|137:161|137:161|133:229,1,170,2|2,0:0|0:0,0:0:0:0:
133,229,79335,6,0,P|179:228|218:240,1,85,6|0,0:0|0:0,0:0:0:0:
386,351,79715,2,0,P|345:362|302:361,1,85
216,239,80094,2,0,P|221:172|250:127,2,85
429,184,80664,6,0,P|369:204|306:209,1,127.5,2|0,0:0|0:0,0:0:0:0:
227,156,81044,2,0,P|165:135|111:137,1,85,2|0,2:0|2:0,2:0:0:0:
38,49,81423,2,0,P|124:37|287:73,1,255,2|0,0:0|0:0,0:0:0:0:
402,27,82183,1,0,0:0:0:0:
401,26,82373,6,0,P|417:66|421:108,2,85,2|0|0,0:0|0:0|0:0,0:0:0:0:
258,247,82942,2,0,P|298:223|351:134,1,127.5
344,157,83322,2,0,P|343:102|332:48,1,85
156,205,83702,6,0,B|151:309|180:262|174:391,1,170,2|2,0:0|0:0,0:0:0:0:
471,222,84461,2,0,B|465:111|494:158|489:54,1,170,2|2,0:0|0:0,0:0:0:0:
488,54,85031,2,0,P|448:66|406:69,1,85,2|0,0:0|0:0,0:0:0:0:
287,34,85411,6,0,P|236:41|130:147,1,170,2|0,0:0|0:0,0:0:0:0:
174,384,86170,2,0,P|178:341|180:299,2,85
28,229,86740,6,0,P|95:226|200:184,1,170,2|0,0:0|0:0,0:0:0:0:
484,229,87499,2,0,P|417:226|312:184,1,170,2|0,0:0|0:0,0:0:0:0:
321,190,88069,2,0,P|331:247|332:286,1,85,2|0,0:0|0:0,0:0:0:0:
190,190,88449,6,0,P|203:125|246:24,1,170,2|0,0:0|0:0,0:0:0:0:
242,29,89398,2,0,P|174:39|137:40,1,85
287,98,89778,6,0,P|342:84|474:119,1,170,6|0,0:0|0:0,0:0:0:0:
462,251,90537,2,0,P|407:265|275:230,1,170,2|0,0:0|0:0,0:0:0:0:
211,273,91107,1,0,0:0:0:0:
279,333,91297,1,0,0:0:0:0:
287,98,91487,5,6,0:0:0:0:
256,192,91582,12,6,94525,0:0:0:0:
