osu file format v14

[General]
AudioFilename: audio.mp3
AudioLeadIn: 0
PreviewTime: 63
Countdown: 0
SampleSet: Soft
StackLeniency: 0.5
Mode: 0
LetterboxInBreaks: 0
WidescreenStoryboard: 1

[Editor]
Bookmarks: 12499,27689,33765,39841,45917,51993,67183,79335,85411,86930,88449,89968,91487
DistanceSpacing: 0.9
BeatDivisor: 4
GridSize: 16
TimelineZoom: 2.3

[Metadata]
Title:Natsukoi Hanabi
TitleUnicode:夏恋花火
Artist:chano & 40mP
ArtistUnicode:シャノ & 40mP
Creator:Lasse
Version:Bonsai's Insane
Source:
Tags:Shano 40meterP Panorama Note VINXIS Bonsai deetz
BeatmapID:1384505
BeatmapSetID:650427

[Difficulty]
HPDrainRate:5
CircleSize:4.5
OverallDifficulty:7.5
ApproachRate:8
SliderMultiplier:1.76
SliderTickRate:1

[Events]
//Background and Video events
0,0,"a.jpg",0,0
//Break Periods
//Storyboard Layer 0 (Background)
//Storyboard Layer 1 (Fail)
//Storyboard Layer 2 (Pass)
//Storyboard Layer 3 (Foreground)
//Storyboard Sound Samples

[TimingPoints]
348,379.746835443038,4,2,0,40,1,0
348,-200,4,2,0,40,0,0
537,-200,4,2,0,60,0,0
3385,-200,4,2,0,40,0,0
3575,-200,4,2,0,60,0,0
4715,-200,4,2,0,40,0,0
5094,-200,4,2,0,60,0,0
6044,-200,4,2,0,40,0,0
6423,-200,4,2,0,50,0,0
9461,-200,4,2,0,60,0,0
10791,-133.333333333333,4,2,0,60,0,0
12499,-100,4,3,0,60,0,1
18196,-100,4,3,0,60,0,0
18575,-100,4,3,0,60,0,1
18955,-100,4,3,0,60,0,0
22942,-100,4,3,0,60,0,1
23322,-100,4,3,0,60,0,0
24651,-100,4,3,0,60,0,1
25221,-100,4,3,0,60,0,0
26740,-100,4,3,0,60,0,1
27310,-100,4,3,0,60,0,0
27689,-200,4,2,0,60,0,0
30158,-133.333333333333,4,3,0,60,0,0
51993,-200,4,2,0,60,0,0
61107,-133.333333333333,4,3,0,60,0,0
67183,-80,4,3,0,69,0,1
77816,-80,4,3,0,88,0,1
78955,-80,4,3,0,100,0,0
79335,-80,4,3,0,69,0,1
85031,-80,4,3,0,100,0,0
85411,-80,4,3,0,69,0,1
89588,-80,4,3,0,69,0,0
89778,-80,4,3,0,69,0,1
91107,-80,4,3,0,69,0,0
91487,-80,4,3,0,69,0,1
92056,-80,4,3,0,60,0,0
92816,-80,4,3,0,60,0,1
93575,-80,4,3,0,60,0,0
94525,-100,4,2,0,50,0,1
95094,-100,4,2,0,50,0,0
95474,-111.111111111111,4,2,0,50,0,0
95854,-111.111111111111,4,2,0,30,0,1
96234,-111.111111111111,4,2,0,20,0,1
96613,-111.111111111111,4,2,0,15,0,0
96993,-111.111111111111,4,2,0,10,0,0

[Colours]
Combo1 : 250,210,110
Combo2 : 250,110,110
Combo3 : 250,170,110
Combo4 : 250,130,190

[HitObjects]
95,221,348,6,0,P|90:200|91:178,2,44,0|0|0,1:0|0:0|0:0,0:0:0:0:
133,283,917,2,0,P|143:339|125:380,5,88
383,325,3385,6,0,P|377:346|378:368,2,44,0|0|0,1:0|0:0|0:0,0:0:0:0:
422,263,3955,2,0,P|432:220|421:178,1,88
422,95,4715,6,0,P|410:137|421:179,3,88,0|0|0|0,1:0|0:0|0:0|0:0,0:0:0:0:
496,136,6044,1,2,0:1:0:0:
496,136,6423,6,2,P|414:159|278:101,1,220,0|2,1:0|0:1,0:1:0:0:
359,58,7753,6,2,P|400:72|442:63,1,88,2|2,1:0|0:1,0:1:0:0:
285,17,8512,6,2,P|243:2|201:11,2,88,2|2|2,1:1|0:1|0:1,0:1:0:0:
229,170,9461,6,2,P|220:127|234:86,1,88,4|4,0:3|0:3,0:1:0:0:
240,93,9936,1,0,0:0:0:0:
240,93,10031,2,2,P|281:106|323:97,1,88,2|2,0:3|0:3,0:1:0:0:
324,97,10791,6,2,P|307:146|233:176,1,132.000005035401,4|10,0:0|0:3,0:1:0:0:
240,93,11360,1,2,0:3:0:0:
327,14,11550,6,2,P|266:34|240:93,1,132.000005035401,2|2,3:2|0:3,0:1:0:0:
237,176,12120,1,8,0:3:0:0:
182,331,12499,6,0,P|215:303|230:262,2,88,4|2|2,0:1|0:3|1:3,0:1:0:0:
133,247,13069,2,0,P|152:203|303:193,1,176,2|2,0:3|0:3,0:1:0:0:
230,262,13639,1,0,1:3:0:0:
133,247,13829,2,0,P|89:228|79:77,1,176,2|2,0:3|0:3,0:1:0:0:
149,149,14398,1,0,1:3:0:0:
133,247,14588,2,0,P|114:291|-37:301,1,176,2|2,0:3|0:3,0:1:0:0:
35,231,15158,1,0,1:3:0:0:
276,338,15537,6,0,P|242:310|227:269,2,88,2|2|2,0:3|0:3|1:3,0:1:0:0:
325,254,16107,2,0,P|306:210|155:200,1,176,2|2,0:3|0:3,0:3:0:0:
227,270,16677,1,0,1:3:0:0:
403,121,16867,6,0,P|395:205|325:254,1,176,2|2,0:3|0:3,0:3:0:0:
310,156,17436,1,0,1:3:0:0:
403,121,17626,1,2,1:3:0:0:
410,118,17721,1,0,1:3:0:0:
418,114,17816,2,0,P|452:87|468:46,2,88,0|0|6,1:3|1:3|0:3,1:3:0:0:
418,114,18575,6,0,L|220:95,2,176,6|2|2,0:2|0:2|0:2,0:2:0:0:
446,207,19525,1,2,0:2:0:0:
474,299,19715,1,2,0:2:0:0:
446,207,19904,6,0,L|248:188,2,176,2|2|2,0:3|0:2|0:2,0:2:0:0:
474,299,20854,1,2,0:2:0:0:
377,291,21044,2,0,L|201:307,1,176,2|2,0:2|0:2,0:2:0:0:
193,308,21518,1,2,0:2:0:0:
184,309,21613,5,2,0:3:0:0:
130,225,21803,2,0,P|84:297|110:378,2,176,2|2|2,0:2|0:2|0:2,0:2:0:0:
184,309,22753,1,0,0:2:0:0:
150,72,22942,6,0,P|176:153|130:225,1,176,4|0,0:1|1:2,0:0:0:0:
77,141,23512,1,0,1:0:0:0:
150,72,23702,2,0,P|187:49|231:45,3,88,0|0|0|0,1:0|1:0|1:0|1:0,1:0:0:0:
238,45,24366,1,0,1:0:0:0:
246,47,24461,1,0,1:0:0:0:
253,51,24556,1,0,1:0:0:0:
260,54,24651,6,0,P|363:81|461:46,1,176,4|0,1:0|0:0,0:0:0:0:
512,23,25221,1,4,0:0:0:0:
429,65,25411,2,0,P|401:98|391:141,2,88,0|0|0,1:0|1:0|1:0,0:0:0:0:
493,309,25980,6,0,P|512:224|488:140,1,176,2|0,1:3|1:0,0:0:0:0:
429,65,26550,1,0,1:0:0:0:
260,54,26740,6,0,P|363:81|461:46,1,176,6|8,0:3|1:3,0:0:0:0:
512,22,27310,2,0,P|484:55|474:98,1,88,2|0,0:0|0:0,0:0:0:0:
474,106,27594,1,0,0:0:0:0:
475,114,27689,6,0,P|407:232|240:154,1,352,2|2,0:0|0:0,0:1:0:0:
242,91,30158,6,2,L|242:157,1,66.0000025177003,2|4,2:3|2:3,2:0:0:0:
132,50,30727,6,0,P|182:42|243:94,1,132.000005035401,2|0,0:0|1:0,0:2:0:0:
117,231,31297,6,0,P|117:166|165:124,1,132.000005035401,2|0,0:0|1:0,0:2:0:0:
194,202,31866,1,0,1:0:0:0:
154,313,32056,6,0,P|198:266|194:202,1,132.000005035401,2|0,0:0|1:0,0:2:0:0:
118,232,32626,1,0,1:0:0:0:
39,260,32816,2,0,P|42:195|91:154,1,132.000005035401,4|4,0:0|0:0,0:2:0:0:
118,232,33385,1,0,1:0:0:0:
118,232,33765,6,0,P|191:185|231:109,1,132.000005035401,4|2,0:2|1:2,0:0:0:0:
251,70,34335,1,0,0:0:0:0:
361,161,34525,6,0,P|333:144|301:139,1,66.0000025177003,2|2,0:2|0:2,0:2:0:0:
216,149,34904,1,2,1:2:0:0:
69,131,35094,2,0,P|97:148|130:154,2,66.0000025177003,2|0|2,0:2|2:2|0:2,0:2:0:0:
6,72,35664,1,0,1:2:0:0:
88,47,35854,2,0,P|153:47|214:71,1,132.000005035401,2|2,0:2|0:2,0:2:0:0:
287,117,36423,2,0,P|317:129|350:130,1,66.0000025177003,2|2,1:3|0:2,0:2:0:0:
211,159,36803,6,0,P|186:219|186:285,1,132.000005035401,2|2,0:3|1:2,0:2:0:0:
124,357,37373,2,0,P|99:296|99:230,1,132.000005035401,2|2,0:3|0:2,0:2:0:0:
123,148,37942,1,2,1:2:0:0:
283,220,38132,6,0,P|248:129|168:75,1,198.000007553101,2|0,0:0|1:0,0:0:0:0:
55,12,38892,2,0,P|104:54|167:74,1,132.000005035401,2|2,0:0|1:3,0:0:0:0:
252,81,39461,1,4,0:0:0:0:
334,58,39841,5,4,0:2:0:0:
405,10,41360,5,2,0:2:0:0:
405,76,42310,6,2,L|405:8,1,66.0000025177003,2|4,0:0|0:0,0:2:0:0:
512,122,42879,6,0,P|461:127|403:72,1,132.000005035401,2|0,0:0|1:0,0:2:0:0:
418,192,43449,6,0,P|480:178|512:123,1,132.000005035401,2|0,0:0|1:0,0:2:0:0:
430,110,44018,1,0,1:0:0:0:
324,261,44208,6,0,P|355:205|418:192,1,132.000005035401,2|0,0:0|1:0,0:2:0:0:
405,274,44778,1,0,1:0:0:0:
324,261,44968,2,0,P|268:292|255:355,1,132.000005035401,6|6,0:0|0:0,0:2:0:0:
337,344,45537,1,0,1:0:0:0:
337,344,45917,6,0,P|249:354|170:320,1,132.000005035401,4|2,0:2|1:2,0:0:0:0:
131,300,46487,1,0,0:2:0:0:
59,251,46677,6,0,P|83:229|115:219,1,66.0000025177003,2|2,0:2|0:2,0:2:0:0:
201,216,47056,1,2,1:2:0:0:
342,175,47246,2,0,P|317:196|286:207,2,66.0000025177003,2|0|2,0:2|0:2|0:2,0:2:0:0:
396,107,47816,1,0,1:2:0:0:
444,36,48006,2,0,P|429:100|440:164,1,132.000005035401,2|2,0:2|0:2,0:2:0:0:
472,244,48575,2,0,P|479:276|474:309,1,66.0000025177003,2|2,1:3|0:2,0:2:0:0:
364,359,48955,6,2,P|377:294|366:230,1,132.000005035401,2|2,0:1|1:0,0:0:0:0:
329,152,49525,2,2,P|318:87|332:23,3,132.000005035401,2|2|2|2,0:1|0:1|0:1|0:1,0:1:0:0:
400,75,50854,1,2,1:0:0:0:
267,224,51044,2,2,P|238:164|233:92,1,132.000005035401,2|0,0:0|1:0,0:0:0:0:
249,15,51613,1,4,0:0:0:0:
312,72,51993,6,0,P|275:96|232:99,2,88,0|0|0,1:2|3:0|3:0,3:0:0:0:
360,20,52942,2,0,P|377:6|397:-1,2,44,0|0|0,0:0|3:0|0:0,0:0:0:0:
382,87,53512,6,0,P|384:130|365:169,2,88,0|0|0,1:1|3:0|3:0,3:0:0:0:
328,229,54651,1,0,3:0:0:0:
284,284,55031,6,0,P|265:323|267:366,1,88,0|0,1:0|3:0,3:0:0:0:
284,284,55601,2,0,P|240:284|202:306,1,88,0|0,3:0|3:0,3:0:0:0:
153,357,56170,2,0,P|136:370|116:380,1,44,0|0,3:0|0:0,0:0:0:0:
54,302,56550,6,0,P|92:282|136:283,1,88,0|0,1:0|3:0,3:0:0:0:
203,307,57120,1,0,3:0:0:0:
210,311,57215,1,0,3:0:0:0:
217,315,57310,2,0,P|237:320|259:319,1,44,0|0,3:0|0:0,0:0:0:0:
372,306,57689,2,0,P|350:301|328:302,1,44,2|0,3:0|0:0,0:0:0:0:
439,342,58069,6,0,B|455:286|439:278|423:269|439:214,2,132,4|0|0,1:2|3:0|3:0,0:0:0:0:
439,213,59588,6,0,B|455:157|439:149|423:140|439:85,2,132,0|0|2,1:0|3:0|3:0,3:0:0:0:
455,8,61107,6,0,P|392:22|361:78,1,132.000005035401,2|0,1:0|0:0,0:0:0:0:
353,164,61677,1,2,1:0:0:0:
351,190,62056,1,2,1:0:0:0:
349,216,62436,2,0,P|317:271|255:286,1,132.000005035401,2|0,1:0|1:0,1:0:0:0:
254,286,63196,2,0,P|191:300|160:356,1,132.000005035401,2|0,1:0|1:0,1:0:0:0:
245,374,63765,2,0,P|277:371|307:357,1,66.0000025177003,4|0,0:0|0:0,0:0:0:0:
380,310,64145,6,2,P|409:295|442:292,2,66.0000025177003,2|0|0,1:1|1:0|1:0,1:0:0:0:
301,274,64715,2,2,P|320:247|347:229,2,66.0000025177003,2|0|0,1:1|1:0|1:0,1:0:0:0:
307,356,65284,1,2,1:0:0:0:
98,318,65474,6,2,P|162:308|227:323,1,132.000005035401,6|0,0:1|1:1,0:0:0:0:
307,356,66044,1,0,1:0:0:0:
295,185,66234,1,2,0:0:0:0:
300,272,66613,1,2,0:0:0:0:
295,185,67183,6,2,P|306:131|342:91,1,110,4|2,0:1|0:2,0:0:0:0:
233,263,67563,2,2,P|203:217|200:163,1,110,8|2,1:2|0:2,0:0:0:0:
243,361,67942,2,2,P|190:350|150:314,1,110,2|2,0:3|0:2,0:0:0:0:
110,222,68322,1,10,1:2:0:0:
104,123,68512,6,2,P|14:197|56:306,1,220,6|2,0:0|0:2,0:0:0:0:
110,222,69082,1,10,1:2:0:0:
181,59,69272,2,2,P|196:162|111:222,1,220,6|2,0:0|0:3,0:0:0:0:
104,123,69841,1,10,1:2:0:0:
104,123,70221,6,2,P|124:72|117:18,1,110,6|2,0:0|0:2,0:0:0:0:
110,221,70601,2,2,P|160:200|193:156,1,110,8|2,1:2|0:2,0:0:0:0:
46,297,70980,2,2,P|96:317|150:310,1,110,2|2,0:0|0:2,0:0:0:0:
236,255,71360,1,10,1:2:0:0:
178,52,71550,6,2,P|94:116|109:220,1,220,6|2,0:0|0:2,0:0:0:0:
193,156,72120,1,10,1:2:0:0:
275,92,72310,2,2,P|379:88|365:268,1,330,6|10,0:0|1:2,0:0:0:0:
328,176,73069,5,2,0:0:0:0:
275,92,73259,2,2,P|239:132|229:185,1,110,6|2,0:0|0:2,0:0:0:0:
130,162,73639,2,2,P|133:216|164:261,1,110,8|2,1:2|0:2,0:0:0:0:
75,314,74018,2,2,P|114:351|167:364,2,110,2|2|10,0:0|0:2|1:2,0:0:0:0:
164,261,74588,6,2,B|249:273|260:317|272:360|357:373,1,220,6|2,0:0|0:2,0:0:0:0:
372,274,75158,1,8,1:2:0:0:
347,371,75348,2,2,P|447:339|464:235,1,220,6|2,0:0|0:2,0:0:0:0:
372,274,75917,1,8,1:2:0:0:
387,176,76107,1,2,0:2:0:0:
294,211,76297,6,2,L|71:179,1,220,6|10,0:0|1:2,0:0:0:0:
30,79,76866,2,2,L|247:110,1,220,6|2,0:0|0:2,0:0:0:0:
346,122,77436,2,2,P|400:118|445:87,1,110,8|2,1:2|0:2,0:0:0:0:
248,110,77816,6,2,L|265:332,1,220,2|2,1:3|1:3,0:3:0:0:
138,374,78385,2,2,L|154:154,1,220,2|2,0:3|1:3,0:3:0:0:
163,55,78955,1,4,0:3:0:0:
138,374,79335,6,2,P|88:351|57:306,1,110,4|2,0:1|0:2,0:0:0:0:
146,271,79714,2,2,P|127:219|136:166,1,110,8|2,1:2|0:2,0:0:0:0:
226,210,80094,2,2,P|248:160|292:129,1,110,2|2,0:0|0:2,0:0:0:0:
324,223,80474,1,10,1:2:0:0:
265,302,80664,6,2,P|162:284|130:184,1,220,6|2,0:0|0:2,0:0:0:0:
226,209,81234,1,10,1:2:0:0:
324,223,81423,2,2,P|420:184|329:24,1,330,6|10,0:0|1:2,0:0:0:0:
343,125,82183,5,2,0:0:0:0:
324,223,82373,2,2,P|270:233|230:269,2,110,6|2|8,0:0|0:2|1:2,0:0:0:0:
343,125,82942,2,2,P|218:145|143:213,1,220,2|2,0:3|0:2,0:0:0:0:
104,292,83512,1,8,1:2:0:0:
322,322,83702,6,2,P|252:238|148:204,1,220,4|2,0:2|0:2,0:0:0:0:
20,201,84272,2,2,P|70:180|102:136,1,110,8|2,1:2|1:2,1:0:0:0:
107,126,84556,1,0,1:0:0:0:
112,115,84651,2,2,P|144:71|194:50,1,110,2|2,1:3|1:2,1:0:0:0:
204,149,85031,5,6,0:0:0:0:
204,149,85411,2,0,L|225:374,2,220,4|2|2,1:2|1:1|1:1,3:0:0:0:
195,50,86360,1,2,0:2:0:0:
287,11,86550,1,2,1:1:0:0:
352,86,86740,6,0,P|398:114|452:114,1,110,2|2,0:2|1:0,0:0:0:0:
301,171,87120,2,0,P|263:133|249:81,1,110,2|2,0:2|1:0,0:0:0:0:
229,239,87499,2,0,P|275:267|329:267,2,110,2|2|2,0:2|1:0|0:2,0:0:0:0:
165,162,88069,2,0,P|119:134|65:134,1,110,2|2,1:0|0:2,0:0:0:0:
94,228,88449,6,0,L|324:175,2,220,2|2|2,1:0|1:0|1:0,0:0:0:0:
65,322,89398,1,0,1:0:0:0:
161,300,89588,1,2,1:0:0:0:
450,356,89778,6,2,P|364:289|256:277,1,220,4|0,1:0|1:0,1:0:0:0:
161,300,90348,1,0,1:0:0:0:
71,125,90537,2,2,P|67:179|93:227,2,110,0|0|0,1:3|1:0|1:0,1:0:0:0:
109,36,91107,1,0,1:0:0:0:
121,34,91202,1,0,1:0:0:0:
131,31,91297,1,0,1:0:0:0:
141,29,91392,1,0,1:0:0:0:
150,26,91487,6,2,P|149:134|92:228,1,220,4|2,1:0|1:3,1:0:0:0:
23,297,92056,1,0,1:0:0:0:
0,312,92436,2,0,P|52:297|104:312,1,110,2|0,1:3|1:0,1:0:0:0:
314,316,92816,6,2,P|208:343|103:312,1,220,4|2,1:0|1:3,1:0:0:0:
35,241,93385,1,2,1:3:0:0:
131,216,93575,1,0,1:0:0:0:
156,209,93955,1,2,1:3:0:0:
325,230,94335,5,2,1:3:0:0:
156,209,94525,2,0,P|243:201|325:230,1,176,4|2,1:0|1:3,1:0:0:0:
399,288,95094,1,0,1:0:0:0:
417,306,95474,2,0,P|461:326|508:321,1,79.1999975830079,2|0,1:3|3:0,1:0:0:0:
316,337,95854,5,6,1:2:0:0:
256,192,96044,12,4,97563,0:0:0:0:
