osu file format v14

[General]
AudioFilename: audio.mp3
AudioLeadIn: 0
PreviewTime: 63
Countdown: 0
SampleSet: Soft
StackLeniency: 0.7
Mode: 0
LetterboxInBreaks: 0
WidescreenStoryboard: 1

[Editor]
Bookmarks: 79335
DistanceSpacing: 1.1
BeatDivisor: 4
GridSize: 32
TimelineZoom: 1.7

[Metadata]
Title:Natsukoi Hanabi
TitleUnicode:夏恋花火
Artist:chano & 40mP
ArtistUnicode:シャノ & 40mP
Creator:Lasse
Version:Normal
Source:
Tags:Shano 40meterP Panorama Note VINXIS Bonsai deetz
BeatmapID:1383130
BeatmapSetID:650427

[Difficulty]
HPDrainRate:4
CircleSize:3.4
OverallDifficulty:4
ApproachRate:5
SliderMultiplier:1.2
SliderTickRate:1

[Events]
//Background and Video events
0,0,"a.jpg",0,0
//Break Periods
//Storyboard Layer 0 (Background)
//Storyboard Layer 1 (Fail)
//Storyboard Layer 2 (Pass)
//Storyboard Layer 3 (Foreground)
//Storyboard Sound Samples

[TimingPoints]
348,379.746835443038,4,2,22,30,1,0
348,-142.857142857143,4,2,22,30,0,0
9461,-142.857142857143,4,2,22,40,0,0
10791,-142.857142857143,4,2,22,44,0,0
12499,-111.111111111111,4,2,1,52,0,0
18575,-99.9999999999999,4,2,1,56,0,1
18765,-99.9999999999999,4,2,1,56,0,0
19335,-99.9999999999999,4,2,1,58,0,0
20664,-99.9999999999999,4,2,1,60,0,0
21613,-99.9999999999999,4,2,1,62,0,0
22942,-111.111111111111,4,2,1,62,0,0
23322,-111.111111111111,4,2,1,52,0,0
23702,-111.111111111111,4,2,1,56,0,0
24082,-111.111111111111,4,2,1,52,0,0
24272,-111.111111111111,4,2,1,50,0,0
27689,-125,4,2,1,48,0,0
51993,-125,4,2,25,40,0,0
60727,-125,4,2,25,42,0,0
61107,-111.111111111111,4,2,1,52,0,0
63006,-111.111111111111,4,2,26,52,0,0
63196,-111.111111111111,4,2,1,52,0,0
64145,-111.111111111111,4,2,1,54,0,0
65094,-111.111111111111,4,2,1,56,0,0
65854,-111.111111111111,4,2,1,54,0,0
67183,-100,4,2,1,60,0,1
67373,-100,4,2,1,60,0,0
77816,-100,4,2,1,61,0,0
78006,-100,4,2,1,62,0,0
78196,-100,4,2,1,63,0,0
78385,-100,4,2,1,64,0,0
78765,-100,4,2,1,50,0,0
79145,-100,4,2,1,44,0,0
79335,-100,4,2,1,60,0,1
79525,-100,4,2,1,60,0,0
85411,-100,4,2,1,64,0,1
85601,-100,4,2,1,64,0,1
89398,-100,4,2,1,64,0,1
89588,-100,4,2,1,64,0,0
89778,-100,4,2,1,60,0,1
89968,-100,4,2,1,50,0,1
90158,-100,4,2,1,52,0,1
90348,-100,4,2,1,54,0,1
90537,-100,4,2,1,56,0,1
90727,-100,4,2,1,58,0,1
90917,-100,4,2,1,60,0,1
91107,-100,4,2,1,62,0,1
91487,-100,4,2,1,62,0,1
91582,-100,4,2,1,30,0,0
94525,-100,4,2,22,54,0,0

[Colours]
Combo1 : 250,210,110
Combo2 : 250,110,110
Combo3 : 250,170,110
Combo4 : 250,130,190

[HitObjects]
34,53,348,6,0,L|126:45,1,83.9999974365235,2|2,0:1|0:0,0:0:0:0:
164,63,917,2,0,P|174:94|165:158,5,83.9999974365235,2|2|2|2|2|2,0:1|0:0|0:0|0:0|0:0|0:1,0:0:0:0:
224,285,3385,6,0,L|316:293,1,83.9999974365235,2|2,0:1|0:0,0:0:0:0:
354,275,3955,2,0,P|364:244|355:180,1,83.9999974365235,2|2,0:1|0:0,0:0:0:0:
283,127,4715,2,0,P|278:85|289:45,3,83.9999974365235,2|2|2|2,0:1|0:0|0:0|0:1,0:0:0:0:
445,101,6423,6,0,L|353:93,1,83.9999974365235,2|2,0:1|0:0,0:0:0:0:
320,123,6993,2,0,P|310:154|319:218,1,83.9999974365235,2|2,0:1|0:0,0:0:0:0:
376,283,7753,1,2,0:1:0:0:
320,367,8132,1,2,0:0:0:0:
221,338,8512,2,0,P|180:330|139:327,2,83.9999974365235,2|2|2,0:1|0:1|0:1,0:0:0:0:
268,353,9461,5,10,0:3:0:0:
328,272,9841,1,14,0:3:0:0:
327,272,10031,2,0,P|335:230|331:189,1,83.9999974365235,2|10,0:1|0:0,0:0:0:0:
252,125,10791,1,6,0:0:0:0:
156,155,11170,2,0,L|64:147,2,83.9999974365235,10|10|10,0:2|0:3|0:0,0:0:0:0:
206,148,12120,1,12,0:3:0:0:
291,65,12499,6,0,P|338:42|395:51,1,107.999996704102,6|8,0:0|0:0,0:0:0:0:
434,91,13069,2,0,L|450:203,1,107.999996704102,10|10,0:3|0:3,0:0:0:0:
453,257,13639,1,8,0:0:0:0:
431,312,13829,2,0,P|383:335|330:327,1,107.999996704102,10|10,0:3|0:3,0:0:0:0:
257,232,14588,1,10,0:3:0:0:
157,297,14968,1,10,0:3:0:0:
157,297,15158,1,10,0:0:0:0:
49,247,15537,6,0,L|45:133,1,107.999996704102,10|10,0:3|0:0,0:0:0:0:
60,81,16107,2,0,P|105:53|158:55,1,107.999996704102,10|10,0:3|0:3,0:0:0:0:
210,85,16677,1,8,0:0:0:0:
236,137,16866,2,0,L|232:251,1,107.999996704102,10|10,0:3|0:3,0:0:0:0:
129,306,17626,2,0,P|93:299|69:299,2,53.9999983520508,10|8|8,0:3|0:0|0:0,0:0:0:0:
165,352,18196,1,12,0:3:0:0:
232,244,18575,5,14,0:2:0:0:
353,284,18955,1,8,0:0:0:0:
393,163,19335,2,0,L|399:103,2,60,10|6|10,0:1|0:1|0:1,0:0:0:0:
428,216,19904,1,6,0:1:0:0:
333,307,20284,1,6,0:1:0:0:
212,252,20664,2,0,P|179:245|141:244,2,60,6|10|6,0:1|0:1|0:1,0:0:0:0:
405,105,21613,5,10,0:1:0:0:
405,105,21803,1,6,0:1:0:0:
273,91,22183,1,6,0:1:0:0:
149,44,22563,1,6,0:1:0:0:
61,123,22942,2,0,L|47:236,1,107.999996704102,6|10,0:2|0:0,0:0:0:0:
117,334,23702,1,10,0:0:0:0:
117,334,23892,2,0,P|173:325|232:333,1,107.999996704102,8|8,0:0|0:0,0:0:0:0:
332,378,24651,6,0,L|346:265,1,107.999996704102,12|8,0:0|0:0,0:0:0:0:
387,228,25221,1,8,0:3:0:0:
429,185,25411,2,0,L|443:72,1,107.999996704102,2|8,0:0|0:3,0:0:0:0:
484,35,25980,1,2,0:0:0:0:
365,39,26360,2,0,L|308:29,1,53.9999983520508,8|8,0:0|0:0,0:0:0:0:
261,61,26740,1,4,0:0:0:0:
152,12,27120,1,12,0:3:0:0:
152,12,27310,1,8,0:3:0:0:
86,110,27689,5,10,0:3:0:0:
288,352,29208,1,10,0:3:0:0:
371,152,30158,1,8,0:3:0:0:
371,152,30348,1,12,0:3:0:0:
405,242,30727,6,0,P|358:246|314:229,1,96,2|8,0:0|0:0,0:0:0:0:
261,238,31297,2,0,P|216:220|169:225,1,96,10|10,0:3|0:0,0:0:0:0:
129,256,31866,1,10,0:0:0:0:
129,256,32056,1,10,0:3:0:0:
41,217,32436,2,0,L|36:158,1,48,8|8,0:0|0:0,0:0:0:0:
33,116,32816,1,14,0:3:0:0:
100,48,33196,1,10,0:3:0:0:
100,48,33385,1,8,0:0:0:0:
184,94,33765,6,0,P|231:98|275:81,1,96,4|8,0:0|0:0,0:0:0:0:
328,80,34335,1,10,0:3:0:0:
376,101,34525,2,0,P|420:83|467:87,1,96,2|10,0:0|0:0,0:0:0:0:
499,128,35094,1,10,0:3:0:0:
500,224,35474,1,2,0:0:0:0:
433,293,35854,2,0,P|388:311|341:306,1,96,10|10,0:3|0:3,0:0:0:0:
258,267,36613,1,10,0:3:0:0:
258,267,36803,6,0,L|248:151,1,96,10|10,0:3|0:0,0:0:0:0:
223,125,37373,1,10,0:3:0:0:
149,63,37753,2,0,L|96:62,1,48,10|10,0:3|0:0,0:0:0:0:
62,98,38132,2,0,L|52:214,1,96,2|8,0:0|0:3,0:0:0:0:
46,246,38702,1,8,0:0:0:0:
39,298,38892,1,2,0:0:0:0:
113,359,39272,2,0,P|143:352|170:352,1,48,0|12,0:0|0:3,0:0:0:0:
256,352,39841,5,6,0:0:0:0:
490,152,41360,1,10,0:3:0:0:
282,113,42310,1,8,0:3:0:0:
282,113,42499,1,12,0:3:0:0:
224,36,42879,6,0,P|268:18|315:22,1,96,2|8,0:0|0:0,0:0:0:0:
359,52,43449,2,0,P|404:70|451:65,1,96,10|10,0:3|0:0,0:0:0:0:
493,33,44018,1,10,0:0:0:0:
493,33,44208,1,10,0:3:0:0:
512,129,44588,2,0,L|507:188,1,48,8|8,0:0|0:0,0:0:0:0:
499,229,44968,1,14,0:3:0:0:
456,317,45348,1,10,0:3:0:0:
456,317,45537,1,8,0:0:0:0:
363,276,45917,6,0,L|355:171,1,96,4|8,0:0|0:0,0:0:0:0:
342,128,46487,1,10,0:3:0:0:
309,86,46677,2,0,P|262:65|218:72,1,96,2|10,0:0|0:0,0:0:0:0:
176,102,47246,1,10,0:3:0:0:
255,157,47626,1,2,0:0:0:0:
194,232,48006,2,0,L|190:338,1,96,10|10,0:3|0:3,0:0:0:0:
100,360,48765,1,10,0:3:0:0:
100,360,48955,6,0,L|96:254,1,96,10|10,0:3|0:0,0:0:0:0:
56,228,49525,1,10,0:3:0:0:
1,150,49904,2,0,L|-1:90,1,48,10|10,0:3|0:0,0:0:0:0:
20,53,50284,2,0,P|66:40|118:50,1,96,2|10,0:0|0:3,0:0:0:0:
155,80,50854,2,0,P|201:93|253:83,1,96,10|2,0:0|0:0,0:0:0:0:
328,33,51613,1,14,0:3:0:0:
409,83,51993,6,0,B|415:116|415:116|412:151|412:151|418:190,3,96,14|8|8|10,0:0|0:0|0:0|0:0,0:0:0:0:
381,267,53512,2,0,B|375:300|375:300|378:335|378:335|372:374,2,96,10|8|8,0:0|0:0|0:0,0:0:0:0:
322,190,54651,1,8,0:0:0:0:
235,231,55031,6,0,B|207:228|207:228|174:216|174:216|141:213,3,96,10|10|8|10,0:0|0:0|0:0|0:0,0:0:0:0:
53,174,56550,2,0,B|50:146|50:146|38:113|38:113|35:80,1,96,10|8,0:0|0:0,0:0:0:0:
108,17,57310,1,10,0:0:0:0:
190,65,57689,1,8,0:0:0:0:
283,42,58069,6,0,B|310:44|310:44|343:56|343:56|376:59,3,96,14|8|8|10,0:0|0:0|0:0|0:0,0:0:0:0:
426,141,59588,2,0,B|423:168|423:168|411:201|411:201|408:234,2,96,10|8|8,0:0|0:0|0:0,0:0:0:0:
473,57,60727,1,2,0:0:0:0:
377,60,61107,5,10,0:0:0:0:
331,144,61487,1,10,0:2:0:0:
331,144,61677,2,0,P|266:136|211:131,1,107.999996704102,10|10,0:3|0:3,0:0:0:0:
123,172,62436,1,10,0:3:0:0:
115,280,62816,1,2,0:0:0:0:
195,352,63196,2,0,P|248:350|302:347,1,107.999996704102,10|10,0:3|0:2,0:0:0:0:
410,356,63955,1,2,0:0:0:0:
410,356,64145,6,0,P|401:303|429:259,1,107.999996704102,10|10,0:0|0:0,0:0:0:0:
472,226,64715,2,0,P|500:181|492:128,1,107.999996704102,10|10,0:0|0:0,0:0:0:0:
453,90,65284,1,10,0:0:0:0:
400,78,65474,2,0,L|273:72,1,107.999996704102,14|8,0:0|0:0,0:0:0:0:
239,60,66044,1,8,0:0:0:0:
199,20,66234,1,10,0:3:0:0:
154,117,66613,1,10,0:3:0:0:
240,291,67183,6,0,B|265:252|265:252|247:168,1,120,6|8,0:0|2:0,0:0:0:0:
212,133,67753,1,0,2:0:0:0:
154,117,67942,2,0,B|88:134|88:134|17:108,1,120,2|8,2:0|2:0,0:0:0:0:
9,63,68512,1,2,0:3:0:0:
114,4,68892,1,10,0:3:0:0:
154,117,69272,2,0,B|164:181|139:226|139:226|151:234|151:234|133:259|137:299,1,180,10|8,0:3|0:0,0:0:0:0:
244,335,70221,6,0,B|287:325|324:346|324:346|367:328,1,120,10|8,0:3|0:2,0:0:0:0:
412,305,70791,1,8,0:3:0:0:
444,255,70980,2,0,B|454:212|433:175|433:175|447:140,1,120,2|8,0:0|0:0,0:0:0:0:
492,100,71550,1,10,0:3:0:0:
403,18,71930,1,10,0:3:0:0:
300,80,72310,2,0,B|273:64|247:65|247:65|217:68|191:54|191:54|177:61|177:61|156:46|112:46,1,180,10|8,0:3|0:0,0:0:0:0:
68,49,73069,1,2,0:3:0:0:
23,88,73259,6,0,L|12:226,1,120,10|8,0:3|0:0,0:0:0:0:
28,265,73829,1,8,0:3:0:0:
74,302,74018,2,0,B|104:295|129:284|129:284|157:294|188:301,1,120,2|8,0:0|0:0,0:0:0:0:
230,344,74588,1,10,0:3:0:0:
344,308,74968,1,10,0:3:0:0:
284,203,75348,2,0,L|274:83,1,120,10|10,0:3|0:3,0:0:0:0:
307,33,75917,2,0,P|336:26|367:29,1,60,10|10,0:0|0:3,0:0:0:0:
422,47,76297,5,10,0:3:0:0:
472,162,76677,1,10,0:0:0:0:
472,162,76866,2,0,B|483:213|494:235|494:235|488:265|476:283,1,120,10|10,0:3|0:3,0:0:0:0:
439,320,77436,2,0,L|367:306,1,60,8|8,0:0|0:3,0:0:0:0:
324,330,77816,1,6,0:1:0:0:
208,362,78196,1,10,0:1:0:0:
208,362,78385,1,6,0:1:0:0:
125,274,78765,2,0,L|122:215,1,60,10|8,0:1|0:3,0:0:0:0:
95,96,79335,6,0,B|135:115|169:109|169:109|208:82,1,120,6|8,0:0|2:0,0:0:0:0:
265,84,79904,1,8,2:3:0:0:
321,104,80094,2,0,B|356:79|356:79|390:73|430:92,1,120,2|8,2:0|2:0,0:0:0:0:
476,131,80664,1,10,0:3:0:0:
493,249,81044,2,0,L|482:311,1,60,10|10,0:3|0:0,0:0:0:0:
425,328,81423,2,0,B|388:338|348:326|321:296|321:296|314:308|314:308|295:292|266:292,1,180,10|8,0:3|0:0,0:0:0:0:
208,310,82183,1,2,0:0:0:0:
156,279,82373,6,0,L|145:141,1,120,10|10,0:3|0:0,0:0:0:0:
130,101,82942,2,0,P|89:79|14:102,1,120,10|10,0:3|0:3,0:0:0:0:
0,155,83512,1,10,0:0:0:0:
0,155,83702,1,10,0:3:0:0:
69,253,84082,1,10,0:3:0:0:
146,159,84461,2,0,L|212:165,2,60,10|8|8,0:0|0:0|0:0,0:0:0:0:
130,101,85031,1,10,0:0:0:0:
230,14,85411,5,12,0:2:0:0:
324,106,85791,1,10,0:2:0:0:
446,56,86170,2,0,L|513:59,2,60,10|10|10,0:2|0:3|0:2,0:0:0:0:
392,29,86740,1,10,0:3:0:0:
310,132,87120,1,10,0:3:0:0:
214,40,87499,1,10,0:3:0:0:
92,91,87879,2,0,L|25:82,2,60,10|10|10,0:3|0:2|0:3,0:0:0:0:
145,130,88449,6,0,P|208:155|231:206,2,120,10|8|8,0:2|0:2|0:2,0:0:0:0:
100,170,89398,2,0,L|86:240,1,60,10|10,0:3|0:2,0:0:0:0:
50,276,89778,1,6,0:0:0:0:
146,347,90158,1,10,0:0:0:0:
244,279,90537,1,10,0:0:0:0:
356,321,90917,2,0,L|423:313,2,60,10|10|10,0:0|0:0|0:0,0:0:0:0:
315,365,91487,5,14,0:0:0:0:
256,192,91677,12,6,94525,0:0:0:0:
