osu file format v14

[General]
AudioFilename: audio.mp3
AudioLeadIn: 0
PreviewTime: 63
Countdown: 0
SampleSet: Soft
StackLeniency: 0.7
Mode: 0
LetterboxInBreaks: 0
WidescreenStoryboard: 1

[Editor]
DistanceSpacing: 1
BeatDivisor: 4
GridSize: 8
TimelineZoom: 1.6

[Metadata]
Title:Natsukoi Hanabi
TitleUnicode:夏恋花火
Artist:chano & 40mP
ArtistUnicode:シャノ & 40mP
Creator:Lasse
Version:Insane
Source:
Tags:Shano 40meterP Panorama Note VINXIS Bonsai deetz
BeatmapID:1384506
BeatmapSetID:650427

[Difficulty]
HPDrainRate:6
CircleSize:4
OverallDifficulty:8
ApproachRate:8
SliderMultiplier:1.6
SliderTickRate:1

[Events]
//Background and Video events
0,0,"a.jpg",0,0
//Break Periods
//Storyboard Layer 0 (Background)
//Storyboard Layer 1 (Fail)
//Storyboard Layer 2 (Pass)
//Storyboard Layer 3 (Foreground)
//Storyboard Sound Samples

[TimingPoints]
348,379.746835443038,4,2,22,30,1,0
348,-100,4,2,22,30,0,0
9461,-100,4,2,22,40,0,0
10791,-100,4,2,22,44,0,0
12499,-100,4,2,1,52,0,0
18575,-100,4,2,1,56,0,1
18765,-100,4,2,1,56,0,0
19335,-99.009900990099,4,2,1,58,0,0
20664,-99.009900990099,4,2,1,60,0,0
21613,-100,4,2,1,62,0,0
23322,-100,4,2,1,52,0,0
23702,-100,4,2,1,56,0,0
24082,-100,4,2,1,52,0,0
24272,-100,4,2,1,50,0,0
24651,-166.666666666667,4,2,1,50,0,0
27689,-166.666666666667,4,2,1,48,0,0
51993,-125,4,2,25,40,0,0
60727,-166.666666666667,4,2,25,42,0,0
61107,-100,4,2,1,52,0,0
63006,-100,4,2,26,52,0,0
63196,-100,4,2,1,52,0,0
64145,-100,4,2,1,54,0,0
65094,-100,4,2,1,56,0,0
65854,-100,4,2,1,54,0,0
67183,-90.9090909090909,4,2,1,60,0,1
67373,-90.9090909090909,4,2,1,60,0,0
77816,-90.9090909090909,4,2,1,61,0,1
78006,-90.9090909090909,4,2,1,62,0,1
78196,-90.9090909090909,4,2,1,63,0,1
78385,-90.9090909090909,4,2,1,64,0,0
78765,-90.9090909090909,4,2,1,50,0,0
78955,-125,4,2,1,50,0,0
79145,-90.9090909090909,4,2,1,44,0,0
79335,-90.9090909090909,4,2,1,60,0,1
79525,-90.9090909090909,4,2,1,60,0,0
85411,-90.9090909090909,4,2,1,64,0,1
85601,-90.9090909090909,4,2,1,64,0,1
89588,-90.9090909090909,4,2,1,64,0,0
89778,-83.3333333333333,4,2,1,60,0,1
89968,-83.3333333333333,4,2,1,50,0,1
90158,-83.3333333333333,4,2,1,52,0,1
90348,-83.3333333333333,4,2,1,54,0,1
90537,-83.3333333333333,4,2,1,56,0,1
90727,-83.3333333333333,4,2,1,58,0,1
90917,-83.3333333333333,4,2,1,60,0,1
91107,-83.3333333333333,4,2,1,62,0,1
91582,-83.3333333333333,4,2,1,30,0,0
94525,-83.3333333333333,4,2,22,54,0,0

[Colours]
Combo1 : 250,210,110
Combo2 : 250,110,110
Combo3 : 250,170,110
Combo4 : 250,130,190

[HitObjects]
158,101,348,6,0,B|122:68|71:68,2,80,2|2|2,0:1|0:0|0:0,0:0:0:0:
213,158,917,2,0,B|287:196|368:181,1,160,2|2,0:1|0:0,0:0:0:0:
466,58,1677,2,0,B|396:103|368:181,1,160,2|2,0:0|0:0,0:0:0:0:
426,327,2436,2,0,B|421:243|368:180,1,160,2|2,0:0|0:1,0:0:0:0:
369,181,3385,6,0,B|349:146|353:88,2,80,2|2|2,0:1|0:0|0:0,0:0:0:0:
421,239,3955,2,0,B|348:205|265:218,1,160,2|2,0:1|0:0,0:0:0:0:
167,320,4715,1,2,0:1:0:0:
38,258,5094,1,2,0:0:0:0:
57,117,5474,1,2,0:0:0:0:
196,92,5854,1,2,0:1:0:0:
196,92,6423,6,0,B|237:92|271:67,2,80,2|2|2,0:1|0:0|0:0,0:0:0:0:
121,63,6993,1,2,0:1:0:0:
20,185,7373,1,2,0:0:0:0:
75,333,7753,1,2,0:1:0:0:
231,359,8132,1,2,0:0:0:0:
275,89,8512,1,2,0:1:0:0:
331,237,8892,1,2,0:1:0:0:
432,115,9272,1,2,0:1:0:0:
345,146,9461,5,10,0:3:0:0:
345,146,9841,1,14,0:3:0:0:
360,56,10031,1,2,0:1:0:0:
360,56,10411,1,10,0:0:0:0:
416,205,10791,1,6,0:0:0:0:
416,205,11170,5,10,0:2:0:0:
345,146,11360,1,8,0:2:0:0:
317,328,11550,1,10,0:3:0:0:
317,328,11930,1,10,0:0:0:0:
246,269,12120,2,0,B|202:255|147:257,1,80,12|0,0:3|0:0,0:0:0:0:
16,319,12499,5,6,0:0:0:0:
105,204,12689,1,10,0:3:0:0:
161,339,12879,1,8,0:0:0:0:
246,269,13069,6,0,B|268:234|302:213,1,80,10|0,0:3|0:0,0:0:0:0:
489,218,13449,2,0,B|453:198|412:197,1,80,10|8,0:3|0:0,0:0:0:0:
263,282,13829,6,0,B|275:242|302:213,1,80,10|0,0:3|0:0,0:0:0:0:
481,238,14208,2,0,B|451:209|412:197,1,80,10|8,0:3|0:0,0:0:0:0:
282,290,14588,6,0,B|283:248|302:213,1,80,10|0,0:3|0:0,0:0:0:0:
469,254,14968,2,0,B|447:218|412:197,1,80,10|10,0:3|0:0,0:0:0:0:
413,197,15537,5,10,0:3:0:0:
373,340,15727,1,2,0:0:0:0:
302,213,15917,1,10,0:0:0:0:
206,157,16107,6,0,B|167:140|127:143,1,80,10|0,0:3|0:0,0:0:0:0:
206,267,16487,2,0,B|167:283|127:280,1,80,10|8,0:3|0:0,0:0:0:0:
128,143,16866,6,0,B|94:117|55:110,1,80,10|0,0:3|0:0,0:0:0:0:
128,280,17246,2,0,B|94:305|55:312,1,80,10|8,0:3|0:0,0:0:0:0:
12,214,17626,5,8,0:3:0:0:
12,214,17721,1,8,0:0:0:0:
12,214,17816,1,8,0:0:0:0:
128,143,18006,1,8,0:0:0:0:
128,280,18196,1,12,0:3:0:0:
410,332,18575,5,14,0:2:0:0:
410,332,18765,1,8,0:3:0:0:
447,149,18955,1,8,0:0:0:0:
447,149,19145,1,8,0:3:0:0:
270,208,19335,5,10,0:1:0:0:
428,240,19525,1,6,0:1:0:0:
191,192,19715,1,10,0:1:0:0:
349,224,19904,2,0,B|307:208|249:206,1,80.7999983972168,6|8,0:1|0:0,0:0:0:0:
33,159,20284,2,0,B|75:175|133:177,1,80.7999983972168,6|8,0:1|0:0,0:0:0:0:
334,135,20664,5,6,0:1:0:0:
191,192,20854,1,10,0:1:0:0:
57,268,21044,2,0,B|99:252|157:250,2,80.7999983972168,6|8|8,0:1|0:0|0:3,0:0:0:0:
73,29,21613,5,10,0:1:0:0:
253,130,21803,2,0,B|288:138|333:134,1,80.7999983972168,6|8,0:1|0:0,0:0:0:0:
135,251,22183,2,0,B|124:215|98:179,1,80.7999983972168,6|8,0:1|0:0,0:0:0:0:
299,293,22563,2,0,B|273:319|255:360,1,80,6|8,0:1|0:0,0:0:0:0:
268,47,22942,5,6,0:2:0:0:
268,47,23322,1,10,0:0:0:0:
253,130,23512,1,8,0:0:0:0:
379,61,23702,1,10,0:0:0:0:
333,133,23892,1,8,0:0:0:0:
470,129,24082,1,8,0:0:0:0:
455,274,24272,5,8,0:0:0:0:
452,245,24366,1,8,0:0:0:0:
441,217,24461,1,8,0:0:0:0:
423,193,24556,1,8,0:0:0:0:
400,175,24651,1,12,0:0:0:0:
196,302,25031,5,8,0:0:0:0:
203,225,25221,1,8,0:3:0:0:
258,346,25411,1,2,0:0:0:0:
196,302,25601,1,8,0:0:0:0:
126,334,25791,1,8,0:3:0:0:
207,229,25980,1,2,0:0:0:0:
207,229,26360,5,8,0:0:0:0:
196,302,26550,1,8,0:0:0:0:
71,213,26740,1,4,0:0:0:0:
71,213,27120,5,12,0:3:0:0:
82,140,27310,1,8,0:3:0:0:
150,113,27689,5,10,0:3:0:0:
82,140,29208,1,10,0:3:0:0:
225,91,30158,5,8,0:3:0:0:
150,113,30348,1,12,0:3:0:0:
394,64,30727,6,0,B|345:53|300:69,1,95.9999970703126,2|8,0:0|0:0,0:0:0:0:
280,191,31297,2,0,B|289:169|285:144,1,47.9999985351563,10|2,0:3|0:0,0:0:0:0:
208,219,31677,1,10,0:0:0:0:
132,207,31866,1,10,0:0:0:0:
284,195,32056,1,10,0:3:0:0:
284,195,32436,5,8,0:0:0:0:
208,219,32626,1,8,0:0:0:0:
165,283,32816,1,14,0:3:0:0:
165,283,33196,5,10,0:3:0:0:
180,147,33385,1,8,0:0:0:0:
361,294,33765,6,0,B|316:271|269:272,1,95.9999970703126,4|8,0:0|0:0,0:0:0:0:
207,349,34335,2,0,B|183:362|162:365,1,47.9999985351563,10|2,0:3|0:0,0:0:0:0:
78,315,34715,1,10,0:3:0:0:
78,217,34904,1,10,0:0:0:0:
205,152,35094,6,0,B|178:156|160:166,1,47.9999985351563,10|8,0:3|0:3,0:0:0:0:
342,189,35474,2,0,B|321:173|301:167,1,47.9999985351563,2|8,0:0|0:0,0:0:0:0:
412,312,35854,2,0,B|408:284|398:266,1,47.9999985351563,10|0,0:3|0:0,0:0:0:0:
468,145,36234,2,0,B|446:161|435:179,1,47.9999985351563,10|8,0:3|0:0,0:0:0:0:
303,275,36613,5,10,0:3:0:0:
412,312,36803,2,0,B|437:301|458:300,1,47.9999985351563,10|8,0:3|0:3,0:0:0:0:
380,104,37183,5,10,0:0:0:0:
307,279,37373,1,10,0:3:0:0:
307,279,37753,5,10,0:3:0:0:
191,128,37942,1,10,0:0:0:0:
292,170,38132,1,2,0:0:0:0:
292,170,38512,5,8,0:3:0:0:
205,237,38702,1,8,0:0:0:0:
278,61,38892,1,2,0:0:0:0:
278,61,39272,5,0,0:0:0:0:
393,212,39461,1,12,0:3:0:0:
90,86,39841,5,6,0:0:0:0:
22,59,41360,1,10,0:3:0:0:
165,108,42310,5,8,0:3:0:0:
90,86,42499,1,12,0:3:0:0:
334,134,42879,6,0,B|285:141|240:129,1,95.9999970703126,2|8,0:0|0:0,0:0:0:0:
191,232,43449,2,0,B|195:207|186:185,1,47.9999985351563,10|2,0:3|0:0,0:0:0:0:
142,292,43829,1,10,0:0:0:0:
114,219,44018,1,10,0:0:0:0:
219,309,44208,1,10,0:3:0:0:
219,309,44588,5,8,0:0:0:0:
142,292,44778,1,8,0:0:0:0:
88,350,44968,1,14,0:3:0:0:
88,350,45348,5,10,0:3:0:0:
114,219,45537,1,8,0:0:0:0:
311,330,45917,6,0,B|266:307|219:308,1,95.9999970703126,4|8,0:0|0:0,0:0:0:0:
114,219,46487,2,0,B|138:232|159:235,1,47.9999985351563,10|2,0:3|0:0,0:0:0:0:
300,177,46866,1,10,0:3:0:0:
209,154,47056,1,10,0:0:0:0:
69,235,47246,6,0,B|90:232|114:219,1,47.9999985351563,10|8,0:3|0:3,0:0:0:0:
112,94,47626,2,0,B|115:115|128:139,1,47.9999985351563,2|8,0:0|0:0,0:0:0:0:
254,138,48006,2,0,B|233:141|209:153,1,47.9999985351563,10|0,0:3|0:0,0:0:0:0:
209,278,48385,2,0,B|206:257|193:233,1,47.9999985351563,10|8,0:3|0:0,0:0:0:0:
49,158,48765,5,10,0:3:0:0:
190,74,48955,2,0,B|197:54|198:27,1,47.9999985351563,10|8,0:3|0:3,0:0:0:0:
113,219,49335,5,10,0:0:0:0:
274,222,49525,1,10,0:3:0:0:
274,222,49904,5,10,0:3:0:0:
209,278,50094,1,10,0:0:0:0:
254,138,50284,1,2,0:0:0:0:
254,138,50664,5,10,0:3:0:0:
352,246,50854,2,0,B|374:241|408:241,1,47.9999985351563,10|8,0:0|0:3,0:0:0:0:
209,278,51234,5,2,0:0:0:0:
274,222,51423,1,8,0:2:0:0:
370,325,51613,1,14,0:3:0:0:
448,64,51993,6,0,B|376:74|329:29,2,128,14|8|8,0:0|0:0|0:0,0:0:0:0:
512,145,52942,5,2,0:0:0:0:
455,197,53132,1,10,0:0:0:0:
436,271,53322,1,2,0:0:0:0:
346,214,53512,6,0,B|297:171|227:179,2,128,10|8|8,0:0|0:0|0:0,0:0:0:0:
256,320,54651,1,8,0:0:0:0:
227,179,55031,6,0,B|222:145|213:117,1,64,10|0,0:0|0:0,0:0:0:0:
72,198,55411,1,10,0:0:0:0:
77,121,55601,2,0,B|82:87|91:59,1,64,2|8,0:0|0:0,0:0:0:0:
197,23,55980,5,2,0:0:0:0:
264,60,56170,1,10,0:0:0:0:
340,61,56360,1,2,0:0:0:0:
450,17,56550,6,0,B|405:66|415:136,1,128,10|8,0:0|0:0,0:0:0:0:
502,225,57120,5,2,0:0:0:0:
502,225,57215,1,2,0:0:0:0:
502,225,57310,2,0,B|470:213|442:207,1,64,10|2,0:0|0:0,0:0:0:0:
365,220,57689,1,8,0:0:0:0:
315,278,57879,1,2,0:0:0:0:
225,247,58069,6,0,B|284:283|293:351,1,128,14|8,0:0|0:0,0:0:0:0:
185,351,58639,2,0,B|153:339|123:332,1,64,2|8,0:0|0:0,0:0:0:0:
20,343,59018,5,2,0:0:0:0:
67,282,59208,1,10,0:0:0:0:
76,205,59398,1,2,0:0:0:0:
175,168,59588,6,0,B|242:159|278:100,2,128,10|8|8,0:0|0:0|0:0,0:0:0:0:
420,82,60727,6,0,B|398:77|374:67,1,47.9999985351563,2|8,0:0|0:0,0:0:0:0:
350,50,61012,1,8,0:0:0:0:
331,27,61107,1,10,0:0:0:0:
84,95,61487,5,10,0:2:0:0:
254,123,61677,1,10,0:3:0:0:
34,287,62056,5,10,0:3:0:0:
204,315,62436,1,10,0:3:0:0:
374,343,62816,2,0,B|332:333|301:310,1,80,2|8,0:0|0:2,0:0:0:0:
192,213,63196,5,10,0:3:0:0:
380,237,63575,2,0,B|413:232|458:201,1,80,10|8,0:2|0:3,0:0:0:0:
213,301,63955,5,2,0:0:0:0:
167,74,64145,1,10,0:0:0:0:
156,57,64335,1,8,0:0:0:0:
126,275,64525,5,10,0:0:0:0:
254,90,64715,1,10,0:0:0:0:
272,82,64904,1,8,0:0:0:0:
300,327,65094,5,10,0:0:0:0:
161,181,65284,1,10,0:0:0:0:
11,364,65474,1,14,0:0:0:0:
11,364,65854,5,8,0:0:0:0:
60,214,66044,1,8,0:0:0:0:
221,363,66234,1,10,0:3:0:0:
477,61,66613,5,10,0:3:0:0:
20,28,67183,5,6,0:0:0:0:
107,17,67373,1,8,0:3:0:0:
187,50,67563,1,8,2:0:0:0:
239,118,67753,1,0,2:0:0:0:
217,282,67942,5,2,2:0:0:0:
250,203,68132,1,8,0:3:0:0:
318,151,68322,1,8,2:0:0:0:
481,175,68512,6,0,B|435:166|400:137,1,88.000002685547,2|0,0:3|0:0,0:0:0:0:
299,267,68892,2,0,B|329:232|370:217,1,88.000002685547,10|8,0:3|0:0,0:0:0:0:
512,319,69272,2,0,B|467:274|405:270|344:323|382:339|321:371|275:349,1,264.000008056641,10|8,0:3|0:0,0:0:0:0:
275,349,70221,5,10,0:3:0:0:
299,267,70411,1,8,0:3:0:0:
212,248,70601,1,8,0:2:0:0:
193,335,70791,1,8,0:3:0:0:
42,214,70980,5,2,0:0:0:0:
19,297,71170,1,8,0:3:0:0:
106,316,71360,1,8,0:0:0:0:
179,163,71550,6,0,B|137:184|125:229,1,88.000002685547,10|0,0:3|0:0,0:0:0:0:
28,60,71930,2,0,B|68:84|77:130,1,88.000002685547,10|8,0:3|0:0,0:0:0:0:
223,25,72310,2,0,B|148:42|122:134|186:206|260:189,1,264.000008056641,10|8,0:3|0:0,0:0:0:0:
241,107,73069,1,2,0:3:0:0:
178,262,73259,5,10,0:3:0:0:
259,189,73449,1,8,0:3:0:0:
363,223,73639,1,8,0:0:0:0:
385,330,73829,1,8,0:3:0:0:
445,150,74018,5,2,0:0:0:0:
363,223,74208,1,8,0:3:0:0:
259,189,74398,1,8,0:0:0:0:
179,16,74588,6,0,B|219:35|236:81,1,88.000002685547,10|0,0:3|0:0,0:0:0:0:
45,132,74968,2,0,B|81:107|130:116,1,88.000002685547,10|8,0:3|0:0,0:0:0:0:
79,306,75348,2,0,B|75:261|106:224,1,88.000002685547,10|0,0:3|0:0,0:0:0:0:
294,263,75727,5,10,0:3:0:0:
181,183,75917,1,10,0:0:0:0:
235,80,76107,1,10,0:3:0:0:
246,363,76297,6,0,B|205:343|188:298,1,88.000002685547,10|8,0:3|0:3,0:0:0:0:
305,128,76677,1,10,0:0:0:0:
378,246,76866,2,0,B|341:271|293:263,1,88.000002685547,10|0,0:3|0:0,0:0:0:0:
129,115,77246,5,10,0:3:0:0:
105,224,77436,1,8,0:0:0:0:
22,148,77626,1,8,0:3:0:0:
181,183,77816,5,6,0:1:0:0:
56,67,78006,1,6,0:1:0:0:
18,235,78196,5,10,0:1:0:0:
191,56,78385,1,6,0:1:0:0:
191,56,78765,5,10,0:1:0:0:
291,94,78955,2,0,B|327:97|355:83,1,64,8|2,0:3|0:0,0:0:0:0:
512,120,79335,5,6,0:0:0:0:
420,152,79525,1,8,0:3:0:0:
377,239,79715,1,8,2:0:0:0:
408,330,79904,1,8,2:3:0:0:
199,227,80094,5,2,2:0:0:0:
290,196,80284,1,8,0:3:0:0:
377,239,80474,1,8,2:0:0:0:
489,354,80664,6,0,B|442:361|408:330,1,88.000002685547,10|0,0:3|0:0,0:0:0:0:
218,311,81044,2,0,B|252:280|299:286,1,88.000002685547,10|10,0:3|0:0,0:0:0:0:
506,193,81423,2,0,B|445:148|358:190|346:284|408:329,1,264.000008056641,10|8,0:3|0:0,0:0:0:0:
459,262,82183,1,2,0:0:0:0:
299,203,82373,5,10,0:3:0:0:
218,311,82563,1,2,0:0:0:0:
110,230,82753,1,10,0:0:0:0:
191,122,82942,2,0,B|212:83|202:36,1,88.000002685547,10|0,0:3|0:0,0:0:0:0:
110,230,83322,5,10,0:3:0:0:
218,311,83512,1,10,0:0:0:0:
299,203,83702,2,0,B|338:182|385:192,1,88.000002685547,10|0,0:3|0:0,0:0:0:0:
284,61,84082,2,0,B|248:34|200:36,1,88.000002685547,10|8,0:3|0:0,0:0:0:0:
35,85,84461,5,10,0:0:0:0:
35,85,84556,1,8,0:0:0:0:
35,85,84651,1,8,0:0:0:0:
110,24,84841,1,8,0:0:0:0:
284,61,85031,2,2,B|330:62|366:35,1,88.000002685547,10|0,0:0|0:0,0:1:0:0:
502,197,85411,5,12,0:2:0:0:
467,116,85601,1,8,0:3:0:0:
502,197,85791,1,10,0:2:0:0:
467,116,85980,1,8,0:3:0:0:
378,243,86170,5,10,0:2:0:0:
251,154,86360,1,10,0:3:0:0:
161,280,86550,1,10,0:2:0:0:
287,370,86740,2,0,B|333:371|372:341,1,88.000002685547,10|8,0:3|0:2,0:0:0:0:
467,116,87120,6,0,B|421:115|384:142,1,88.000002685547,10|8,0:3|0:2,0:0:0:0:
169,180,87499,2,0,B|215:181|251:153,1,88.000002685547,10|8,0:3|0:2,0:0:0:0:
98,360,87879,5,10,0:3:0:0:
82,161,88069,1,10,0:2:0:0:
247,47,88259,1,10,0:3:0:0:
263,246,88449,5,10,0:2:0:0:
368,283,88639,1,8,0:3:0:0:
348,174,88829,1,8,0:2:0:0:
368,283,89018,1,8,0:3:0:0:
455,213,89208,1,8,0:2:0:0:
263,246,89398,5,10,0:3:0:0:
436,101,89588,1,10,0:2:0:0:
241,135,89778,2,0,B|184:136|146:111,1,95.9999970703126,6|0,0:0|0:0,0:0:0:0:
17,21,90158,5,10,0:0:0:0:
17,21,90348,1,8,0:0:0:0:
4,180,90537,1,10,0:0:0:0:
4,180,90727,1,8,0:0:0:0:
148,112,90917,1,10,0:0:0:0:
187,292,91107,5,10,0:0:0:0:
140,300,91202,1,8,0:0:0:0:
99,277,91297,1,10,0:0:0:0:
82,233,91392,1,8,0:0:0:0:
97,189,91487,1,14,0:0:0:0:
256,192,91582,12,6,94525,0:0:0:0:
