osu file format v14

[General]
AudioFilename: audio.mp3
AudioLeadIn: 0
PreviewTime: 63
Countdown: 0
SampleSet: Soft
StackLeniency: 0.7
Mode: 0
LetterboxInBreaks: 0
WidescreenStoryboard: 1

[Editor]
DistanceSpacing: 1
BeatDivisor: 4
GridSize: 32
TimelineZoom: 1.7

[Metadata]
Title:Natsukoi Hanabi
TitleUnicode:夏恋花火
Artist:chano & 40mP
ArtistUnicode:シャノ & 40mP
Creator:Lasse
Version:Harder
Source:
Tags:Shano 40meterP Panorama Note VINXIS Bonsai deetz
BeatmapID:1426731
BeatmapSetID:650427

[Difficulty]
HPDrainRate:5
CircleSize:3.8
OverallDifficulty:7
ApproachRate:7.2
SliderMultiplier:1.44
SliderTickRate:1

[Events]
//Background and Video events
0,0,"a.jpg",0,0
//Break Periods
//Storyboard Layer 0 (Background)
//Storyboard Layer 1 (Fail)
//Storyboard Layer 2 (Pass)
//Storyboard Layer 3 (Foreground)
//Storyboard Sound Samples

[TimingPoints]
348,379.746835443038,4,2,22,30,1,0
348,-142.857142857143,4,2,22,30,0,0
9461,-125,4,2,22,40,0,0
10791,-125,4,2,22,44,0,0
12120,-76.9230769230769,4,2,22,44,0,0
12404,-76.9230769230769,4,2,22,5,0,0
12499,-100,4,2,1,52,0,0
18575,-100,4,2,1,56,0,1
18765,-100,4,2,1,56,0,0
19335,-100,4,2,1,58,0,0
20664,-100,4,2,1,60,0,0
21613,-100,4,2,1,62,0,0
23322,-100,4,2,1,52,0,0
23702,-100,4,2,1,56,0,0
24082,-100,4,2,1,52,0,0
24272,-100,4,2,1,50,0,0
24651,-142.857142857143,4,2,1,50,0,0
27310,-90.9090909090909,4,2,1,50,0,0
27689,-142.857142857143,4,2,1,48,0,0
39461,-76.923076923077,4,2,1,48,0,0
40031,-142.857142857143,4,2,1,48,0,0
51613,-76.923076923077,4,2,1,48,0,0
51993,-125,4,2,25,40,0,0
57689,-76.9230769230769,4,2,25,40,0,0
58069,-125,4,2,25,40,0,0
60727,-125,4,2,25,42,0,0
61107,-100,4,2,1,52,0,0
63006,-100,4,2,26,52,0,0
63196,-100,4,2,1,52,0,0
64145,-100,4,2,1,54,0,0
65094,-100,4,2,1,56,0,0
65854,-100,4,2,1,54,0,0
66613,-71.4285714285714,4,2,1,54,0,0
66993,-71.4285714285714,4,2,22,20,0,0
67183,-90.9090909090909,4,2,1,60,0,1
67373,-90.9090909090909,4,2,1,60,0,0
77816,-83.3333333333333,4,2,1,61,0,1
78006,-90.9090909090909,4,2,1,62,0,1
78196,-90.9090909090909,4,2,1,63,0,1
78385,-90.9090909090909,4,2,1,64,0,0
78765,-125,4,2,1,50,0,0
79145,-125,4,2,1,44,0,0
79335,-90.9090909090909,4,2,1,60,0,1
79525,-90.9090909090909,4,2,1,60,0,0
85411,-83.3333333333333,4,2,1,64,0,1
85601,-83.3333333333333,4,2,1,64,0,1
89588,-83.3333333333333,4,2,1,64,0,0
89778,-83.3333333333333,4,2,1,60,0,1
89968,-83.3333333333333,4,2,1,50,0,1
90158,-83.3333333333333,4,2,1,52,0,1
90348,-83.3333333333333,4,2,1,54,0,1
90537,-83.3333333333333,4,2,1,56,0,1
90727,-83.3333333333333,4,2,1,58,0,1
90917,-83.3333333333333,4,2,1,60,0,1
91107,-83.3333333333333,4,2,1,62,0,1
91582,-83.3333333333333,4,2,1,30,0,0
94525,-83.3333333333333,4,2,22,54,0,0

[Colours]
Combo1 : 250,210,110
Combo2 : 250,110,110
Combo3 : 250,170,110
Combo4 : 250,130,190

[HitObjects]
112,60,348,6,0,L|57:54,2,50.3999984619141,2|2|2,0:1|0:0|0:0,0:0:0:0:
171,114,917,2,0,B|179:169|158:160|169:213,5,100.799996923828,2|2|2|2|2|2,0:1|0:0|0:0|0:0|0:0|0:1,0:0:0:0:
400,60,3385,6,0,L|455:54,2,50.3999984619141,2|2|2,0:1|0:0|0:0,0:0:0:0:
341,114,3955,2,0,B|333:169|354:160|342:213,1,100.799996923828,2|2,0:1|0:0,0:0:0:0:
169,213,4715,2,0,B|158:160|179:169|171:114,3,100.799996923828,2|2|2|2,0:1|0:0|0:0|0:1,0:0:0:0:
256,307,6423,6,0,L|256:371,2,50.3999984619141,2|2|2,0:1|0:0|0:0,0:0:0:0:
210,240,6993,2,0,P|179:230|101:228,1,100.799996923828,2|2,0:1|0:0,0:0:0:0:
302,240,7753,2,0,P|333:230|411:228,1,100.799996923828,2|2,0:1|0:0,0:0:0:0:
256,170,8512,2,0,L|256:69,2,100.799996923828,2|2|2,0:1|0:1|0:1,0:0:0:0:
210,240,9461,5,10,0:3:0:0:
210,240,9841,1,14,0:3:0:0:
139,196,10031,2,0,P|111:186|83:180,1,57.6,2|0,0:1|0:0,0:0:0:0:
136,280,10411,2,0,P|108:289|80:295,1,57.6,10|0,0:0|0:0,0:0:0:0:
0,235,10791,5,6,0:0:0:0:
0,235,11170,1,10,0:2:0:0:
83,180,11360,1,8,0:2:0:0:
84,299,11550,1,10,0:3:0:0:
84,299,11930,1,10,0:0:0:0:
0,235,12120,2,0,P|-15:167|17:106,1,140.399993572998,12|0,0:3|0:0,0:0:0:0:
36,92,12499,6,0,L|127:83,1,72,6|10,0:0|0:3,0:0:0:0:
191,78,12879,1,8,0:0:0:0:
299,36,13069,2,0,P|277:64|270:99,1,72,10|0,0:3|0:0,0:0:0:0:
254,216,13449,2,0,P|240:182|213:159,1,72,10|8,0:3|0:0,0:0:0:0:
122,87,13829,2,0,P|157:91|190:79,1,72,10|0,0:3|0:0,0:0:0:0:
307,44,14208,2,0,P|285:72|278:107,1,72,10|8,0:3|0:0,0:0:0:0:
262,224,14588,2,0,P|248:190|221:167,1,72,10|0,0:3|0:0,0:0:0:0:
130,95,14968,2,0,P|165:99|198:87,1,72,10|10,0:3|0:0,0:0:0:0:
206,94,15537,6,0,P|173:106|138:103,1,72,10|2,0:3|0:0,0:0:0:0:
59,74,15917,1,10,0:0:0:0:
31,210,16107,2,0,P|58:186|73:154,1,72,10|0,0:3|0:0,0:0:0:0:
157,251,16487,2,0,P|159:215|147:181,1,72,10|8,0:3|0:0,0:0:0:0:
275,190,16866,2,0,P|251:163|218:147,1,72,10|0,0:3|0:0,0:0:0:0:
315,63,17246,2,0,P|279:60|245:72,1,72,10|8,0:3|0:0,0:0:0:0:
352,149,17626,5,8,0:3:0:0:
352,149,17721,1,8,0:0:0:0:
352,149,17816,1,8,0:0:0:0:
416,100,18006,1,8,0:0:0:0:
430,183,18196,1,12,0:3:0:0:
430,183,18575,6,0,L|514:189,1,72,14|8,0:2|0:3,0:0:0:0:
443,265,18955,2,0,L|372:260,1,72,8|8,0:0|0:3,0:0:0:0:
288,308,19335,5,10,0:1:0:0:
267,315,19525,1,6,0:1:0:0:
251,327,19715,1,10,0:1:0:0:
140,362,19904,6,0,L|134:267,1,72,6|8,0:1|0:0,0:0:0:0:
251,327,20284,2,0,L|257:232,1,72,6|8,0:1|0:0,0:0:0:0:
144,205,20664,5,6,0:1:0:0:
135,185,20854,1,10,0:1:0:0:
39,146,21044,2,0,L|33:51,2,72,6|8|8,0:1|0:0|0:3,0:0:0:0:
57,260,21613,5,10,0:1:0:0:
135,185,21803,2,0,L|139:113,1,72,6|8,0:1|0:0,0:0:0:0:
251,210,22183,2,0,L|236:139,1,72,6|8,0:1|0:0,0:0:0:0:
370,205,22563,2,0,L|338:140,1,72,6|8,0:1|0:0,0:0:0:0:
247,282,22942,6,0,L|251:210,1,72,6|0,0:2|0:0,0:0:0:0:
331,282,23322,1,10,0:0:0:0:
344,298,23512,1,8,0:0:0:0:
428,279,23702,2,0,L|502:289,1,72,10|8,0:0|0:0,0:0:0:0:
370,205,24082,1,8,0:0:0:0:
445,153,24272,1,8,0:0:0:0:
449,149,24366,1,8,0:0:0:0:
453,145,24461,1,8,0:0:0:0:
457,141,24556,1,8,0:0:0:0:
461,137,24651,6,0,L|467:34,1,100.799996923828,12|8,0:0|0:0,0:0:0:0:
390,12,25221,1,8,0:3:0:0:
317,47,25411,2,0,L|248:37,2,50.3999984619141,2|8|8,0:0|0:0|0:3,0:0:0:0:
343,128,25980,5,2,0:0:0:0:
343,128,26360,1,8,0:0:0:0:
347,208,26550,1,8,0:0:0:0:
263,132,26740,1,4,0:0:0:0:
263,132,27120,1,12,0:3:0:0:
343,128,27310,6,0,B|375:122|395:89|389:46|367:25|367:25|358:43|364:67,1,158.400004833985,8|10,0:3|0:3,0:0:0:0:
148,334,29208,1,10,0:3:0:0:
148,334,30158,1,8,0:3:0:0:
119,258,30348,1,12,0:3:0:0:
119,258,30727,6,0,P|70:234|8:224,1,100.799996923828,2|8,0:0|0:0,0:0:0:0:
14,144,31297,2,0,P|63:120|125:110,1,100.799996923828,10|10,0:3|0:0,0:0:0:0:
183,139,31866,1,10,0:0:0:0:
260,109,32056,1,10,0:3:0:0:
260,109,32436,1,8,0:0:0:0:
329,139,32626,1,8,0:0:0:0:
404,110,32816,1,14,0:3:0:0:
404,110,33196,1,10,0:3:0:0:
394,189,33385,1,8,0:0:0:0:
394,189,33765,6,0,L|388:305,1,100.799996923828,4|8,0:0|0:0,0:0:0:0:
477,216,34335,2,0,L|471:266,2,50.3999984619141,10|2|10,0:3|0:0|0:3,0:0:0:0:
460,139,34904,1,10,0:0:0:0:
391,96,35094,2,0,B|335:84,1,50.3999984619141,10|8,0:3|0:3,0:0:0:0:
336,166,35474,2,0,B|280:178,1,50.3999984619141,2|8,0:0|0:0,0:0:0:0:
238,113,35854,1,10,0:3:0:0:
238,113,36234,2,0,L|188:103,1,50.3999984619141,10|8,0:3|0:0,0:0:0:0:
109,116,36612,1,10,0:3:0:0:
147,188,36803,6,0,P|181:152|188:103,1,100.799996923828,10|10,0:3|0:0,0:0:0:0:
137,40,37373,1,10,0:3:0:0:
137,40,37753,1,10,0:3:0:0:
109,116,37942,1,10,0:0:0:0:
188,103,38132,2,0,P|231:96|309:109,1,100.799996923828,2|8,0:0|0:3,0:0:0:0:
343,161,38702,1,8,0:0:0:0:
346,46,38892,1,2,0:0:0:0:
346,46,39272,1,0,0:0:0:0:
402,105,39461,6,0,B|437:118|475:96|494:50|484:17|484:17|463:26|452:69,1,187.199991430664,12|6,0:3|0:0,0:0:0:0:
352,352,41360,1,10,0:3:0:0:
352,352,42310,1,8,0:3:0:0:
426,321,42500,1,12,0:3:0:0:
426,321,42879,6,0,P|450:272|460:210,1,100.799996923828,2|8,0:0|0:0,0:0:0:0:
418,156,43449,2,0,P|395:111|384:61,1,100.799996923828,10|10,0:3|0:0,0:0:0:0:
313,24,44018,1,10,0:0:0:0:
256,81,44208,1,10,0:3:0:0:
256,81,44588,1,8,0:0:0:0:
199,24,44778,1,8,0:0:0:0:
128,61,44968,1,14,0:3:0:0:
128,61,45348,1,10,0:3:0:0:
186,120,45537,1,8,0:0:0:0:
186,120,45917,6,0,L|196:240,1,100.799996923828,4|8,0:0|0:0,0:0:0:0:
132,313,46487,2,0,P|156:304|181:300,2,50.3999984619141,10|2|10,0:3|0:0|0:3,0:0:0:0:
70,364,47056,1,10,0:0:0:0:
12,308,47246,2,0,P|1:283|0:252,1,50.3999984619141,10|8,0:3|0:3,0:0:0:0:
61,210,47626,2,0,P|71:187|73:162,1,50.3999984619141,2|8,0:0|0:0,0:0:0:0:
18,108,48006,1,10,0:3:0:0:
18,108,48385,2,0,P|7:85|5:60,1,50.3999984619141,10|8,0:3|0:0,0:0:0:0:
74,20,48764,1,10,0:3:0:0:
148,52,48955,6,0,P|193:58|253:41,1,100.799996923828,10|10,0:3|0:0,0:0:0:0:
322,73,49525,1,10,0:3:0:0:
322,73,49904,1,10,0:3:0:0:
260,123,50094,1,10,0:0:0:0:
334,154,50284,2,0,P|379:148|439:165,1,100.799996923828,2|10,0:0|0:3,0:0:0:0:
483,224,50854,2,0,L|489:293,1,50.3999984619141,10|8,0:0|0:3,0:0:0:0:
388,289,51234,2,0,L|377:239,1,50.3999984619141,2|8,0:0|0:0,0:0:0:0:
334,154,51613,6,0,B|314:186|271:192|227:169|214:137|214:137|239:136|252:154,1,187.199991430664,14|14,0:3|0:0,0:0:0:0:
251,153,52373,1,8,0:0:0:0:
251,153,52753,1,8,0:0:0:0:
251,153,53132,1,10,0:0:0:0:
325,120,53512,5,10,0:0:0:0:
255,88,53892,1,8,0:0:0:0:
192,132,54272,1,8,0:0:0:0:
198,208,54651,1,8,0:0:0:0:
125,178,55031,5,10,0:0:0:0:
188,227,55411,1,10,0:0:0:0:
117,198,55791,1,8,0:0:0:0:
176,245,56170,1,10,0:0:0:0:
105,272,56550,6,0,B|84:278|70:266|70:266|57:263|41:270|41:270|18:256|-16:264,1,115.2,10|8,0:0|0:0,0:0:0:0:
4,339,57120,2,0,L|5:374,2,28.8,2|2|10,0:0|0:0|0:0,0:0:0:0:
117,198,57689,6,0,B|150:158|141:101|100:78|100:78|92:100|98:128,1,187.199991430664,8|14,0:0|0:0,0:0:0:0:
97,126,58449,1,8,0:0:0:0:
97,126,58829,1,8,0:0:0:0:
97,126,59208,1,10,0:0:0:0:
182,119,59588,5,10,0:0:0:0:
256,141,59968,1,8,0:0:0:0:
309,197,60348,1,8,0:0:0:0:
326,271,60727,2,0,L|326:336,1,57.6,2|8,0:0|0:0,0:0:0:0:
337,347,61012,1,8,0:0:0:0:
348,366,61107,5,10,0:0:0:0:
441,155,61487,1,10,0:2:0:0:
461,239,61677,1,10,0:3:0:0:
303,71,62056,1,10,0:3:0:0:
237,292,62436,5,10,0:3:0:0:
441,155,62816,1,2,0:0:0:0:
375,376,63195,1,10,0:3:0:0:
217,208,63575,2,0,P|171:196|128:201,1,72,10|8,0:2|0:3,0:0:0:0:
69,263,63955,5,2,0:0:0:0:
4,183,64145,2,0,L|-1:98,1,72,10|8,0:0|0:0,0:0:0:0:
146,197,64525,5,10,0:0:0:0:
211,117,64715,2,0,L|216:32,1,72,10|8,0:0|0:0,0:0:0:0:
354,96,65094,5,10,0:0:0:0:
362,79,65284,1,10,0:0:0:0:
419,194,65474,1,14,0:0:0:0:
419,194,65854,5,8,0:0:0:0:
445,106,66044,1,8,0:0:0:0:
324,184,66234,1,10,0:3:0:0:
324,184,66613,6,0,P|225:168|204:65,1,201.599993847656,10|0,0:3|0:0,0:0:0:0:
286,101,67183,6,0,L|207:90,1,79.2000024169923,6|8,0:0|0:3,0:0:0:0:
94,29,67563,2,0,L|129:114,1,79.2000024169923,8|0,2:0|2:0,0:0:0:0:
128,232,67942,2,0,L|184:158,1,79.2000024169923,2|8,2:0|0:3,0:0:0:0:
286,101,68322,1,8,2:0:0:0:
367,240,68512,6,0,L|275:228,1,79.2000024169923,2|0,0:3|0:0,0:0:0:0:
176,169,68892,2,0,L|211:254,1,79.2000024169923,10|8,0:3|0:0,0:0:0:0:
209,371,69271,2,0,B|257:308|257:308|321:370,1,158.400004833985,10|8,0:3|0:3,0:0:0:0:
371,244,69841,1,8,0:0:0:0:
371,244,70221,6,0,P|409:247|447:229,1,79.2000024169923,10|8,0:3|0:3,0:0:0:0:
347,111,70601,2,0,P|363:147|396:169,1,79.2000024169923,8|8,0:2|0:3,0:0:0:0:
450,24,70980,2,0,P|427:55|424:94,1,79.2000024169923,2|8,0:0|0:3,0:0:0:0:
445,230,71360,1,8,0:0:0:0:
347,111,71551,6,0,P|315:88|273:85,1,79.2000024169923,10|0,0:3|0:0,0:0:0:0:
301,237,71931,2,0,P|304:198|287:162,1,79.2000024169923,10|8,0:3|0:0,0:0:0:0:
168,262,72310,2,0,B|211:254|224:212|224:212|193:184|150:189,1,158.400004833985,10|8,0:3|0:3,0:0:0:0:
129,332,72879,2,0,P|99:305|88:268,1,79.2000024169923,8|2,0:0|0:3,0:0:0:0:
51,176,73259,5,10,0:3:0:0:
44,161,73449,1,8,0:3:0:0:
151,188,73639,2,0,L|246:167,1,79.2000024169923,8|8,0:0|0:3,0:0:0:0:
322,229,74018,1,2,0:0:0:0:
329,214,74208,1,8,0:3:0:0:
381,312,74398,1,8,0:0:0:0:
471,247,74588,6,0,L|480:158,1,79.2000024169923,10|0,0:3|0:0,0:0:0:0:
329,214,74968,2,0,L|338:125,1,79.2000024169923,10|8,0:3|0:0,0:0:0:0:
187,181,75348,2,0,L|196:92,1,79.2000024169923,10|0,0:3|0:0,0:0:0:0:
115,24,75727,1,10,0:3:0:0:
86,131,75917,1,10,0:0:0:0:
78,117,76107,1,10,0:3:0:0:
199,106,76297,5,10,0:3:0:0:
199,106,76677,1,10,0:0:0:0:
160,209,76866,1,10,0:3:0:0:
160,209,77246,1,10,0:3:0:0:
270,194,77436,1,8,0:0:0:0:
267,209,77626,1,8,0:3:0:0:
378,177,77816,6,0,L|388:55,1,86.3999973632813,6|6,0:1|0:1,0:0:0:0:
465,162,78196,1,10,0:1:0:0:
452,44,78385,1,6,0:1:0:0:
452,44,78765,1,10,0:1:0:0:
385,90,78955,6,0,P|345:83|319:66,1,57.6,8|2,0:3|0:0,0:0:0:0:
393,107,79335,6,0,P|353:104|317:89,1,79.2000024169923,6|8,0:0|0:3,0:0:0:0:
322,241,79715,2,0,P|296:211|281:174,1,79.2000024169923,8|8,2:0|2:3,0:0:0:0:
177,284,80094,2,0,P|180:244|195:208,1,79.2000024169923,2|8,2:0|0:3,0:0:0:0:
273,332,80474,1,8,2:0:0:0:
135,357,80664,6,0,L|43:345,1,79.2000024169923,10|0,0:3|0:0,0:0:0:0:
177,284,81044,1,10,0:3:0:0:
273,332,81234,1,10,0:0:0:0:
322,241,81423,2,0,B|352:135|352:135|298:177,1,158.400004833985,10|0,0:3|0:0,0:0:0:0:
192,177,81993,2,0,L|183:94,1,79.2000024169923,8|2,0:0|0:0,0:0:0:0:
291,51,82373,5,10,0:3:0:0:
302,34,82563,1,2,0:0:0:0:
353,136,82753,1,10,0:0:0:0:
456,97,82942,2,0,L|465:14,1,79.2000024169923,10|0,0:3|0:0,0:0:0:0:
313,17,83322,5,10,0:3:0:0:
342,119,83512,1,10,0:0:0:0:
239,93,83702,2,0,L|141:85,1,79.2000024169923,10|0,0:3|0:0,0:0:0:0:
189,188,84082,2,0,L|268:195,1,79.2000024169923,10|8,0:3|0:0,0:0:0:0:
363,249,84461,5,10,0:0:0:0:
363,249,84556,1,8,0:0:0:0:
363,249,84651,1,8,0:0:0:0:
441,290,84841,1,8,0:0:0:0:
357,325,85031,2,2,P|351:290|363:246,1,79.2000024169923,10|0,0:0|0:0,0:1:0:0:
460,156,85411,6,0,L|468:59,1,86.3999973632813,12|8,0:2|0:3,0:0:0:0:
348,130,85791,2,0,L|344:32,1,86.3999973632813,10|8,0:2|0:3,0:0:0:0:
233,117,86170,5,10,0:2:0:0:
226,74,86360,1,10,0:3:0:0:
219,31,86550,1,10,0:2:0:0:
124,93,86740,6,0,P|80:92|38:73,1,86.3999973632813,10|8,0:3|0:2,0:0:0:0:
133,184,87120,2,0,P|101:214|58:230,1,86.3999973632813,10|8,0:3|0:2,0:0:0:0:
203,241,87499,2,0,P|202:285|183:327,1,86.3999973632813,10|8,0:3|0:2,0:0:0:0:
292,231,87879,5,10,0:3:0:0:
321,261,88069,1,10,0:2:0:0:
337,301,88259,1,10,0:3:0:0:
425,363,88449,6,0,L|434:259,1,86.3999973632813,10|8,0:2|0:3,0:0:0:0:
512,184,88829,2,0,L|503:80,1,86.3999973632813,8|8,0:2|0:3,0:0:0:0:
397,42,89208,1,8,0:2:0:0:
313,129,89398,2,0,B|263:135|263:135|217:117,1,86.3999973632813,10|10,0:3|0:2,0:0:0:0:
131,26,89778,5,6,0:0:0:0:
131,26,90158,1,10,0:0:0:0:
131,43,90348,1,8,0:0:0:0:
101,114,90537,1,10,0:0:0:0:
85,130,90727,1,8,0:0:0:0:
0,125,90917,1,10,0:0:0:0:
46,49,91107,5,10,0:0:0:0:
46,49,91202,1,8,0:0:0:0:
46,49,91297,1,10,0:0:0:0:
46,49,91392,1,8,0:0:0:0:
46,49,91487,1,14,0:0:0:0:
256,192,91582,12,6,94525,0:0:0:0:
