osu file format v14

[General]
AudioFilename: audio.mp3
AudioLeadIn: 0
PreviewTime: 63
Countdown: 0
SampleSet: Soft
StackLeniency: 0.6
Mode: 0
LetterboxInBreaks: 0
WidescreenStoryboard: 1

[Editor]
DistanceSpacing: 1
BeatDivisor: 4
GridSize: 32
TimelineZoom: 1.7

[Metadata]
Title:Natsukoi Hanabi
TitleUnicode:夏恋花火
Artist:chano & 40mP
ArtistUnicode:シャノ & 40mP
Creator:Lasse
Version:Hard
Source:
Tags:Shano 40meterP Panorama Note VINXIS Bonsai deetz
BeatmapID:1382228
BeatmapSetID:650427

[Difficulty]
HPDrainRate:5
CircleSize:3.6
OverallDifficulty:6
ApproachRate:7
SliderMultiplier:1.32
SliderTickRate:1

[Events]
//Background and Video events
0,0,"a.jpg",0,0
//Break Periods
//Storyboard Layer 0 (Background)
//Storyboard Layer 1 (Fail)
//Storyboard Layer 2 (Pass)
//Storyboard Layer 3 (Foreground)
//Storyboard Sound Samples

[TimingPoints]
348,379.746835443038,4,2,22,30,1,0
348,-142.857142857143,4,2,22,30,0,0
9461,-125,4,2,22,40,0,0
10791,-125,4,2,22,44,0,0
12499,-100,4,2,1,52,0,0
18575,-100,4,2,1,56,0,1
18765,-100,4,2,1,56,0,0
19335,-100,4,2,1,58,0,0
20664,-100,4,2,1,60,0,0
21613,-100,4,2,1,62,0,0
23322,-100,4,2,1,52,0,0
23702,-100,4,2,1,56,0,0
24082,-100,4,2,1,52,0,0
24272,-100,4,2,1,50,0,0
24651,-125,4,2,1,50,0,0
27689,-142.857142857143,4,2,1,48,0,0
39461,-142.857142857143,4,2,1,48,0,0
40031,-142.857142857143,4,2,1,48,0,0
51993,-125,4,2,25,40,0,0
57689,-125,4,2,25,40,0,0
58069,-125,4,2,25,40,0,0
60727,-125,4,2,25,42,0,0
61107,-100,4,2,1,52,0,0
63006,-100,4,2,26,52,0,0
63196,-100,4,2,1,52,0,0
64145,-100,4,2,1,54,0,0
65094,-100,4,2,1,56,0,0
65854,-100,4,2,1,54,0,0
66613,-100,4,2,1,54,0,0
66993,-71.4285714285714,4,2,22,20,0,0
67183,-90.9090909090909,4,2,1,60,0,1
67373,-90.9090909090909,4,2,1,60,0,0
77816,-83.3333333333333,4,2,1,61,0,1
78006,-90.9090909090909,4,2,1,62,0,1
78196,-90.9090909090909,4,2,1,63,0,1
78385,-90.9090909090909,4,2,1,64,0,0
78765,-125,4,2,1,50,0,0
79145,-125,4,2,1,44,0,0
79335,-90.9090909090909,4,2,1,60,0,1
79525,-90.9090909090909,4,2,1,60,0,0
85411,-83.3333333333333,4,2,1,64,0,1
85601,-83.3333333333333,4,2,1,64,0,1
89588,-83.3333333333333,4,2,1,64,0,0
89778,-83.3333333333333,4,2,1,60,0,1
89968,-83.3333333333333,4,2,1,50,0,1
90158,-83.3333333333333,4,2,1,52,0,1
90348,-83.3333333333333,4,2,1,54,0,1
90537,-83.3333333333333,4,2,1,56,0,1
90727,-83.3333333333333,4,2,1,58,0,1
90917,-83.3333333333333,4,2,1,60,0,1
91107,-83.3333333333333,4,2,1,62,0,1
91582,-83.3333333333333,4,2,1,30,0,0
94525,-83.3333333333333,4,2,22,54,0,0

[Colours]
Combo1 : 250,210,110
Combo2 : 250,110,110
Combo3 : 250,170,110
Combo4 : 250,130,190

[HitObjects]
79,202,348,6,0,L|22:198,2,46.1999985900879,2|2|2,0:1|0:0|0:0,0:0:0:0:
157,230,917,2,0,B|203:226|202:243|248:237,5,92.3999971801759,2|2|2|2|2|2,0:1|0:0|0:0|0:0|0:0|0:1,0:0:0:0:
448,88,3385,6,0,L|500:93,2,46.1999985900879,2|2|2,0:1|0:0|0:0,0:0:0:0:
367,107,3955,2,0,B|321:111|322:94|275:99,1,92.3999971801759,2|2,0:1|0:0,0:0:0:0:
157,230,4715,2,0,B|203:226|202:243|248:237,3,92.3999971801759,2|2|2|2,0:1|0:0|0:0|0:1,0:0:0:0:
54,81,6423,6,0,P|54:60|46:23,2,46.1999985900879,2|2|2,0:1|0:0|0:0,0:0:0:0:
103,148,6993,2,0,P|147:136|193:137,1,92.3999971801759,2|2,0:1|0:0,0:0:0:0:
326,202,7753,2,0,P|372:203|416:191,1,92.3999971801759,2|2,0:1|0:0,0:0:0:0:
392,45,8512,2,0,P|345:43|301:55,2,92.3999971801759,2|2|2,0:1|0:1|0:1,0:0:0:0:
451,107,9461,6,0,L|454:212,1,105.6,10|14,0:3|0:3,0:0:0:0:
408,279,10031,2,0,P|362:263|297:265,1,105.6,2|10,0:1|0:0,0:0:0:0:
171,325,10791,6,0,L|167:211,1,105.6,6|10,0:0|0:2,0:0:0:0:
163,135,11360,1,8,0:2:0:0:
238,174,11550,2,0,P|290:174|340:158,1,105.6,10|10,0:3|0:0,0:0:0:0:
388,88,12120,1,12,0:3:0:0:
163,135,12499,6,0,L|70:124,2,66,6|10|8,0:0|0:3|0:0,0:0:0:0:
250,182,13069,2,0,P|288:236|291:301,1,132,10|10,0:3|0:3,0:0:0:0:
203,359,13639,1,8,0:0:0:0:
173,259,13829,2,0,P|238:262|291:300,1,132,10|10,0:3|0:3,0:0:0:0:
394,324,14398,1,8,0:0:0:0:
386,219,14588,2,0,P|326:245|291:300,1,132,10|10,0:3|0:3,0:0:0:0:
203,359,15158,1,10,0:0:0:0:
78,215,15537,6,0,L|71:122,2,66,10|2|10,0:3|0:0|0:0,0:0:0:0:
173,259,16107,2,0,P|238:262|291:300,1,132,10|10,0:3|0:3,0:0:0:0:
203,359,16677,1,8,0:0:0:0:
102,338,16866,2,0,P|72:280|78:215,1,132,10|10,0:3|0:3,0:0:0:0:
173,259,17436,1,8,0:0:0:0:
251,188,17626,1,8,0:3:0:0:
251,188,17721,1,8,0:0:0:0:
251,188,17816,2,0,P|284:184|324:187,2,66,8|8|12,0:0|0:0|0:3,0:0:0:0:
44,142,18575,6,0,P|35:71|18:12,1,132,14|8,0:2|0:0,0:0:0:0:
153,176,19335,2,0,P|158:134|168:100,2,66,10|6|10,0:1|0:1|0:1,0:0:0:0:
238,237,19904,6,0,P|301:218|366:211,1,132,6|6,0:1|0:1,0:0:0:0:
469,237,20474,1,8,0:0:0:0:
398,316,20664,2,0,P|356:311|322:301,2,66,6|10|6,0:1|0:1|0:1,0:0:0:0:
473,241,21234,2,0,P|468:199|458:165,1,66,8|8,0:0|0:3,0:0:0:0:
385,103,21613,6,0,P|390:61|400:27,2,66,10|6|8,0:1|0:1|0:0,0:0:0:0:
294,158,22183,2,0,L|217:148,1,66,6|8,0:1|0:0,0:0:0:0:
125,176,22563,2,0,L|48:166,1,66,6|8,0:1|0:0,0:0:0:0:
91,279,22942,6,0,P|138:237|124:175,1,132,6|10,0:2|0:0,0:0:0:0:
88,90,23512,1,8,0:0:0:0:
173,55,23702,2,0,P|202:50|255:57,2,66,10|8|8,0:0|0:0|0:0,0:0:0:0:
208,140,24272,2,0,L|260:154,2,33,8|8|8,0:0|0:0|0:0,0:0:0:0:
109,211,24651,6,0,P|139:250|145:315,1,105.6,12|8,0:0|0:0,0:0:0:0:
204,367,25221,1,8,0:3:0:0:
256,301,25411,2,0,L|256:239,2,52.8,2|8|8,0:0|0:0|0:3,0:0:0:0:
308,367,25980,6,0,P|362:352|431:361,1,105.6,2|8,0:0|0:0,0:0:0:0:
495,365,26550,1,8,0:0:0:0:
461,286,26740,2,0,L|456:171,1,105.6,4|12,0:0|0:3,0:0:0:0:
424,101,27310,2,0,P|394:87|312:88,1,105.6,8|10,0:3|0:3,0:0:0:0:
323,85,29208,5,10,0:3:0:0:
256,344,30158,1,8,0:3:0:0:
256,344,30348,1,12,0:3:0:0:
122,270,30727,6,0,L|114:161,1,92.3999971801759,2|8,0:0|0:0,0:0:0:0:
134,103,31297,2,0,P|161:78|225:74,1,92.3999971801759,10|10,0:3|0:0,0:0:0:0:
283,115,31866,1,10,0:0:0:0:
283,115,32056,2,0,P|328:111|364:83,1,92.3999971801759,10|8,0:3|0:0,0:0:0:0:
442,65,32626,1,8,0:0:0:0:
442,65,32816,2,0,L|435:157,1,92.3999971801759,14|10,0:3|0:3,0:0:0:0:
427,233,33385,1,8,0:0:0:0:
291,302,33765,6,0,L|284:210,1,92.3999971801759,4|8,0:0|0:0,0:0:0:0:
273,133,34335,1,10,0:3:0:0:
273,133,34525,2,0,P|232:111|186:109,1,92.3999971801759,2|10,0:0|0:0,0:0:0:0:
120,146,35094,1,10,0:3:0:0:
120,146,35284,2,0,P|97:186|96:233,1,92.3999971801759,8|8,0:3|0:0,0:0:0:0:
116,305,35854,1,10,0:3:0:0:
256,364,36234,1,10,0:3:0:0:
396,305,36613,1,10,0:3:0:0:
396,305,36803,6,0,P|418:265|420:219,1,92.3999971801759,10|10,0:3|0:0,0:0:0:0:
404,143,37373,1,10,0:3:0:0:
256,104,37753,2,0,L|200:99,1,46.1999985900879,10|10,0:3|0:0,0:0:0:0:
134,109,38132,2,0,L|34:100,1,92.3999971801759,2|8,0:0|0:3,0:0:0:0:
12,174,38702,1,8,0:0:0:0:
12,174,38892,2,0,P|53:231|56:262,1,92.3999971801759,2|0,0:0|0:0,0:0:0:0:
91,319,39461,2,0,L|196:313,1,92.3999971801759,12|6,0:3|0:0,0:0:0:0:
183,313,41360,5,10,0:3:0:0:
456,356,42310,1,8,0:3:0:0:
456,356,42499,1,12,0:3:0:0:
321,285,42879,6,0,P|308:248|323:179,1,92.3999971801759,2|8,0:0|0:0,0:0:0:0:
377,153,43449,2,0,P|395:111|393:65,1,92.3999971801759,10|10,0:3|0:0,0:0:0:0:
325,30,44018,1,10,0:0:0:0:
325,30,44208,2,0,L|215:27,1,92.3999971801759,10|8,0:3|0:0,0:0:0:0:
172,74,44778,1,8,0:0:0:0:
172,74,44968,2,0,L|62:71,1,92.3999971801759,14|10,0:3|0:3,0:0:0:0:
5,90,45537,1,8,0:0:0:0:
116,194,45917,6,0,L|226:197,1,92.3999971801759,4|8,0:0|0:0,0:0:0:0:
275,155,46487,1,10,0:3:0:0:
275,155,46677,2,0,L|385:158,1,92.3999971801759,2|10,0:0|0:0,0:0:0:0:
438,198,47246,1,10,0:3:0:0:
438,198,47436,2,0,P|461:238|451:284,1,92.3999971801759,8|8,0:3|0:0,0:0:0:0:
405,342,48006,1,10,0:3:0:0:
256,307,48385,1,10,0:3:0:0:
107,342,48765,1,10,0:3:0:0:
107,342,48955,6,0,P|84:302|92:258,1,92.3999971801759,10|10,0:3|0:0,0:0:0:0:
148,206,49525,1,10,0:3:0:0:
298,231,49904,2,0,L|354:226,1,46.1999985900879,10|10,0:3|0:0,0:0:0:0:
405,182,50284,2,0,L|414:82,1,92.3999971801759,2|10,0:0|0:3,0:0:0:0:
350,45,50854,2,0,P|302:48|251:21,1,92.3999971801759,10|2,0:0|0:0,0:0:0:0:
199,73,51423,1,8,0:0:0:0:
199,73,51613,2,0,P|156:55|111:58,1,92.3999971801759,14|14,0:3|0:0,0:0:0:0:
8,132,52373,5,8,0:0:0:0:
21,258,52753,1,8,0:0:0:0:
136,309,53132,1,10,0:0:0:0:
256,270,53512,5,10,0:0:0:0:
162,214,53892,1,8,0:0:0:0:
162,107,54272,1,8,0:0:0:0:
256,52,54651,1,8,0:0:0:0:
229,161,55031,5,10,0:0:0:0:
299,208,55411,1,10,0:0:0:0:
375,171,55791,1,8,0:0:0:0:
380,86,56170,1,10,0:0:0:0:
304,125,56550,6,0,B|286:128|269:119|269:119|256:116|240:123|240:123|225:114|183:117,1,105.6,10|8,0:0|0:0,0:0:0:0:
147,139,57120,2,0,L|98:130,2,26.4,2|2|10,0:0|0:0|0:0,0:0:0:0:
217,245,57689,2,0,P|260:227|325:232,1,105.6,8|14,0:0|0:0,0:0:0:0:
403,271,58449,5,8,0:0:0:0:
482,218,58829,1,8,0:0:0:0:
484,123,59208,1,10,0:0:0:0:
395,47,59588,5,10,0:0:0:0:
317,133,59968,1,8,0:0:0:0:
225,60,60348,1,8,0:0:0:0:
136,177,60727,2,0,P|110:169|76:167,1,52.8,2|8,0:0|0:0,0:0:0:0:
75,176,61012,1,8,0:0:0:0:
67,190,61107,6,0,L|53:331,1,132,10|10,0:0|0:2,0:0:0:0:
130,361,61677,2,0,P|189:338|272:338,1,132,10|10,0:3|0:3,0:0:0:0:
425,370,62436,5,10,0:3:0:0:
371,207,62816,1,2,0:0:0:0:
257,335,63196,1,10,0:3:0:0:
203,172,63575,2,0,P|157:160|110:163,1,66,10|8,0:2|0:3,0:0:0:0:
38,211,63955,5,2,0:0:0:0:
38,211,64145,2,0,L|32:131,1,66,10|8,0:0|0:0,0:0:0:0:
91,48,64525,1,10,0:0:0:0:
91,48,64715,2,0,L|171:42,1,66,10|8,0:0|0:0,0:0:0:0:
256,95,65094,5,10,0:0:0:0:
256,95,65284,1,10,0:0:0:0:
356,43,65474,1,14,0:0:0:0:
446,215,65854,5,8,0:0:0:0:
446,215,66044,1,8,0:0:0:0:
450,96,66234,1,10,0:3:0:0:
256,208,66613,1,10,0:3:0:0:
256,208,67183,6,0,P|218:199|173:200,1,72.6000022155762,6|8,0:0|0:3,0:0:0:0:
121,279,67563,2,0,P|132:316|155:354,1,72.6000022155762,8|0,2:0|2:0,0:0:0:0:
249,360,67942,2,0,P|275:331|297:292,2,72.6000022155762,2|8|8,2:0|0:3|2:0,0:0:0:0:
146,364,68512,6,0,P|79:342|-9:342,1,145.200004431152,2|10,0:3|0:3,0:0:0:0:
22,239,69082,1,8,0:0:0:0:
112,192,69272,2,0,P|147:129|116:55,1,145.200004431152,10|0,0:3|0:0,0:0:0:0:
33,21,69841,1,8,0:0:0:0:
116,209,70221,6,0,P|151:201|187:201,1,72.6000022155762,10|8,0:3|0:3,0:0:0:0:
282,239,70601,2,0,P|318:238|353:230,1,72.6000022155762,8|8,0:2|0:3,0:0:0:0:
438,174,70980,2,0,P|439:137|447:102,2,72.6000022155762,2|8|8,0:0|0:3|0:0,0:0:0:0:
361,242,71550,6,0,P|349:174|309:90,1,145.200004431152,10|10,0:3|0:3,0:0:0:0:
256,23,72120,1,8,0:0:0:0:
194,104,72310,2,0,B|141:123|102:86|102:86|28:82|14:148,1,217.800006646729,10|8,0:3|0:0,0:0:0:0:
4,248,73069,1,2,0:3:0:0:
91,299,73259,6,0,P|125:286|161:283,1,72.6000022155762,10|8,0:3|0:3,0:0:0:0:
257,316,73639,2,0,P|293:312|327:300,1,72.6000022155762,8|8,0:0|0:3,0:0:0:0:
424,328,74018,2,0,P|458:315|494:312,2,72.6000022155762,2|8|8,0:0|0:3|0:0,0:0:0:0:
330,286,74588,6,0,P|314:201|336:128,1,145.200004431152,10|10,0:3|0:3,0:0:0:0:
347,44,75158,1,8,0:0:0:0:
449,73,75348,2,0,P|383:129|309:146,1,145.200004431152,10|10,0:3|0:3,0:0:0:0:
256,77,75917,1,10,0:0:0:0:
256,77,76107,1,10,0:3:0:0:
184,144,76297,6,0,L|171:311,1,145.200004431152,10|10,0:3|0:0,0:0:0:0:
79,328,76866,2,0,L|67:183,1,145.200004431152,10|10,0:3|0:3,0:0:0:0:
77,81,77436,2,0,P|112:75|146:63,1,72.6000022155762,8|8,0:0|0:3,0:0:0:0:
251,102,77816,6,0,L|350:98,2,79.1999975830079,6|6|10,0:1|0:1|0:1,0:0:0:0:
183,178,78385,2,0,L|169:344,1,145.200004431152,6|10,0:1|0:1,0:0:0:0:
93,370,78955,1,8,0:3:0:0:
118,146,79335,6,0,P|152:158|182:177,1,72.6000022155762,6|8,0:0|0:3,0:0:0:0:
263,240,79715,2,0,P|297:250|333:253,1,72.6000022155762,8|8,2:0|2:3,0:0:0:0:
418,309,80094,2,0,P|448:328|472:355,2,72.6000022155762,2|8|8,2:0|0:3|2:0,0:0:0:0:
347,235,80664,6,0,L|344:70,1,145.200004431152,10|10,0:3|0:3,0:0:0:0:
256,37,81234,1,10,0:0:0:0:
168,89,81423,2,0,B|129:96|88:92|113:78|70:69|34:81|34:81|-2:108|10:159,1,217.800006646729,10|8,0:3|0:0,0:0:0:0:
56,247,82183,5,2,0:0:0:0:
153,217,82373,2,0,P|191:206|224:193,2,72.6000022155762,10|2|10,0:3|0:0|0:0,0:0:0:0:
130,316,82942,2,0,P|226:291|298:308,1,145.200004431152,10|10,0:3|0:3,0:0:0:0:
357,350,83512,1,10,0:0:0:0:
443,297,83702,6,0,L|449:121,1,145.200004431152,10|10,0:3|0:3,0:0:0:0:
414,55,84272,1,8,0:0:0:0:
321,73,84461,1,10,0:0:0:0:
321,73,84556,1,8,0:0:0:0:
321,73,84651,2,0,L|241:61,1,72.6000022155762,8|8,0:0|0:0,0:0:0:0:
159,13,85031,5,10,0:0:0:0:
82,221,85411,2,0,L|73:63,1,158.399995166016,12|10,0:2|0:2,0:0:0:0:
168,120,85980,1,8,0:3:0:0:
249,62,86170,2,0,L|340:52,2,79.1999975830079,10|10|10,0:2|0:3|0:2,0:0:0:0:
170,141,86740,6,0,L|178:219,1,79.1999975830079,10|8,0:3|0:2,0:0:0:0:
257,298,87120,2,0,L|335:289,1,79.1999975830079,10|8,0:3|0:2,0:0:0:0:
414,211,87499,2,0,L|405:132,1,79.1999975830079,10|8,0:3|0:2,0:0:0:0:
327,54,87879,2,0,L|248:62,2,79.1999975830079,10|10|10,0:3|0:2|0:3,0:0:0:0:
427,102,88449,6,0,B|438:210|438:210|412:267,2,158.399995166016,10|8|8,0:2|0:2|0:2,0:0:0:0:
327,54,89398,1,10,0:3:0:0:
286,157,89588,1,10,0:2:0:0:
212,73,89778,6,0,P|135:43|61:41,1,158.399995166016,6|10,0:0|0:0,0:0:0:0:
6,138,90348,1,8,0:0:0:0:
105,186,90537,2,0,P|143:174|205:172,1,79.1999975830079,10|8,0:0|0:0,0:0:0:0:
256,252,90917,1,10,0:0:0:0:
350,193,91107,2,0,L|356:139,2,39.5999987915039,10|8|10,0:0|0:0|0:0,0:0:0:0:
358,331,91487,5,14,0:0:0:0:
256,192,91582,12,6,94525,0:0:0:0:
