osu file format v14

[General]
AudioFilename: audio.mp3
AudioLeadIn: 0
PreviewTime: 253
Countdown: 0
SampleSet: Soft
StackLeniency: 0.7
Mode: 0
LetterboxInBreaks: 0
WidescreenStoryboard: 1

[Editor]
DistanceSpacing: 0.9
BeatDivisor: 2
GridSize: 8
TimelineZoom: 1.6

[Metadata]
Title:Natsukoi Hanabi
TitleUnicode:夏恋花火
Artist:chano & 40mP
ArtistUnicode:シャノ & 40mP
Creator:Finshie
Version:Normal
Source:
Tags:Shano 40meterP summer love fireworks Sulfur Su1fu7
BeatmapID:1424982
BeatmapSetID:673205

[Difficulty]
HPDrainRate:3
CircleSize:3.5
OverallDifficulty:3
ApproachRate:4
SliderMultiplier:1.1
SliderTickRate:1

[Events]
//Background and Video events
0,0,"64975522_p0.jpg",0,0
//Break Periods
2,27889,29407
2,40041,41559
//Storyboard Layer 0 (Background)
//Storyboard Layer 1 (Fail)
//Storyboard Layer 2 (Pass)
//Storyboard Layer 3 (Foreground)
//Storyboard Sound Samples

[TimingPoints]
348,379.746835443038,4,2,3,40,1,0
348,-100,4,2,3,40,0,0
2816,-100,4,2,3,40,0,0
3385,-100,4,2,3,40,0,0
6423,-100,4,2,3,40,0,0
9461,-100,4,2,1,40,0,0
12499,-100,4,2,1,60,0,1
18196,-100,4,2,1,60,0,0
18575,-100,4,2,1,60,0,1
23512,-100,4,2,1,45,0,0
27689,-100,4,2,1,50,0,0
30727,-100,4,2,1,50,0,0
33765,-100,4,2,1,50,0,0
39841,-100,4,2,1,50,0,0
42879,-100,4,2,1,50,0,0
51993,-100,4,2,2,30,0,0
57689,-100,4,2,3,20,0,0
58069,-100,4,2,2,20,0,0
61107,-100,4,2,1,50,0,0
64145,-100,4,2,1,50,0,0
64335,-100,4,2,1,20,0,0
64525,-100,4,2,1,25,0,0
64715,-100,4,2,1,30,0,0
64904,-100,4,2,1,35,0,0
65094,-100,4,2,1,40,0,0
65284,-100,4,2,1,45,0,0
65474,-100,4,2,1,50,0,0
67183,-100,4,2,1,65,0,1
77816,-100,4,2,1,65,0,0
78955,-100,4,2,1,65,0,0
79335,-100,4,2,1,65,0,1
85031,-100,4,2,1,65,0,0
85411,-100,4,2,1,65,0,1
91487,-100,4,2,1,60,0,0
94525,-100,4,2,1,30,0,0

[Colours]
Combo1 : 255,255,202
Combo2 : 204,68,85
Combo3 : 85,51,68
Combo4 : 102,102,153
Combo5 : 51,68,102

[HitObjects]
42,35,348,6,0,P|108:25|172:44,1,110,2|2,0:0|0:0,0:0:0:0:
190,61,917,1,2,0:0:0:0:
288,68,1297,1,2,0:0:0:0:
375,21,1677,2,0,L|372:143,1,110,2|2,0:0|0:0,0:0:0:0:
461,173,2436,2,0,L|464:295,1,110,2|2,0:0|0:0,0:0:0:0:
340,366,3385,6,0,P|272:369|227:349,1,110,2|2,0:0|0:0,0:0:0:0:
198,319,3955,2,0,P|143:313|92:331,1,110,2|2,0:0|0:0,0:0:0:0:
13,270,4715,1,2,0:0:0:0:
13,171,5094,1,0,0:0:0:0:
61,84,5474,2,0,L|184:72,1,110,2|0,0:0|0:0,0:0:0:0:
219,67,6044,1,2,0:0:0:0:
297,6,6423,6,0,L|406:16,1,110,2|2,0:0|0:0,0:0:0:0:
455,24,6993,1,2,0:0:0:0:
509,107,7373,1,2,0:0:0:0:
464,195,7753,2,0,P|400:207|347:193,1,110,2|0,0:0|0:0,0:0:0:0:
292,122,8512,2,0,P|238:110|184:120,1,110,2|0,0:0|0:0,0:0:0:0:
98,168,9272,1,2,0:0:0:0:
98,168,9461,6,0,L|98:295,1,110,2|8,0:0|0:3,0:0:0:0:
118,323,10031,2,0,P|176:338|236:325,1,110,0|0,0:0|1:0,0:0:0:0:
311,280,10791,2,0,P|365:272|417:286,1,110,4|8,0:0|1:3,0:0:0:0:
456,316,11360,1,0,1:0:0:0:
492,349,11550,2,0,L|499:222,1,110,0|0,1:0|1:3,0:0:0:0:
500,189,12120,1,8,1:3:0:0:
469,95,12499,22,0,P|397:81|340:98,1,110,4|0,1:0|1:0,0:0:0:0:
314,102,13069,1,2,0:0:0:0:
233,43,13449,2,0,P|198:49|151:36,1,55,0|0,0:0|1:0,0:0:0:0:
133,25,13829,2,0,L|141:174,1,110,2|2,0:0|0:0,0:0:0:0:
155,181,14398,1,0,1:0:0:0:
179,223,14588,2,0,L|336:210,1,110,2|2,0:0|0:0,0:0:0:0:
333,236,15158,1,0,1:0:0:0:
324,334,15537,6,0,L|214:343,1,110,6|0,0:0|1:0,0:0:0:0:
164,347,16107,1,2,0:0:0:0:
88,282,16487,2,0,L|0:286,1,55,0|0,0:0|1:0,0:0:0:0:
0,250,16866,2,0,P|-3:160|13:122,1,110,2|2,0:0|0:0,0:0:0:0:
36,105,17436,2,0,L|124:102,1,55,0|0,1:0|1:0,0:0:0:0:
135,81,17816,2,0,L|189:82,1,55,0|0,1:0|1:0,0:0:0:0:
239,84,18196,1,8,0:3:0:0:
301,7,18575,6,0,P|368:-1|423:17,1,110,4|0,1:0|1:0,0:0:0:0:
489,68,19335,2,0,L|488:133,1,55,0|0,1:0|0:0,0:0:0:0:
445,148,19715,2,0,L|444:213,1,55,0|0,1:0|0:0,0:0:0:0:
419,245,20094,2,0,P|352:253|297:235,1,110,0|0,1:0|1:0,0:0:0:0:
260,327,20854,2,0,P|206:315|152:324,1,110,0|0,1:0|1:0,0:0:0:0:
59,357,21613,6,0,P|75:306|60:228,1,110,0|0,1:0|1:0,0:0:0:0:
27,223,22183,2,0,P|21:168|37:116,1,110,2|2,0:0|0:0,0:0:0:0:
66,76,22753,1,0,1:0:0:0:
100,40,22942,2,0,L|209:45,1,110,4|0,0:0|0:0,0:0:0:0:
259,47,23512,1,0,1:0:0:0:
353,17,23892,1,0,1:0:0:0:
440,62,24272,1,0,1:0:0:0:
469,155,24651,22,0,P|470:232|458:278,1,110,4|0,1:0|1:0,0:0:0:0:
421,291,25221,1,8,0:3:0:0:
374,307,25411,2,0,L|239:307,1,110,2|0,0:0|1:0,0:0:0:0:
214,308,25980,1,2,0:0:0:0:
119,278,26360,1,0,1:0:0:0:
24,248,26740,2,0,P|16:155|26:124,1,110,4|8,1:0|0:3,0:0:0:0:
34,92,27310,1,0,0:0:0:0:
98,7,27689,5,4,0:0:0:0:
97,308,30727,6,0,L|206:304,1,110,4|0,0:0|1:0,0:0:0:0:
247,275,31297,2,0,L|356:271,1,110,2|0,0:0|1:0,0:0:0:0:
424,198,32056,2,0,P|432:119|420:68,1,110,2|0,0:0|1:0,0:0:0:0:
397,49,32626,1,0,1:0:0:0:
359,16,32816,2,0,P|280:7|230:18,1,110,8|2,0:3|0:0,0:0:0:0:
201,21,33385,1,0,1:0:0:0:
107,54,33765,6,0,L|106:165,1,110,4|0,0:0|1:0,0:0:0:0:
72,200,34335,2,0,L|71:311,1,110,2|2,0:0|0:0,0:0:0:0:
72,359,34904,1,0,1:0:0:0:
167,331,35284,2,0,P|235:317|291:329,1,110,2|0,0:0|1:0,0:0:0:0:
301,364,35854,2,0,P|353:378|408:371,1,110,2|2,0:0|0:0,0:0:0:0:
455,355,36423,1,0,1:0:0:0:
506,270,36803,22,0,L|501:138,1,110,2|0,0:0|1:0,0:0:0:0:
458,135,37373,2,0,L|453:3,1,110,2|2,0:0|0:0,0:0:0:0:
409,2,37942,1,0,1:0:0:0:
409,2,38132,1,0,1:0:0:0:
321,48,38512,2,0,L|242:42,1,55,2|0,0:0|1:0,0:0:0:0:
222,66,38892,2,0,L|91:56,1,110,2|0,0:0|1:0,0:0:0:0:
62,56,39461,1,8,0:3:0:0:
91,150,39841,5,4,0:0:0:0:
412,25,42879,6,0,P|400:90|416:144,1,110,4|0,0:0|1:0,0:0:0:0:
437,173,43449,2,0,P|449:226|438:279,1,110,2|0,0:0|1:0,0:0:0:0:
372,354,44208,2,0,L|237:348,1,110,2|0,0:0|1:0,0:0:0:0:
221,320,44778,1,0,1:0:0:0:
181,289,44968,2,0,L|46:283,1,110,8|2,0:3|0:0,0:0:0:0:
31,253,45537,1,0,1:0:0:0:
2,157,45917,6,0,P|1:79|9:42,1,110,4|0,0:0|1:0,0:0:0:0:
42,12,46487,2,0,P|120:11|157:19,1,110,2|2,0:0|0:0,0:0:0:0:
190,47,47056,1,0,1:0:0:0:
273,99,47436,2,0,L|399:88,1,110,2|0,0:0|1:0,0:0:0:0:
432,85,48006,2,0,L|421:211,1,110,2|2,0:0|0:0,0:0:0:0:
413,243,48575,1,0,1:0:0:0:
465,327,48955,22,0,P|394:339|352:321,1,110,4|0,0:0|1:0,0:0:0:0:
324,291,49525,2,0,P|271:277|218:291,1,110,2|2,0:0|0:0,0:0:0:0:
173,313,50094,1,0,1:0:0:0:
132,341,50284,2,0,L|130:205,1,110,2|0,0:0|0:0,0:0:0:0:
124,181,50854,1,0,1:0:0:0:
72,96,51234,1,0,0:0:0:0:
135,20,51613,1,8,0:3:0:0:
189,102,51993,6,0,B|272:146|378:119|306:94|440:58|517:115,1,330,4|8,0:0|0:0,0:0:0:0:
477,202,53512,2,0,P|369:205|408:370,1,330,2|8,0:0|0:0,0:0:0:0:
425,278,55031,6,0,B|337:233|240:268|297:306|199:340|93:284,1,330,2|8,0:0|0:0,0:0:0:0:
33,231,56550,2,0,P|16:134|61:25,1,220,2|8,0:0|0:0,0:0:0:0:
158,44,57689,1,4,0:0:0:0:
255,63,58069,6,0,L|453:57,2,165,6|0|8,0:0|0:0|0:0,0:0:0:0:
158,44,59588,2,0,L|165:301,1,220,2|0,0:0|0:0,0:0:0:0:
205,353,60727,1,8,0:0:0:0:
275,281,61107,22,0,P|352:274|416:295,1,110,4|0,1:2|0:0,0:0:0:0:
427,302,61677,1,4,1:2:0:0:
493,228,62056,1,0,1:2:0:0:
511,130,62436,2,0,P|510:60|494:13,1,110,0|0,1:0|1:0,0:0:0:0:
407,63,63196,2,0,P|315:69|286:60,1,110,0|0,1:0|1:0,0:0:0:0:
249,50,63765,1,8,3:0:0:0:
155,16,64145,6,0,L|159:137,1,110,0|0,1:0|1:0,0:0:0:0:
196,158,64715,2,0,L|201:279,1,110,0|0,1:0|1:0,0:0:0:0:
204,317,65284,1,0,1:0:0:0:
204,317,65474,1,4,1:0:0:0:
112,279,65854,2,0,L|43:275,1,55,0|0,1:0|1:0,0:0:0:0:
7,272,66234,1,0,1:0:0:0:
14,173,66613,1,0,1:0:0:0:
69,35,67183,6,0,P|123:42|177:32,1,110,6|0,0:0|1:0,0:0:0:0:
276,46,67942,2,0,P|329:36|384:43,1,110,0|0,0:0|1:0,0:0:0:0:
428,66,68512,2,0,L|421:182,1,110,2|2,0:0|0:0,0:0:0:0:
453,213,69082,1,0,1:0:0:0:
489,246,69272,2,0,L|482:355,1,110,2|2,0:0|0:0,0:0:0:0:
438,380,69841,1,0,1:0:0:0:
349,335,70221,6,0,P|267:323|220:340,1,110,2|0,0:0|1:0,0:0:0:0:
162,270,70980,2,0,P|153:215|167:163,1,110,0|0,0:0|1:0,0:0:0:0:
201,127,71550,2,0,L|86:114,1,110,2|2,0:0|0:0,0:0:0:0:
45,96,72120,1,0,1:0:0:0:
0,74,72310,2,0,L|12:191,1,110,2|2,0:0|0:0,0:0:0:0:
19,232,72879,1,0,1:0:0:0:
82,308,73259,22,0,P|153:302|199:314,1,110,2|0,0:0|1:0,0:0:0:0:
276,261,74018,2,0,P|329:270|384:263,1,110,0|0,0:0|1:0,0:0:0:0:
432,248,74588,1,2,0:0:0:0:
476,159,74968,2,0,P|479:124|467:79,1,55,0|0,0:0|1:0,0:0:0:0:
462,56,75348,2,0,L|343:51,1,110,2|2,0:0|0:0,0:0:0:0:
302,52,75917,1,0,1:0:0:0:
217,103,76297,6,0,L|107:107,1,110,2|0,0:0|1:0,0:0:0:0:
76,145,76866,2,0,P|68:214|84:267,1,110,2|2,0:0|0:0,0:0:0:0:
102,295,77436,1,0,1:0:0:0:
187,344,77816,2,0,L|296:339,1,110,2|0,0:0|1:0,0:0:0:0:
338,311,78385,2,0,L|447:315,1,110,2|0,0:0|1:0,0:0:0:0:
497,318,78955,1,8,0:3:0:0:
451,229,79335,6,0,P|440:154|458:95,1,110,6|0,0:0|1:0,0:0:0:0:
482,28,80094,2,0,P|420:36|355:21,1,110,0|0,0:0|1:0,0:0:0:0:
337,62,80664,2,0,P|282:53|228:61,1,110,2|2,0:0|0:0,0:0:0:0:
189,90,81234,1,0,1:0:0:0:
154,124,81423,2,0,L|20:118,1,110,2|2,0:0|0:0,0:0:0:0:
6,151,81993,1,0,1:0:0:0:
60,233,82373,6,0,L|169:237,1,110,2|0,0:0|1:0,0:0:0:0:
219,238,82942,1,2,0:0:0:0:
306,192,83322,2,0,L|404:195,1,55,0|0,0:0|1:0,0:0:0:0:
400,223,83702,2,0,P|405:294|392:351,1,110,2|2,0:0|0:0,0:0:0:0:
369,372,84272,2,0,L|275:369,1,55,0|0,1:0|1:0,0:0:0:0:
277,336,84652,2,0,L|222:337,1,55,0|0,1:0|1:0,0:0:0:0:
172,340,85031,1,8,0:3:0:0:
77,368,85411,22,0,P|77:264|85:238,1,110,4|0,1:0|1:0,0:0:0:0:
110,221,85980,1,2,0:0:0:0:
151,193,86170,2,0,P|151:89|143:63,1,110,0|0,1:0|1:0,0:0:0:0:
93,1,86930,2,0,L|223:2,1,110,0|0,1:0|1:0,0:0:0:0:
247,24,87499,1,0,0:0:0:0:
290,47,87689,2,0,L|399:46,1,110,0|0,1:0|1:0,0:0:0:0:
486,94,88449,5,0,1:0:0:0:
506,190,88829,1,0,1:0:0:0:
475,283,89208,1,0,1:0:0:0:
401,348,89588,1,0,1:0:0:0:
401,348,89778,2,0,L|276:343,1,110,4|0,1:2|1:0,0:0:0:0:
252,311,90348,1,0,1:0:0:0:
216,278,90537,2,0,L|106:282,1,110,0|0,1:0|1:0,0:0:0:0:
64,254,91107,2,0,P|60:195|65:168,1,55,0|0,1:0|1:0,0:0:0:0:
61,149,91487,5,4,1:0:0:0:
256,192,91866,12,4,94525,0:0:0:0:
