osu file format v14

[General]
AudioFilename: audio.mp3
AudioLeadIn: 0
PreviewTime: 59065
Countdown: 0
SampleSet: Soft
StackLeniency: 0.3
Mode: 0
LetterboxInBreaks: 0
WidescreenStoryboard: 1

[Editor]
Bookmarks: 59429,82974
DistanceSpacing: 2
BeatDivisor: 4
GridSize: 32
TimelineZoom: 1.4

[Metadata]
Title:Kiritorisen
TitleUnicode:キリトリセン
Artist:chano & 40mP
ArtistUnicode:chano & 40mP
Creator:Jannahh
Version:ibroko
Source:
Tags:sugar vocaloid megpoid shano gumi ibroko
BeatmapID:1887737
BeatmapSetID:904350

[Difficulty]
HPDrainRate:6
CircleSize:3.8
OverallDifficulty:8
ApproachRate:9
SliderMultiplier:2
SliderTickRate:1

[Events]
//Background and Video events
0,0,"affected.png",0,0
//Break Periods
//Storyboard Layer 0 (Background)
//Storyboard Layer 1 (Fail)
//Storyboard Layer 2 (Pass)
//Storyboard Layer 3 (Foreground)
//Storyboard Sound Samples

[TimingPoints]
884,363.636363636364,4,1,1,60,1,0
884,-133.333333333333,4,1,1,60,0,0
1156,-133.333333333333,4,1,1,5,0,0
1247,-133.333333333333,4,1,1,60,0,0
1520,-133.333333333333,4,1,1,5,0,0
1611,-133.333333333333,4,1,1,60,0,0
2429,-133.333333333333,4,1,1,5,0,0
2520,-133.333333333333,4,1,1,60,0,0
4065,-133.333333333333,4,1,1,5,0,0
4156,-133.333333333333,4,1,1,60,0,0
4429,-133.333333333333,4,1,1,5,0,0
4520,-133.333333333333,4,1,1,60,0,0
5338,-133.333333333333,4,1,1,5,0,0
5429,-133.333333333333,4,1,1,60,0,0
6974,-133.333333333333,4,1,1,5,0,0
7065,-133.333333333333,4,1,1,60,0,0
7338,-133.333333333333,4,1,1,5,0,0
7429,-133.333333333333,4,1,1,60,0,0
8247,-133.333333333333,4,1,1,5,0,0
8338,-133.333333333333,4,1,1,60,0,0
10702,-100,4,2,2,60,0,0
12520,-222.222222222221,4,2,2,5,0,0
12884,-100,4,2,2,80,0,0
13247,-100,4,2,2,80,0,0
15702,-100,4,2,2,5,0,0
15793,-100,4,2,2,80,0,0
18611,-100,4,2,2,5,0,0
18702,-100,4,2,2,80,0,0
21520,-100,4,2,2,5,0,0
21611,-100,4,2,2,80,0,0
24520,-133.333333333333,4,2,2,70,0,0
30247,-133.333333333333,4,2,2,5,0,0
30338,-133.333333333333,4,2,2,70,0,0
36065,-133.333333333333,4,2,2,5,0,0
36156,-133.333333333333,4,2,2,70,0,0
41884,-133.333333333333,4,2,2,5,0,0
41974,-133.333333333333,4,2,2,70,0,0
47429,-200,4,2,2,70,0,0
52884,-133.333333333333,4,2,2,80,0,0
59065,-100,4,2,2,89,0,1
68974,-100,4,2,2,5,0,1
69065,-100,4,2,2,89,0,1
80611,-100,4,2,2,5,0,1
80702,-100,4,2,2,89,0,1
82338,-222.222222222221,4,2,2,5,0,0
82702,-100,4,2,2,80,0,0
85520,-100,4,2,2,5,0,0
85611,-100,4,2,2,80,0,0
88429,-100,4,2,2,5,0,0
88520,-100,4,2,2,80,0,0
91338,-100,4,2,2,5,0,0
91429,-100,4,2,2,80,0,0
92702,-100,4,2,2,80,0,0
93429,-100,4,2,2,80,0,0

[Colours]
Combo1 : 75,191,26
Combo2 : 255,255,128
Combo3 : 255,183,183
Combo4 : 157,98,247

[HitObjects]
381,279,884,6,0,P|385:200|386:138,1,112.500004291535,2|0,0:2|0:2,0:0:0:0:
382,80,1247,2,0,L|251:84,1,112.500004291535,2|0,0:2|0:2,0:0:0:0:
191,134,1611,1,8,0:2:0:0:
55,54,1793,1,0,0:2:0:0:
61,222,1974,1,8,0:2:0:0:
276,144,2156,6,0,P|286:68|292:8,1,112.500004291535,2|0,0:2|0:0,0:0:0:0:
211,30,2520,1,2,0:2:0:0:
214,235,2702,1,0,0:2:0:0:
355,81,2884,1,0,0:2:0:0:
355,81,2974,1,0,0:2:0:0:
355,81,3065,1,2,0:2:0:0:
178,133,3247,1,8,0:2:0:0:
330,276,3429,1,2,0:2:0:0:
433,133,3611,5,8,0:2:0:0:
433,133,3702,1,0,0:0:0:0:
433,133,3793,2,0,L|422:263,1,112.500004291535,2|0,0:2|0:2,0:0:0:0:
385,339,4156,2,0,P|329:361|254:328,1,112.500004291535,2|0,0:2|0:2,0:0:0:0:
209,292,4520,1,8,0:2:0:0:
192,103,4702,1,0,0:2:0:0:
351,179,4884,1,8,0:2:0:0:
113,325,5065,6,0,P|103:249|97:189,1,112.500004291535,2|0,0:2|0:0,0:0:0:0:
120,120,5429,1,2,0:2:0:0:
10,265,5611,1,0,0:2:0:0:
201,199,5793,1,0,0:2:0:0:
201,199,5884,1,0,0:2:0:0:
201,199,5974,1,2,0:2:0:0:
2,136,6156,1,8,0:2:0:0:
170,25,6338,1,2,0:2:0:0:
318,213,6520,5,8,0:2:0:0:
318,213,6611,1,0,0:0:0:0:
318,213,6702,2,0,L|322:100,1,112.500004291535,2|0,0:2|0:2,0:0:0:0:
278,25,7065,2,0,P|207:13|152:35,1,112.500004291535,2|0,0:2|0:2,0:0:0:0:
109,92,7429,1,8,0:2:0:0:
235,206,7611,1,0,0:2:0:0:
80,267,7793,1,8,0:2:0:0:
309,370,7974,6,0,L|320:242,1,112.500004291535,2|0,0:2|0:0,0:0:0:0:
235,206,8338,1,2,0:2:0:0:
34,157,8520,1,0,0:2:0:0:
258,84,8702,1,0,0:2:0:0:
258,84,8793,1,0,0:2:0:0:
258,84,8884,1,2,0:2:0:0:
118,305,9065,1,8,0:2:0:0:
144,73,9247,1,2,0:2:0:0:
298,278,9429,6,0,L|371:280,1,37.5000014305115,8|8,0:2|0:2,0:0:0:0:
415,233,9611,1,2,0:2:0:0:
255,79,9793,1,0,0:2:0:0:
473,128,9974,1,2,0:2:0:0:
183,173,10156,2,0,P|177:221|162:354,1,150.000005722046,0|0,0:2|0:2,0:0:0:0:
316,151,10702,1,4,0:0:0:0:
339,360,10884,6,0,B|428:371|407:318|509:344,1,150,2|0,0:0|0:0,0:0:0:0:
512,265,11247,1,0,1:0:0:0:
280,146,11429,1,0,1:0:0:0:
501,58,11611,1,2,0:0:0:0:
501,58,11702,1,2,0:0:0:0:
501,58,11793,1,2,0:0:0:0:
364,281,11974,1,0,1:0:0:0:
206,142,12156,5,0,0:0:0:0:
206,108,12247,1,0,0:0:0:0:
207,75,12337,1,0,0:0:0:0:
207,41,12428,1,0,0:0:0:0:
208,8,12520,6,0,P|257:0|295:-1,1,67.4999979400635,2|0,0:0|0:0,0:0:0:0:
354,129,12884,2,0,P|321:121|201:107,1,150,4|0,1:0|0:0,0:0:0:0:
121,161,13247,1,2,0:0:0:0:
343,261,13429,1,2,0:0:0:0:
128,357,13611,1,4,1:0:0:0:
277,66,13793,6,0,P|269:129|250:275,1,200,2|2,0:0|0:0,0:0:0:0:
147,45,14338,1,4,1:0:0:0:
251,264,14520,1,0,0:0:0:0:
90,144,14702,1,2,0:0:0:0:
62,372,14884,1,2,0:0:0:0:
195,189,15065,1,4,1:0:0:0:
0,269,15247,1,0,0:0:0:0:
209,331,15429,6,0,P|280:341|329:261,1,150,2|0,0:0|0:0,0:0:0:0:
419,197,15793,2,0,L|409:346,1,150,4|0,1:0|0:0,0:0:0:0:
490,326,16156,1,2,0:0:0:0:
314,210,16338,1,2,0:0:0:0:
492,138,16520,1,4,1:0:0:0:
347,37,16702,6,0,L|238:29,1,100,2|0,0:0|0:0,0:0:0:0:
107,64,17065,1,2,0:0:0:0:
208,227,17247,2,0,L|216:118,1,100,4|0,1:0|0:0,0:0:0:0:
215,127,17520,1,0,0:0:0:0:
214,127,17611,1,2,0:0:0:0:
38,16,17793,1,2,0:0:0:0:
86,198,17974,1,4,1:0:0:0:
195,58,18156,1,0,0:0:0:0:
126,289,18338,6,0,P|59:316|0:276,1,150,2|0,0:0|0:0,0:0:0:0:
221,139,18702,2,0,L|208:307,1,150,4|0,1:0|0:0,0:0:0:0:
280,344,19065,1,2,0:0:0:0:
386,201,19247,1,2,0:0:0:0:
462,370,19429,1,4,1:0:0:0:
306,133,19611,6,0,B|195:145|225:73|111:75,1,200,2|0,0:0|0:0,0:0:0:0:
349,254,20156,2,0,P|405:234|475:225,1,100,4|0,1:0|0:0,0:0:0:0:
367,68,20520,1,2,0:0:0:0:
258,237,20702,1,2,0:0:0:0:
431,141,20884,2,0,P|449:91|458:7,1,100,4|2,1:0|0:0,0:0:0:0:
267,108,21247,6,0,B|166:92|206:158|87:137,1,150,0|0,0:0|0:0,0:0:0:0:
55,100,21611,1,4,1:0:0:0:
39,316,21793,1,0,0:0:0:0:
209,189,21974,1,2,0:0:0:0:
28,211,22156,1,2,0:0:0:0:
200,336,22338,1,4,1:0:0:0:
319,178,22520,6,0,P|325:128|330:78,1,100,2|0,0:0|0:0,0:0:0:0:
130,305,22884,1,0,0:0:0:0:
415,335,23065,1,4,1:0:0:0:
247,96,23247,1,2,0:0:0:0:
247,96,23338,1,2,0:0:0:0:
247,96,23429,1,2,0:0:0:0:
370,262,23611,1,0,0:0:0:0:
130,305,23793,1,2,0:0:0:0:
131,255,23883,1,2,0:0:0:0:
133,205,23974,1,2,0:0:0:0:
135,155,24065,1,2,0:0:0:0:
137,105,24156,1,2,0:0:0:0:
477,29,24520,6,0,L|482:119,1,75.0000028610231,14|8,0:0|0:0,0:0:0:0:
370,262,24884,1,10,0:0:0:0:
512,207,25065,1,10,0:0:0:0:
375,155,25247,1,12,1:2:0:0:
468,342,25429,6,0,L|318:350,1,150.000005722046,10|10,1:2|0:0,0:0:0:0:
250,221,25974,1,4,1:2:0:0:
150,305,26156,2,0,P|139:342|133:378,1,75.0000028610231,8|2,0:0|0:0,0:0:0:0:
253,202,26519,1,10,0:0:0:0:
318,349,26702,1,12,1:2:0:0:
161,156,26884,5,10,1:2:0:0:
161,156,26974,1,0,0:0:0:0:
161,156,27065,2,0,L|149:319,1,150.000005722046,2|14,0:0|1:2,0:0:0:0:
340,217,27611,2,0,P|383:202|417:196,1,75.0000028610231,8|2,0:0|0:0,0:0:0:0:
221,326,27974,2,0,P|184:318|149:305,1,75.0000028610231,10|4,0:0|1:2,0:0:0:0:
331,96,28338,6,0,P|373:157|335:219,1,150.000005722046,10|2,0:0|0:0,0:0:0:0:
156,44,28884,2,0,L|230:44,1,75.0000028610231,4|2,1:2|0:0,0:0:0:0:
148,210,29247,1,2,0:0:0:0:
269,138,29429,1,4,1:2:0:0:
100,124,29611,1,4,1:2:0:0:
245,303,29793,5,4,0:0:0:0:
245,303,29884,1,4,0:0:0:0:
245,303,29974,2,0,L|357:303,1,112.500004291535,2|0,0:0|0:0,0:0:0:0:
451,261,30338,2,0,P|447:223|450:186,1,75.0000028610231,14|8,0:0|0:0,0:0:0:0:
353,26,30702,1,10,0:0:0:0:
315,189,30884,1,10,0:0:0:0:
454,92,31065,1,12,1:2:0:0:
250,61,31247,6,0,P|175:69|101:79,1,150.000005722046,10|10,0:0|0:0,0:0:0:0:
40,240,31793,1,4,1:2:0:0:
0,142,31975,2,0,P|3:104|8:67,1,75.0000028610231,8|2,0:0|0:0,0:0:0:0:
197,172,32338,1,10,0:0:0:0:
25,242,32520,1,12,1:2:0:0:
186,325,32702,5,10,1:2:0:0:
186,325,32793,1,0,0:0:0:0:
186,325,32884,2,0,B|276:313|246:358|332:345,1,150.000005722046,2|14,0:0|1:2,0:0:0:0:
480,137,33429,2,0,P|486:181|489:230,1,75.0000028610231,8|2,0:0|0:0,0:0:0:0:
256,110,33793,2,0,P|258:72|264:35,1,75.0000028610231,10|4,0:0|1:2,0:0:0:0:
283,239,34156,6,0,L|113:229,1,150.000005722046,10|2,0:0|0:0,0:0:0:0:
229,40,34702,2,0,L|261:123,1,75.0000028610231,4|2,1:2|0:0,0:0:0:0:
184,316,35065,1,2,0:0:0:0:
373,240,35247,1,4,1:2:0:0:
212,177,35429,1,4,1:2:0:0:
359,356,35611,5,4,0:0:0:0:
359,356,35702,1,4,0:0:0:0:
359,356,35793,2,0,P|415:351|471:349,1,112.500004291535,2|0,0:0|0:0,0:0:0:0:
511,275,36156,2,0,P|514:229|512:190,1,75.0000028610231,14|8,1:2|0:0,0:0:0:0:
346,105,36520,1,10,0:0:0:0:
433,235,36703,1,10,0:0:0:0:
435,27,36884,1,12,1:2:0:0:
325,206,37065,6,0,P|247:236|179:186,1,150.000005722046,10|10,1:2|0:0,0:0:0:0:
271,78,37611,1,4,1:2:0:0:
376,281,37793,2,0,L|372:355,1,75.0000028610231,8|2,0:0|0:0,0:0:0:0:
221,205,38156,1,10,0:0:0:0:
149,358,38338,1,12,1:2:0:0:
307,263,38520,5,10,1:2:0:0:
307,263,38611,1,0,0:0:0:0:
307,263,38702,2,0,L|483:243,1,150.000005722046,2|14,0:0|1:2,0:0:0:0:
205,131,39247,2,0,P|218:181|222:220,1,75.0000028610231,8|2,0:0|0:0,0:0:0:0:
0,348,39611,2,0,P|6:310|16:274,1,75.0000028610231,10|12,0:0|1:2,0:0:0:0:
263,334,39974,6,0,P|193:363|115:315,1,150.000005722046,2|2,0:0|0:0,0:0:0:0:
276,100,40520,2,0,P|336:91|383:99,1,75.0000028610231,4|2,1:2|0:0,0:0:0:0:
205,260,40884,1,2,0:0:0:0:
384,207,41065,1,4,1:2:0:0:
186,145,41247,1,4,1:2:0:0:
130,367,41429,5,4,0:0:0:0:
130,367,41520,1,4,0:0:0:0:
130,367,41611,2,0,L|130:228,1,112.500004291535,2|0,0:0|0:0,0:0:0:0:
186,145,41974,2,0,P|234:131|286:130,1,75.0000028610231,14|8,1:2|0:0,0:0:0:0:
359,300,42338,1,10,0:0:0:0:
221,223,42520,1,10,0:0:0:0:
353,142,42702,1,12,1:2:0:0:
179,34,42884,6,0,P|104:42|30:52,1,150.000005722046,10|10,1:2|0:0,0:0:0:0:
184,138,43430,1,4,1:2:0:0:
76,203,43612,2,0,P|65:242|57:299,1,75.0000028610231,8|0,0:0|0:0,0:0:0:0:
211,161,43975,1,10,0:0:0:0:
268,320,44157,1,12,1:2:0:0:
391,190,44338,5,10,1:2:0:0:
391,190,44429,1,0,0:0:0:0:
391,190,44520,2,0,L|392:348,1,150.000005722046,2|14,0:0|1:2,0:0:0:0:
329,42,45065,2,0,P|380:36|435:47,1,75.0000028610231,8|2,0:0|0:0,0:0:0:0:
181,226,45429,2,0,P|144:231|106:229,1,75.0000028610231,10|4,0:0|1:2,0:0:0:0:
329,42,45793,6,0,L|318:220,1,150.000005722046,10|0,0:0|0:0,0:0:0:0:
217,99,46339,2,0,P|183:77|155:48,1,75.0000028610231,4|2,1:2|0:0,0:0:0:0:
415,174,46702,1,2,0:0:0:0:
207,223,46884,1,4,1:2:0:0:
387,325,47065,1,4,1:2:0:0:
281,138,47247,2,0,P|294:101|299:68,1,37.5000014305115,4|4,0:0|0:0,0:0:0:0:
192,124,47429,6,0,L|209:240,1,100,10|0,0:0|0:0,0:0:0:0:
289,345,47974,1,10,0:0:0:0:
289,345,48156,2,0,L|303:246,1,100,12|10,1:2|0:0,0:0:0:0:
384,199,48702,6,0,P|442:215|490:182,1,100,10|8,0:0|1:2,0:0:0:0:
481,110,49247,2,0,L|481:60,1,50,0|10,0:0|0:0,0:0:0:0:
340,78,49611,1,4,1:2:0:0:
340,78,49974,2,0,L|280:78,1,50,2|10,0:0|0:0,0:0:0:0:
217,147,50338,6,0,P|219:184|217:216,2,50,10|8|8,0:0|0:0|0:0,0:0:0:0:
121,144,50884,1,10,0:0:0:0:
62,97,51065,1,12,1:2:0:0:
93,28,51247,1,8,0:0:0:0:
167,17,51429,1,10,0:0:0:0:
211,77,51611,6,0,L|313:77,1,100,10|8,0:0|1:2,0:0:0:0:
471,165,52156,1,8,0:0:0:0:
268,178,52338,1,10,0:0:0:0:
444,74,52520,1,4,1:2:0:0:
375,266,52702,1,2,0:0:0:0:
257,102,52884,1,6,0:0:0:0:
232,103,52975,1,2,0:0:0:0:
207,103,53065,2,0,L|206:50,1,37.5000014305115,2|2,0:0|0:0,0:0:0:0:
155,0,53247,6,0,P|117:5|81:12,1,75.0000028610231,8|0,0:0|0:0,0:0:0:0:
333,102,53611,2,0,P|369:109|406:113,1,75.0000028610231,8|10,0:0|0:0,0:0:0:0:
506,327,53973,1,2,0:0:0:0:
356,208,54155,1,10,0:0:0:0:
510,125,54338,1,0,1:0:0:0:
256,86,54520,6,0,L|256:235,1,150.000005722046,10|10,0:0|0:0,0:0:0:0:
161,164,55065,1,0,1:0:0:0:
339,106,55247,2,0,P|350:46|347:-4,1,75.0000028610231,10|2,0:0|0:0,0:0:0:0:
351,195,55611,1,10,0:0:0:0:
450,110,55793,1,8,1:0:0:0:
471,277,55974,6,0,P|482:217|479:167,1,75.0000028610231,10|2,0:0|0:0,0:0:0:0:
383,276,56338,1,8,0:0:0:0:
453,359,56520,1,4,1:0:0:0:
326,352,56702,2,0,L|221:336,1,75.0000028610231,10|0,0:0|0:0,0:0:0:0:
172,136,57065,1,10,0:0:0:0:
103,349,57247,1,0,0:0:0:0:
22,132,57429,6,0,L|184:136,1,150.000005722046,10|8,0:0|0:0,0:0:0:0:
388,176,57974,1,12,0:0:0:0:
196,293,58156,1,12,0:0:0:0:
196,293,58247,1,4,0:0:0:0:
196,293,58338,1,6,0:0:0:0:
155,58,58520,1,14,0:0:0:0:
155,58,59065,6,0,P|136:126|144:193,1,100,10|0,0:0|0:0,0:0:0:0:
367,328,59429,2,0,P|386:260|378:193,1,100,12|0,0:0|0:0,0:0:0:0:
226,163,59793,1,10,0:0:0:0:
196,357,59974,1,2,0:0:0:0:
385,231,60156,1,12,0:0:0:0:
136,154,60338,6,0,P|200:83|292:103,1,200,12|8,0:0|0:0,0:0:0:0:
105,278,60884,1,4,0:0:0:0:
78,49,61065,1,8,0:0:0:0:
78,49,61156,1,0,0:0:0:0:
78,49,61247,1,2,0:0:0:0:
226,163,61429,1,10,0:0:0:0:
5,268,61611,2,0,L|104:277,1,100,4|8,0:0|0:0,0:0:0:0:
171,76,61974,5,10,0:0:0:0:
104,277,62156,1,0,0:0:0:0:
0,112,62338,2,0,P|5:62|14:13,1,100,12|0,0:0|0:0,0:0:0:0:
171,200,62702,1,10,0:0:0:0:
331,25,62884,1,10,0:0:0:0:
395,229,63065,1,4,0:0:0:0:
194,20,63247,6,0,L|94:27,1,100,12|2,0:0|0:0,0:0:0:0:
263,291,63611,1,8,1:2:0:0:
264,266,63702,1,8,1:2:0:0:
264,240,63793,1,12,1:2:0:0:
399,95,63974,1,8,1:2:0:0:
400,70,64065,1,8,1:2:0:0:
400,44,64156,1,10,1:2:0:0:
175,166,64338,1,10,0:0:0:0:
413,249,64520,1,12,0:0:0:0:
296,48,64702,1,8,0:0:0:0:
267,358,64884,5,10,0:0:0:0:
267,358,65065,1,8,1:2:0:0:
175,166,65247,2,0,P|166:96|142:-7,1,150,4|0,0:0|0:0,0:0:0:0:
71,6,65611,1,10,0:0:0:0:
0,209,65793,1,10,0:0:0:0:
92,102,65974,1,12,0:0:0:0:
163,274,66156,6,0,P|249:261|296:253,1,100,8|2,0:0|0:0,0:0:0:0:
430,130,66520,1,8,0:0:0:0:
246,123,66702,1,4,0:0:0:0:
385,312,66884,2,0,P|372:226|364:179,1,100,8|2,0:0|0:0,0:0:0:0:
208,47,67247,1,10,0:0:0:0:
396,70,67429,1,4,0:0:0:0:
265,211,67611,1,8,0:0:0:0:
116,2,67793,5,2,0:0:0:0:
116,2,67974,1,0,0:0:0:0:
22,205,68156,2,0,L|6:96,1,100,4|8,0:0|0:0,0:0:0:0:
130,286,68520,1,10,0:0:0:0:
206,107,68702,2,0,B|291:100|257:159|379:146,1,150,10|0,0:0|0:0,0:0:0:0:
212,221,69065,6,0,B|172:193|172:193|7:206,1,200,12|8,0:0|0:0,0:0:0:0:
143,25,69611,1,4,0:0:0:0:
309,219,69793,1,8,1:2:0:0:
309,219,69884,1,8,1:2:0:0:
309,219,69974,1,10,1:2:0:0:
143,110,70156,1,10,0:0:0:0:
315,21,70338,1,12,1:2:0:0:
314,70,70428,1,8,1:2:0:0:
313,120,70519,1,8,1:2:0:0:
312,170,70610,1,8,1:2:0:0:
309,219,70702,6,0,P|257:214|207:214,1,100,10|0,0:0|0:0,0:0:0:0:
19,379,71065,2,0,P|68:383|118:384,1,100,12|0,0:0|0:0,0:0:0:0:
309,219,71430,1,10,0:0:0:0:
118,383,71611,1,2,0:0:0:0:
322,341,71793,1,12,0:0:0:0:
82,146,71974,6,0,P|119:92|256:131,1,200,12|8,0:0|0:0,0:0:0:0:
255,381,72520,1,4,0:0:0:0:
129,214,72702,1,8,0:0:0:0:
136,222,72793,1,0,0:0:0:0:
136,222,72884,1,2,0:0:0:0:
338,135,73066,1,10,0:0:0:0:
108,99,73247,2,0,P|98:13|95:-21,1,100,4|8,0:0|0:0,0:0:0:0:
244,206,73611,5,10,0:0:0:0:
361,45,73793,1,0,0:0:0:0:
449,233,73974,2,0,P|457:290|460:345,1,100,12|0,0:0|0:0,0:0:0:0:
304,125,74339,1,10,0:0:0:0:
294,343,74520,1,10,0:0:0:0:
461,244,74702,1,12,0:0:0:0:
206,107,74884,6,0,L|70:119,1,100,12|10,0:0|1:2,0:0:0:0:
334,329,75247,1,8,1:2:0:0:
335,304,75338,1,0,0:0:0:0:
335,278,75429,1,12,0:0:0:0:
206,107,75611,1,8,1:2:0:0:
207,82,75702,1,8,1:2:0:0:
207,56,75793,1,10,1:2:0:0:
362,140,75974,1,10,0:0:0:0:
132,210,76157,1,12,0:0:0:0:
334,329,76338,1,8,0:0:0:0:
134,356,76521,5,10,0:0:0:0:
134,356,76702,1,8,1:2:0:0:
284,166,76884,2,0,P|302:80|323:-3,1,150,12|0,1:2|0:0,0:0:0:0:
412,0,77248,1,10,0:0:0:0:
381,198,77430,1,10,0:0:0:0:
512,117,77611,1,12,0:0:0:0:
185,181,77793,6,0,P|270:168|318:160,1,100,12|2,0:0|0:0,0:0:0:0:
210,332,78157,1,8,0:0:0:0:
105,156,78338,1,4,0:0:0:0:
5,323,78520,2,0,L|-1:223,1,100,8|2,0:0|0:0,0:0:0:0:
140,47,78884,1,10,0:0:0:0:
194,237,79065,1,4,0:0:0:0:
32,129,79247,1,8,0:0:0:0:
133,351,79429,5,2,0:0:0:0:
132,351,79611,1,0,0:0:0:0:
293,211,79793,2,0,P|290:161|286:111,1,100,4|8,0:0|0:0,0:0:0:0:
200,0,80157,1,10,0:0:0:0:
142,85,80338,2,0,P|127:134|115:258,1,150
210,341,80702,6,0,B|153:316|153:316|3:325,1,200,12|8,0:0|0:0,0:0:0:0:
111,115,81248,1,4,0:0:0:0:
281,291,81430,1,8,1:2:0:0:
281,291,81521,1,8,1:2:0:0:
281,291,81611,1,10,1:2:0:0:
77,231,81793,1,10,0:0:0:0:
284,57,81974,1,0,0:0:0:0:
333,59,82064,1,0,0:0:0:0:
373,87,82155,1,0,0:0:0:0:
394,132,82246,1,0,0:0:0:0:
407,175,82338,6,0,P|456:167|494:166,1,67.4999979400635,2|0,0:0|0:0,0:0:0:0:
435,23,82702,2,0,P|402:14|282:1,1,150,4|0,1:0|0:0,0:0:0:0:
192,22,83065,1,2,0:0:0:0:
241,243,83247,1,2,0:0:0:0:
57,172,83429,1,4,1:0:0:0:
341,147,83611,6,0,P|333:210|314:356,1,200,2|2,0:0|0:0,0:0:0:0:
151,179,84156,1,4,1:0:0:0:
329,55,84338,1,0,0:0:0:0:
224,271,84520,1,2,0:0:0:0:
178,58,84702,1,2,0:0:0:0:
341,147,84883,1,4,1:0:0:0:
131,262,85065,1,0,0:0:0:0:
273,190,85247,6,0,P|346:229|411:184,1,150,2|0,0:0|0:0,0:0:0:0:
478,134,85611,2,0,L|468:283,1,150,4|0,1:0|0:0,0:0:0:0:
509,350,85974,1,2,0:0:0:0:
478,134,86156,1,2,0:0:0:0:
318,266,86338,1,4,1:0:0:0:
327,25,86520,6,0,L|218:17,1,100,2|0,0:0|0:0,0:0:0:0:
62,123,86883,1,2,0:0:0:0:
229,202,87065,2,0,L|237:93,1,100,4|0,1:0|0:0,0:0:0:0:
237,103,87338,1,0,0:0:0:0:
236,103,87429,1,2,0:0:0:0:
77,316,87611,1,2,0:0:0:0:
137,155,87793,1,4,1:0:0:0:
265,286,87974,1,0,0:0:0:0:
409,75,88156,6,0,P|342:102|285:52,1,150,2|0,0:0|0:0,0:0:0:0:
203,10,88520,2,0,L|190:178,1,150,4|0,1:0|0:0,0:0:0:0:
256,201,88883,1,2,0:0:0:0:
449,275,89065,1,2,0:0:0:0:
289,373,89247,1,4,1:0:0:0:
321,127,89429,6,0,B|210:139|240:67|126:69,1,200,2|0,0:0|0:0,0:0:0:0:
352,272,89974,2,0,P|408:252|478:243,1,100,4|0,1:0|0:0,0:0:0:0:
321,127,90338,1,2,0:0:0:0:
260,324,90520,1,2,0:0:0:0:
432,148,90702,2,0,P|445:96|448:32,1,100,4|2,1:0|0:0,0:0:0:0:
321,127,91065,6,0,B|243:106|264:159|175:148,1,150
116,98,91429,1,4,1:0:0:0:
41,330,91611,1,0,0:0:0:0:
184,224,91792,1,2,0:0:0:0:
29,191,91974,1,2,0:0:0:0:
152,384,92156,1,4,1:0:0:0:
310,224,92338,6,0,P|316:174|321:124,1,100,2|0,0:0|0:0,0:0:0:0:
200,17,92702,1,0,0:0:0:0:
408,73,92883,1,4,1:0:0:0:
172,190,93065,1,2,0:0:0:0:
172,190,93156,1,2,0:0:0:0:
172,190,93247,1,2,0:0:0:0:
308,56,93429,1,0,0:0:0:0:
389,307,93611,1,6,0:0:0:0:
390,257,93701,1,2,0:0:0:0:
392,207,93792,1,2,0:0:0:0:
394,157,93883,1,2,0:0:0:0:
396,107,93974,1,2,0:0:0:0:
