osu file format v14

[General]
AudioFilename: audio.mp3
AudioLeadIn: 0
PreviewTime: 67421
Countdown: 0
SampleSet: Normal
StackLeniency: 0.7
Mode: 1
LetterboxInBreaks: 0
WidescreenStoryboard: 1

[Editor]
Bookmarks: 12997,18644,39977,67421,89310,105755,149310,182199,203088,230199,246199
DistanceSpacing: 0.5
BeatDivisor: 8
GridSize: 16
TimelineZoom: 3.499999

[Metadata]
Title:Unchi wo Shite Shimatta Toki no Mashcore
TitleUnicode:うんちをしてしまった時のMashcore
Artist:cexiria
ArtistUnicode:cexiria
Creator:Maimaing
Version:Pekomode (nerfed)
Source:
Tags:Nekomusya7563 XK2238 Salieri applerss japanese electronic j-core jcore hardcore mashcore バーチャル virtual youtuber vtuber hololive ホロライブmad otomad 音mad ディスコミュ星人 discommunication alien 兎田ぺこら usada pekora cover ナナヲアカリ nanawo akari ナユタン星人 turing love チューリングラブ 湊あくあ minato aqua 猫又おかゆ nekomata okayu グッバイ宣言 goodbye sengen ハイカラサウンド highkarasound 紫咲シオン murasaki shion ヴァンパイア vampire deco*27 ボーカロイド vocaloid vocca della verita ボッカデラベリタ roboco-san ロボ子さん hiiragi kirai 柊キライ monster kaibutsu 怪物 tsunomaki watame 角巻わため yoasobi one room sugar life ワンルームシュガーライフ nayutalien nayuta seijin ナユタン星人 watashi idol sengen 私、アイドル宣⾔ chico with honeyworks 私を染める i の歌 wo someru i no uta gom oji 海賊王 shito atsyuk! ヤマコ
BeatmapID:3114194
BeatmapSetID:1521630

[Difficulty]
HPDrainRate:5.5
CircleSize:5
OverallDifficulty:5.5
ApproachRate:5
SliderMultiplier:1.4
SliderTickRate:1

[Events]
//Background and Video events
0,0,"unchi2.png",0,0
//Break Periods
2,11786,17444
2,105953,108109
//Storyboard Layer 0 (Background)
//Storyboard Layer 1 (Fail)
//Storyboard Layer 2 (Pass)
//Storyboard Layer 3 (Foreground)
//Storyboard Layer 4 (Overlay)
//Storyboard Sound Samples

[TimingPoints]
645,352.941176470588,4,1,0,100,1,0
13350,352.941176470588,4,1,0,100,1,8
14761,352.941176470588,4,1,0,100,1,8
16172,352.941176470588,4,1,0,100,1,8
17583,352.941176470588,4,1,0,100,1,8
18644,222.222222222222,4,1,0,100,1,0
23921,-83.3333333333333,4,1,0,100,0,0
24921,-84.9056603773585,4,1,0,100,0,0
25032,-86.5384615384615,4,1,0,100,0,0
25143,-88.2352941176471,4,1,0,100,0,0
25255,-90,4,1,0,100,0,0
25393,-91.8367346938776,4,1,0,100,0,0
25449,-93.75,4,1,0,100,0,0
25505,-95.7446808510638,4,1,0,100,0,0
25616,-97.8260869565217,4,1,0,100,0,0
25727,-100,4,1,0,100,0,0
29282,-95.2380952380952,4,1,0,100,0,0
31949,-71.4285714285714,4,1,0,100,0,0
32616,-95.2380952380952,4,1,0,100,0,0
39060,-71.4285714285714,4,1,0,100,0,0
39727,-100,4,1,0,100,0,0
39838,-111.111111111111,4,1,0,100,0,0
39949,-125,4,1,0,100,0,0
45310,222.222222222222,4,1,0,100,1,8
45310,-83.3333333333333,4,1,0,100,0,0
45727,-95.2380952380952,4,1,0,100,0,0
46171,-91.743119266055,4,1,0,100,0,0
46282,-88.4955752212389,4,1,0,100,0,0
46393,-85.4700854700855,4,1,0,100,0,0
46504,-82.6446280991736,4,1,0,100,0,0
46615,-80,4,1,0,100,0,0
46726,-77.5193798449612,4,1,0,100,0,0
46837,-76.9230769230769,4,1,0,100,0,0
47087,222.222222222222,4,1,0,100,1,0
47087,-95.2380952380952,4,1,0,100,0,1
53503,-89.2857142857143,4,1,0,100,0,1
53559,-95.2380952380952,4,1,0,100,0,1
53948,-86.9565217391304,4,1,0,100,0,1
54003,-95.2380952380952,4,1,0,100,0,1
59725,-76.9230769230769,4,1,0,100,0,1
59781,-90.9090909090909,4,1,0,100,0,1
60170,-76.9230769230769,4,1,0,100,0,1
60225,-90.9090909090909,4,1,0,100,0,1
60392,-100,4,1,0,100,0,1
60448,-99.1253644314869,4,1,0,100,0,1
60503,-98.2658959537572,4,1,0,100,0,1
60559,-97.4212034383954,4,1,0,100,0,1
60614,-96.5909090909091,4,1,0,100,0,1
60670,-95.7746478873239,4,1,0,100,0,1
60735,-94.9720670391061,4,1,0,100,0,1
60772,-94.1828254847646,4,1,0,100,0,1
60809,-93.4065934065934,4,1,0,100,0,1
60836,-92.6430517711172,4,1,0,100,0,1
60892,-91.8918918918919,4,1,0,100,0,1
60948,-91.1528150134048,4,1,0,100,0,1
61003,-90.4255319148936,4,1,0,100,0,1
61059,-89.7097625329815,4,1,0,100,0,1
61114,-89.0052356020942,4,1,0,100,0,1
61170,-88.3116883116883,4,1,0,100,0,1
61225,-87.6288659793814,4,1,0,100,0,1
61281,-86.9565217391304,4,1,0,100,0,1
61309,-86.9565217391304,4,1,0,100,0,0
61336,-87.0748299319728,4,1,0,100,0,0
61392,-87.1934604904632,4,1,0,100,0,0
61448,-87.31241473397,4,1,0,100,0,0
61503,-87.4316939890711,4,1,0,100,0,0
61559,-87.5512995896033,4,1,0,100,0,0
61614,-87.6712328767123,4,1,0,100,0,0
61670,-87.7914951989026,4,1,0,100,0,0
61725,-87.9120879120879,4,1,0,100,0,0
61781,-88.0330123796424,4,1,0,100,0,0
61836,-88.1542699724518,4,1,0,100,0,0
61892,-88.2758620689655,4,1,0,100,0,0
61948,-88.3977900552486,4,1,0,100,0,0
62003,-88.5200553250346,4,1,0,100,0,0
62059,-88.6426592797784,4,1,0,100,0,0
62114,-88.7656033287101,4,1,0,100,0,0
62170,-88.8888888888889,4,1,0,100,0,0
62225,-89.0125173852573,4,1,0,100,0,0
62281,-89.1364902506964,4,1,0,100,0,0
62336,-89.2608089260809,4,1,0,100,0,0
62392,-89.3854748603352,4,1,0,100,0,0
62448,-89.5104895104895,4,1,0,100,0,0
62503,-89.6358543417367,4,1,0,100,0,0
62559,-89.7615708274895,4,1,0,100,0,0
62614,-89.8876404494382,4,1,0,100,0,0
62670,-90.014064697609,4,1,0,100,0,0
62725,-90.1408450704225,4,1,0,100,0,0
62781,-90.2679830747532,4,1,0,100,0,0
62836,-90.3954802259887,4,1,0,100,0,0
62892,-90.5233380480905,4,1,0,100,0,0
62948,-90.6515580736544,4,1,0,100,0,0
63003,-90.7801418439716,4,1,0,100,0,0
63059,-90.9090909090909,4,1,0,100,0,0
63114,-91.0384068278805,4,1,0,100,0,0
63170,-91.1680911680912,4,1,0,100,0,0
63225,-91.2981455064194,4,1,0,100,0,0
63281,-91.4285714285714,4,1,0,100,0,0
63336,-91.5593705293276,4,1,0,100,0,0
63392,-91.6905444126075,4,1,0,100,0,0
63448,-91.8220946915351,4,1,0,100,0,0
63503,-91.9540229885058,4,1,0,100,0,0
63559,-92.0863309352518,4,1,0,100,0,0
63614,-92.2190201729107,4,1,0,100,0,0
63670,-92.3520923520924,4,1,0,100,0,0
63725,-92.485549132948,4,1,0,100,0,0
63781,-92.6193921852388,4,1,0,100,0,0
63836,-92.7536231884058,4,1,0,100,0,0
63892,-92.8882438316401,4,1,0,100,0,0
63948,-93.0232558139535,4,1,0,100,0,0
64003,-93.1586608442504,4,1,0,100,0,0
64059,-93.2944606413994,4,1,0,100,0,0
64114,-93.4306569343066,4,1,0,100,0,0
64170,-93.5672514619883,4,1,0,100,0,0
64225,-93.7042459736457,4,1,0,100,0,0
64281,-93.841642228739,4,1,0,100,0,0
64336,-93.9794419970631,4,1,0,100,0,0
64392,-94.1176470588235,4,1,0,100,0,0
64448,-94.2562592047128,4,1,0,100,0,0
64503,-94.3952802359882,4,1,0,100,0,0
64559,-94.5347119645495,4,1,0,100,0,0
64614,-94.6745562130178,4,1,0,100,0,0
64670,-94.8148148148148,4,1,0,100,0,0
64725,-94.9554896142433,4,1,0,100,0,0
64781,-95.0965824665676,4,1,0,100,0,0
64836,-95.2380952380952,4,1,0,100,0,0
64892,-95.3800298062593,4,1,0,100,0,0
64948,-95.5223880597015,4,1,0,100,0,0
65003,-95.6651718983558,4,1,0,100,0,0
65059,-95.8083832335329,4,1,0,100,0,0
65114,-95.952023988006,4,1,0,100,0,0
65170,-96.0960960960961,4,1,0,100,0,0
65225,-96.2406015037594,4,1,0,100,0,0
65281,-96.3855421686747,4,1,0,100,0,0
65336,-96.5309200603318,4,1,0,100,0,0
65392,-96.6767371601208,4,1,0,100,0,0
65448,-96.8229954614221,4,1,0,100,0,0
65503,-96.969696969697,4,1,0,100,0,0
65559,-97.1168437025797,4,1,0,100,0,0
65614,-97.2644376899696,4,1,0,100,0,0
65670,-97.4124809741248,4,1,0,100,0,0
65725,-97.5609756097561,4,1,0,100,0,0
65781,-97.7099236641221,4,1,0,100,0,0
65836,-97.8593272171254,4,1,0,100,0,0
65892,-98.0091883614089,4,1,0,100,0,0
65948,-98.159509202454,4,1,0,100,0,0
66003,-98.310291858679,4,1,0,100,0,0
66059,-98.4615384615385,4,1,0,100,0,0
66114,-98.613251155624,4,1,0,100,0,0
66170,-98.7654320987654,4,1,0,100,0,0
66225,-98.9180834621329,4,1,0,100,0,0
66281,-99.0712074303406,4,1,0,100,0,0
66336,-99.2248062015504,4,1,0,100,0,0
66392,-99.3788819875776,4,1,0,100,0,0
66448,-99.5334370139969,4,1,0,100,0,0
66503,-99.6884735202492,4,1,0,100,0,0
66559,-99.8439937597504,4,1,0,100,0,0
66614,-100,4,1,0,100,0,0
66670,-98.3606557377049,4,1,0,100,0,0
66725,-96.7741935483871,4,1,0,100,0,0
66781,-95.2380952380952,4,1,0,100,0,0
66836,-93.75,4,1,0,100,0,0
66892,-92.3076923076923,4,1,0,100,0,0
66948,-90.9090909090909,4,1,0,100,0,0
67003,-89.5522388059701,4,1,0,100,0,0
67059,-88.2352941176471,4,1,0,100,0,0
67114,-86.9565217391304,4,1,0,100,0,0
67170,-85.7142857142857,4,1,0,100,0,0
67225,-84.5070422535211,4,1,0,100,0,0
67281,-83.3333333333333,4,1,0,100,0,0
67392,-78.7401574803149,4,1,0,100,0,0
68170,-101.010101010101,4,1,0,100,0,0
68281,-99.009900990099,4,1,0,100,0,0
68392,-95.2380952380952,4,1,0,100,0,0
68420,-95.2380952380952,4,1,0,100,0,1
75059,-100,4,1,0,100,0,1
75142,-105.263157894737,4,1,0,100,0,1
75253,-111.111111111111,4,1,0,100,0,1
75725,-76.9230769230769,4,1,0,100,0,1
75836,-95.2380952380952,4,1,0,100,0,1
82392,-74.0740740740741,4,1,0,100,0,1
82614,-105.263157894737,4,1,0,100,0,1
82642,-105.263157894737,4,1,0,100,0,0
86142,-98.0392156862745,4,1,0,100,0,0
87031,-91.743119266055,4,1,0,100,0,0
87920,-86.2068965517241,4,1,0,100,0,0
89253,-89.2857142857143,4,1,0,100,0,0
89364,-92.5925925925926,4,1,0,100,0,0
89475,-96.1538461538461,4,1,0,100,0,0
89586,-100,4,1,0,100,0,0
89698,-104.166666666667,4,1,0,100,0,0
89920,-76.9230769230769,4,1,0,100,0,0
90142,-95.2380952380952,4,1,0,100,0,0
90198,-95.2380952380952,4,1,0,100,0,1
100364,-86.9565217391304,4,1,0,100,0,1
103948,-76.9230769230769,4,1,0,100,0,1
104031,-86.9565217391304,4,1,0,100,0,1
104364,-76.9230769230769,4,1,0,100,0,1
104503,-86.9565217391304,4,1,0,100,0,1
104809,-76.9230769230769,4,1,0,100,0,1
105503,-71.4285714285714,4,1,0,100,0,1
105725,-125,4,1,0,100,0,1
105753,-125,4,1,0,100,0,0
107531,-142.857142857143,4,1,0,100,0,0
109281,-166.666666666666,4,1,0,100,0,0
113031,-192.307692307692,4,1,0,100,0,0
116392,-156.25,4,1,0,100,0,0
118170,-154.711673699015,4,1,0,100,0,0
118225,-153.203342618384,4,1,0,100,0,0
118281,-151.724137931034,4,1,0,100,0,0
118336,-150.273224043716,4,1,0,100,0,0
118392,-148.849797023004,4,1,0,100,0,0
118448,-147.45308310992,4,1,0,100,0,0
118503,-146.082337317397,4,1,0,100,0,0
118559,-144.736842105263,4,1,0,100,0,0
118614,-143.415906127771,4,1,0,100,0,0
118670,-142.118863049096,4,1,0,100,0,0
118725,-140.845070422535,4,1,0,100,0,0
118781,-139.593908629442,4,1,0,100,0,0
118836,-138.364779874214,4,1,0,100,0,0
118892,-137.15710723192,4,1,0,100,0,0
118948,-135.970333745365,4,1,0,100,0,0
119003,-134.803921568627,4,1,0,100,0,0
119059,-133.657351154313,4,1,0,100,0,0
119114,-132.530120481928,4,1,0,100,0,0
119170,-131.42174432497,4,1,0,100,0,0
119225,-130.331753554502,4,1,0,100,0,0
119281,-129.259694477086,4,1,0,100,0,0
119336,-128.205128205128,4,1,0,100,0,0
119392,-127.167630057803,4,1,0,100,0,0
119448,-126.146788990826,4,1,0,100,0,0
119503,-125.14220705347,4,1,0,100,0,0
119559,-124.153498871332,4,1,0,100,0,0
119614,-123.180291153415,4,1,0,100,0,0
119670,-122.222222222222,4,1,0,100,0,0
119725,-121.278941565601,4,1,0,100,0,0
119781,-120.35010940919,4,1,0,100,0,0
119836,-119.43539630836,4,1,0,100,0,0
119892,-118.534482758621,4,1,0,100,0,0
119948,-117.647058823529,4,1,0,100,0,0
133948,-103.448275862069,4,1,0,100,0,0
134059,-92.3076923076923,4,1,0,100,0,0
134170,-89.2857142857143,4,1,0,100,0,0
134198,-89.2857142857143,4,1,0,100,0,1
135948,-85,4,1,0,100,0,0
136170,-86.734693877551,4,1,0,100,0,0
136392,-88.5416666666667,4,1,0,100,0,0
136614,-90.4255319148936,4,1,0,100,0,0
136836,-92.3913043478261,4,1,0,100,0,0
137059,-94.4444444444444,4,1,0,100,0,0
137281,-96.5909090909091,4,1,0,100,0,0
137503,-98.8372093023256,4,1,0,100,0,0
137725,-101.190476190476,4,1,0,100,0,0
137948,-103.658536585366,4,1,0,100,0,0
138170,-106.25,4,1,0,100,0,0
138392,-108.974358974359,4,1,0,100,0,0
138614,-111.842105263158,4,1,0,100,0,0
138836,-114.864864864865,4,1,0,100,0,0
139059,-118.055555555556,4,1,0,100,0,0
139281,-121.428571428571,4,1,0,100,0,0
139503,-125,4,1,0,100,0,0
139725,-121.739130434783,4,1,0,100,0,0
139948,-118.64406779661,4,1,0,100,0,0
140170,-115.702479338843,4,1,0,100,0,0
140392,-112.903225806452,4,1,0,100,0,0
140614,-110.236220472441,4,1,0,100,0,0
140836,-107.692307692308,4,1,0,100,0,0
141059,-105.263157894737,4,1,0,100,0,0
141281,-102.941176470588,4,1,0,100,0,0
141503,-100.719424460432,4,1,0,100,0,0
141725,-98.5915492957746,4,1,0,100,0,0
141836,-96.551724137931,4,1,0,100,0,0
141948,-94.5945945945946,4,1,0,100,0,0
142059,-92.7152317880795,4,1,0,100,0,0
142170,-90.9090909090909,4,1,0,100,0,0
143059,-100,4,1,0,100,0,0
150170,-111.111111111111,4,1,0,100,0,0
151948,-166.666666666667,4,1,0,100,0,0
153059,-117.647058823529,4,1,0,100,0,0
153281,-86.9565217391304,4,1,0,100,0,0
153503,-71.4285714285714,4,1,0,100,0,0
153725,-95.2380952380952,4,1,0,100,0,0
153753,-95.2380952380952,4,1,0,100,0,1
160170,-89.2857142857143,4,1,0,100,0,1
160225,-95.2380952380952,4,1,0,100,0,1
160614,-86.9565217391304,4,1,0,100,0,1
160670,-95.2380952380952,4,1,0,100,0,1
162725,-91.743119266055,4,1,0,100,0,1
162836,-88.4955752212389,4,1,0,100,0,1
163059,-95.2380952380952,4,1,0,100,0,1
163170,-91.743119266055,4,1,0,100,0,1
163281,-88.4955752212389,4,1,0,100,0,1
163503,-95.2380952380952,4,1,0,100,0,1
166170,-86.9565217391304,4,1,0,100,0,1
167725,-103.092783505155,4,1,0,100,0,1
167836,-99.009900990099,4,1,0,100,0,1
167948,-95.2380952380952,4,1,0,100,0,1
175059,-90.9090909090909,4,1,0,100,0,1
182170,-117.647058823529,4,1,0,100,0,1
182198,-117.647058823529,4,1,0,100,0,0
189281,-111.111111111111,4,1,0,100,0,0
196392,-99.9999999999999,4,1,0,100,0,0
203059,-104.166666666667,4,1,0,100,0,0
203281,-108.695652173913,4,1,0,100,0,0
203503,-113.636363636364,4,1,0,100,0,0
215948,-90.9090909090909,4,1,0,100,0,0
215975,-90.9090909090909,4,1,0,100,0,1
221948,-83.3333333333333,4,1,0,100,0,1
223059,-97.0873786407767,4,1,0,100,0,1
223281,-88.4955752212389,4,1,0,100,0,1
223392,-90.9090909090909,4,1,0,100,0,1
228503,-90.0900900900901,4,1,0,100,0,1
228614,-89.2857142857143,4,1,0,100,0,1
228725,-88.4955752212389,4,1,0,100,0,1
228836,-87.719298245614,4,1,0,100,0,1
228948,-86.9565217391304,4,1,0,100,0,1
229059,-86.2068965517241,4,1,0,100,0,1
229170,-85.4700854700855,4,1,0,100,0,1
229281,-84.7457627118644,4,1,0,100,0,1
230170,-83.3333333333333,4,1,0,100,0,1
230198,-83.3333333333333,4,1,0,100,0,0
231059,-76.9230769230769,4,1,0,100,0,0
231948,-95.2380952380952,4,1,0,100,0,0
231975,-95.2380952380952,4,1,0,100,0,1
237281,-86.9565217391304,4,1,0,100,0,1
237503,-95.2380952380952,4,1,0,100,0,1
237725,-86.9565217391304,4,1,0,100,0,1
237948,-95.2380952380952,4,1,0,100,0,1
238170,-86.9565217391304,4,1,0,100,0,1
239059,-95.2380952380952,4,1,0,100,0,1
245309,-95.2380952380952,4,1,0,100,0,0
245725,-99.009900990099,4,1,0,100,0,0
245948,-103.092783505155,4,1,0,100,0,0
246170,-107.52688172043,4,1,0,100,0,0
246198,-107.52688172043,4,1,0,100,0,1
252503,-106.609808102345,4,1,0,100,0,1
252559,-105.708245243129,4,1,0,100,0,1
252614,-104.82180293501,4,1,0,100,0,1
252670,-103.950103950104,4,1,0,100,0,1
252725,-103.092783505155,4,1,0,100,0,1
252781,-102.249488752556,4,1,0,100,0,1
252836,-101.419878296146,4,1,0,100,0,1
252892,-100.603621730382,4,1,0,100,0,1
252948,-99.8003992015968,4,1,0,100,0,1
253003,-99.009900990099,4,1,0,100,0,1
253059,-98.2318271119843,4,1,0,100,0,1
253114,-97.4658869395711,4,1,0,100,0,1
253170,-96.7117988394584,4,1,0,100,0,1
253225,-95.9692898272553,4,1,0,100,0,1
253281,-95.2380952380952,4,1,0,100,0,1
258836,-86.9565217391304,4,1,0,100,0,1
259059,-95.2380952380952,4,1,0,100,0,1
259281,-86.9565217391304,4,1,0,100,0,1
259503,-83.3333333333333,4,1,0,100,0,1
259614,-87.5,4,1,0,100,0,1
259725,-92.1052631578947,4,1,0,100,0,1
259836,-97.2222222222222,4,1,0,100,0,1
259948,-102.941176470588,4,1,0,100,0,1
260059,-109.375,4,1,0,100,0,1
260281,-116.666666666667,4,1,0,100,0,1
260392,-125,4,1,0,100,0,1
260420,-125,4,1,0,100,0,0
261281,-80,4,1,0,100,0,0
261309,-80,4,1,0,100,0,1
262170,-76.9230769230769,4,1,0,100,0,1
262198,-76.9230769230769,4,1,0,100,0,0
262948,-74.0740740740741,4,1,0,100,0,0
262975,-74.0740740740741,4,1,0,100,0,1
263948,-90.9090909090909,4,1,0,100,0,1
263975,-90.9090909090909,4,1,0,100,0,1
271531,-90.9090909090909,4,1,0,100,0,0

[HitObjects]
136,174,645,5,0,0:0:0:0:
136,174,997,1,8,0:0:0:0:
136,174,1174,1,8,0:0:0:0:
136,174,1350,1,0,0:0:0:0:
136,174,1527,1,8,0:0:0:0:
136,174,1880,1,0,0:0:0:0:
136,174,2233,1,0,0:0:0:0:
136,174,2409,1,8,0:0:0:0:
136,174,2586,1,8,0:0:0:0:
136,174,2762,1,0,0:0:0:0:
136,174,2939,1,0,0:0:0:0:
136,174,3115,1,8,0:0:0:0:
136,174,3292,1,8,0:0:0:0:
136,174,3468,1,0,0:0:0:0:
136,174,3821,1,8,0:0:0:0:
136,174,3997,1,8,0:0:0:0:
136,174,4174,1,0,0:0:0:0:
136,174,4350,1,8,0:0:0:0:
136,174,4703,1,0,0:0:0:0:
136,174,5056,1,0,0:0:0:0:
136,174,5233,1,8,0:0:0:0:
136,174,5409,1,8,0:0:0:0:
136,174,5586,1,0,0:0:0:0:
136,174,5762,1,0,0:0:0:0:
136,174,5850,1,8,0:0:0:0:
136,174,5939,1,8,0:0:0:0:
136,174,6115,1,8,0:0:0:0:
136,174,6292,1,0,0:0:0:0:
261,112,6644,1,8,0:0:0:0:
261,112,6821,1,8,0:0:0:0:
261,112,6997,1,0,0:0:0:0:
261,112,7174,1,8,0:0:0:0:
261,112,7527,1,0,0:0:0:0:
261,112,7880,1,0,0:0:0:0:
261,112,8056,1,8,0:0:0:0:
261,112,8233,1,8,0:0:0:0:
261,112,8409,1,0,0:0:0:0:
261,112,8586,1,0,0:0:0:0:
261,112,8762,1,8,0:0:0:0:
261,112,8939,1,0,0:0:0:0:
152,100,9115,1,8,0:0:0:0:
152,100,9468,1,8,0:0:0:0:
152,100,9821,1,8,0:0:0:0:
116,65,9997,1,0,0:0:0:0:
152,100,10086,1,8,0:0:0:0:
152,100,10174,1,8,0:0:0:0:
152,100,10350,1,8,0:0:0:0:
152,100,10527,1,0,0:0:0:0:
152,100,10880,1,0,0:0:0:0:
152,100,11233,1,0,0:0:0:0:
152,100,11586,1,8,0:0:0:0:
161,47,18644,5,0,0:0:0:0:
174,92,18755,1,0,0:0:0:0:
174,92,18810,1,0,0:0:0:0:
161,47,18866,1,8,0:0:0:0:
256,140,18977,1,8,0:0:0:0:
256,140,19032,1,8,0:0:0:0:
161,47,19088,1,0,0:0:0:0:
256,140,19199,1,8,0:0:0:0:
161,47,19310,1,0,0:0:0:0:
263,86,19421,1,8,0:0:0:0:
263,86,19477,1,8,0:0:0:0:
161,47,19532,1,0,0:0:0:0:
232,57,19644,1,0,0:0:0:0:
206,26,19699,1,0,0:0:0:0:
161,47,19755,1,8,0:0:0:0:
415,193,19866,1,8,0:0:0:0:
161,47,19977,1,0,0:0:0:0:
308,145,20032,1,0,0:0:0:0:
308,145,20088,1,8,0:0:0:0:
308,145,20144,1,0,0:0:0:0:
211,68,20199,1,8,0:0:0:0:
242,90,20310,1,8,0:0:0:0:
161,47,20421,1,0,0:0:0:0:
288,45,20532,1,8,0:0:0:0:
293,53,20588,1,0,0:0:0:0:
176,67,20644,1,8,0:0:0:0:
195,82,20755,1,8,0:0:0:0:
161,47,20866,1,0,0:0:0:0:
201,82,20921,1,0,0:0:0:0:
202,80,20977,1,8,0:0:0:0:
161,47,21088,1,0,0:0:0:0:
253,82,21199,1,8,0:0:0:0:
253,82,21255,1,8,0:0:0:0:
161,47,21310,1,0,0:0:0:0:
253,82,21421,1,0,0:0:0:0:
253,82,21532,1,8,0:0:0:0:
253,82,21588,1,8,0:0:0:0:
253,82,21643,1,8,0:0:0:0:
253,82,21755,1,0,0:0:0:0:
230,74,21866,1,0,0:0:0:0:
229,74,21921,1,8,0:0:0:0:
229,74,21977,1,8,0:0:0:0:
231,76,22088,1,8,0:0:0:0:
253,95,22199,1,0,0:0:0:0:
253,95,22310,1,0,0:0:0:0:
253,95,22366,1,0,0:0:0:0:
253,95,22421,1,8,0:0:0:0:
253,95,22532,1,8,0:0:0:0:
238,127,22588,1,8,0:0:0:0:
238,127,22643,1,0,0:0:0:0:
238,127,22755,1,8,0:0:0:0:
238,127,22866,1,0,0:0:0:0:
127,89,22977,1,8,0:0:0:0:
127,89,23032,1,0,0:0:0:0:
127,89,23088,1,0,0:0:0:0:
127,89,23199,1,0,0:0:0:0:
127,89,23310,1,8,0:0:0:0:
127,89,23366,1,0,0:0:0:0:
127,89,23421,1,8,0:0:0:0:
127,89,23532,1,0,0:0:0:0:
127,89,23643,1,8,0:0:0:0:
358,178,23699,1,8,0:0:0:0:
358,178,23755,1,0,0:0:0:0:
127,89,23866,1,8,0:0:0:0:
175,148,23977,1,4,0:0:0:0:
175,148,24088,1,4,0:0:0:0:
175,148,24310,1,12,0:0:0:0:
175,148,24532,1,12,0:0:0:0:
175,148,24755,1,12,0:0:0:0:
190,118,24866,1,4,0:0:0:0:
250,142,24977,1,0,0:0:0:0:
250,142,25088,1,8,0:0:0:0:
250,142,25199,1,0,0:0:0:0:
250,142,25310,1,0,0:0:0:0:
146,92,25421,1,8,0:0:0:0:
146,92,25477,1,8,0:0:0:0:
146,92,25532,1,8,0:0:0:0:
146,92,25643,1,8,0:0:0:0:
207,171,25755,1,0,0:0:0:0:
207,171,25866,1,0,0:0:0:0:
207,171,25921,1,0,0:0:0:0:
207,171,25977,1,8,0:0:0:0:
207,171,26088,1,8,0:0:0:0:
207,171,26143,1,8,0:0:0:0:
207,77,26199,1,0,0:0:0:0:
207,77,26255,1,8,0:0:0:0:
207,77,26310,1,0,0:0:0:0:
207,77,26421,1,8,0:0:0:0:
97,86,26532,1,8,0:0:0:0:
97,86,26643,1,0,0:0:0:0:
97,86,26755,1,8,0:0:0:0:
97,86,26810,1,0,0:0:0:0:
97,86,26866,1,0,0:0:0:0:
97,86,26977,1,8,0:0:0:0:
97,86,27088,1,0,0:0:0:0:
306,99,27143,1,0,0:0:0:0:
97,86,27199,1,0,0:0:0:0:
97,86,27310,1,8,0:0:0:0:
97,86,27421,1,0,0:0:0:0:
97,86,27477,1,8,0:0:0:0:
97,86,27532,1,0,0:0:0:0:
131,158,27643,1,0,0:0:0:0:
131,158,27699,1,0,0:0:0:0:
131,158,27755,1,8,0:0:0:0:
306,99,27866,1,0,0:0:0:0:
306,99,27977,1,8,0:0:0:0:
306,99,28032,1,8,0:0:0:0:
306,99,28088,1,8,0:0:0:0:
259,135,28199,1,8,0:0:0:0:
159,97,28310,1,0,0:0:0:0:
159,97,28366,1,0,0:0:0:0:
159,97,28421,1,8,0:0:0:0:
70,112,28532,1,0,0:0:0:0:
126,109,28643,1,8,0:0:0:0:
126,109,28699,1,8,0:0:0:0:
126,109,28755,1,0,0:0:0:0:
257,60,28866,1,8,0:0:0:0:
257,60,28977,1,0,0:0:0:0:
257,60,29032,1,8,0:0:0:0:
195,52,29088,1,8,0:0:0:0:
195,52,29199,1,8,0:0:0:0:
346,107,29310,1,0,0:0:0:0:
346,107,29421,1,8,0:0:0:0:
346,107,29477,1,0,0:0:0:0:
346,107,29532,1,8,0:0:0:0:
346,107,29643,1,0,0:0:0:0:
346,107,29755,1,8,0:0:0:0:
346,107,29810,1,0,0:0:0:0:
346,107,29866,1,0,0:0:0:0:
346,107,29921,1,0,0:0:0:0:
346,107,29977,1,8,0:0:0:0:
119,86,30088,1,8,0:0:0:0:
111,166,30199,1,0,0:0:0:0:
239,77,30310,1,8,0:0:0:0:
243,52,30421,1,0,0:0:0:0:
244,52,30477,1,8,0:0:0:0:
244,54,30532,1,8,0:0:0:0:
244,54,30643,1,0,0:0:0:0:
186,90,30755,1,0,0:0:0:0:
186,90,30810,1,0,0:0:0:0:
186,90,30866,1,8,0:0:0:0:
126,47,30977,1,0,0:0:0:0:
126,47,31088,1,8,0:0:0:0:
169,95,31199,1,0,0:0:0:0:
169,108,31255,1,0,0:0:0:0:
169,108,31310,1,8,0:0:0:0:
171,109,31421,1,0,0:0:0:0:
171,109,31532,1,8,0:0:0:0:
231,52,31643,1,0,0:0:0:0:
231,52,31699,1,0,0:0:0:0:
231,52,31755,1,8,0:0:0:0:
231,52,31810,1,8,0:0:0:0:
231,52,31866,1,0,0:0:0:0:
240,87,31977,1,12,0:0:0:0:
240,87,32199,1,12,0:0:0:0:
240,87,32421,1,12,0:0:0:0:
289,78,32643,1,0,0:0:0:0:
325,189,32671,1,0,0:0:0:0:
410,68,32755,1,8,0:0:0:0:
189,156,32866,1,0,0:0:0:0:
243,57,32977,1,0,0:0:0:0:
243,57,33032,1,0,0:0:0:0:
243,57,33088,1,8,0:0:0:0:
122,118,33199,1,8,0:0:0:0:
122,118,33310,1,0,0:0:0:0:
122,118,33421,1,8,0:0:0:0:
175,154,33532,1,0,0:0:0:0:
175,154,33588,1,8,0:0:0:0:
175,154,33643,1,8,0:0:0:0:
193,121,33755,1,0,0:0:0:0:
288,168,33810,1,0,0:0:0:0:
288,168,33866,1,8,0:0:0:0:
376,179,33977,1,8,0:0:0:0:
376,179,34088,1,8,0:0:0:0:
96,163,34143,1,0,0:0:0:0:
376,179,34199,1,8,0:0:0:0:
376,179,34310,1,8,0:0:0:0:
212,139,34421,1,0,0:0:0:0:
245,217,34477,1,0,0:0:0:0:
245,217,34532,1,8,0:0:0:0:
245,217,34588,1,8,0:0:0:0:
346,77,34643,1,0,0:0:0:0:
141,156,34755,1,0,0:0:0:0:
136,154,34810,1,0,0:0:0:0:
136,154,34866,1,8,0:0:0:0:
185,148,34977,1,8,0:0:0:0:
187,143,35088,1,0,0:0:0:0:
187,143,35143,1,8,0:0:0:0:
187,143,35255,1,8,0:0:0:0:
187,143,35310,1,0,0:0:0:0:
0,135,35421,1,0,0:0:0:0:
210,189,35532,1,0,0:0:0:0:
271,169,35588,1,0,0:0:0:0:
210,189,35643,1,8,0:0:0:0:
210,189,35755,1,0,0:0:0:0:
210,189,35866,1,0,0:0:0:0:
241,232,35977,1,8,0:0:0:0:
241,232,36032,1,0,0:0:0:0:
241,232,36088,1,0,0:0:0:0:
201,120,36199,1,12,0:0:0:0:
237,103,36421,1,0,0:0:0:0:
237,103,36477,1,0,0:0:0:0:
237,103,36532,1,0,0:0:0:0:
237,103,36643,1,8,0:0:0:0:
163,22,36755,1,0,0:0:0:0:
67,62,36810,1,0,0:0:0:0:
70,66,36866,1,0,0:0:0:0:
70,66,36977,1,8,0:0:0:0:
100,67,37088,1,0,0:0:0:0:
100,67,37143,1,0,0:0:0:0:
100,67,37199,1,8,0:0:0:0:
328,74,37310,1,8,0:0:0:0:
180,74,37421,1,0,0:0:0:0:
180,74,37477,1,8,0:0:0:0:
180,74,37532,1,8,0:0:0:0:
14,149,37643,1,8,0:0:0:0:
190,148,37755,1,0,0:0:0:0:
382,156,37810,1,0,0:0:0:0:
382,156,37866,1,8,0:0:0:0:
379,130,37921,1,8,0:0:0:0:
382,156,37977,1,0,0:0:0:0:
382,156,38088,1,8,0:0:0:0:
179,156,38199,1,0,0:0:0:0:
179,156,38310,1,8,0:0:0:0:
179,156,38366,1,8,0:0:0:0:
326,231,38421,1,0,0:0:0:0:
326,231,38532,1,8,0:0:0:0:
340,247,38643,1,0,0:0:0:0:
45,154,38755,1,0,0:0:0:0:
141,44,38810,1,0,0:0:0:0:
71,160,38866,1,8,0:0:0:0:
193,104,38977,1,8,0:0:0:0:
211,148,39088,1,4,0:0:0:0:
211,148,39310,1,4,0:0:0:0:
211,148,39532,1,4,0:0:0:0:
174,136,39755,1,8,0:0:0:0:
174,136,39866,1,8,0:0:0:0:
169,115,39977,1,4,0:0:0:0:
237,206,40088,1,8,0:0:0:0:
237,206,40143,1,0,0:0:0:0:
237,206,40310,1,0,0:0:0:0:
3,153,40421,1,8,0:0:0:0:
54,148,40532,1,8,0:0:0:0:
54,148,40588,1,8,0:0:0:0:
300,64,40755,1,8,0:0:0:0:
169,115,40866,1,0,0:0:0:0:
237,206,40977,1,8,0:0:0:0:
237,206,41032,1,0,0:0:0:0:
237,206,41199,1,0,0:0:0:0:
3,153,41310,1,8,0:0:0:0:
54,148,41532,1,8,0:0:0:0:
169,115,41755,1,0,0:0:0:0:
237,206,41866,1,8,0:0:0:0:
237,206,41921,1,0,0:0:0:0:
237,206,42088,1,0,0:0:0:0:
3,153,42199,1,8,0:0:0:0:
54,148,42310,1,0,0:0:0:0:
54,148,42366,1,8,0:0:0:0:
221,138,42532,1,8,0:0:0:0:
253,162,42643,1,0,0:0:0:0:
253,162,42755,1,8,0:0:0:0:
253,162,42810,1,0,0:0:0:0:
153,49,42977,1,0,0:0:0:0:
153,49,43088,1,8,0:0:0:0:
108,142,43199,1,0,0:0:0:0:
108,142,43310,1,8,0:0:0:0:
108,142,43421,1,8,0:0:0:0:
108,142,43532,1,0,0:0:0:0:
108,142,43866,1,0,0:0:0:0:
108,142,43977,1,8,0:0:0:0:
130,137,44199,1,8,0:0:0:0:
130,137,44421,1,0,0:0:0:0:
130,137,44532,1,0,0:0:0:0:
130,137,44643,1,8,0:0:0:0:
130,137,44755,1,0,0:0:0:0:
130,137,44866,1,8,0:0:0:0:
313,166,45088,1,0,0:0:0:0:
355,133,45421,1,12,0:0:0:0:
355,133,45532,1,12,0:0:0:0:
355,133,45754,1,0,0:0:0:0:
355,133,45865,1,8,0:0:0:0:
25,139,45921,1,0,0:0:0:0:
160,123,46032,1,0,0:0:0:0:
160,123,46087,1,8,0:0:0:0:
267,105,46198,1,0,0:0:0:0:
267,105,46310,1,0,0:0:0:0:
267,105,46421,1,8,0:0:0:0:
267,105,46532,1,0,0:0:0:0:
148,118,46643,1,8,0:0:0:0:
196,77,46754,1,0,0:0:0:0:
196,77,46810,1,0,0:0:0:0:
196,77,46865,1,12,0:0:0:0:
249,169,47087,1,8,0:0:0:0:
249,169,47198,1,0,0:0:0:0:
249,169,47253,1,0,0:0:0:0:
249,169,47309,1,8,0:0:0:0:
249,169,47420,1,0,0:0:0:0:
249,169,47531,1,8,0:0:0:0:
249,169,47642,1,0,0:0:0:0:
249,169,47698,1,0,0:0:0:0:
249,169,47753,1,8,0:0:0:0:
249,169,47864,1,8,0:0:0:0:
249,169,47975,1,0,0:0:0:0:
249,169,48087,1,8,0:0:0:0:
249,169,48142,1,0,0:0:0:0:
249,169,48198,1,8,0:0:0:0:
249,169,48309,1,0,0:0:0:0:
249,169,48420,1,8,0:0:0:0:
249,169,48531,1,0,0:0:0:0:
249,169,48587,1,0,0:0:0:0:
249,169,48642,1,0,0:0:0:0:
249,169,48753,1,0,0:0:0:0:
249,169,48864,1,8,0:0:0:0:
249,169,48975,1,0,0:0:0:0:
249,169,49031,1,0,0:0:0:0:
249,169,49087,1,8,0:0:0:0:
249,169,49198,1,0,0:0:0:0:
249,169,49309,1,8,0:0:0:0:
249,169,49364,1,8,0:0:0:0:
249,169,49420,1,0,0:0:0:0:
249,169,49531,1,8,0:0:0:0:
249,169,49642,1,8,0:0:0:0:
249,169,49753,1,0,0:0:0:0:
249,169,49864,1,8,0:0:0:0:
249,169,49975,1,0,0:0:0:0:
249,169,50031,1,0,0:0:0:0:
249,169,50087,1,0,0:0:0:0:
249,169,50198,1,8,0:0:0:0:
249,169,50309,1,8,0:0:0:0:
249,169,50420,1,0,0:0:0:0:
249,169,50642,1,8,0:0:0:0:
249,169,50753,1,0,0:0:0:0:
249,169,50809,1,0,0:0:0:0:
249,169,50864,1,8,0:0:0:0:
249,169,50975,1,0,0:0:0:0:
249,169,51087,1,8,0:0:0:0:
249,169,51142,1,8,0:0:0:0:
249,169,51198,1,0,0:0:0:0:
249,169,51253,1,0,0:0:0:0:
249,169,51309,1,8,0:0:0:0:
249,169,51420,1,0,0:0:0:0:
249,169,51531,1,8,0:0:0:0:
249,169,51642,1,0,0:0:0:0:
154,79,51698,1,0,0:0:0:0:
249,169,51753,1,8,0:0:0:0:
249,169,51864,1,0,0:0:0:0:
249,169,51975,1,8,0:0:0:0:
249,169,52031,1,0,0:0:0:0:
249,169,52086,1,0,0:0:0:0:
249,169,52198,1,8,0:0:0:0:
249,169,52420,1,0,0:0:0:0:
249,169,52475,1,0,0:0:0:0:
249,169,52531,1,0,0:0:0:0:
249,169,52642,1,8,0:0:0:0:
249,169,52753,1,0,0:0:0:0:
249,169,52809,1,0,0:0:0:0:
249,169,52864,1,8,0:0:0:0:
249,169,52920,1,0,0:0:0:0:
249,169,52975,1,0,0:0:0:0:
249,169,53086,1,8,0:0:0:0:
249,169,53309,1,0,0:0:0:0:
249,169,53420,1,0,0:0:0:0:
249,169,53531,1,12,0:0:0:0:
249,169,53642,1,8,0:0:0:0:
249,169,53698,1,8,0:0:0:0:
249,169,53753,1,0,0:0:0:0:
249,169,53864,1,0,0:0:0:0:
35,129,53975,1,12,0:0:0:0:
249,169,54198,1,0,0:0:0:0:
184,75,54253,1,0,0:0:0:0:
249,169,54309,1,0,0:0:0:0:
249,169,54420,1,0,0:0:0:0:
249,169,54531,1,0,0:0:0:0:
249,169,54642,1,8,0:0:0:0:
249,169,54753,1,0,0:0:0:0:
249,169,54809,1,0,0:0:0:0:
249,169,54864,1,8,0:0:0:0:
249,169,54975,1,8,0:0:0:0:
249,169,55086,1,0,0:0:0:0:
249,169,55198,1,8,0:0:0:0:
110,104,55253,1,8,0:0:0:0:
249,169,55309,1,0,0:0:0:0:
249,169,55420,1,8,0:0:0:0:
249,169,55531,1,0,0:0:0:0:
249,169,55642,1,8,0:0:0:0:
249,169,55698,1,8,0:0:0:0:
249,169,55753,1,0,0:0:0:0:
249,169,55864,1,8,0:0:0:0:
249,169,55975,1,0,0:0:0:0:
49,143,56031,1,0,0:0:0:0:
249,169,56086,1,0,0:0:0:0:
249,169,56198,1,0,0:0:0:0:
249,169,56309,1,0,0:0:0:0:
249,169,56420,1,8,0:0:0:0:
249,169,56531,1,0,0:0:0:0:
249,169,56642,1,8,0:0:0:0:
65,158,56698,1,8,0:0:0:0:
249,169,56753,1,8,0:0:0:0:
249,169,56864,1,0,0:0:0:0:
249,169,56975,1,8,0:0:0:0:
249,169,57031,1,0,0:0:0:0:
249,169,57086,1,8,0:0:0:0:
143,61,57142,1,8,0:0:0:0:
249,169,57198,1,0,0:0:0:0:
249,169,57309,1,8,0:0:0:0:
249,169,57420,1,8,0:0:0:0:
249,169,57531,1,8,0:0:0:0:
249,169,57753,1,8,0:0:0:0:
249,169,57809,1,8,0:0:0:0:
249,169,57864,1,0,0:0:0:0:
249,169,57975,1,8,0:0:0:0:
249,169,58086,1,0,0:0:0:0:
249,169,58198,1,0,0:0:0:0:
249,169,58253,1,0,0:0:0:0:
249,169,58309,1,0,0:0:0:0:
249,169,58420,1,8,0:0:0:0:
249,169,58531,1,0,0:0:0:0:
249,169,58642,1,8,0:0:0:0:
131,119,58698,1,0,0:0:0:0:
249,169,58753,1,0,0:0:0:0:
249,169,58864,1,8,0:0:0:0:
249,169,58975,1,0,0:0:0:0:
249,169,59086,1,8,0:0:0:0:
249,169,59142,1,8,0:0:0:0:
249,169,59198,1,0,0:0:0:0:
249,169,59309,1,8,0:0:0:0:
249,169,59531,1,0,0:0:0:0:
249,169,59642,1,0,0:0:0:0:
249,169,59753,1,12,0:0:0:0:
249,169,59975,1,0,0:0:0:0:
249,169,60086,1,0,0:0:0:0:
249,169,60198,1,12,0:0:0:0:
71,110,60420,1,8,0:0:0:0:
71,110,60475,1,8,0:0:0:0:
249,169,60531,1,0,0:0:0:0:
249,169,60642,1,8,0:0:0:0:
249,169,60753,1,0,0:0:0:0:
249,169,60809,1,0,0:0:0:0:
249,169,60864,1,8,0:0:0:0:
105,126,60920,1,8,0:0:0:0:
249,169,60975,1,0,0:0:0:0:
249,169,61031,1,0,0:0:0:0:
249,169,61086,1,8,0:0:0:0:
164,126,61198,1,8,0:0:0:0:
164,126,61309,1,0,0:0:0:0:
193,125,61420,1,0,0:0:0:0:
193,125,61531,1,8,0:0:0:0:
193,125,61642,1,0,0:0:0:0:
193,125,61698,1,0,0:0:0:0:
207,264,61753,1,8,0:0:0:0:
193,125,61809,1,0,0:0:0:0:
29,154,61864,1,0,0:0:0:0:
45,150,61975,1,8,0:0:0:0:
53,147,62086,1,8,0:0:0:0:
53,147,62198,1,0,0:0:0:0:
53,147,62309,1,0,0:0:0:0:
53,147,62420,1,8,0:0:0:0:
53,147,62531,1,0,0:0:0:0:
53,147,62586,1,0,0:0:0:0:
207,264,62642,1,8,0:0:0:0:
233,127,62753,1,8,0:0:0:0:
233,127,62864,1,8,0:0:0:0:
66,139,63086,1,0,0:0:0:0:
66,139,63198,1,8,0:0:0:0:
66,139,63309,1,8,0:0:0:0:
322,157,63420,1,0,0:0:0:0:
358,168,63475,1,0,0:0:0:0:
207,264,63531,1,8,0:0:0:0:
220,122,63642,1,0,0:0:0:0:
220,122,63753,1,8,0:0:0:0:
161,56,63809,1,8,0:0:0:0:
220,122,63864,1,0,0:0:0:0:
172,101,63975,1,8,0:0:0:0:
119,114,64086,1,0,0:0:0:0:
119,114,64142,1,0,0:0:0:0:
172,101,64198,1,8,0:0:0:0:
119,114,64253,1,0,0:0:0:0:
172,101,64309,1,0,0:0:0:0:
172,101,64420,1,8,0:0:0:0:
346,119,64531,1,8,0:0:0:0:
346,119,64642,1,8,0:0:0:0:
202,133,64864,1,0,0:0:0:0:
202,133,64975,1,0,0:0:0:0:
202,133,65086,1,8,0:0:0:0:
229,234,65198,1,0,0:0:0:0:
229,234,65253,1,0,0:0:0:0:
198,92,65309,1,8,0:0:0:0:
230,227,65420,1,8,0:0:0:0:
149,148,65531,1,0,0:0:0:0:
149,148,65642,1,8,0:0:0:0:
198,92,65753,1,0,0:0:0:0:
59,145,65864,1,8,0:0:0:0:
66,144,65975,1,8,0:0:0:0:
66,144,66086,1,0,0:0:0:0:
374,98,66142,1,0,0:0:0:0:
198,92,66198,1,8,0:0:0:0:
161,41,66309,1,8,0:0:0:0:
161,41,66420,1,0,0:0:0:0:
161,41,66531,1,8,0:0:0:0:
198,92,66642,1,0,0:0:0:0:
113,128,66698,1,8,0:0:0:0:
113,128,66753,1,0,0:0:0:0:
113,128,66809,1,0,0:0:0:0:
113,128,66864,1,8,0:0:0:0:
126,84,66975,1,8,0:0:0:0:
126,84,67086,1,0,0:0:0:0:
126,84,67142,1,0,0:0:0:0:
126,84,67198,1,8,0:0:0:0:
126,84,67309,1,8,0:0:0:0:
163,84,67420,1,4,0:0:0:0:
163,84,67642,1,12,0:0:0:0:
163,84,67753,1,4,0:0:0:0:
163,84,67864,1,12,0:0:0:0:
163,84,67975,1,12,0:0:0:0:
340,98,68198,1,0,0:0:0:0:
340,98,68309,1,8,0:0:0:0:
328,157,68420,1,4,0:0:0:0:
328,157,68531,1,8,0:0:0:0:
328,157,68586,1,0,0:0:0:0:
328,157,68642,1,8,0:0:0:0:
328,157,68753,1,8,0:0:0:0:
328,157,68864,1,0,0:0:0:0:
328,157,68920,1,0,0:0:0:0:
328,157,68975,1,8,0:0:0:0:
328,157,69086,1,0,0:0:0:0:
328,157,69198,1,8,0:0:0:0:
328,157,69309,1,0,0:0:0:0:
328,157,69420,1,8,0:0:0:0:
328,157,69475,1,8,0:0:0:0:
328,157,69531,1,0,0:0:0:0:
328,157,69642,1,8,0:0:0:0:
328,157,69753,1,0,0:0:0:0:
328,157,69809,1,0,0:0:0:0:
328,157,69864,1,8,0:0:0:0:
135,66,69920,1,0,0:0:0:0:
328,157,69975,1,8,0:0:0:0:
328,157,70086,1,8,0:0:0:0:
328,157,70198,1,0,0:0:0:0:
328,157,70364,1,0,0:0:0:0:
328,157,70420,1,0,0:0:0:0:
328,157,70531,1,8,0:0:0:0:
328,157,70642,1,8,0:0:0:0:
328,157,70753,1,0,0:0:0:0:
328,157,70809,1,0,0:0:0:0:
328,157,70864,1,0,0:0:0:0:
328,157,70975,1,8,0:0:0:0:
328,157,71086,1,8,0:0:0:0:
328,157,71198,1,0,0:0:0:0:
328,157,71253,1,0,0:0:0:0:
328,157,71309,1,8,0:0:0:0:
328,157,71420,1,0,0:0:0:0:
328,157,71531,1,8,0:0:0:0:
328,157,71642,1,0,0:0:0:0:
328,157,71753,1,0,0:0:0:0:
328,157,71864,1,8,0:0:0:0:
328,157,71920,1,0,0:0:0:0:
328,157,71975,1,8,0:0:0:0:
328,157,72086,1,0,0:0:0:0:
328,157,72198,1,8,0:0:0:0:
328,157,72309,1,8,0:0:0:0:
328,157,72420,1,0,0:0:0:0:
328,157,72475,1,0,0:0:0:0:
328,157,72531,1,8,0:0:0:0:
328,157,72586,1,8,0:0:0:0:
328,157,72642,1,0,0:0:0:0:
328,157,72753,1,8,0:0:0:0:
328,157,72864,1,0,0:0:0:0:
328,157,72975,1,8,0:0:0:0:
328,157,73031,1,0,0:0:0:0:
328,157,73086,1,8,0:0:0:0:
328,157,73198,1,8,0:0:0:0:
328,157,73309,1,0,0:0:0:0:
328,157,73364,1,0,0:0:0:0:
328,157,73420,1,8,0:0:0:0:
328,157,73475,1,0,0:0:0:0:
328,157,73531,1,8,0:0:0:0:
328,157,73642,1,8,0:0:0:0:
328,157,73753,1,0,0:0:0:0:
328,157,73920,1,0,0:0:0:0:
328,157,73975,1,0,0:0:0:0:
328,157,74086,1,8,0:0:0:0:
328,157,74198,1,8,0:0:0:0:
328,157,74309,1,0,0:0:0:0:
328,157,74364,1,0,0:0:0:0:
328,157,74420,1,8,0:0:0:0:
328,157,74531,1,0,0:0:0:0:
328,157,74642,1,8,0:0:0:0:
328,157,74698,1,0,0:0:0:0:
328,157,74753,1,8,0:0:0:0:
328,157,74864,1,0,0:0:0:0:
328,157,74975,1,8,0:0:0:0:
328,157,75086,1,0,0:0:0:0:
328,157,75198,1,0,0:0:0:0:
328,157,75309,1,8,0:0:0:0:
328,157,75753,1,12,0:0:0:0:
328,157,75975,1,0,0:0:0:0:
328,157,76086,1,8,0:0:0:0:
328,157,76142,1,8,0:0:0:0:
328,157,76198,1,0,0:0:0:0:
328,157,76309,1,8,0:0:0:0:
328,157,76420,1,0,0:0:0:0:
75,188,76475,1,0,0:0:0:0:
328,157,76531,1,8,0:0:0:0:
328,157,76642,1,0,0:0:0:0:
75,188,76753,1,8,0:0:0:0:
75,188,76809,1,0,0:0:0:0:
328,157,76864,1,8,0:0:0:0:
328,157,76975,1,8,0:0:0:0:
328,157,77086,1,0,0:0:0:0:
151,65,77142,1,0,0:0:0:0:
328,157,77198,1,8,0:0:0:0:
328,157,77309,1,8,0:0:0:0:
328,157,77420,1,0,0:0:0:0:
328,157,77531,1,0,0:0:0:0:
328,157,77586,1,0,0:0:0:0:
106,158,77642,1,0,0:0:0:0:
328,157,77753,1,8,0:0:0:0:
328,157,77864,1,8,0:0:0:0:
328,157,77975,1,0,0:0:0:0:
200,90,78031,1,0,0:0:0:0:
200,90,78086,1,8,0:0:0:0:
328,157,78198,1,8,0:0:0:0:
328,157,78309,1,0,0:0:0:0:
328,157,78420,1,8,0:0:0:0:
328,157,78475,1,8,0:0:0:0:
328,157,78531,1,0,0:0:0:0:
328,157,78642,1,8,0:0:0:0:
31,168,78753,1,0,0:0:0:0:
328,157,78864,1,8,0:0:0:0:
328,157,78975,1,8,0:0:0:0:
328,157,79031,1,8,0:0:0:0:
328,157,79086,1,8,0:0:0:0:
328,157,79198,1,0,0:0:0:0:
328,157,79253,1,0,0:0:0:0:
328,157,79309,1,8,0:0:0:0:
328,157,79420,1,8,0:0:0:0:
328,157,79531,1,0,0:0:0:0:
328,157,79586,1,0,0:0:0:0:
328,157,79642,1,8,0:0:0:0:
328,157,79698,1,8,0:0:0:0:
328,157,79753,1,0,0:0:0:0:
328,157,79864,1,8,0:0:0:0:
328,157,79975,1,0,0:0:0:0:
328,157,80086,1,8,0:0:0:0:
328,157,80142,1,0,0:0:0:0:
328,157,80198,1,8,0:0:0:0:
328,157,80309,1,8,0:0:0:0:
328,157,80420,1,0,0:0:0:0:
328,157,80475,1,0,0:0:0:0:
328,157,80531,1,8,0:0:0:0:
328,157,80642,1,8,0:0:0:0:
328,157,80753,1,8,0:0:0:0:
328,157,80864,1,0,0:0:0:0:
328,157,80975,1,0,0:0:0:0:
328,157,81031,1,0,0:0:0:0:
328,157,81086,1,0,0:0:0:0:
328,157,81198,1,8,0:0:0:0:
328,157,81309,1,8,0:0:0:0:
328,157,81420,1,0,0:0:0:0:
328,157,81475,1,0,0:0:0:0:
328,157,81531,1,8,0:0:0:0:
328,157,81642,1,0,0:0:0:0:
328,157,81753,1,8,0:0:0:0:
328,157,81809,1,0,0:0:0:0:
328,157,81864,1,8,0:0:0:0:
328,157,81920,1,8,0:0:0:0:
328,157,81975,1,0,0:0:0:0:
328,157,82086,1,8,0:0:0:0:
328,157,82198,1,0,0:0:0:0:
328,157,82253,1,8,0:0:0:0:
328,157,82309,1,0,0:0:0:0:
328,157,82420,1,12,0:0:0:0:
180,181,82642,1,4,0:0:0:0:
153,161,82975,1,0,0:0:0:0:
153,161,83086,1,8,0:0:0:0:
106,77,83309,1,8,0:0:0:0:
70,147,83531,1,0,0:0:0:0:
70,147,83642,1,8,0:0:0:0:
70,147,83753,1,0,0:0:0:0:
70,147,83864,1,0,0:0:0:0:
70,147,83975,1,8,0:0:0:0:
70,147,84086,1,8,0:0:0:0:
70,147,84198,1,0,0:0:0:0:
70,147,84309,1,8,0:0:0:0:
70,147,84420,1,0,0:0:0:0:
201,91,84531,1,0,0:0:0:0:
201,91,84753,1,0,0:0:0:0:
201,91,84864,1,8,0:0:0:0:
201,91,85086,1,8,0:0:0:0:
104,112,85309,1,0,0:0:0:0:
104,112,85420,1,0,0:0:0:0:
104,112,85531,1,0,0:0:0:0:
56,144,85642,1,8,0:0:0:0:
104,112,85753,1,8,0:0:0:0:
104,112,85864,1,0,0:0:0:0:
298,113,85975,1,8,0:0:0:0:
303,112,86086,1,8,0:0:0:0:
236,204,86198,1,0,0:0:0:0:
236,204,86420,1,0,0:0:0:0:
236,204,86642,1,8,0:0:0:0:
236,204,86864,1,8,0:0:0:0:
111,166,87086,1,0,0:0:0:0:
111,166,87198,1,0,0:0:0:0:
111,166,87309,1,0,0:0:0:0:
111,166,87420,1,0,0:0:0:0:
111,166,87531,1,8,0:0:0:0:
111,166,87642,1,0,0:0:0:0:
111,166,87753,1,8,0:0:0:0:
111,166,87864,1,8,0:0:0:0:
256,167,87975,1,0,0:0:0:0:
251,159,88031,1,0,0:0:0:0:
256,167,88086,1,0,0:0:0:0:
256,167,88198,1,8,0:0:0:0:
256,167,88420,1,0,0:0:0:0:
251,159,88475,1,0,0:0:0:0:
256,167,88531,1,0,0:0:0:0:
256,167,88642,1,8,0:0:0:0:
276,132,88864,1,0,0:0:0:0:
276,132,88975,1,8,0:0:0:0:
276,132,89031,1,0,0:0:0:0:
276,132,89142,1,0,0:0:0:0:
276,132,89198,1,8,0:0:0:0:
246,91,89309,1,0,0:0:0:0:
246,91,89420,1,0,0:0:0:0:
175,64,89531,1,8,0:0:0:0:
175,64,89642,1,8,0:0:0:0:
175,64,89753,1,0,0:0:0:0:
117,94,89975,1,12,0:0:0:0:
426,121,90198,1,0,0:0:0:0:
426,121,90309,1,8,0:0:0:0:
426,121,90364,1,0,0:0:0:0:
426,121,90475,1,0,0:0:0:0:
426,121,90531,1,8,0:0:0:0:
426,121,90642,1,0,0:0:0:0:
426,121,90753,1,8,0:0:0:0:
426,121,90864,1,0,0:0:0:0:
426,121,90920,1,0,0:0:0:0:
426,121,90975,1,8,0:0:0:0:
426,121,91086,1,0,0:0:0:0:
426,121,91198,1,8,0:0:0:0:
426,121,91253,1,8,0:0:0:0:
426,121,91309,1,0,0:0:0:0:
145,119,91420,1,8,0:0:0:0:
190,121,91531,1,0,0:0:0:0:
190,121,91642,1,8,0:0:0:0:
190,121,91698,1,0,0:0:0:0:
190,121,91753,1,8,0:0:0:0:
211,126,91864,1,8,0:0:0:0:
207,74,91975,1,0,0:0:0:0:
207,74,92086,1,0,0:0:0:0:
207,74,92142,1,8,0:0:0:0:
207,74,92198,1,0,0:0:0:0:
207,74,92309,1,8,0:0:0:0:
207,74,92420,1,0,0:0:0:0:
138,118,92531,1,8,0:0:0:0:
140,102,92642,1,0,0:0:0:0:
140,102,92698,1,0,0:0:0:0:
140,102,92753,1,0,0:0:0:0:
140,102,92864,1,8,0:0:0:0:
206,53,92975,1,0,0:0:0:0:
206,53,93031,1,0,0:0:0:0:
206,53,93086,1,8,0:0:0:0:
206,53,93198,1,8,0:0:0:0:
206,53,93309,1,8,0:0:0:0:
93,130,93531,1,8,0:0:0:0:
184,130,93642,1,8,0:0:0:0:
184,130,93753,1,0,0:0:0:0:
260,98,93864,1,8,0:0:0:0:
246,89,93920,1,8,0:0:0:0:
260,98,93975,1,0,0:0:0:0:
201,109,94086,1,8,0:0:0:0:
201,109,94198,1,0,0:0:0:0:
201,109,94309,1,8,0:0:0:0:
201,109,94420,1,0,0:0:0:0:
79,151,94475,1,0,0:0:0:0:
201,109,94531,1,8,0:0:0:0:
201,109,94642,1,0,0:0:0:0:
201,109,94753,1,0,0:0:0:0:
201,109,94864,1,8,0:0:0:0:
201,109,94975,1,8,0:0:0:0:
258,72,95086,1,0,0:0:0:0:
258,72,95142,1,0,0:0:0:0:
258,72,95198,1,8,0:0:0:0:
258,72,95309,1,8,0:0:0:0:
258,72,95364,1,8,0:0:0:0:
258,72,95420,1,0,0:0:0:0:
258,72,95531,1,8,0:0:0:0:
258,72,95642,1,8,0:0:0:0:
258,72,95698,1,8,0:0:0:0:
258,72,95753,1,0,0:0:0:0:
258,72,95864,1,8,0:0:0:0:
258,72,95975,1,0,0:0:0:0:
258,72,96031,1,0,0:0:0:0:
258,72,96086,1,8,0:0:0:0:
258,72,96198,1,8,0:0:0:0:
258,72,96309,1,0,0:0:0:0:
258,72,96364,1,0,0:0:0:0:
258,72,96420,1,8,0:0:0:0:
258,72,96531,1,8,0:0:0:0:
258,72,96642,1,0,0:0:0:0:
258,72,96753,1,8,0:0:0:0:
258,72,96864,1,8,0:0:0:0:
258,72,96920,1,8,0:0:0:0:
258,72,96975,1,0,0:0:0:0:
258,72,97031,1,8,0:0:0:0:
258,72,97086,1,0,0:0:0:0:
236,199,97198,1,0,0:0:0:0:
361,91,97309,1,8,0:0:0:0:
123,116,97420,1,0,0:0:0:0:
113,140,97475,1,0,0:0:0:0:
155,139,97531,1,8,0:0:0:0:
360,166,97642,1,0,0:0:0:0:
360,166,97753,1,8,0:0:0:0:
275,187,97864,1,0,0:0:0:0:
275,187,97920,1,8,0:0:0:0:
268,189,98086,1,8,0:0:0:0:
162,160,98198,1,0,0:0:0:0:
387,197,98420,1,8,0:0:0:0:
387,197,98642,1,0,0:0:0:0:
387,197,98698,1,0,0:0:0:0:
387,197,98753,1,8,0:0:0:0:
387,197,98809,1,8,0:0:0:0:
305,226,98864,1,0,0:0:0:0:
305,226,98975,1,0,0:0:0:0:
387,197,99086,1,8,0:0:0:0:
387,197,99142,1,8,0:0:0:0:
387,197,99198,1,0,0:0:0:0:
387,197,99253,1,0,0:0:0:0:
305,226,99309,1,8,0:0:0:0:
305,226,99420,1,0,0:0:0:0:
60,154,99531,1,8,0:0:0:0:
269,122,99642,1,0,0:0:0:0:
269,122,99698,1,8,0:0:0:0:
269,122,99809,1,8,0:0:0:0:
269,122,99864,1,8,0:0:0:0:
156,188,99975,1,0,0:0:0:0:
156,188,100031,1,0,0:0:0:0:
156,188,100086,1,0,0:0:0:0:
37,174,100198,1,12,0:0:0:0:
260,111,100420,1,0,0:0:0:0:
260,111,100531,1,8,0:0:0:0:
79,188,100586,1,8,0:0:0:0:
260,111,100642,1,0,0:0:0:0:
260,111,100753,1,8,0:0:0:0:
260,111,100864,1,0,0:0:0:0:
260,111,100975,1,8,0:0:0:0:
260,111,101031,1,8,0:0:0:0:
260,111,101086,1,0,0:0:0:0:
260,111,101198,1,8,0:0:0:0:
260,111,101309,1,0,0:0:0:0:
260,111,101420,1,8,0:0:0:0:
211,134,101475,1,8,0:0:0:0:
260,111,101531,1,0,0:0:0:0:
260,111,101642,1,8,0:0:0:0:
260,111,101753,1,0,0:0:0:0:
111,156,101809,1,0,0:0:0:0:
260,111,101864,1,8,0:0:0:0:
260,111,101975,1,8,0:0:0:0:
260,111,102086,1,8,0:0:0:0:
260,111,102198,1,0,0:0:0:0:
260,111,102253,1,0,0:0:0:0:
260,111,102309,1,0,0:0:0:0:
42,139,102364,1,0,0:0:0:0:
260,111,102420,1,8,0:0:0:0:
260,111,102531,1,0,0:0:0:0:
260,111,102642,1,8,0:0:0:0:
250,166,102698,1,0,0:0:0:0:
260,111,102753,1,8,0:0:0:0:
260,111,102864,1,8,0:0:0:0:
260,111,102975,1,8,0:0:0:0:
260,111,103086,1,0,0:0:0:0:
209,192,103142,1,0,0:0:0:0:
260,111,103198,1,8,0:0:0:0:
147,42,103253,1,0,0:0:0:0:
260,111,103309,1,8,0:0:0:0:
28,162,103420,1,8,0:0:0:0:
39,162,103531,1,0,0:0:0:0:
39,162,103586,1,0,0:0:0:0:
39,162,103642,1,8,0:0:0:0:
39,162,103698,1,8,0:0:0:0:
260,111,103753,1,0,0:0:0:0:
181,97,103809,1,0,0:0:0:0:
161,81,103864,1,8,0:0:0:0:
161,81,103920,1,8,0:0:0:0:
161,81,103975,1,4,0:0:0:0:
283,77,104198,1,8,0:0:0:0:
151,182,104420,1,4,0:0:0:0:
125,104,104642,1,8,0:0:0:0:
151,182,104864,1,4,0:0:0:0:
151,182,105031,1,4,0:0:0:0:
151,182,105198,1,4,0:0:0:0:
151,182,105309,1,4,0:0:0:0:
299,67,105531,1,12,0:0:0:0:
251,137,105753,1,0,0:0:0:0:
251,137,109309,5,0,0:0:0:0:
251,137,109753,1,8,0:0:0:0:
251,137,109975,1,0,0:0:0:0:
251,137,110642,1,8,0:0:0:0:
352,161,111086,1,0,0:0:0:0:
352,161,111531,1,8,0:0:0:0:
352,161,111753,1,0,0:0:0:0:
352,161,111975,1,0,0:0:0:0:
352,161,112086,1,8,0:0:0:0:
352,161,112309,1,8,0:0:0:0:
352,161,112420,1,0,0:0:0:0:
96,156,112531,1,8,0:0:0:0:
352,161,112642,1,0,0:0:0:0:
96,156,112753,1,0,0:0:0:0:
96,156,112864,1,8,0:0:0:0:
190,110,113086,1,8,0:0:0:0:
190,110,113198,1,0,0:0:0:0:
190,110,113309,1,8,0:0:0:0:
190,110,113364,1,0,0:0:0:0:
190,110,113420,1,8,0:0:0:0:
190,110,113531,1,0,0:0:0:0:
190,110,113642,1,0,0:0:0:0:
190,110,113753,1,8,0:0:0:0:
190,110,113975,1,0,0:0:0:0:
190,110,114086,1,8,0:0:0:0:
190,110,114198,1,0,0:0:0:0:
190,110,114253,1,0,0:0:0:0:
190,110,114309,1,8,0:0:0:0:
190,110,114420,1,8,0:0:0:0:
190,110,114531,1,8,0:0:0:0:
190,110,114642,1,0,0:0:0:0:
190,110,114864,1,8,0:0:0:0:
190,110,114975,1,0,0:0:0:0:
190,110,115086,1,8,0:0:0:0:
190,110,115142,1,0,0:0:0:0:
190,110,115198,1,0,0:0:0:0:
190,110,115309,1,0,0:0:0:0:
190,110,115420,1,0,0:0:0:0:
66,163,115531,1,8,0:0:0:0:
190,110,115753,1,8,0:0:0:0:
190,110,115864,1,8,0:0:0:0:
190,110,115975,1,0,0:0:0:0:
199,150,116031,1,0,0:0:0:0:
190,110,116086,1,8,0:0:0:0:
190,110,116198,1,8,0:0:0:0:
173,132,116309,1,8,0:0:0:0:
190,110,116420,1,0,0:0:0:0:
136,112,116531,1,8,0:0:0:0:
138,112,116642,1,0,0:0:0:0:
151,163,116698,1,0,0:0:0:0:
138,112,116753,1,8,0:0:0:0:
251,125,116864,1,0,0:0:0:0:
251,125,116975,1,8,0:0:0:0:
251,125,117031,1,8,0:0:0:0:
251,125,117086,1,0,0:0:0:0:
251,125,117198,1,8,0:0:0:0:
251,125,117309,1,0,0:0:0:0:
171,155,117531,1,8,0:0:0:0:
171,155,117642,1,0,0:0:0:0:
171,155,117753,1,0,0:0:0:0:
57,203,117809,1,0,0:0:0:0:
57,203,117864,1,8,0:0:0:0:
57,203,117975,1,8,0:0:0:0:
57,203,118086,1,8,0:0:0:0:
166,188,118198,1,0,0:0:0:0:
166,188,118420,1,8,0:0:0:0:
166,188,118531,1,0,0:0:0:0:
166,188,118642,1,8,0:0:0:0:
283,209,118864,1,8,0:0:0:0:
166,188,119086,1,0,0:0:0:0:
283,209,119198,1,0,0:0:0:0:
283,209,119309,1,8,0:0:0:0:
283,209,119420,1,0,0:0:0:0:
219,102,119531,1,8,0:0:0:0:
359,71,119642,1,8,0:0:0:0:
283,209,119753,1,0,0:0:0:0:
283,209,119975,1,8,0:0:0:0:
179,151,120198,1,8,0:0:0:0:
179,151,120420,1,8,0:0:0:0:
179,151,120586,1,0,0:0:0:0:
221,74,120642,1,8,0:0:0:0:
179,151,120753,1,8,0:0:0:0:
179,151,120864,1,0,0:0:0:0:
179,151,120975,1,8,0:0:0:0:
179,151,121086,1,0,0:0:0:0:
179,151,121198,1,8,0:0:0:0:
179,151,121309,1,0,0:0:0:0:
179,151,121476,1,0,0:0:0:0:
41,157,121531,1,0,0:0:0:0:
236,118,121642,1,8,0:0:0:0:
236,118,121753,1,0,0:0:0:0:
236,118,121864,1,8,0:0:0:0:
236,118,121975,1,8,0:0:0:0:
236,118,122086,1,8,0:0:0:0:
236,118,122198,1,0,0:0:0:0:
236,118,122309,1,0,0:0:0:0:
236,118,122420,1,8,0:0:0:0:
236,118,122642,1,8,0:0:0:0:
236,118,122753,1,8,0:0:0:0:
236,118,122864,1,0,0:0:0:0:
236,118,122975,1,0,0:0:0:0:
236,118,123086,1,8,0:0:0:0:
236,118,123198,1,8,0:0:0:0:
37,136,123309,1,0,0:0:0:0:
108,141,123531,1,0,0:0:0:0:
108,141,123642,1,8,0:0:0:0:
108,141,123753,1,8,0:0:0:0:
108,141,123864,1,0,0:0:0:0:
108,141,123975,1,8,0:0:0:0:
164,120,124198,1,0,0:0:0:0:
108,141,124309,1,8,0:0:0:0:
153,135,124420,1,0,0:0:0:0:
153,135,124531,1,0,0:0:0:0:
153,135,124642,1,8,0:0:0:0:
153,135,124753,1,8,0:0:0:0:
23,153,124864,1,0,0:0:0:0:
23,153,125086,1,8,0:0:0:0:
23,153,125198,1,8,0:0:0:0:
23,153,125309,1,0,0:0:0:0:
23,153,125420,1,0,0:0:0:0:
23,153,125531,1,8,0:0:0:0:
203,125,125642,1,8,0:0:0:0:
203,125,125753,1,0,0:0:0:0:
203,125,125864,1,8,0:0:0:0:
203,125,125975,1,0,0:0:0:0:
203,125,126086,1,8,0:0:0:0:
256,192,126198,8,0,126531,0:0:0:0:
85,174,126753,5,8,0:0:0:0:
85,174,126864,1,8,0:0:0:0:
85,174,126975,1,0,0:0:0:0:
85,174,127086,1,8,0:0:0:0:
176,186,127309,1,8,0:0:0:0:
181,148,127531,1,0,0:0:0:0:
181,148,127698,1,0,0:0:0:0:
254,178,127864,1,8,0:0:0:0:
117,152,127975,1,0,0:0:0:0:
117,152,128086,1,0,0:0:0:0:
117,152,128142,1,0,0:0:0:0:
117,152,128198,1,8,0:0:0:0:
117,152,128309,1,0,0:0:0:0:
68,178,128420,1,8,0:0:0:0:
222,97,128531,1,0,0:0:0:0:
222,97,128586,1,8,0:0:0:0:
222,97,128753,1,8,0:0:0:0:
181,91,128864,1,0,0:0:0:0:
181,91,128975,1,0,0:0:0:0:
181,91,129086,1,8,0:0:0:0:
7,138,129198,1,0,0:0:0:0:
7,138,129309,1,8,0:0:0:0:
7,138,129420,1,8,0:0:0:0:
7,138,129531,1,8,0:0:0:0:
7,138,129642,1,0,0:0:0:0:
7,138,129753,1,8,0:0:0:0:
316,139,129809,1,8,0:0:0:0:
7,138,129864,1,0,0:0:0:0:
7,138,129975,1,0,0:0:0:0:
7,138,130086,1,8,0:0:0:0:
237,171,130142,1,8,0:0:0:0:
7,138,130198,1,0,0:0:0:0:
7,138,130309,1,0,0:0:0:0:
7,138,130420,1,8,0:0:0:0:
237,171,130475,1,8,0:0:0:0:
150,142,130531,1,8,0:0:0:0:
301,146,130642,1,0,0:0:0:0:
232,154,130753,1,8,0:0:0:0:
232,154,130809,1,0,0:0:0:0:
301,146,130864,1,0,0:0:0:0:
181,132,130975,1,8,0:0:0:0:
301,146,131086,1,0,0:0:0:0:
301,146,131198,1,8,0:0:0:0:
168,172,131253,1,8,0:0:0:0:
168,172,131309,1,0,0:0:0:0:
168,172,131420,1,8,0:0:0:0:
244,80,131531,1,0,0:0:0:0:
244,80,131642,1,8,0:0:0:0:
244,80,131698,1,8,0:0:0:0:
244,80,131753,1,0,0:0:0:0:
193,107,131809,1,0,0:0:0:0:
250,74,131864,1,8,0:0:0:0:
155,62,131975,1,0,0:0:0:0:
155,62,132086,1,8,0:0:0:0:
155,62,132198,1,0,0:0:0:0:
155,62,132253,1,0,0:0:0:0:
155,62,132309,1,0,0:0:0:0:
251,120,132420,1,8,0:0:0:0:
216,125,132475,1,0,0:0:0:0:
251,120,132531,1,0,0:0:0:0:
251,120,132642,1,8,0:0:0:0:
251,120,132753,1,8,0:0:0:0:
92,163,132809,1,0,0:0:0:0:
92,163,132864,1,0,0:0:0:0:
92,163,132975,1,0,0:0:0:0:
112,113,133086,1,8,0:0:0:0:
112,113,133142,1,8,0:0:0:0:
112,113,133198,1,0,0:0:0:0:
112,113,133309,1,8,0:0:0:0:
335,138,133364,1,0,0:0:0:0:
335,138,133420,1,8,0:0:0:0:
335,138,133531,1,8,0:0:0:0:
184,143,133642,1,0,0:0:0:0:
184,143,133753,1,8,0:0:0:0:
184,143,133975,1,8,0:0:0:0:
78,157,134086,1,8,0:0:0:0:
78,157,134198,1,4,0:0:0:0:
177,207,134420,1,0,0:0:0:0:
308,220,134475,1,0,0:0:0:0:
177,207,134531,1,8,0:0:0:0:
164,111,134753,1,0,0:0:0:0:
164,111,134864,1,0,0:0:0:0:
164,111,134975,1,0,0:0:0:0:
109,141,135031,1,0,0:0:0:0:
213,165,135086,1,8,0:0:0:0:
76,208,135198,1,0,0:0:0:0:
76,208,135309,1,8,0:0:0:0:
67,250,135420,1,8,0:0:0:0:
137,268,135475,1,0,0:0:0:0:
137,268,135531,1,8,0:0:0:0:
111,155,135642,1,8,0:0:0:0:
111,155,135753,1,0,0:0:0:0:
195,93,135975,1,8,0:0:0:0:
195,93,136198,1,8,0:0:0:0:
195,93,136420,1,8,0:0:0:0:
195,93,136642,1,8,0:0:0:0:
195,93,136864,1,8,0:0:0:0:
195,93,137086,1,8,0:0:0:0:
195,93,137309,1,8,0:0:0:0:
195,93,137531,1,8,0:0:0:0:
195,93,137753,1,8,0:0:0:0:
195,93,137975,1,8,0:0:0:0:
195,93,138198,1,8,0:0:0:0:
195,93,138420,1,8,0:0:0:0:
195,93,138642,1,8,0:0:0:0:
195,93,138864,1,8,0:0:0:0:
195,93,139086,1,8,0:0:0:0:
195,93,139309,1,8,0:0:0:0:
195,93,139531,1,0,0:0:0:0:
195,93,139753,1,0,0:0:0:0:
195,93,139975,1,8,0:0:0:0:
152,112,140198,1,8,0:0:0:0:
56,104,140420,1,0,0:0:0:0:
56,104,140642,1,0,0:0:0:0:
56,104,140864,1,8,0:0:0:0:
56,104,141086,1,8,0:0:0:0:
246,97,141309,1,0,0:0:0:0:
246,97,141531,1,0,0:0:0:0:
246,97,141753,1,8,0:0:0:0:
246,97,141864,1,8,0:0:0:0:
246,97,141975,1,8,0:0:0:0:
246,97,142086,1,8,0:0:0:0:
246,97,142198,1,0,0:0:0:0:
186,82,142642,1,8,0:0:0:0:
186,82,142753,1,0,0:0:0:0:
186,82,142864,1,8,0:0:0:0:
106,107,143086,1,4,0:0:0:0:
220,237,143198,1,0,0:0:0:0:
220,237,143253,1,0,0:0:0:0:
215,237,143309,1,8,0:0:0:0:
342,170,143364,1,0,0:0:0:0:
342,170,143420,1,8,0:0:0:0:
266,215,143531,1,0,0:0:0:0:
266,215,143642,1,8,0:0:0:0:
266,215,143698,1,8,0:0:0:0:
266,215,143753,1,8,0:0:0:0:
136,182,143975,1,0,0:0:0:0:
136,182,144086,1,8,0:0:0:0:
136,182,144142,1,8,0:0:0:0:
136,182,144198,1,0,0:0:0:0:
136,182,144309,1,8,0:0:0:0:
136,182,144420,1,8,0:0:0:0:
234,121,144531,1,0,0:0:0:0:
234,121,144586,1,0,0:0:0:0:
91,166,144642,1,8,0:0:0:0:
139,176,144753,1,8,0:0:0:0:
187,174,144864,1,0,0:0:0:0:
362,116,144920,1,0,0:0:0:0:
362,116,144975,1,0,0:0:0:0:
362,116,145086,1,8,0:0:0:0:
221,144,145198,1,0,0:0:0:0:
221,144,145253,1,0,0:0:0:0:
221,144,145309,1,0,0:0:0:0:
221,144,145364,1,0,0:0:0:0:
362,116,145420,1,8,0:0:0:0:
274,147,145531,1,8,0:0:0:0:
255,166,145753,1,0,0:0:0:0:
255,166,145864,1,8,0:0:0:0:
255,166,145920,1,8,0:0:0:0:
255,166,145975,1,8,0:0:0:0:
226,116,146086,1,0,0:0:0:0:
226,116,146198,1,8,0:0:0:0:
226,116,146309,1,8,0:0:0:0:
315,102,146420,1,0,0:0:0:0:
441,104,146475,1,0,0:0:0:0:
319,99,146531,1,8,0:0:0:0:
434,133,146642,1,4,0:0:0:0:
167,132,146864,1,8,0:0:0:0:
434,133,146975,1,4,0:0:0:0:
173,131,147198,1,8,0:0:0:0:
434,133,147309,1,4,0:0:0:0:
273,158,147531,1,8,0:0:0:0:
273,158,147642,1,0,0:0:0:0:
126,153,147698,1,8,0:0:0:0:
126,153,147753,1,0,0:0:0:0:
126,153,147809,1,8,0:0:0:0:
273,158,147864,1,0,0:0:0:0:
170,156,147975,1,0,0:0:0:0:
206,148,148086,1,0,0:0:0:0:
196,134,148198,1,8,0:0:0:0:
283,94,148420,1,0,0:0:0:0:
283,94,148531,1,0,0:0:0:0:
283,94,148642,1,8,0:0:0:0:
173,184,148753,1,0,0:0:0:0:
291,158,148864,1,8,0:0:0:0:
291,158,148920,1,0,0:0:0:0:
291,158,149031,1,8,0:0:0:0:
291,158,149086,1,0,0:0:0:0:
291,158,149198,1,8,0:0:0:0:
291,158,149309,1,0,0:0:0:0:
228,108,149753,1,8,0:0:0:0:
228,108,149975,1,8,0:0:0:0:
228,108,150198,1,4,0:0:0:0:
228,108,150420,1,8,0:0:0:0:
228,108,150531,1,8,0:0:0:0:
228,108,150642,1,0,0:0:0:0:
216,271,150864,1,0,0:0:0:0:
216,271,150975,1,0,0:0:0:0:
228,108,151086,1,8,0:0:0:0:
228,108,151309,1,8,0:0:0:0:
228,108,151420,1,8,0:0:0:0:
228,108,151531,1,0,0:0:0:0:
151,145,151642,1,0,0:0:0:0:
151,145,151753,1,0,0:0:0:0:
151,145,151864,1,8,0:0:0:0:
151,145,151975,1,4,0:0:0:0:
163,103,152198,1,8,0:0:0:0:
163,103,152420,1,4,0:0:0:0:
163,103,152642,1,8,0:0:0:0:
163,103,152864,1,4,0:0:0:0:
163,103,153086,1,4,0:0:0:0:
163,103,153309,1,4,0:0:0:0:
163,103,153531,1,12,0:0:0:0:
176,200,153753,1,4,0:0:0:0:
176,200,153864,1,0,0:0:0:0:
154,168,153920,1,0,0:0:0:0:
176,200,153975,1,8,0:0:0:0:
72,184,154086,1,0,0:0:0:0:
109,135,154198,1,8,0:0:0:0:
119,127,154253,1,8,0:0:0:0:
123,123,154309,1,0,0:0:0:0:
121,118,154420,1,8,0:0:0:0:
121,118,154531,1,8,0:0:0:0:
121,118,154642,1,0,0:0:0:0:
121,118,154753,1,0,0:0:0:0:
121,118,154809,1,0,0:0:0:0:
153,106,154864,1,8,0:0:0:0:
144,106,154975,1,0,0:0:0:0:
201,77,155086,1,8,0:0:0:0:
111,183,155142,1,8,0:0:0:0:
111,183,155198,1,0,0:0:0:0:
117,183,155253,1,0,0:0:0:0:
111,183,155309,1,8,0:0:0:0:
111,183,155420,1,8,0:0:0:0:
111,183,155531,1,0,0:0:0:0:
111,183,155642,1,0,0:0:0:0:
111,183,155698,1,0,0:0:0:0:
111,183,155753,1,8,0:0:0:0:
111,183,155864,1,0,0:0:0:0:
111,183,155975,1,8,0:0:0:0:
111,183,156086,1,0,0:0:0:0:
111,183,156142,1,0,0:0:0:0:
111,183,156198,1,8,0:0:0:0:
216,150,156309,1,0,0:0:0:0:
226,144,156420,1,8,0:0:0:0:
226,144,156531,1,0,0:0:0:0:
226,144,156642,1,8,0:0:0:0:
226,144,156698,1,8,0:0:0:0:
226,144,156753,1,0,0:0:0:0:
226,144,156864,1,8,0:0:0:0:
226,144,156975,1,0,0:0:0:0:
181,178,157086,1,8,0:0:0:0:
181,178,157309,1,8,0:0:0:0:
138,155,157420,1,0,0:0:0:0:
218,88,157531,1,8,0:0:0:0:
218,88,157586,1,8,0:0:0:0:
218,88,157642,1,0,0:0:0:0:
288,121,157753,1,8,0:0:0:0:
297,122,157809,1,8,0:0:0:0:
297,122,157864,1,8,0:0:0:0:
297,122,157975,1,0,0:0:0:0:
297,122,158086,1,0,0:0:0:0:
297,122,158198,1,8,0:0:0:0:
130,92,158309,1,0,0:0:0:0:
140,92,158364,1,0,0:0:0:0:
140,92,158420,1,8,0:0:0:0:
254,77,158531,1,0,0:0:0:0:
254,77,158642,1,8,0:0:0:0:
95,160,158753,1,0,0:0:0:0:
95,160,158809,1,0,0:0:0:0:
95,160,158864,1,8,0:0:0:0:
95,160,158975,1,8,0:0:0:0:
176,148,159086,1,0,0:0:0:0:
176,148,159198,1,0,0:0:0:0:
176,148,159309,1,8,0:0:0:0:
176,148,159420,1,0,0:0:0:0:
176,148,159475,1,0,0:0:0:0:
176,148,159531,1,0,0:0:0:0:
176,148,159642,1,0,0:0:0:0:
176,148,159753,1,8,0:0:0:0:
176,148,159809,1,0,0:0:0:0:
176,148,159864,1,8,0:0:0:0:
176,148,159975,1,0,0:0:0:0:
101,154,160086,1,0,0:0:0:0:
142,120,160198,1,12,0:0:0:0:
158,149,160420,1,0,0:0:0:0:
177,168,160531,1,0,0:0:0:0:
177,168,160642,1,12,0:0:0:0:
151,154,160864,1,0,0:0:0:0:
151,154,160975,1,0,0:0:0:0:
151,154,161031,1,0,0:0:0:0:
151,154,161086,1,8,0:0:0:0:
151,154,161198,1,0,0:0:0:0:
139,228,161309,1,8,0:0:0:0:
139,228,161420,1,0,0:0:0:0:
139,228,161475,1,0,0:0:0:0:
139,228,161531,1,8,0:0:0:0:
139,228,161642,1,8,0:0:0:0:
3,200,161753,1,0,0:0:0:0:
12,198,161809,1,0,0:0:0:0:
13,198,161864,1,0,0:0:0:0:
13,198,161975,1,8,0:0:0:0:
233,143,162086,1,0,0:0:0:0:
233,143,162142,1,0,0:0:0:0:
233,143,162198,1,8,0:0:0:0:
233,143,162253,1,0,0:0:0:0:
233,143,162309,1,0,0:0:0:0:
233,143,162420,1,8,0:0:0:0:
233,143,162531,1,0,0:0:0:0:
233,143,162642,1,8,0:0:0:0:
233,143,162753,1,8,0:0:0:0:
216,149,162864,1,0,0:0:0:0:
216,149,163086,1,8,0:0:0:0:
216,149,163198,1,8,0:0:0:0:
216,149,163309,1,0,0:0:0:0:
194,138,163531,1,0,0:0:0:0:
194,138,163642,1,0,0:0:0:0:
194,138,163698,1,0,0:0:0:0:
194,138,163753,1,0,0:0:0:0:
194,138,163864,1,0,0:0:0:0:
194,138,163975,1,0,0:0:0:0:
194,138,164086,1,0,0:0:0:0:
194,138,164198,1,0,0:0:0:0:
370,210,164420,1,8,0:0:0:0:
150,159,164531,1,0,0:0:0:0:
150,159,164586,1,0,0:0:0:0:
370,210,164642,1,8,0:0:0:0:
159,136,164753,1,0,0:0:0:0:
370,210,164864,1,8,0:0:0:0:
191,92,164920,1,8,0:0:0:0:
106,196,164975,1,0,0:0:0:0:
370,210,165086,1,8,0:0:0:0:
191,92,165198,1,0,0:0:0:0:
370,210,165309,1,8,0:0:0:0:
183,147,165364,1,0,0:0:0:0:
370,210,165420,1,8,0:0:0:0:
183,147,165531,1,8,0:0:0:0:
183,147,165642,1,0,0:0:0:0:
370,210,165753,1,8,0:0:0:0:
370,210,165975,1,8,0:0:0:0:
101,66,166031,1,8,0:0:0:0:
101,66,166086,1,8,0:0:0:0:
101,66,166198,1,4,0:0:0:0:
101,66,166309,1,4,0:0:0:0:
101,66,166642,1,4,0:0:0:0:
101,66,166753,1,4,0:0:0:0:
166,177,167198,1,12,0:0:0:0:
166,177,167420,1,12,0:0:0:0:
166,177,167531,1,12,0:0:0:0:
65,128,167753,1,0,0:0:0:0:
65,128,167864,1,0,0:0:0:0:
65,128,167975,1,8,0:0:0:0:
65,128,168086,1,0,0:0:0:0:
162,62,168142,1,0,0:0:0:0:
162,62,168198,1,8,0:0:0:0:
162,62,168309,1,0,0:0:0:0:
162,62,168420,1,8,0:0:0:0:
166,66,168531,1,0,0:0:0:0:
166,66,168642,1,8,0:0:0:0:
166,66,168698,1,8,0:0:0:0:
166,66,168753,1,0,0:0:0:0:
199,158,168864,1,8,0:0:0:0:
199,158,168975,1,0,0:0:0:0:
199,158,169086,1,8,0:0:0:0:
199,158,169142,1,8,0:0:0:0:
199,158,169198,1,0,0:0:0:0:
199,158,169309,1,8,0:0:0:0:
199,158,169420,1,0,0:0:0:0:
199,158,169531,1,8,0:0:0:0:
300,71,169753,1,8,0:0:0:0:
137,158,169864,1,0,0:0:0:0:
192,53,169975,1,8,0:0:0:0:
192,53,170031,1,8,0:0:0:0:
192,53,170086,1,0,0:0:0:0:
159,120,170198,1,8,0:0:0:0:
159,120,170309,1,0,0:0:0:0:
159,120,170420,1,8,0:0:0:0:
159,120,170475,1,8,0:0:0:0:
159,120,170531,1,0,0:0:0:0:
159,120,170642,1,8,0:0:0:0:
159,120,170753,1,0,0:0:0:0:
159,120,170864,1,8,0:0:0:0:
83,148,170975,1,8,0:0:0:0:
70,148,171086,1,0,0:0:0:0:
322,112,171198,1,8,0:0:0:0:
322,112,171253,1,8,0:0:0:0:
322,112,171309,1,8,0:0:0:0:
322,112,171531,1,0,0:0:0:0:
343,153,171642,1,0,0:0:0:0:
141,159,171698,1,0,0:0:0:0:
141,159,171753,1,8,0:0:0:0:
214,173,171864,1,0,0:0:0:0:
214,173,171975,1,8,0:0:0:0:
246,92,172086,1,8,0:0:0:0:
246,92,172142,1,8,0:0:0:0:
246,92,172198,1,8,0:0:0:0:
246,92,172309,1,8,0:0:0:0:
246,92,172420,1,0,0:0:0:0:
246,92,172531,1,8,0:0:0:0:
246,92,172586,1,8,0:0:0:0:
246,92,172642,1,0,0:0:0:0:
246,92,172753,1,8,0:0:0:0:
246,92,172864,1,0,0:0:0:0:
246,92,172975,1,0,0:0:0:0:
246,92,173086,1,8,0:0:0:0:
246,92,173309,1,8,0:0:0:0:
246,92,173420,1,0,0:0:0:0:
246,92,173531,1,8,0:0:0:0:
246,92,173586,1,0,0:0:0:0:
246,92,173642,1,0,0:0:0:0:
305,151,173753,1,8,0:0:0:0:
305,151,173864,1,0,0:0:0:0:
305,151,173975,1,8,0:0:0:0:
305,151,174086,1,0,0:0:0:0:
307,159,174198,1,8,0:0:0:0:
307,159,174253,1,8,0:0:0:0:
308,159,174309,1,0,0:0:0:0:
221,152,174364,1,0,0:0:0:0:
226,152,174420,1,8,0:0:0:0:
141,170,174531,1,0,0:0:0:0:
141,170,174586,1,0,0:0:0:0:
141,170,174642,1,0,0:0:0:0:
141,170,174753,1,0,0:0:0:0:
141,170,174864,1,12,0:0:0:0:
203,226,175086,1,0,0:0:0:0:
197,212,175198,1,8,0:0:0:0:
203,226,175253,1,8,0:0:0:0:
203,226,175309,1,0,0:0:0:0:
238,129,175420,1,8,0:0:0:0:
166,182,175531,1,0,0:0:0:0:
166,182,175586,1,0,0:0:0:0:
166,182,175642,1,8,0:0:0:0:
96,178,175753,1,0,0:0:0:0:
53,183,175864,1,8,0:0:0:0:
66,183,175975,1,0,0:0:0:0:
66,183,176031,1,0,0:0:0:0:
66,183,176086,1,8,0:0:0:0:
66,183,176198,1,0,0:0:0:0:
66,183,176309,1,8,0:0:0:0:
66,183,176364,1,8,0:0:0:0:
66,183,176420,1,0,0:0:0:0:
66,183,176475,1,0,0:0:0:0:
66,183,176531,1,8,0:0:0:0:
152,137,176642,1,0,0:0:0:0:
264,130,176864,1,8,0:0:0:0:
264,130,176975,1,0,0:0:0:0:
264,130,177086,1,8,0:0:0:0:
264,130,177142,1,8,0:0:0:0:
264,130,177198,1,0,0:0:0:0:
175,152,177309,1,8,0:0:0:0:
175,152,177420,1,0,0:0:0:0:
175,152,177475,1,0,0:0:0:0:
176,152,177531,1,8,0:0:0:0:
175,152,177586,1,8,0:0:0:0:
175,152,177642,1,0,0:0:0:0:
165,87,177753,1,8,0:0:0:0:
165,87,177864,1,0,0:0:0:0:
171,87,177975,1,8,0:0:0:0:
171,87,178086,1,8,0:0:0:0:
171,87,178142,1,0,0:0:0:0:
171,87,178198,1,8,0:0:0:0:
126,144,178309,1,0,0:0:0:0:
291,152,178364,1,0,0:0:0:0:
291,152,178420,1,8,0:0:0:0:
126,144,178531,1,0,0:0:0:0:
291,152,178642,1,8,0:0:0:0:
281,108,178753,1,8,0:0:0:0:
281,108,178864,1,0,0:0:0:0:
206,88,178975,1,0,0:0:0:0:
206,88,179086,1,8,0:0:0:0:
206,88,179142,1,8,0:0:0:0:
206,88,179198,1,8,0:0:0:0:
206,88,179309,1,8,0:0:0:0:
206,88,179420,1,8,0:0:0:0:
217,122,179531,1,0,0:0:0:0:
217,122,179642,1,0,0:0:0:0:
217,122,179753,1,8,0:0:0:0:
217,122,179864,1,8,0:0:0:0:
217,122,179975,1,0,0:0:0:0:
217,122,180031,1,8,0:0:0:0:
217,122,180086,1,0,0:0:0:0:
217,122,180198,1,8,0:0:0:0:
217,122,180309,1,8,0:0:0:0:
119,62,180420,1,0,0:0:0:0:
184,77,180475,1,0,0:0:0:0:
184,77,180531,1,8,0:0:0:0:
184,77,180642,1,0,0:0:0:0:
306,166,180753,1,8,0:0:0:0:
184,77,180864,1,0,0:0:0:0:
184,77,180920,1,0,0:0:0:0:
352,163,180975,1,8,0:0:0:0:
352,163,181086,1,0,0:0:0:0:
184,77,181198,1,8,0:0:0:0:
229,157,181309,1,0,0:0:0:0:
229,157,181364,1,8,0:0:0:0:
229,157,181420,1,0,0:0:0:0:
229,157,181475,1,8,0:0:0:0:
229,157,181531,1,0,0:0:0:0:
229,157,181642,1,8,0:0:0:0:
96,167,181753,1,0,0:0:0:0:
96,167,181809,1,0,0:0:0:0:
96,167,181864,1,0,0:0:0:0:
96,167,181975,1,8,0:0:0:0:
347,193,182198,1,0,0:0:0:0:
347,193,182642,1,8,0:0:0:0:
347,193,183531,1,8,0:0:0:0:
228,123,183975,1,0,0:0:0:0:
347,193,184420,1,8,0:0:0:0:
347,193,185309,1,8,0:0:0:0:
221,146,185753,1,0,0:0:0:0:
347,193,186198,1,8,0:0:0:0:
347,193,187086,1,8,0:0:0:0:
107,100,187531,1,0,0:0:0:0:
347,193,187975,1,8,0:0:0:0:
347,193,188864,1,8,0:0:0:0:
221,91,188975,1,0,0:0:0:0:
19,172,189198,1,0,0:0:0:0:
26,171,189309,1,0,0:0:0:0:
167,145,189531,1,8,0:0:0:0:
347,193,189753,1,0,0:0:0:0:
296,168,189864,1,0,0:0:0:0:
296,168,189975,1,8,0:0:0:0:
296,168,190086,1,8,0:0:0:0:
296,168,190198,1,0,0:0:0:0:
296,168,190309,1,0,0:0:0:0:
296,168,190420,1,0,0:0:0:0:
296,168,190531,1,8,0:0:0:0:
221,173,190753,1,8,0:0:0:0:
151,118,190864,1,0,0:0:0:0:
221,173,190975,1,0,0:0:0:0:
221,173,191086,1,8,0:0:0:0:
221,173,191309,1,8,0:0:0:0:
127,131,191531,1,0,0:0:0:0:
127,131,191642,1,8,0:0:0:0:
127,131,191753,1,0,0:0:0:0:
127,131,191864,1,0,0:0:0:0:
127,131,191975,1,8,0:0:0:0:
127,131,192086,1,8,0:0:0:0:
127,131,192198,1,0,0:0:0:0:
127,131,192309,1,8,0:0:0:0:
84,139,192531,1,0,0:0:0:0:
198,134,192642,1,8,0:0:0:0:
198,134,192753,1,8,0:0:0:0:
306,121,192864,1,0,0:0:0:0:
306,121,193086,1,8,0:0:0:0:
253,148,193309,1,0,0:0:0:0:
253,148,193420,1,0,0:0:0:0:
253,148,193531,1,8,0:0:0:0:
253,148,193642,1,0,0:0:0:0:
253,148,193753,1,0,0:0:0:0:
253,148,193864,1,8,0:0:0:0:
253,148,193975,1,0,0:0:0:0:
253,148,194086,1,8,0:0:0:0:
106,168,194309,1,0,0:0:0:0:
106,168,194531,1,8,0:0:0:0:
106,168,194642,1,0,0:0:0:0:
106,168,194753,1,8,0:0:0:0:
106,168,194864,1,8,0:0:0:0:
233,138,195086,1,0,0:0:0:0:
233,138,195198,1,0,0:0:0:0:
233,138,195309,1,8,0:0:0:0:
233,138,195420,1,8,0:0:0:0:
233,138,195531,1,8,0:0:0:0:
233,138,195642,1,0,0:0:0:0:
233,138,195753,1,8,0:0:0:0:
233,138,195864,1,8,0:0:0:0:
233,138,195975,1,0,0:0:0:0:
233,138,196086,1,0,0:0:0:0:
233,138,196198,1,8,0:0:0:0:
233,138,196309,1,8,0:0:0:0:
233,138,196420,1,4,0:0:0:0:
297,180,196642,1,8,0:0:0:0:
297,180,196975,1,0,0:0:0:0:
297,180,197086,1,8,0:0:0:0:
297,180,197309,1,0,0:0:0:0:
77,131,197420,1,0,0:0:0:0:
297,180,197531,1,8,0:0:0:0:
297,180,197864,1,0,0:0:0:0:
297,180,197975,1,8,0:0:0:0:
54,167,198198,1,0,0:0:0:0:
54,167,198420,1,8,0:0:0:0:
54,167,198753,1,0,0:0:0:0:
54,167,198864,1,8,0:0:0:0:
54,167,199086,1,0,0:0:0:0:
54,167,199198,1,0,0:0:0:0:
54,167,199309,1,8,0:0:0:0:
96,164,199420,1,0,0:0:0:0:
186,156,199531,1,8,0:0:0:0:
54,167,199642,1,0,0:0:0:0:
54,167,199753,1,8,0:0:0:0:
292,127,199864,1,8,0:0:0:0:
54,167,199975,1,0,0:0:0:0:
54,167,200198,1,8,0:0:0:0:
54,167,200531,1,0,0:0:0:0:
54,167,200642,1,8,0:0:0:0:
54,167,200864,1,0,0:0:0:0:
54,167,200975,1,0,0:0:0:0:
54,167,201086,1,8,0:0:0:0:
54,167,201420,1,0,0:0:0:0:
54,167,201531,1,8,0:0:0:0:
54,167,201753,1,0,0:0:0:0:
309,176,201920,1,0,0:0:0:0:
54,167,201975,1,8,0:0:0:0:
309,176,202086,1,0,0:0:0:0:
309,176,202198,1,8,0:0:0:0:
309,176,202309,1,0,0:0:0:0:
309,176,202420,1,8,0:0:0:0:
260,132,202531,1,0,0:0:0:0:
260,132,202642,1,8,0:0:0:0:
260,132,202698,1,0,0:0:0:0:
223,151,202753,1,8,0:0:0:0:
260,132,202864,1,8,0:0:0:0:
260,132,202975,1,0,0:0:0:0:
119,162,203086,1,8,0:0:0:0:
119,162,203309,1,8,0:0:0:0:
71,178,203531,1,0,0:0:0:0:
71,178,203642,1,8,0:0:0:0:
71,178,203864,1,8,0:0:0:0:
71,178,203975,1,0,0:0:0:0:
71,178,204198,1,0,0:0:0:0:
71,178,204309,1,8,0:0:0:0:
71,178,204531,1,8,0:0:0:0:
71,178,204642,1,0,0:0:0:0:
71,178,204753,1,0,0:0:0:0:
71,178,204864,1,8,0:0:0:0:
71,178,205086,1,8,0:0:0:0:
139,148,205309,1,0,0:0:0:0:
139,148,205420,1,0,0:0:0:0:
139,148,205642,1,8,0:0:0:0:
139,148,205753,1,8,0:0:0:0:
139,148,205975,1,0,0:0:0:0:
139,148,206086,1,8,0:0:0:0:
149,178,206309,1,0,0:0:0:0:
149,178,206420,1,0,0:0:0:0:
149,178,206531,1,8,0:0:0:0:
149,178,206642,1,8,0:0:0:0:
149,178,206753,1,0,0:0:0:0:
149,178,206864,1,8,0:0:0:0:
149,178,206975,1,8,0:0:0:0:
81,168,207086,1,0,0:0:0:0:
72,150,207420,1,8,0:0:0:0:
72,150,207531,1,0,0:0:0:0:
72,150,207753,1,8,0:0:0:0:
72,150,207975,1,0,0:0:0:0:
72,150,208198,1,0,0:0:0:0:
72,150,208420,1,8,0:0:0:0:
72,150,208642,1,8,0:0:0:0:
72,150,208864,1,0,0:0:0:0:
72,150,209086,1,0,0:0:0:0:
72,150,209309,1,8,0:0:0:0:
72,150,209531,1,0,0:0:0:0:
72,150,209642,1,8,0:0:0:0:
72,150,209864,1,8,0:0:0:0:
72,150,209975,1,0,0:0:0:0:
72,150,210086,1,8,0:0:0:0:
72,150,210309,1,8,0:0:0:0:
72,150,210420,1,8,0:0:0:0:
291,214,210642,1,0,0:0:0:0:
291,214,210864,1,8,0:0:0:0:
291,214,211086,1,0,0:0:0:0:
291,214,211198,1,8,0:0:0:0:
116,121,211420,1,0,0:0:0:0:
291,214,211531,1,8,0:0:0:0:
71,152,211642,1,0,0:0:0:0:
71,152,211753,1,0,0:0:0:0:
291,214,211864,1,8,0:0:0:0:
71,152,212086,1,0,0:0:0:0:
291,214,212198,1,8,0:0:0:0:
136,194,212420,1,0,0:0:0:0:
136,194,212531,1,8,0:0:0:0:
136,194,212642,1,0,0:0:0:0:
136,194,212753,1,8,0:0:0:0:
80,137,212975,1,8,0:0:0:0:
80,137,213086,1,0,0:0:0:0:
191,160,213309,1,8,0:0:0:0:
191,160,213531,1,0,0:0:0:0:
191,160,213642,1,8,0:0:0:0:
191,160,213975,1,8,0:0:0:0:
213,149,214086,1,0,0:0:0:0:
209,148,214198,1,8,0:0:0:0:
209,148,214420,1,8,0:0:0:0:
209,148,214642,1,8,0:0:0:0:
213,149,214864,1,0,0:0:0:0:
209,148,214975,1,8,0:0:0:0:
44,196,215086,1,0,0:0:0:0:
73,158,215142,1,0,0:0:0:0:
73,158,215198,1,8,0:0:0:0:
209,148,215253,1,8,0:0:0:0:
73,158,215309,1,0,0:0:0:0:
209,148,215420,1,0,0:0:0:0:
213,149,215531,1,12,0:0:0:0:
270,191,215975,1,0,0:0:0:0:
270,191,216086,1,8,0:0:0:0:
256,197,216142,1,8,0:0:0:0:
270,191,216198,1,0,0:0:0:0:
270,191,216309,1,0,0:0:0:0:
60,142,216420,1,8,0:0:0:0:
60,142,216475,1,8,0:0:0:0:
60,142,216531,1,8,0:0:0:0:
60,142,216642,1,0,0:0:0:0:
147,177,216753,1,8,0:0:0:0:
147,177,216864,1,0,0:0:0:0:
147,177,216920,1,0,0:0:0:0:
147,177,216975,1,8,0:0:0:0:
147,177,217086,1,0,0:0:0:0:
147,177,217198,1,8,0:0:0:0:
147,177,217309,1,0,0:0:0:0:
147,177,217364,1,0,0:0:0:0:
147,177,217420,1,0,0:0:0:0:
243,151,217531,1,8,0:0:0:0:
194,124,217753,1,0,0:0:0:0:
220,44,217864,1,8,0:0:0:0:
220,44,217920,1,8,0:0:0:0:
220,44,217975,1,0,0:0:0:0:
220,44,218086,1,8,0:0:0:0:
229,54,218198,1,0,0:0:0:0:
229,54,218253,1,0,0:0:0:0:
229,54,218309,1,0,0:0:0:0:
229,54,218420,1,8,0:0:0:0:
229,54,218531,1,8,0:0:0:0:
229,54,218642,1,0,0:0:0:0:
247,102,218753,1,8,0:0:0:0:
247,102,218809,1,8,0:0:0:0:
247,102,218864,1,0,0:0:0:0:
133,144,218975,1,8,0:0:0:0:
133,144,219086,1,0,0:0:0:0:
133,144,219198,1,0,0:0:0:0:
133,144,219309,1,8,0:0:0:0:
133,144,219420,1,8,0:0:0:0:
236,159,219531,1,0,0:0:0:0:
266,142,219753,1,8,0:0:0:0:
187,205,219864,1,0,0:0:0:0:
187,205,219975,1,8,0:0:0:0:
172,205,220031,1,8,0:0:0:0:
187,205,220086,1,0,0:0:0:0:
96,200,220198,1,8,0:0:0:0:
96,200,220420,1,8,0:0:0:0:
139,189,220531,1,0,0:0:0:0:
112,191,220586,1,0,0:0:0:0:
139,189,220642,1,8,0:0:0:0:
60,176,220753,1,0,0:0:0:0:
72,170,220864,1,8,0:0:0:0:
72,170,220975,1,0,0:0:0:0:
176,143,221031,1,0,0:0:0:0:
176,143,221086,1,8,0:0:0:0:
176,143,221309,1,8,0:0:0:0:
296,164,221420,1,8,0:0:0:0:
296,164,221531,1,0,0:0:0:0:
296,164,221586,1,0,0:0:0:0:
296,164,221642,1,0,0:0:0:0:
296,164,221753,1,8,0:0:0:0:
141,138,221809,1,8,0:0:0:0:
152,186,221864,1,0,0:0:0:0:
121,165,221975,1,12,0:0:0:0:
121,165,222086,1,12,0:0:0:0:
121,165,222309,1,4,0:0:0:0:
121,165,222420,1,4,0:0:0:0:
121,165,222531,1,12,0:0:0:0:
121,165,222753,1,12,0:0:0:0:
121,165,222864,1,12,0:0:0:0:
103,184,223086,1,0,0:0:0:0:
116,122,223309,1,12,0:0:0:0:
179,192,223420,1,8,0:0:0:0:
179,192,223531,1,0,0:0:0:0:
21,208,223586,1,0,0:0:0:0:
179,192,223642,1,8,0:0:0:0:
72,234,223753,1,0,0:0:0:0:
78,232,223864,1,8,0:0:0:0:
78,232,223920,1,8,0:0:0:0:
78,232,223975,1,0,0:0:0:0:
78,232,224086,1,8,0:0:0:0:
78,232,224198,1,0,0:0:0:0:
78,232,224309,1,8,0:0:0:0:
208,127,224420,1,0,0:0:0:0:
299,139,224475,1,0,0:0:0:0:
208,127,224531,1,8,0:0:0:0:
208,127,224586,1,0,0:0:0:0:
208,127,224642,1,8,0:0:0:0:
208,127,224753,1,8,0:0:0:0:
208,127,224864,1,0,0:0:0:0:
208,127,224975,1,8,0:0:0:0:
141,73,225031,1,0,0:0:0:0:
208,127,225086,1,8,0:0:0:0:
139,155,225198,1,8,0:0:0:0:
141,73,225309,1,0,0:0:0:0:
141,73,225420,1,8,0:0:0:0:
244,137,225475,1,8,0:0:0:0:
141,73,225531,1,8,0:0:0:0:
244,137,225642,1,8,0:0:0:0:
244,137,225753,1,0,0:0:0:0:
244,137,225864,1,8,0:0:0:0:
244,137,225975,1,8,0:0:0:0:
176,153,226198,1,8,0:0:0:0:
176,153,226253,1,0,0:0:0:0:
176,153,226309,1,8,0:0:0:0:
176,153,226420,1,0,0:0:0:0:
135,148,226531,1,8,0:0:0:0:
135,148,226642,1,0,0:0:0:0:
135,148,226753,1,0,0:0:0:0:
142,150,226864,1,8,0:0:0:0:
141,79,226920,1,8,0:0:0:0:
141,79,226975,1,0,0:0:0:0:
141,79,227086,1,8,0:0:0:0:
141,79,227198,1,0,0:0:0:0:
141,79,227253,1,0,0:0:0:0:
141,79,227309,1,8,0:0:0:0:
112,188,227531,1,8,0:0:0:0:
2,183,227642,1,0,0:0:0:0:
2,183,227698,1,0,0:0:0:0:
2,183,227753,1,8,0:0:0:0:
166,121,227864,1,0,0:0:0:0:
148,163,227975,1,8,0:0:0:0:
50,122,228031,1,0,0:0:0:0:
50,122,228086,1,0,0:0:0:0:
50,122,228198,1,8,0:0:0:0:
50,122,228253,1,8,0:0:0:0:
50,122,228309,1,8,0:0:0:0:
50,122,228420,1,0,0:0:0:0:
111,203,228531,1,0,0:0:0:0:
111,203,228642,1,0,0:0:0:0:
111,203,228753,1,0,0:0:0:0:
111,203,228864,1,8,0:0:0:0:
111,203,228975,1,8,0:0:0:0:
111,203,229086,1,8,0:0:0:0:
111,203,229198,1,8,0:0:0:0:
111,203,229309,1,0,0:0:0:0:
36,173,229420,1,0,0:0:0:0:
36,173,229475,1,8,0:0:0:0:
36,173,229531,1,8,0:0:0:0:
95,183,229642,1,0,0:0:0:0:
95,183,229753,1,8,0:0:0:0:
95,183,229864,1,0,0:0:0:0:
95,183,229975,1,8,0:0:0:0:
95,183,230031,1,0,0:0:0:0:
95,183,230086,1,8,0:0:0:0:
95,183,230198,1,4,0:0:0:0:
127,183,231086,1,8,0:0:0:0:
148,67,231142,1,8,0:0:0:0:
127,183,231198,1,8,0:0:0:0:
148,67,231253,1,8,0:0:0:0:
127,183,231309,1,8,0:0:0:0:
148,67,231364,1,8,0:0:0:0:
127,183,231420,1,8,0:0:0:0:
127,183,231475,1,8,0:0:0:0:
184,188,231531,1,8,0:0:0:0:
274,180,231975,1,0,0:0:0:0:
271,175,232031,1,0,0:0:0:0:
274,180,232086,1,8,0:0:0:0:
153,141,232142,1,0,0:0:0:0:
274,180,232198,1,0,0:0:0:0:
141,150,232309,1,8,0:0:0:0:
153,141,232420,1,0,0:0:0:0:
153,141,232531,1,8,0:0:0:0:
121,152,232642,1,0,0:0:0:0:
121,152,232698,1,0,0:0:0:0:
174,148,232753,1,8,0:0:0:0:
196,133,232864,1,0,0:0:0:0:
312,168,232975,1,8,0:0:0:0:
228,62,233086,1,0,0:0:0:0:
228,62,233142,1,0,0:0:0:0:
228,62,233198,1,8,0:0:0:0:
226,69,233309,1,0,0:0:0:0:
226,70,233364,1,8,0:0:0:0:
226,70,233420,1,0,0:0:0:0:
141,82,233531,1,8,0:0:0:0:
141,82,233642,1,8,0:0:0:0:
141,82,233753,1,0,0:0:0:0:
121,101,233864,1,8,0:0:0:0:
121,101,233975,1,0,0:0:0:0:
121,101,234031,1,0,0:0:0:0:
121,101,234086,1,8,0:0:0:0:
277,101,234198,1,0,0:0:0:0:
277,101,234309,1,8,0:0:0:0:
277,101,234364,1,8,0:0:0:0:
277,101,234420,1,0,0:0:0:0:
336,151,234531,1,8,0:0:0:0:
336,151,234642,1,0,0:0:0:0:
138,127,234753,1,0,0:0:0:0:
138,127,234809,1,8,0:0:0:0:
138,127,234864,1,0,0:0:0:0:
46,158,234975,1,8,0:0:0:0:
59,160,235086,1,0,0:0:0:0:
59,160,235198,1,0,0:0:0:0:
59,159,235309,1,8,0:0:0:0:
236,161,235531,1,0,0:0:0:0:
236,161,235642,1,8,0:0:0:0:
236,161,235698,1,0,0:0:0:0:
236,161,235753,1,0,0:0:0:0:
236,161,235864,1,8,0:0:0:0:
204,141,235975,1,0,0:0:0:0:
204,141,236086,1,8,0:0:0:0:
156,173,236198,1,0,0:0:0:0:
293,142,236253,1,0,0:0:0:0:
293,142,236309,1,0,0:0:0:0:
438,107,236420,1,8,0:0:0:0:
288,127,236531,1,8,0:0:0:0:
288,127,236642,1,0,0:0:0:0:
317,88,236753,1,8,0:0:0:0:
146,47,236809,1,8,0:0:0:0:
317,88,236864,1,0,0:0:0:0:
273,113,236975,1,8,0:0:0:0:
202,124,237031,1,8,0:0:0:0:
202,124,237086,1,0,0:0:0:0:
205,83,237309,1,12,0:0:0:0:
238,92,237531,1,0,0:0:0:0:
238,92,237642,1,8,0:0:0:0:
238,92,237753,1,12,0:0:0:0:
238,92,237975,1,0,0:0:0:0:
238,92,238086,1,8,0:0:0:0:
238,92,238198,1,12,0:0:0:0:
238,92,238420,1,12,0:0:0:0:
238,92,238642,1,12,0:0:0:0:
284,127,239086,1,0,0:0:0:0:
284,127,239198,1,8,0:0:0:0:
284,127,239253,1,8,0:0:0:0:
284,127,239309,1,0,0:0:0:0:
287,98,239420,1,0,0:0:0:0:
68,146,239531,1,8,0:0:0:0:
146,141,239642,1,0,0:0:0:0:
146,141,239698,1,0,0:0:0:0:
146,141,239753,1,8,0:0:0:0:
146,141,239864,1,8,0:0:0:0:
220,89,239975,1,0,0:0:0:0:
220,89,240086,1,8,0:0:0:0:
220,89,240198,1,0,0:0:0:0:
220,89,240253,1,0,0:0:0:0:
220,89,240309,1,0,0:0:0:0:
107,27,240420,1,8,0:0:0:0:
154,102,240531,1,0,0:0:0:0:
154,102,240586,1,0,0:0:0:0:
154,102,240642,1,8,0:0:0:0:
154,102,240753,1,8,0:0:0:0:
213,200,240864,1,0,0:0:0:0:
213,200,240975,1,8,0:0:0:0:
213,200,241086,1,0,0:0:0:0:
213,200,241142,1,0,0:0:0:0:
213,200,241198,1,0,0:0:0:0:
213,200,241309,1,8,0:0:0:0:
213,200,241420,1,0,0:0:0:0:
226,147,241531,1,8,0:0:0:0:
113,124,241642,1,8,0:0:0:0:
113,124,241753,1,0,0:0:0:0:
129,170,241864,1,8,0:0:0:0:
129,170,241920,1,8,0:0:0:0:
129,170,241975,1,8,0:0:0:0:
129,170,242086,1,8,0:0:0:0:
129,170,242198,1,0,0:0:0:0:
129,170,242253,1,0,0:0:0:0:
129,170,242309,1,0,0:0:0:0:
207,100,242420,1,8,0:0:0:0:
215,137,242475,1,8,0:0:0:0:
215,137,242531,1,8,0:0:0:0:
215,137,242586,1,8,0:0:0:0:
215,137,242642,1,0,0:0:0:0:
264,158,242864,1,0,0:0:0:0:
380,158,242920,1,0,0:0:0:0:
264,158,242975,1,8,0:0:0:0:
141,124,243086,1,8,0:0:0:0:
89,150,243198,1,0,0:0:0:0:
89,150,243253,1,0,0:0:0:0:
89,150,243309,1,8,0:0:0:0:
89,150,243420,1,8,0:0:0:0:
181,157,243531,1,0,0:0:0:0:
181,157,243642,1,8,0:0:0:0:
181,157,243753,1,8,0:0:0:0:
181,157,243809,1,8,0:0:0:0:
181,157,243864,1,0,0:0:0:0:
181,157,243975,1,8,0:0:0:0:
181,157,244086,1,0,0:0:0:0:
249,112,244142,1,0,0:0:0:0:
181,157,244198,1,8,0:0:0:0:
191,148,244309,1,8,0:0:0:0:
191,148,244420,1,0,0:0:0:0:
247,143,244475,1,0,0:0:0:0:
247,143,244531,1,8,0:0:0:0:
247,143,244586,1,8,0:0:0:0:
247,143,244642,1,0,0:0:0:0:
247,143,244753,1,8,0:0:0:0:
247,143,244864,1,0,0:0:0:0:
247,143,244975,1,8,0:0:0:0:
247,143,245086,1,0,0:0:0:0:
247,143,245142,1,0,0:0:0:0:
134,148,245198,1,8,0:0:0:0:
188,140,245309,1,0,0:0:0:0:
246,134,245753,1,0,0:0:0:0:
246,134,245975,1,0,0:0:0:0:
246,134,246198,1,8,0:0:0:0:
310,192,246346,1,0,0:0:0:0:
310,192,246420,1,8,0:0:0:0:
310,192,246568,1,8,0:0:0:0:
310,192,246642,1,0,0:0:0:0:
310,192,246790,1,0,0:0:0:0:
172,85,246864,1,0,0:0:0:0:
310,192,247012,1,8,0:0:0:0:
182,163,247086,1,0,0:0:0:0:
182,163,247309,1,0,0:0:0:0:
182,163,247457,1,0,0:0:0:0:
182,163,247531,1,8,0:0:0:0:
182,163,247679,1,8,0:0:0:0:
182,163,247753,1,0,0:0:0:0:
182,163,247901,1,0,0:0:0:0:
182,163,247975,1,0,0:0:0:0:
146,145,248124,1,0,0:0:0:0:
112,178,248198,1,8,0:0:0:0:
112,178,248346,1,8,0:0:0:0:
112,178,248420,1,0,0:0:0:0:
112,178,248568,1,8,0:0:0:0:
112,178,248642,1,0,0:0:0:0:
112,178,248790,1,8,0:0:0:0:
112,178,248864,1,0,0:0:0:0:
226,167,249086,1,0,0:0:0:0:
240,147,249235,1,0,0:0:0:0:
252,147,249309,1,8,0:0:0:0:
255,147,249457,1,0,0:0:0:0:
255,147,249531,1,8,0:0:0:0:
255,147,249679,1,8,0:0:0:0:
110,159,249753,1,0,0:0:0:0:
307,71,249901,1,0,0:0:0:0:
307,71,249975,1,8,0:0:0:0:
307,71,250124,1,8,0:0:0:0:
307,71,250198,1,0,0:0:0:0:
276,123,250346,1,8,0:0:0:0:
276,122,250420,1,8,0:0:0:0:
179,141,250642,1,8,0:0:0:0:
170,105,250790,1,0,0:0:0:0:
170,105,250864,1,8,0:0:0:0:
170,105,251012,1,8,0:0:0:0:
170,105,251086,1,8,0:0:0:0:
170,105,251235,1,8,0:0:0:0:
170,105,251309,1,0,0:0:0:0:
101,153,251531,1,8,0:0:0:0:
192,138,251679,1,0,0:0:0:0:
192,138,251753,1,0,0:0:0:0:
192,138,251901,1,8,0:0:0:0:
124,153,251975,1,0,0:0:0:0:
124,153,252124,1,8,0:0:0:0:
124,153,252198,1,0,0:0:0:0:
52,120,252420,1,0,0:0:0:0:
201,158,252531,1,8,0:0:0:0:
201,158,252642,1,0,0:0:0:0:
201,158,252753,1,8,0:0:0:0:
201,158,252864,1,0,0:0:0:0:
152,161,252975,1,0,0:0:0:0:
152,161,253031,1,0,0:0:0:0:
152,161,253086,1,0,0:0:0:0:
152,161,253198,1,0,0:0:0:0:
159,157,253309,1,12,0:0:0:0:
159,157,253420,1,0,0:0:0:0:
159,157,253475,1,0,0:0:0:0:
159,157,253531,1,8,0:0:0:0:
159,157,253642,1,0,0:0:0:0:
159,157,253753,1,8,0:0:0:0:
171,178,253864,1,0,0:0:0:0:
171,178,253920,1,0,0:0:0:0:
159,157,253975,1,8,0:0:0:0:
159,157,254086,1,0,0:0:0:0:
166,82,254198,1,8,0:0:0:0:
159,157,254309,1,0,0:0:0:0:
181,29,254364,1,0,0:0:0:0:
159,157,254420,1,8,0:0:0:0:
146,121,254531,1,0,0:0:0:0:
159,157,254642,1,8,0:0:0:0:
116,56,254698,1,8,0:0:0:0:
159,157,254753,1,0,0:0:0:0:
103,129,254864,1,8,0:0:0:0:
221,151,255086,1,8,0:0:0:0:
295,152,255198,1,0,0:0:0:0:
295,152,255309,1,8,0:0:0:0:
295,152,255364,1,8,0:0:0:0:
243,159,255420,1,0,0:0:0:0:
243,159,255531,1,8,0:0:0:0:
243,158,255642,1,0,0:0:0:0:
116,108,255753,1,8,0:0:0:0:
116,108,255809,1,8,0:0:0:0:
116,108,255864,1,0,0:0:0:0:
116,108,255975,1,8,0:0:0:0:
217,61,256086,1,0,0:0:0:0:
171,47,256142,1,0,0:0:0:0:
217,61,256198,1,8,0:0:0:0:
217,61,256309,1,0,0:0:0:0:
217,61,256420,1,8,0:0:0:0:
217,61,256531,1,0,0:0:0:0:
217,61,256586,1,8,0:0:0:0:
217,61,256642,1,0,0:0:0:0:
196,163,256864,1,0,0:0:0:0:
208,136,256975,1,8,0:0:0:0:
229,153,257031,1,0,0:0:0:0:
229,153,257086,1,8,0:0:0:0:
229,153,257198,1,8,0:0:0:0:
229,153,257309,1,0,0:0:0:0:
229,153,257364,1,0,0:0:0:0:
229,153,257420,1,8,0:0:0:0:
289,139,257531,1,0,0:0:0:0:
289,139,257642,1,0,0:0:0:0:
289,139,257753,1,8,0:0:0:0:
152,102,257864,1,0,0:0:0:0:
152,102,257920,1,8,0:0:0:0:
152,102,257975,1,8,0:0:0:0:
179,103,258086,1,8,0:0:0:0:
179,103,258198,1,0,0:0:0:0:
179,103,258309,1,8,0:0:0:0:
179,103,258420,1,0,0:0:0:0:
179,97,258475,1,0,0:0:0:0:
179,97,258531,1,0,0:0:0:0:
148,197,258642,1,0,0:0:0:0:
158,92,258864,1,12,0:0:0:0:
158,92,259086,1,0,0:0:0:0:
158,92,259309,1,12,0:0:0:0:
358,146,259531,1,8,0:0:0:0:
358,146,259642,1,8,0:0:0:0:
358,146,259753,1,8,0:0:0:0:
358,146,259864,1,8,0:0:0:0:
358,146,259975,1,8,0:0:0:0:
358,146,260086,1,0,0:0:0:0:
358,146,260309,1,8,0:0:0:0:
176,123,260420,1,4,0:0:0:0:
351,159,260753,1,0,0:0:0:0:
351,159,260809,1,0,0:0:0:0:
351,159,260864,1,8,0:0:0:0:
302,149,261309,1,4,0:0:0:0:
302,149,261531,1,4,0:0:0:0:
302,149,261642,1,12,0:0:0:0:
302,149,261864,1,12,0:0:0:0:
259,100,262198,1,4,0:0:0:0:
236,158,262975,1,4,0:0:0:0:
236,158,263198,1,4,0:0:0:0:
236,158,263309,1,4,0:0:0:0:
236,158,263420,1,4,0:0:0:0:
111,157,263531,1,12,0:0:0:0:
44,130,263642,1,0,0:0:0:0:
402,151,263698,1,0,0:0:0:0:
402,151,263753,1,8,0:0:0:0:
237,200,263975,1,0,0:0:0:0:
237,200,264086,1,0,0:0:0:0:
237,200,264142,1,0,0:0:0:0:
237,200,264198,1,8,0:0:0:0:
141,144,264309,1,0,0:0:0:0:
143,128,264420,1,0,0:0:0:0:
143,128,264531,1,8,0:0:0:0:
143,128,264642,1,0,0:0:0:0:
143,128,264753,1,8,0:0:0:0:
143,128,264864,1,8,0:0:0:0:
143,128,264920,1,0,0:0:0:0:
143,128,264975,1,8,0:0:0:0:
163,82,265086,1,0,0:0:0:0:
163,82,265198,1,0,0:0:0:0:
207,120,265309,1,8,0:0:0:0:
116,117,265420,1,0,0:0:0:0:
126,120,265475,1,0,0:0:0:0:
131,122,265531,1,8,0:0:0:0:
131,122,265642,1,8,0:0:0:0:
133,122,265753,1,0,0:0:0:0:
224,189,265864,1,0,0:0:0:0:
224,189,265920,1,0,0:0:0:0:
224,189,265975,1,8,0:0:0:0:
232,186,266086,1,0,0:0:0:0:
238,180,266198,1,8,0:0:0:0:
237,178,266309,1,0,0:0:0:0:
237,178,266420,1,0,0:0:0:0:
240,171,266531,1,8,0:0:0:0:
269,190,266642,1,0,0:0:0:0:
269,190,266698,1,8,0:0:0:0:
272,196,266753,1,0,0:0:0:0:
272,196,266864,1,8,0:0:0:0:
272,196,266920,1,8,0:0:0:0:
272,196,266975,1,0,0:0:0:0:
53,134,267086,1,8,0:0:0:0:
65,132,267198,1,8,0:0:0:0:
66,132,267309,1,8,0:0:0:0:
198,148,267531,1,0,0:0:0:0:
198,148,267642,1,0,0:0:0:0:
198,148,267698,1,0,0:0:0:0:
204,77,267753,1,8,0:0:0:0:
204,77,267864,1,8,0:0:0:0:
204,77,267975,1,0,0:0:0:0:
37,136,268031,1,0,0:0:0:0:
203,146,268086,1,8,0:0:0:0:
185,173,268142,1,8,0:0:0:0:
185,173,268198,1,0,0:0:0:0:
101,138,268309,1,8,0:0:0:0:
119,140,268420,1,0,0:0:0:0:
276,203,268586,1,0,0:0:0:0:
276,203,268642,1,8,0:0:0:0:
151,171,268753,1,0,0:0:0:0:
176,154,268809,1,0,0:0:0:0:
176,154,268864,1,8,0:0:0:0:
201,153,268975,1,0,0:0:0:0:
139,151,269086,1,8,0:0:0:0:
139,151,269198,1,8,0:0:0:0:
139,151,269309,1,0,0:0:0:0:
143,153,269364,1,0,0:0:0:0:
139,151,269420,1,0,0:0:0:0:
139,151,269531,1,8,0:0:0:0:
183,160,269642,1,0,0:0:0:0:
88,185,269753,1,8,0:0:0:0:
88,185,269809,1,8,0:0:0:0:
88,185,269864,1,0,0:0:0:0:
88,185,269975,1,0,0:0:0:0:
88,185,270086,1,8,0:0:0:0:
131,118,270198,1,8,0:0:0:0:
175,141,270309,1,0,0:0:0:0:
175,141,270364,1,0,0:0:0:0:
175,141,270420,1,8,0:0:0:0:
175,141,270531,1,0,0:0:0:0:
175,141,270642,1,8,0:0:0:0:
175,141,270698,1,8,0:0:0:0:
175,141,270753,1,0,0:0:0:0:
175,141,270809,1,0,0:0:0:0:
175,141,270864,1,8,0:0:0:0:
103,138,271086,1,0,0:0:0:0:
103,138,271309,1,8,0:0:0:0:
84,124,271364,1,8,0:0:0:0:
103,138,271420,1,0,0:0:0:0:
85,124,271475,1,0,0:0:0:0:
103,138,271531,1,8,0:0:0:0:
