osu file format v14

[General]
AudioFilename: audio.mp3
AudioLeadIn: 0
PreviewTime: 67421
Countdown: 0
SampleSet: Normal
StackLeniency: 0.7
Mode: 1
LetterboxInBreaks: 0
WidescreenStoryboard: 1

[Editor]
Bookmarks: 12997,18644,39977,67421,89310,105755,149310,182199,203088,230199
DistanceSpacing: 0.5
BeatDivisor: 4
GridSize: 16
TimelineZoom: 4.499998

[Metadata]
Title:Unchi wo Shite Shimatta Toki no Mashcore
TitleUnicode:うんちをしてしまった時のMashcore
Artist:cexiria
ArtistUnicode:cexiria
Creator:Maimaing
Version:Nakirimode
Source:
Tags:Nekomusya7563 XK2238 Salieri applerss japanese electronic j-core jcore hardcore mashcore バーチャル virtual youtuber vtuber hololive ホロライブmad otomad 音mad ディスコミュ星人 discommunication alien 兎田ぺこら usada pekora cover ナナヲアカリ nanawo akari ナユタン星人 turing love チューリングラブ 湊あくあ minato aqua 猫又おかゆ nekomata okayu グッバイ宣言 goodbye sengen ハイカラサウンド highkarasound 紫咲シオン murasaki shion ヴァンパイア vampire deco*27 ボーカロイド vocaloid vocca della verita ボッカデラベリタ roboco-san ロボ子さん hiiragi kirai 柊キライ monster kaibutsu 怪物 tsunomaki watame 角巻わため yoasobi one room sugar life ワンルームシュガーライフ nayutalien nayuta seijin ナユタン星人 watashi idol sengen 私、アイドル宣⾔ chico with honeyworks 私を染める i の歌 wo someru i no uta gom oji 海賊王 shito atsyuk! ヤマコ
BeatmapID:3208307
BeatmapSetID:1521630

[Difficulty]
HPDrainRate:6
CircleSize:5
OverallDifficulty:6
ApproachRate:5
SliderMultiplier:1.4
SliderTickRate:1

[Events]
//Background and Video events
0,0,"unchi2.png",0,0
//Break Periods
2,105732,108110
2,203732,209443
//Storyboard Layer 0 (Background)
//Storyboard Layer 1 (Fail)
//Storyboard Layer 2 (Pass)
//Storyboard Layer 3 (Foreground)
//Storyboard Layer 4 (Overlay)
//Storyboard Sound Samples

[TimingPoints]
645,352.941176470588,4,1,0,100,1,0
11939,-133.333333333333,4,1,0,100,0,0
14762,-100,4,1,0,100,0,0
15115,-66.6666666666667,4,1,0,100,0,0
15380,-58.8235294117647,4,1,0,100,0,0
15556,-50,4,1,0,100,0,0
15733,-41.6666666666667,4,1,0,100,0,0
15909,-38.4615384615385,4,1,0,100,0,0
16086,-33.3333333333333,4,1,0,100,0,0
16174,-66.6666666666667,4,1,0,100,0,0
18115,-66.6666666666667,4,1,0,100,0,0
18203,-64.5161290322581,4,1,0,100,0,0
18292,-62.5,4,1,0,100,0,0
18380,-60.6060606060606,4,1,0,100,0,0
18468,-58.8235294117647,4,1,0,100,0,0
18556,-57.1428571428571,4,1,0,100,0,0
18644,222.222222222222,4,1,0,100,1,0
18644,-93.4579439252336,4,1,0,100,0,1
24866,-90.9090909090909,4,1,0,100,0,0
25755,-97.0873786407767,4,1,0,100,0,0
32866,-95.2380952380952,4,1,0,100,0,1
39088,-92.5925925925926,4,1,0,100,0,1
39310,-90.0900900900901,4,1,0,100,0,1
39532,-88.4955752212389,4,1,0,100,0,1
39755,-86.9565217391304,4,1,0,100,0,1
39977,-100,4,1,0,100,0,0
40088,-102.040816326531,4,1,0,100,0,0
40143,-103.092783505155,4,1,0,100,0,0
40199,-104.166666666667,4,1,0,100,0,0
40310,-105.263157894737,4,1,0,100,0,0
45310,-103.092783505155,4,1,0,100,0,0
45977,-101.010101010101,4,1,0,100,0,0
46199,-99.009900990099,4,1,0,100,0,0
46310,-97.0873786407767,4,1,0,100,0,0
46421,-94.3396226415094,4,1,0,100,0,0
46532,-92.5925925925926,4,1,0,100,0,0
46643,-90.9090909090909,4,1,0,100,0,0
46866,-86.9565217391304,4,1,0,100,0,0
47088,-95.2380952380952,4,1,0,100,0,1
53310,-98.0392156862745,4,1,0,100,0,0
54199,-95.2380952380952,4,1,0,100,0,1
60866,-98.0392156862745,4,1,0,100,0,0
60977,-100,4,1,0,100,0,0
61088,-103.092783505155,4,1,0,100,0,0
61199,-105.263157894737,4,1,0,100,0,0
61310,-108.695652173913,4,1,0,100,0,1
61421,-113.636363636364,4,1,0,100,0,1
63977,-112.359550561798,4,1,0,100,0,0
64088,-111.111111111111,4,1,0,100,0,0
64199,-109.89010989011,4,1,0,100,0,0
64310,-108.695652173913,4,1,0,100,0,0
64421,-109.89010989011,4,1,0,100,0,0
64532,-111.111111111111,4,1,0,100,0,0
64643,-113.636363636364,4,1,0,100,0,1
66643,-109.89010989011,4,1,0,100,0,1
66755,-106.382978723404,4,1,0,100,0,1
66866,-103.092783505155,4,1,0,100,0,1
66977,-100,4,1,0,100,0,1
67088,-97.0873786407767,4,1,0,100,0,1
67199,-94.3396226415094,4,1,0,100,0,1
67310,-91.743119266055,4,1,0,100,0,1
67421,-90.0900900900901,4,1,0,100,0,0
68199,-91.743119266055,4,1,0,100,0,0
68310,-93.4579439252336,4,1,0,100,0,0
68421,-95.2380952380952,4,1,0,100,0,1
70199,-97.0873786407767,4,1,0,100,0,0
71977,-95.2380952380952,4,1,0,100,0,1
73755,-97.0873786407767,4,1,0,100,0,0
75310,-93.4579439252336,4,1,0,100,0,0
75532,-95.2380952380952,4,1,0,100,0,1
77310,-97.0873786407767,4,1,0,100,0,0
79088,-95.2380952380952,4,1,0,100,0,1
80866,-92.5925925925926,4,1,0,100,0,0
82643,-98.0392156862745,4,1,0,100,0,1
87977,-95.2380952380952,4,1,0,100,0,1
88421,-92.5925925925926,4,1,0,100,0,1
88866,-89.2857142857143,4,1,0,100,0,0
89755,-84.7457627118644,4,1,0,100,0,1
90199,-90.9090909090909,4,1,0,100,0,1
96866,-92.5925925925926,4,1,0,100,0,1
98032,-92.5925925925926,4,1,0,100,0,0
98643,-92.5925925925926,4,1,0,100,0,1
100866,-90.9090909090909,4,1,0,100,0,1
104199,-89.2857142857143,4,1,0,100,0,1
105532,-81.9672131147541,4,1,0,100,0,0
105977,-125,4,1,0,100,0,0
109310,-125,4,1,0,100,0,0
112643,-105.263157894737,4,1,0,100,0,0
112866,-100,4,1,0,100,0,1
113088,-98.0392156862745,4,1,0,100,0,1
119088,-70.4225352112676,4,1,0,100,0,0
119143,-121.951219512195,4,1,0,100,0,0
126199,-108.695652173913,4,1,0,100,0,0
127088,-113.636363636364,4,1,0,100,0,0
133977,-84.7457627118644,4,1,0,100,0,1
135977,-102.040816326531,4,1,0,100,0,0
143032,-84.7457627118644,4,1,0,100,0,1
143977,-92.5925925925926,4,1,0,100,0,0
144866,-86.9565217391304,4,1,0,100,0,1
146755,-92.5925925925926,4,1,0,100,0,1
149310,-113.636363636364,4,1,0,100,0,0
150199,-105.263157894737,4,1,0,100,0,0
151977,-117.647058823529,4,1,0,100,0,0
152866,-83.3333333333333,4,1,0,100,0,1
152921,-83.3333333333333,4,1,0,100,0,0
153088,-83.3333333333333,4,1,0,100,0,1
153143,-83.3333333333333,4,1,0,100,0,0
153255,-83.3333333333333,4,1,0,100,0,1
153310,-83.3333333333333,4,1,0,100,0,0
153477,-83.3333333333333,4,1,0,100,0,1
153532,-76.9230769230769,4,1,0,100,0,0
153643,-90.9090909090909,4,1,0,100,0,1
160199,-81.9672131147541,4,1,0,100,0,1
160255,-90.9090909090909,4,1,0,100,0,1
160643,-81.9672131147541,4,1,0,100,0,1
160699,-90.9090909090909,4,1,0,100,0,1
162643,-95.2380952380952,4,1,0,100,0,1
163088,-93.4579439252336,4,1,0,100,0,1
163532,-91.743119266055,4,1,0,100,0,1
166199,-95.2380952380952,4,1,0,100,0,0
167755,-84.0336134453781,4,1,0,100,0,0
167977,-89.2857142857143,4,1,0,100,0,1
175088,-86.2068965517241,4,1,0,100,0,1
181310,-68.4931506849315,4,1,0,100,0,1
182199,-125,4,1,0,100,0,0
189310,-111.111111111111,4,1,0,100,0,0
194199,-109.89010989011,4,1,0,100,0,0
194310,-108.695652173913,4,1,0,100,0,0
194421,-107.52688172043,4,1,0,100,0,0
194532,-106.382978723404,4,1,0,100,0,0
194643,-105.263157894737,4,1,0,100,0,0
195532,-100,4,1,0,100,0,0
196199,-98.0392156862745,4,1,0,100,0,0
196310,-96.1538461538461,4,1,0,100,0,0
196421,-94.3396226415094,4,1,0,100,0,0
196643,-92.5925925925926,4,1,0,100,0,0
202643,-84.7457627118644,4,1,0,100,0,0
203588,-125,4,1,0,100,0,0
210643,-111.111111111111,4,1,0,100,0,0
214755,-100,4,1,0,100,0,0
215421,-95.2380952380952,4,1,0,100,0,0
215532,-90.9090909090909,4,1,0,100,0,0
215977,-93.4579439252336,4,1,0,100,0,1
221921,-84.7457627118644,4,1,0,100,0,1
223032,-92.5925925925926,4,1,0,100,0,1
228421,-89.2857142857143,4,1,0,100,0,0
231977,-96.1538461538461,4,1,0,100,0,1
237310,-98.0392156862745,4,1,0,100,0,1
239088,-94.3396226415094,4,1,0,100,0,1
245366,-100,4,1,0,100,0,0
246199,-83.3333333333333,4,1,0,100,0,1
258643,-86.9565217391303,4,1,0,100,0,1
259755,-88.4955752212389,4,1,0,100,0,1
259866,-90.0900900900901,4,1,0,100,0,1
259977,-91.743119266055,4,1,0,100,0,1
260088,-93.4579439252336,4,1,0,100,0,1
260199,-97.0873786407767,4,1,0,100,0,1
261310,-91.743119266055,4,1,0,100,0,1
262199,-90.0900900900901,4,1,0,100,0,1
262977,-92.5925925925926,4,1,0,100,0,1
263755,-84.7457627118644,4,1,0,100,0,1
263977,-90.9090909090909,4,1,0,100,0,1
270199,-89.2857142857143,4,1,0,100,0,1
270421,-87.719298245614,4,1,0,100,0,1
270643,-86.2068965517241,4,1,0,100,0,1
270866,-84.7457627118644,4,1,0,100,0,1
271532,-84.7457627118644,4,1,0,100,0,0

[HitObjects]
201,226,645,5,0,0:0:0:0:
201,226,997,1,2,0:0:0:0:
201,226,1174,1,2,0:0:0:0:
201,226,1350,1,0,0:0:0:0:
203,208,1439,1,0,0:0:0:0:
220,208,1527,1,2,0:0:0:0:
270,217,1703,1,2,0:0:0:0:
300,199,1880,1,0,0:0:0:0:
369,207,2233,1,2,0:0:0:0:
369,207,2409,1,0,0:0:0:0:
369,207,2586,1,2,0:0:0:0:
369,207,2674,1,2,0:0:0:0:
369,207,2762,1,0,0:0:0:0:
369,207,2850,1,0,0:0:0:0:
383,197,2939,1,2,0:0:0:0:
369,207,3115,1,0,0:0:0:0:
380,193,3292,1,2,0:0:0:0:
201,226,3468,1,0,0:0:0:0:
201,226,3820,1,2,0:0:0:0:
201,226,3997,1,2,0:0:0:0:
201,226,4173,1,0,0:0:0:0:
203,208,4262,1,0,0:0:0:0:
220,208,4350,1,2,0:0:0:0:
270,217,4526,1,2,0:0:0:0:
300,199,4703,1,0,0:0:0:0:
369,207,5056,1,2,0:0:0:0:
369,207,5232,1,0,0:0:0:0:
369,207,5409,1,2,0:0:0:0:
362,223,5497,1,0,0:0:0:0:
369,207,5586,1,2,0:0:0:0:
369,207,5674,1,2,0:0:0:0:
381,195,5762,1,0,0:0:0:0:
369,207,5938,1,0,0:0:0:0:
380,193,6115,1,2,0:0:0:0:
201,226,6292,1,0,0:0:0:0:
201,226,6644,1,2,0:0:0:0:
201,226,6821,1,2,0:0:0:0:
201,226,6997,1,0,0:0:0:0:
203,208,7086,1,0,0:0:0:0:
220,208,7174,1,2,0:0:0:0:
270,217,7350,1,2,0:0:0:0:
300,199,7527,1,0,0:0:0:0:
369,207,7880,1,2,0:0:0:0:
369,207,8056,1,0,0:0:0:0:
369,207,8233,1,2,0:0:0:0:
369,207,8321,1,2,0:0:0:0:
369,207,8409,1,0,0:0:0:0:
369,207,8497,1,0,0:0:0:0:
383,197,8586,1,2,0:0:0:0:
369,207,8762,1,0,0:0:0:0:
380,193,8939,1,2,0:0:0:0:
347,181,9115,1,4,0:0:0:0:
284,211,9468,1,4,0:0:0:0:
323,268,9821,1,4,0:0:0:0:
334,254,9997,1,0,0:0:0:0:
351,251,10086,1,2,0:0:0:0:
362,325,10174,1,0,0:0:0:0:
363,290,10350,1,2,0:0:0:0:
381,259,10527,1,2,0:0:0:0:
434,213,10880,1,2,0:0:0:0:
502,199,11233,1,2,0:0:0:0:
511,268,11586,1,2,0:0:0:0:
256,192,15115,12,2,15292,0:0:0:0:
256,192,15380,12,0,15556,0:0:0:0:
256,192,15556,12,0,15733,0:0:0:0:
256,192,15733,12,0,15909,0:0:0:0:
256,192,15909,12,0,16086,0:0:0:0:
256,192,16086,12,0,17409,0:0:0:0:
273,222,17762,5,2,0:0:0:0:
328,264,18115,1,2,0:0:0:0:
341,274,18203,1,2,0:0:0:0:
354,284,18292,1,2,0:0:0:0:
367,294,18380,1,2,0:0:0:0:
380,304,18468,1,2,0:0:0:0:
380,304,18556,1,2,0:0:0:0:
328,264,18644,1,0,0:0:0:0:
328,264,18866,1,2,0:0:0:0:
328,264,18921,1,2,0:0:0:0:
328,264,18977,1,0,0:0:0:0:
328,264,19032,1,0,0:0:0:0:
344,257,19088,1,2,0:0:0:0:
365,285,19199,1,2,0:0:0:0:
365,285,19310,1,0,0:0:0:0:
395,268,19421,1,2,0:0:0:0:
395,268,19532,1,0,0:0:0:0:
395,268,19588,1,0,0:0:0:0:
390,250,19644,1,2,0:0:0:0:
390,250,19699,1,2,0:0:0:0:
382,234,19755,1,0,0:0:0:0:
413,219,19866,1,2,0:0:0:0:
413,219,19977,1,0,0:0:0:0:
390,250,20088,1,2,0:0:0:0:
382,234,20199,1,0,0:0:0:0:
382,234,20255,1,0,0:0:0:0:
382,234,20310,1,2,0:0:0:0:
412,217,20421,1,0,0:0:0:0:
413,219,20643,1,2,0:0:0:0:
413,219,20755,1,2,0:0:0:0:
412,217,20866,1,0,0:0:0:0:
412,217,20921,1,0,0:0:0:0:
428,210,20977,1,2,0:0:0:0:
428,210,21088,1,0,0:0:0:0:
454,233,21199,1,2,0:0:0:0:
454,233,21310,1,0,0:0:0:0:
454,233,21421,1,2,0:0:0:0:
454,233,21477,1,2,0:0:0:0:
438,240,21532,1,0,0:0:0:0:
466,219,21643,1,2,0:0:0:0:
466,219,21755,1,0,0:0:0:0:
466,219,21810,1,0,0:0:0:0:
471,202,21866,1,2,0:0:0:0:
469,184,21921,1,2,0:0:0:0:
455,195,21977,1,0,0:0:0:0:
420,198,22088,1,2,0:0:0:0:
386,208,22199,1,0,0:0:0:0:
420,198,22421,1,2,0:0:0:0:
420,198,22532,1,2,0:0:0:0:
420,198,22643,1,0,0:0:0:0:
420,198,22699,1,0,0:0:0:0:
436,192,22755,1,2,0:0:0:0:
470,196,22866,1,0,0:0:0:0:
439,213,22977,1,2,0:0:0:0:
411,233,23088,1,0,0:0:0:0:
470,196,23199,1,2,0:0:0:0:
439,213,23255,1,0,0:0:0:0:
439,213,23310,1,2,0:0:0:0:
421,213,23421,1,0,0:0:0:0:
411,233,23532,1,2,0:0:0:0:
411,233,23588,1,2,0:0:0:0:
411,233,23643,1,0,0:0:0:0:
419,217,23699,1,2,0:0:0:0:
419,199,23755,1,0,0:0:0:0:
419,181,23810,1,0,0:0:0:0:
411,233,23866,1,2,0:0:0:0:
439,213,23977,1,4,0:0:0:0:
439,213,24088,1,4,0:0:0:0:
403,273,24310,1,4,0:0:0:0:
448,219,24532,1,6,0:0:0:0:
380,198,24755,1,4,0:0:0:0:
395,229,24866,1,4,0:0:0:0:
428,217,24977,1,2,0:0:0:0:
428,217,25032,1,2,0:0:0:0:
411,223,25088,1,0,0:0:0:0:
394,253,25199,1,0,0:0:0:0:
396,218,25310,1,2,0:0:0:0:
384,212,25421,1,0,0:0:0:0:
371,224,25477,1,0,0:0:0:0:
396,218,25532,1,2,0:0:0:0:
405,203,25588,1,2,0:0:0:0:
388,209,25643,1,0,0:0:0:0:
454,178,25755,1,0,0:0:0:0:
454,184,25866,1,2,0:0:0:0:
454,178,25921,1,2,0:0:0:0:
461,193,25977,1,0,0:0:0:0:
461,193,26088,1,2,0:0:0:0:
430,176,26199,1,0,0:0:0:0:
430,176,26255,1,0,0:0:0:0:
454,178,26310,1,2,0:0:0:0:
454,178,26366,1,2,0:0:0:0:
454,178,26421,1,0,0:0:0:0:
480,200,26532,1,2,0:0:0:0:
430,249,26755,1,2,0:0:0:0:
443,216,26866,1,0,0:0:0:0:
443,216,26977,1,2,0:0:0:0:
443,216,27032,1,2,0:0:0:0:
443,216,27088,1,0,0:0:0:0:
480,200,27199,1,2,0:0:0:0:
480,200,27310,1,0,0:0:0:0:
446,211,27421,1,2,0:0:0:0:
394,257,27643,1,0,0:0:0:0:
390,239,27699,1,0,0:0:0:0:
387,221,27755,1,2,0:0:0:0:
421,220,27866,1,0,0:0:0:0:
446,211,27977,1,2,0:0:0:0:
429,205,28032,1,0,0:0:0:0:
444,195,28088,1,2,0:0:0:0:
444,195,28143,1,2,0:0:0:0:
426,199,28199,1,0,0:0:0:0:
390,239,28310,1,2,0:0:0:0:
404,207,28421,1,0,0:0:0:0:
404,207,28477,1,0,0:0:0:0:
388,213,28532,1,2,0:0:0:0:
404,207,28643,1,0,0:0:0:0:
429,205,28755,1,2,0:0:0:0:
405,179,28866,1,2,0:0:0:0:
393,166,28921,1,0,0:0:0:0:
405,179,28977,1,2,0:0:0:0:
405,179,29032,1,2,0:0:0:0:
393,166,29088,1,0,0:0:0:0:
405,179,29143,1,2,0:0:0:0:
393,166,29199,1,0,0:0:0:0:
358,173,29310,1,0,0:0:0:0:
344,205,29421,1,2,0:0:0:0:
337,221,29477,1,2,0:0:0:0:
353,215,29532,1,0,0:0:0:0:
387,210,29643,1,2,0:0:0:0:
360,186,29755,1,0,0:0:0:0:
360,186,29810,1,0,0:0:0:0:
360,186,29866,1,2,0:0:0:0:
360,186,29921,1,2,0:0:0:0:
387,210,29977,1,0,0:0:0:0:
353,215,30088,1,2,0:0:0:0:
386,206,30199,1,0,0:0:0:0:
418,192,30310,1,2,0:0:0:0:
418,192,30366,1,2,0:0:0:0:
435,191,30421,1,0,0:0:0:0:
418,192,30532,1,2,0:0:0:0:
448,174,30643,1,0,0:0:0:0:
448,174,30699,1,0,0:0:0:0:
464,169,30755,1,2,0:0:0:0:
418,192,30810,1,2,0:0:0:0:
418,192,30866,1,0,0:0:0:0:
411,175,30921,1,2,0:0:0:0:
418,192,30977,1,0,0:0:0:0:
418,192,31088,1,0,0:0:0:0:
435,191,31199,1,2,0:0:0:0:
435,191,31255,1,2,0:0:0:0:
435,191,31310,1,0,0:0:0:0:
435,191,31366,1,0,0:0:0:0:
448,174,31421,1,2,0:0:0:0:
448,174,31532,1,0,0:0:0:0:
414,202,31588,1,2,0:0:0:0:
418,192,31643,1,0,0:0:0:0:
401,223,31755,1,2,0:0:0:0:
391,256,31866,1,0,0:0:0:0:
447,190,31977,1,2,0:0:0:0:
430,195,32032,1,0,0:0:0:0:
414,202,32088,1,0,0:0:0:0:
398,209,32143,1,0,0:0:0:0:
447,190,32199,1,2,0:0:0:0:
401,223,32255,1,0,0:0:0:0:
401,223,32310,1,0,0:0:0:0:
401,223,32366,1,0,0:0:0:0:
383,224,32421,1,2,0:0:0:0:
398,209,32477,1,0,0:0:0:0:
398,209,32532,1,0,0:0:0:0:
398,209,32588,1,0,0:0:0:0:
398,209,32643,1,2,0:0:0:0:
398,209,32866,1,0,0:0:0:0:
447,190,32977,1,0,0:0:0:0:
435,202,33032,1,2,0:0:0:0:
428,218,33088,1,0,0:0:0:0:
428,218,33143,1,0,0:0:0:0:
435,202,33199,1,2,0:0:0:0:
275,276,33310,1,0,0:0:0:0:
285,270,33347,1,0,0:0:0:0:
295,264,33384,1,0,0:0:0:0:
300,253,33421,1,2,0:0:0:0:
333,242,33532,1,0,0:0:0:0:
350,211,33643,1,2,0:0:0:0:
381,225,33755,1,0,0:0:0:0:
381,225,33810,1,0,0:0:0:0:
381,225,33866,1,2,0:0:0:0:
381,225,33977,1,0,0:0:0:0:
384,190,34088,1,2,0:0:0:0:
382,207,34143,1,0,0:0:0:0:
384,190,34199,1,2,0:0:0:0:
407,202,34310,1,0,0:0:0:0:
377,225,34421,1,2,0:0:0:0:
308,211,34643,1,0,0:0:0:0:
325,241,34755,1,0,0:0:0:0:
377,225,34866,1,2,0:0:0:0:
368,240,34977,1,0,0:0:0:0:
368,240,35088,1,2,0:0:0:0:
368,240,35125,1,2,0:0:0:0:
368,240,35162,1,2,0:0:0:0:
378,234,35199,1,0,0:0:0:0:
377,225,35310,1,2,0:0:0:0:
405,205,35421,1,0,0:0:0:0:
370,205,35532,1,2,0:0:0:0:
370,205,35588,1,2,0:0:0:0:
369,222,35643,1,0,0:0:0:0:
370,205,35699,1,2,0:0:0:0:
384,214,35755,1,0,0:0:0:0:
381,231,35810,1,2,0:0:0:0:
397,224,35866,1,0,0:0:0:0:
359,218,35921,1,0,0:0:0:0:
370,205,35977,1,2,0:0:0:0:
384,214,36032,1,0,0:0:0:0:
361,238,36088,1,2,0:0:0:0:
405,205,36199,1,0,0:0:0:0:
373,220,36310,1,2,0:0:0:0:
339,209,36421,1,0,0:0:0:0:
327,205,36458,1,0,0:0:0:0:
315,201,36495,1,0,0:0:0:0:
405,205,36532,1,2,0:0:0:0:
416,191,36588,1,0,0:0:0:0:
433,192,36643,1,2,0:0:0:0:
468,192,36755,1,0,0:0:0:0:
468,192,36866,1,2,0:0:0:0:
405,205,36921,1,2,0:0:0:0:
405,205,36977,1,0,0:0:0:0:
405,205,37032,1,0,0:0:0:0:
405,205,37088,1,2,0:0:0:0:
377,227,37199,1,0,0:0:0:0:
405,205,37310,1,2,0:0:0:0:
377,227,37366,1,0,0:0:0:0:
362,236,37421,1,2,0:0:0:0:
347,246,37477,1,2,0:0:0:0:
363,242,37532,1,0,0:0:0:0:
359,259,37588,1,0,0:0:0:0:
342,265,37643,1,2,0:0:0:0:
359,259,37699,1,0,0:0:0:0:
372,270,37755,1,2,0:0:0:0:
339,256,37866,1,0,0:0:0:0:
312,278,37977,1,2,0:0:0:0:
312,278,38032,1,0,0:0:0:0:
342,265,38088,1,2,0:0:0:0:
362,236,38199,1,0,0:0:0:0:
377,227,38255,1,0,0:0:0:0:
363,242,38310,1,2,0:0:0:0:
377,227,38366,1,2,0:0:0:0:
384,211,38421,1,0,0:0:0:0:
354,228,38532,1,2,0:0:0:0:
319,233,38643,1,0,0:0:0:0:
377,227,38699,1,0,0:0:0:0:
391,216,38755,1,2,0:0:0:0:
362,236,38810,1,0,0:0:0:0:
365,218,38866,1,0,0:0:0:0:
377,218,38921,1,0,0:0:0:0:
391,227,38977,1,2,0:0:0:0:
435,224,39088,1,0,0:0:0:0:
435,224,39310,1,0,0:0:0:0:
435,224,39532,1,0,0:0:0:0:
367,244,39755,1,2,0:0:0:0:
367,244,39977,1,0,0:0:0:0:
237,206,40088,1,8,0:0:0:0:
237,206,40143,1,0,0:0:0:0:
243,222,40199,1,2,0:0:0:0:
237,206,40310,1,0,0:0:0:0:
3,153,40421,1,8,0:0:0:0:
54,148,40532,1,8,0:0:0:0:
54,148,40588,1,8,0:0:0:0:
237,206,40643,1,0,0:0:0:0:
300,64,40755,1,8,0:0:0:0:
169,115,40866,1,0,0:0:0:0:
237,206,40977,1,8,0:0:0:0:
237,206,41032,1,0,0:0:0:0:
248,220,41088,1,2,0:0:0:0:
237,206,41199,1,0,0:0:0:0:
3,153,41310,1,8,0:0:0:0:
54,148,41421,1,0,0:0:0:0:
54,148,41532,1,8,0:0:0:0:
182,63,41643,1,8,0:0:0:0:
169,115,41755,1,0,0:0:0:0:
237,206,41866,1,8,0:0:0:0:
237,206,41921,1,0,0:0:0:0:
254,206,41977,1,2,0:0:0:0:
237,206,42088,1,0,0:0:0:0:
3,153,42199,1,8,0:0:0:0:
54,148,42310,1,0,0:0:0:0:
54,148,42366,1,8,0:0:0:0:
54,148,42421,1,0,0:0:0:0:
221,138,42532,1,8,0:0:0:0:
253,162,42643,1,0,0:0:0:0:
253,162,42755,1,8,0:0:0:0:
253,162,42810,1,0,0:0:0:0:
267,172,42866,1,0,0:0:0:0:
253,162,42921,1,0,0:0:0:0:
253,162,42977,1,8,0:0:0:0:
153,49,43032,1,0,0:0:0:0:
153,49,43088,1,8,0:0:0:0:
108,142,43199,1,0,0:0:0:0:
108,142,43310,1,8,0:0:0:0:
108,142,43421,1,8,0:0:0:0:
108,142,43532,1,0,0:0:0:0:
176,155,43755,1,2,0:0:0:0:
203,176,43866,1,2,0:0:0:0:
237,170,43977,1,0,0:0:0:0:
237,170,44088,1,0,0:0:0:0:
264,191,44199,1,2,0:0:0:0:
274,224,44310,1,0,0:0:0:0:
274,224,44421,1,2,0:0:0:0:
274,224,44532,1,2,0:0:0:0:
303,241,44643,1,0,0:0:0:0:
322,211,44755,1,2,0:0:0:0:
322,211,44866,1,0,0:0:0:0:
322,211,44977,1,0,0:0:0:0:
322,211,45088,1,2,0:0:0:0:
294,146,45310,5,0,0:0:0:0:
264,127,45421,1,2,0:0:0:0:
281,130,45477,1,0,0:0:0:0:
269,162,45588,1,0,0:0:0:0:
286,164,45643,1,2,0:0:0:0:
289,181,45699,1,0,0:0:0:0:
321,192,45810,1,0,0:0:0:0:
304,212,45866,1,2,0:0:0:0:
338,204,45977,1,0,0:0:0:0:
366,228,46032,1,2,0:0:0:0:
366,228,46088,1,2,0:0:0:0:
367,317,46199,1,4,0:0:0:0:
349,286,46310,1,4,0:0:0:0:
372,260,46421,1,6,0:0:0:0:
338,249,46532,1,4,0:0:0:0:
366,228,46643,1,6,0:0:0:0:
427,210,46866,1,4,0:0:0:0:
427,193,47088,1,0,0:0:0:0:
427,193,47143,1,0,0:0:0:0:
427,193,47199,1,2,0:0:0:0:
442,201,47255,1,0,0:0:0:0:
427,210,47310,1,2,0:0:0:0:
412,219,47366,1,2,0:0:0:0:
366,228,47421,1,0,0:0:0:0:
366,228,47477,1,2,0:0:0:0:
366,228,47532,1,0,0:0:0:0:
442,201,47643,1,2,0:0:0:0:
436,235,47755,1,0,0:0:0:0:
420,227,47810,1,0,0:0:0:0:
409,241,47866,1,2,0:0:0:0:
412,219,47977,1,0,0:0:0:0:
427,210,48088,1,2,0:0:0:0:
427,210,48143,1,2,0:0:0:0:
420,227,48199,1,0,0:0:0:0:
414,243,48255,1,0,0:0:0:0:
396,242,48310,1,2,0:0:0:0:
426,224,48421,1,0,0:0:0:0:
427,210,48532,1,2,0:0:0:0:
409,241,48643,1,0,0:0:0:0:
412,219,48699,1,0,0:0:0:0:
400,232,48755,1,2,0:0:0:0:
412,219,48866,1,0,0:0:0:0:
412,219,48921,1,0,0:0:0:0:
394,223,48977,1,2,0:0:0:0:
394,223,49032,1,0,0:0:0:0:
382,209,49088,1,2,0:0:0:0:
382,209,49143,1,2,0:0:0:0:
371,223,49199,1,0,0:0:0:0:
400,232,49255,1,0,0:0:0:0:
382,209,49310,1,2,0:0:0:0:
395,225,49366,1,2,0:0:0:0:
412,219,49421,1,0,0:0:0:0:
394,223,49532,1,2,0:0:0:0:
393,240,49643,1,0,0:0:0:0:
385,208,49755,1,0,0:0:0:0:
373,194,49810,1,0,0:0:0:0:
373,194,49866,1,2,0:0:0:0:
338,199,49977,1,0,0:0:0:0:
372,192,50088,1,2,0:0:0:0:
385,180,50143,1,2,0:0:0:0:
367,177,50199,1,0,0:0:0:0:
367,177,50255,1,0,0:0:0:0:
380,187,50310,1,2,0:0:0:0:
393,198,50366,1,2,0:0:0:0:
406,208,50421,1,2,0:0:0:0:
406,208,50477,1,2,0:0:0:0:
412,223,50532,1,0,0:0:0:0:
406,208,50643,1,2,0:0:0:0:
406,208,50699,1,2,0:0:0:0:
389,214,50755,1,0,0:0:0:0:
389,214,50866,1,2,0:0:0:0:
389,214,50977,1,0,0:0:0:0:
367,177,51032,1,2,0:0:0:0:
393,198,51088,1,0,0:0:0:0:
393,198,51143,1,0,0:0:0:0:
378,207,51199,1,2,0:0:0:0:
386,239,51310,1,2,0:0:0:0:
389,214,51421,5,0,0:0:0:0:
423,214,51532,1,0,0:0:0:0:
423,214,51588,1,0,0:0:0:0:
389,214,51643,1,2,0:0:0:0:
408,190,51755,1,0,0:0:0:0:
393,198,51866,1,2,0:0:0:0:
393,198,51921,1,2,0:0:0:0:
400,214,51977,1,0,0:0:0:0:
400,214,52032,1,0,0:0:0:0:
395,197,52088,1,2,0:0:0:0:
423,214,52199,1,0,0:0:0:0:
389,223,52310,1,2,0:0:0:0:
354,224,52421,1,0,0:0:0:0:
336,224,52477,1,0,0:0:0:0:
389,223,52532,1,2,0:0:0:0:
300,224,52588,1,0,0:0:0:0:
300,224,52643,1,2,0:0:0:0:
300,224,52699,1,2,0:0:0:0:
246,226,52755,1,0,0:0:0:0:
300,224,52810,1,2,0:0:0:0:
210,228,52866,1,0,0:0:0:0:
260,213,52921,1,0,0:0:0:0:
277,209,52977,1,2,0:0:0:0:
277,209,53032,1,2,0:0:0:0:
228,227,53088,1,0,0:0:0:0:
277,209,53143,1,2,0:0:0:0:
228,227,53199,1,0,0:0:0:0:
260,213,53310,1,0,0:0:0:0:
328,228,53532,1,6,0:0:0:0:
328,228,53755,1,0,0:0:0:0:
328,228,53866,1,0,0:0:0:0:
328,228,53977,1,6,0:0:0:0:
328,228,54199,1,0,0:0:0:0:
328,228,54255,1,0,0:0:0:0:
345,230,54310,1,2,0:0:0:0:
330,219,54366,1,0,0:0:0:0:
345,210,54421,1,2,0:0:0:0:
342,192,54477,1,2,0:0:0:0:
354,204,54532,1,0,0:0:0:0:
345,210,54588,1,2,0:0:0:0:
357,197,54643,1,0,0:0:0:0:
364,212,54699,1,0,0:0:0:0:
346,207,54755,1,2,0:0:0:0:
328,204,54810,1,2,0:0:0:0:
379,198,54866,1,0,0:0:0:0:
380,232,54977,1,0,0:0:0:0:
330,219,55088,1,2,0:0:0:0:
330,219,55143,1,2,0:0:0:0:
342,192,55199,1,0,0:0:0:0:
354,204,55255,1,0,0:0:0:0:
307,196,55310,1,2,0:0:0:0:
364,212,55366,1,0,0:0:0:0:
272,197,55421,1,2,0:0:0:0:
396,179,55532,1,0,0:0:0:0:
361,186,55643,1,2,0:0:0:0:
332,164,55755,1,0,0:0:0:0:
341,197,55866,1,2,0:0:0:0:
342,192,55977,1,0,0:0:0:0:
354,204,56032,1,0,0:0:0:0:
337,211,56088,1,2,0:0:0:0:
341,197,56199,1,0,0:0:0:0:
341,197,56310,1,2,0:0:0:0:
341,197,56366,1,2,0:0:0:0:
341,197,56421,1,0,0:0:0:0:
341,197,56477,1,0,0:0:0:0:
354,208,56532,1,2,0:0:0:0:
336,208,56588,1,0,0:0:0:0:
326,222,56643,1,2,0:0:0:0:
326,222,56699,1,2,0:0:0:0:
324,239,56755,1,0,0:0:0:0:
337,211,56866,1,2,0:0:0:0:
326,222,56921,1,2,0:0:0:0:
324,239,56977,1,0,0:0:0:0:
315,272,57088,1,2,0:0:0:0:
315,272,57199,1,0,0:0:0:0:
315,272,57255,1,0,0:0:0:0:
331,268,57310,1,2,0:0:0:0:
360,249,57421,1,0,0:0:0:0:
331,268,57532,1,2,0:0:0:0:
355,242,57643,1,0,0:0:0:0:
355,242,57755,1,2,0:0:0:0:
355,242,57810,1,2,0:0:0:0:
338,248,57866,1,0,0:0:0:0:
338,248,57921,1,0,0:0:0:0:
346,232,57977,1,2,0:0:0:0:
346,232,58032,1,0,0:0:0:0:
361,222,58088,1,2,0:0:0:0:
361,222,58143,1,2,0:0:0:0:
378,217,58199,1,0,0:0:0:0:
360,215,58255,1,0,0:0:0:0:
376,209,58310,1,2,0:0:0:0:
361,222,58366,1,0,0:0:0:0:
361,222,58421,1,2,0:0:0:0:
348,209,58477,1,2,0:0:0:0:
338,248,58532,1,0,0:0:0:0:
346,232,58643,1,2,0:0:0:0:
346,232,58699,1,2,0:0:0:0:
343,214,58755,1,0,0:0:0:0:
377,212,58866,1,2,0:0:0:0:
378,217,58977,1,0,0:0:0:0:
376,209,59032,1,0,0:0:0:0:
362,198,59088,1,2,0:0:0:0:
362,198,59143,1,2,0:0:0:0:
338,248,59199,1,0,0:0:0:0:
332,213,59310,1,2,0:0:0:0:
338,248,59421,1,0,0:0:0:0:
308,229,59532,1,2,0:0:0:0:
304,237,59588,1,0,0:0:0:0:
286,232,59643,1,0,0:0:0:0:
304,237,59699,1,0,0:0:0:0:
304,237,59755,1,2,0:0:0:0:
304,237,59810,1,0,0:0:0:0:
304,237,59866,1,0,0:0:0:0:
305,254,59921,1,2,0:0:0:0:
289,245,59977,1,0,0:0:0:0:
304,237,60032,1,2,0:0:0:0:
321,229,60088,1,2,0:0:0:0:
304,237,60143,1,0,0:0:0:0:
320,230,60199,1,2,0:0:0:0:
304,237,60255,1,0,0:0:0:0:
305,219,60310,1,2,0:0:0:0:
398,212,60366,1,2,0:0:0:0:
286,232,60421,1,0,0:0:0:0:
304,237,60477,1,0,0:0:0:0:
398,212,60532,1,2,0:0:0:0:
398,212,60588,1,2,0:0:0:0:
304,237,60643,1,0,0:0:0:0:
398,212,60699,1,2,0:0:0:0:
304,237,60755,1,0,0:0:0:0:
427,193,60866,5,6,0:0:0:0:
427,193,60977,1,0,0:0:0:0:
427,193,61088,1,6,0:0:0:0:
398,212,61199,1,0,0:0:0:0:
398,212,61310,1,2,0:0:0:0:
398,212,61421,1,2,0:0:0:0:
398,212,61532,1,0,0:0:0:0:
398,212,61588,1,0,0:0:0:0:
398,212,61643,1,0,0:0:0:0:
422,237,61755,1,2,0:0:0:0:
398,212,61866,1,0,0:0:0:0:
398,212,61921,1,0,0:0:0:0:
398,212,61977,1,2,0:0:0:0:
432,213,62088,1,0,0:0:0:0:
432,213,62199,1,2,0:0:0:0:
432,213,62255,1,2,0:0:0:0:
398,212,62310,1,0,0:0:0:0:
398,212,62366,1,0,0:0:0:0:
383,202,62421,1,2,0:0:0:0:
398,212,62532,1,0,0:0:0:0:
398,212,62643,1,2,0:0:0:0:
398,212,62699,1,2,0:0:0:0:
385,224,62755,1,0,0:0:0:0:
383,202,62866,1,2,0:0:0:0:
383,202,63088,1,2,0:0:0:0:
383,202,63199,1,2,0:0:0:0:
383,202,63310,1,0,0:0:0:0:
383,202,63366,1,0,0:0:0:0:
387,218,63421,1,2,0:0:0:0:
352,215,63532,1,0,0:0:0:0:
352,215,63643,1,2,0:0:0:0:
352,215,63699,1,2,0:0:0:0:
363,201,63755,1,0,0:0:0:0:
379,207,63810,1,0,0:0:0:0:
387,218,63866,1,2,0:0:0:0:
372,249,63977,1,0,0:0:0:0:
357,280,64088,1,0,0:0:0:0:
363,201,64199,1,2,0:0:0:0:
387,218,64310,1,0,0:0:0:0:
363,201,64421,1,2,0:0:0:0:
363,201,64532,1,2,0:0:0:0:
397,202,64643,1,0,0:0:0:0:
368,180,64755,1,2,0:0:0:0:
387,218,64866,1,0,0:0:0:0:
387,218,64921,1,0,0:0:0:0:
387,218,64977,1,0,0:0:0:0:
363,201,65088,1,2,0:0:0:0:
363,201,65199,1,2,0:0:0:0:
363,201,65310,1,0,0:0:0:0:
368,180,65366,1,0,0:0:0:0:
363,201,65421,1,2,0:0:0:0:
363,201,65477,1,2,0:0:0:0:
373,187,65532,1,0,0:0:0:0:
368,180,65643,1,2,0:0:0:0:
363,201,65755,1,0,0:0:0:0:
363,201,65810,1,0,0:0:0:0:
378,210,65866,1,2,0:0:0:0:
387,243,65977,1,0,0:0:0:0:
413,220,66088,1,2,0:0:0:0:
384,239,66199,1,0,0:0:0:0:
369,249,66255,1,0,0:0:0:0:
413,220,66310,1,2,0:0:0:0:
413,220,66366,1,2,0:0:0:0:
396,215,66421,1,0,0:0:0:0:
369,249,66532,1,2,0:0:0:0:
336,236,66643,1,0,0:0:0:0:
336,236,66755,1,0,0:0:0:0:
336,236,66866,1,0,0:0:0:0:
336,236,66977,1,0,0:0:0:0:
336,236,67088,1,0,0:0:0:0:
307,256,67199,1,0,0:0:0:0:
307,256,67310,1,0,0:0:0:0:
376,266,67421,1,2,0:0:0:0:
342,254,67643,1,4,0:0:0:0:
336,236,67755,1,6,0:0:0:0:
336,236,67866,1,6,0:0:0:0:
336,236,67977,1,6,0:0:0:0:
377,292,68199,5,2,0:0:0:0:
350,314,68310,1,0,0:0:0:0:
251,347,68421,1,0,0:0:0:0:
261,313,68532,1,2,0:0:0:0:
272,299,68588,1,0,0:0:0:0:
336,236,68643,1,2,0:0:0:0:
364,215,68755,1,0,0:0:0:0:
364,215,68866,1,2,0:0:0:0:
364,215,68921,1,2,0:0:0:0:
360,232,68977,1,0,0:0:0:0:
360,232,69088,1,2,0:0:0:0:
393,220,69199,1,0,0:0:0:0:
363,283,69421,1,2,0:0:0:0:
386,257,69532,1,0,0:0:0:0:
386,257,69643,1,2,0:0:0:0:
386,257,69699,1,2,0:0:0:0:
398,244,69755,1,0,0:0:0:0:
421,217,69866,1,2,0:0:0:0:
386,257,69977,1,0,0:0:0:0:
386,257,70032,1,0,0:0:0:0:
383,239,70088,1,2,0:0:0:0:
398,244,70199,1,0,0:0:0:0:
349,193,70421,1,2,0:0:0:0:
346,262,70643,1,0,0:0:0:0:
357,228,70755,1,0,0:0:0:0:
322,227,70866,1,2,0:0:0:0:
365,281,71088,1,0,0:0:0:0:
365,281,71199,1,0,0:0:0:0:
387,253,71310,1,2,0:0:0:0:
387,253,71421,1,2,0:0:0:0:
387,253,71532,1,0,0:0:0:0:
368,320,71755,1,2,0:0:0:0:
362,250,71977,1,0,0:0:0:0:
362,250,72032,1,0,0:0:0:0:
362,250,72088,1,2,0:0:0:0:
362,250,72143,1,2,0:0:0:0:
378,242,72199,1,0,0:0:0:0:
412,238,72310,1,2,0:0:0:0:
435,211,72421,1,0,0:0:0:0:
435,211,72477,1,0,0:0:0:0:
418,215,72532,1,2,0:0:0:0:
412,238,72643,1,0,0:0:0:0:
446,229,72755,1,2,0:0:0:0:
414,214,72866,1,0,0:0:0:0:
418,215,72977,1,2,0:0:0:0:
418,215,73032,1,2,0:0:0:0:
419,232,73088,1,0,0:0:0:0:
385,241,73199,1,2,0:0:0:0:
418,215,73310,1,0,0:0:0:0:
414,214,73366,1,0,0:0:0:0:
414,214,73421,1,2,0:0:0:0:
414,214,73477,1,2,0:0:0:0:
396,214,73532,1,0,0:0:0:0:
412,207,73588,1,2,0:0:0:0:
421,192,73643,1,0,0:0:0:0:
418,215,73755,1,2,0:0:0:0:
421,192,73977,1,0,0:0:0:0:
404,222,74088,1,0,0:0:0:0:
422,192,74199,1,2,0:0:0:0:
418,215,74310,1,0,0:0:0:0:
388,234,74421,1,2,0:0:0:0:
388,234,74643,1,2,0:0:0:0:
388,234,74755,1,2,0:0:0:0:
421,224,74866,1,0,0:0:0:0:
454,214,74977,1,0,0:0:0:0:
419,221,75088,1,2,0:0:0:0:
352,199,75310,1,0,0:0:0:0:
352,199,75532,1,0,0:0:0:0:
386,206,75643,1,2,0:0:0:0:
370,215,75699,1,0,0:0:0:0:
352,219,75755,1,2,0:0:0:0:
398,249,75866,1,2,0:0:0:0:
439,220,75977,1,0,0:0:0:0:
386,206,76088,1,2,0:0:0:0:
368,203,76143,1,0,0:0:0:0:
407,157,76199,1,2,0:0:0:0:
389,160,76255,1,2,0:0:0:0:
422,187,76310,1,0,0:0:0:0:
439,220,76421,1,2,0:0:0:0:
420,249,76532,1,0,0:0:0:0:
420,249,76588,1,0,0:0:0:0:
409,235,76643,1,2,0:0:0:0:
373,239,76755,1,0,0:0:0:0:
373,239,76866,1,2,0:0:0:0:
373,239,76921,1,2,0:0:0:0:
389,232,76977,1,0,0:0:0:0:
422,187,77032,1,2,0:0:0:0:
422,187,77088,1,2,0:0:0:0:
422,187,77143,1,2,0:0:0:0:
439,220,77199,1,0,0:0:0:0:
462,194,77310,1,2,0:0:0:0:
422,187,77532,1,0,0:0:0:0:
403,216,77643,1,0,0:0:0:0:
438,220,77755,1,2,0:0:0:0:
399,278,77977,1,0,0:0:0:0:
348,229,78199,1,2,0:0:0:0:
373,253,78310,1,2,0:0:0:0:
398,229,78421,1,0,0:0:0:0:
398,229,78477,1,0,0:0:0:0:
398,229,78532,1,0,0:0:0:0:
399,194,78643,1,2,0:0:0:0:
434,197,78755,1,0,0:0:0:0:
434,197,78866,1,2,0:0:0:0:
434,197,78977,1,2,0:0:0:0:
434,197,79088,1,0,0:0:0:0:
434,197,79143,1,0,0:0:0:0:
434,197,79199,1,2,0:0:0:0:
448,206,79255,1,0,0:0:0:0:
430,209,79310,1,2,0:0:0:0:
412,212,79366,1,2,0:0:0:0:
429,214,79421,1,0,0:0:0:0:
412,212,79532,1,2,0:0:0:0:
412,212,79588,1,2,0:0:0:0:
430,209,79643,1,0,0:0:0:0:
403,231,79755,1,2,0:0:0:0:
403,231,79866,1,0,0:0:0:0:
392,264,79977,1,0,0:0:0:0:
386,280,80032,1,0,0:0:0:0:
375,265,80088,1,2,0:0:0:0:
364,251,80143,1,2,0:0:0:0:
380,257,80199,1,0,0:0:0:0:
350,276,80310,1,2,0:0:0:0:
350,276,80366,1,2,0:0:0:0:
392,264,80421,1,0,0:0:0:0:
403,231,80532,1,0,0:0:0:0:
399,213,80588,1,2,0:0:0:0:
403,231,80643,1,0,0:0:0:0:
403,231,80699,1,0,0:0:0:0:
419,224,80755,1,2,0:0:0:0:
364,251,80866,1,0,0:0:0:0:
293,371,81310,1,2,0:0:0:0:
326,235,81755,1,0,0:0:0:0:
365,292,81977,1,0,0:0:0:0:
322,236,82199,1,2,0:0:0:0:
279,180,82421,1,2,0:0:0:0:
356,269,82643,5,0,0:0:0:0:
290,243,82866,1,2,0:0:0:0:
356,264,83088,1,0,0:0:0:0:
335,235,83199,1,0,0:0:0:0:
369,236,83310,1,2,0:0:0:0:
369,236,83532,1,0,0:0:0:0:
369,236,83588,1,0,0:0:0:0:
369,236,83643,1,2,0:0:0:0:
389,207,83755,1,0,0:0:0:0:
389,207,83866,1,2,0:0:0:0:
389,207,83921,1,2,0:0:0:0:
389,207,83977,1,0,0:0:0:0:
389,207,84032,1,0,0:0:0:0:
402,218,84088,1,2,0:0:0:0:
433,233,84199,1,0,0:0:0:0:
401,247,84310,1,2,0:0:0:0:
369,231,84421,1,0,0:0:0:0:
371,248,84477,1,0,0:0:0:0:
373,265,84532,1,0,0:0:0:0:
402,284,84643,1,2,0:0:0:0:
371,248,84755,1,0,0:0:0:0:
371,248,84810,1,0,0:0:0:0:
373,265,84866,1,2,0:0:0:0:
373,265,84921,1,2,0:0:0:0:
373,265,84977,1,0,0:0:0:0:
406,273,85088,1,2,0:0:0:0:
432,250,85199,1,0,0:0:0:0:
432,250,85310,1,2,0:0:0:0:
432,250,85366,1,2,0:0:0:0:
432,250,85421,1,0,0:0:0:0:
432,250,85477,1,0,0:0:0:0:
424,234,85532,1,2,0:0:0:0:
432,250,85643,1,0,0:0:0:0:
432,250,85699,1,0,0:0:0:0:
443,236,85755,1,2,0:0:0:0:
449,252,85810,1,2,0:0:0:0:
432,245,85866,1,0,0:0:0:0:
432,250,85921,1,2,0:0:0:0:
440,265,85977,1,0,0:0:0:0:
407,278,86088,1,2,0:0:0:0:
372,273,86199,1,0,0:0:0:0:
318,228,86421,1,2,0:0:0:0:
372,273,86532,1,2,0:0:0:0:
337,270,86643,1,0,0:0:0:0:
337,270,86699,1,0,0:0:0:0:
337,270,86755,1,2,0:0:0:0:
337,270,86866,1,0,0:0:0:0:
303,279,86977,1,2,0:0:0:0:
319,285,87088,1,0,0:0:0:0:
346,262,87199,1,2,0:0:0:0:
360,251,87255,1,2,0:0:0:0:
362,233,87310,1,0,0:0:0:0:
395,221,87421,1,2,0:0:0:0:
418,246,87532,1,0,0:0:0:0:
429,259,87588,1,0,0:0:0:0:
412,264,87643,1,2,0:0:0:0:
395,269,87699,1,2,0:0:0:0:
362,233,87755,1,0,0:0:0:0:
319,285,87866,1,2,0:0:0:0:
295,259,87977,1,0,0:0:0:0:
295,259,88088,1,0,0:0:0:0:
328,247,88199,1,6,0:0:0:0:
328,247,88421,1,0,0:0:0:0:
328,247,88532,1,0,0:0:0:0:
362,247,88643,1,6,0:0:0:0:
420,208,88866,1,2,0:0:0:0:
430,221,88921,1,0,0:0:0:0:
430,221,89032,1,0,0:0:0:0:
447,218,89088,1,2,0:0:0:0:
415,202,89199,1,0,0:0:0:0:
415,202,89310,1,2,0:0:0:0:
415,202,89366,1,2,0:0:0:0:
415,202,89421,1,2,0:0:0:0:
415,202,89477,1,2,0:0:0:0:
415,202,89532,1,0,0:0:0:0:
390,227,89643,1,2,0:0:0:0:
356,237,89755,1,4,0:0:0:0:
356,237,89977,1,6,0:0:0:0:
407,294,90199,1,0,0:0:0:0:
403,276,90255,1,2,0:0:0:0:
356,237,90310,1,0,0:0:0:0:
356,237,90366,1,0,0:0:0:0:
373,240,90421,1,2,0:0:0:0:
390,227,90532,1,2,0:0:0:0:
391,244,90588,1,0,0:0:0:0:
407,294,90699,1,0,0:0:0:0:
420,282,90755,1,2,0:0:0:0:
429,267,90810,1,2,0:0:0:0:
418,252,90866,1,0,0:0:0:0:
437,222,90977,1,2,0:0:0:0:
427,255,91088,1,0,0:0:0:0:
427,255,91143,1,0,0:0:0:0:
437,222,91199,1,2,0:0:0:0:
437,222,91310,1,0,0:0:0:0:
457,250,91421,1,2,0:0:0:0:
452,215,91532,1,0,0:0:0:0:
452,215,91588,1,0,0:0:0:0:
464,226,91643,1,2,0:0:0:0:
447,218,91699,1,0,0:0:0:0:
429,222,91755,1,2,0:0:0:0:
437,222,91810,1,0,0:0:0:0:
437,222,91866,1,0,0:0:0:0:
429,222,91921,1,2,0:0:0:0:
420,237,91977,1,0,0:0:0:0:
452,215,92088,1,2,0:0:0:0:
434,245,92199,1,0,0:0:0:0:
407,267,92310,1,2,0:0:0:0:
420,237,92532,1,0,0:0:0:0:
387,250,92643,1,2,0:0:0:0:
420,237,92755,1,0,0:0:0:0:
420,237,92810,1,0,0:0:0:0:
425,220,92866,1,2,0:0:0:0:
390,226,92977,1,0,0:0:0:0:
390,226,93088,1,2,0:0:0:0:
390,226,93143,1,2,0:0:0:0:
390,226,93199,1,0,0:0:0:0:
390,226,93255,1,0,0:0:0:0:
420,237,93310,1,2,0:0:0:0:
390,226,93421,1,0,0:0:0:0:
386,260,93532,1,2,0:0:0:0:
447,225,93755,1,0,0:0:0:0:
426,253,93866,1,0,0:0:0:0:
435,219,93977,1,2,0:0:0:0:
390,226,94088,1,0,0:0:0:0:
447,225,94199,1,2,0:0:0:0:
447,225,94255,1,2,0:0:0:0:
447,225,94310,1,0,0:0:0:0:
457,191,94366,1,2,0:0:0:0:
447,225,94421,1,0,0:0:0:0:
447,225,94477,1,0,0:0:0:0:
457,191,94532,1,2,0:0:0:0:
390,226,94588,1,2,0:0:0:0:
435,219,94643,1,0,0:0:0:0:
457,191,94755,1,2,0:0:0:0:
447,225,94866,1,0,0:0:0:0:
481,220,94977,1,2,0:0:0:0:
481,220,95088,1,0,0:0:0:0:
481,220,95143,1,0,0:0:0:0:
481,220,95199,1,0,0:0:0:0:
481,220,95255,1,0,0:0:0:0:
481,220,95310,1,0,0:0:0:0:
481,220,95366,1,0,0:0:0:0:
481,220,95421,1,0,0:0:0:0:
481,220,95477,1,0,0:0:0:0:
481,220,95532,1,0,0:0:0:0:
481,220,95588,1,0,0:0:0:0:
481,220,95643,1,0,0:0:0:0:
481,220,95699,1,0,0:0:0:0:
481,220,95755,1,0,0:0:0:0:
465,227,95810,1,0,0:0:0:0:
458,247,95866,1,0,0:0:0:0:
441,252,95921,1,0,0:0:0:0:
424,257,95977,1,0,0:0:0:0:
413,290,96088,1,0,0:0:0:0:
413,290,96199,1,0,0:0:0:0:
407,255,96310,1,0,0:0:0:0:
387,288,96421,1,2,0:0:0:0:
424,257,96532,1,2,0:0:0:0:
424,257,96643,1,2,0:0:0:0:
436,315,96755,1,0,0:0:0:0:
413,290,96866,1,2,0:0:0:0:
413,290,96903,1,2,0:0:0:0:
413,290,96940,1,2,0:0:0:0:
421,282,96977,1,0,0:0:0:0:
447,259,97088,1,2,0:0:0:0:
412,262,97199,1,0,0:0:0:0:
412,262,97310,1,2,0:0:0:0:
412,262,97338,1,2,0:0:0:0:
385,259,97421,1,0,0:0:0:0:
385,259,97532,1,2,0:0:0:0:
352,272,97643,1,0,0:0:0:0:
383,256,97755,1,0,0:0:0:0:
393,251,97792,1,0,0:0:0:0:
393,251,97829,1,0,0:0:0:0:
400,242,97866,1,2,0:0:0:0:
393,225,97921,1,2,0:0:0:0:
393,225,97977,1,0,0:0:0:0:
412,262,98088,1,2,0:0:0:0:
393,225,98199,1,0,0:0:0:0:
393,225,98421,1,2,0:0:0:0:
412,262,98643,1,2,0:0:0:0:
412,262,98681,1,0,0:0:0:0:
412,262,98718,1,0,0:0:0:0:
401,267,98755,1,2,0:0:0:0:
374,290,98866,1,0,0:0:0:0:
412,262,98977,1,2,0:0:0:0:
412,262,99005,1,2,0:0:0:0:
412,262,99088,1,0,0:0:0:0:
422,228,99199,1,2,0:0:0:0:
387,232,99310,1,0,0:0:0:0:
422,228,99347,1,0,0:0:0:0:
422,228,99384,1,0,0:0:0:0:
413,235,99421,1,2,0:0:0:0:
413,235,99532,1,0,0:0:0:0:
413,235,99588,1,0,0:0:0:0:
387,232,99643,1,2,0:0:0:0:
422,228,99699,1,0,0:0:0:0:
404,229,99755,1,2,0:0:0:0:
386,230,99810,1,2,0:0:0:0:
387,232,99866,1,0,0:0:0:0:
365,204,99977,1,2,0:0:0:0:
365,204,100032,1,2,0:0:0:0:
382,206,100088,1,0,0:0:0:0:
399,208,100143,1,0,0:0:0:0:
382,215,100199,1,2,0:0:0:0:
408,192,100310,1,0,0:0:0:0:
382,206,100421,1,2,0:0:0:0:
382,206,100477,1,2,0:0:0:0:
383,223,100532,1,0,0:0:0:0:
400,253,100643,1,2,0:0:0:0:
399,208,100866,1,0,0:0:0:0:
399,208,100921,1,0,0:0:0:0:
382,215,100977,1,2,0:0:0:0:
382,206,101032,1,2,0:0:0:0:
399,207,101088,1,0,0:0:0:0:
364,207,101199,1,2,0:0:0:0:
393,225,101310,1,0,0:0:0:0:
407,234,101366,1,0,0:0:0:0:
390,240,101421,1,2,0:0:0:0:
419,221,101532,1,0,0:0:0:0:
448,202,101643,1,2,0:0:0:0:
463,192,101699,1,2,0:0:0:0:
463,192,101755,1,2,0:0:0:0:
463,192,101810,1,2,0:0:0:0:
448,202,101866,1,0,0:0:0:0:
463,192,101977,1,2,0:0:0:0:
434,171,102088,1,0,0:0:0:0:
448,202,102199,1,0,0:0:0:0:
448,202,102255,1,2,0:0:0:0:
430,199,102310,1,0,0:0:0:0:
430,199,102366,1,0,0:0:0:0:
435,215,102421,1,2,0:0:0:0:
450,183,102532,1,0,0:0:0:0:
435,215,102643,1,2,0:0:0:0:
435,215,102699,1,2,0:0:0:0:
425,229,102755,1,0,0:0:0:0:
410,219,102810,1,0,0:0:0:0:
393,243,102866,1,2,0:0:0:0:
422,223,102977,1,0,0:0:0:0:
422,223,103088,1,0,0:0:0:0:
422,223,103143,1,0,0:0:0:0:
425,229,103199,1,2,0:0:0:0:
422,223,103255,1,0,0:0:0:0:
425,229,103310,1,2,0:0:0:0:
425,229,103366,1,2,0:0:0:0:
422,223,103421,1,0,0:0:0:0:
425,229,103477,1,2,0:0:0:0:
422,223,103532,1,0,0:0:0:0:
407,213,103588,1,2,0:0:0:0:
391,220,103643,1,0,0:0:0:0:
425,229,103699,1,2,0:0:0:0:
422,223,103755,1,0,0:0:0:0:
422,223,103810,1,0,0:0:0:0:
425,229,103866,1,2,0:0:0:0:
425,229,103921,1,2,0:0:0:0:
422,223,103977,1,0,0:0:0:0:
496,232,104199,1,6,0:0:0:0:
425,229,104421,1,0,0:0:0:0:
422,223,104532,1,0,0:0:0:0:
447,246,104643,1,2,0:0:0:0:
443,210,104755,1,0,0:0:0:0:
473,211,104977,1,2,0:0:0:0:
473,211,105088,1,2,0:0:0:0:
473,211,105199,1,0,0:0:0:0:
473,211,105310,1,0,0:0:0:0:
473,211,105532,1,6,0:0:0:0:
327,236,109310,5,4,0:0:0:0:
343,303,109532,1,4,0:0:0:0:
343,303,109755,1,0,0:0:0:0:
343,303,109866,1,0,0:0:0:0:
372,284,109977,1,2,0:0:0:0:
392,255,110088,1,0,0:0:0:0:
398,220,110199,1,2,0:0:0:0:
444,194,110310,1,2,0:0:0:0:
417,217,110421,1,2,0:0:0:0:
457,160,110643,1,0,0:0:0:0:
430,183,110755,1,0,0:0:0:0:
392,255,110866,1,2,0:0:0:0:
444,194,111088,1,0,0:0:0:0:
430,183,111199,1,0,0:0:0:0:
450,155,111310,1,2,0:0:0:0:
430,183,111421,1,0,0:0:0:0:
399,166,111532,1,2,0:0:0:0:
399,166,111643,1,2,0:0:0:0:
374,190,111755,1,0,0:0:0:0:
444,194,111866,1,2,0:0:0:0:
410,205,111977,1,0,0:0:0:0:
343,181,112199,1,2,0:0:0:0:
375,192,112310,1,2,0:0:0:0:
360,223,112421,1,0,0:0:0:0:
427,240,112643,1,2,0:0:0:0:
323,297,112866,5,0,0:0:0:0:
323,297,113088,1,2,0:0:0:0:
323,297,113143,1,2,0:0:0:0:
333,282,113199,1,0,0:0:0:0:
333,282,113255,1,2,0:0:0:0:
349,286,113310,1,0,0:0:0:0:
349,286,113366,1,0,0:0:0:0:
354,269,113421,1,2,0:0:0:0:
354,269,113477,1,0,0:0:0:0:
349,286,113532,1,2,0:0:0:0:
349,286,113588,1,2,0:0:0:0:
334,276,113643,1,0,0:0:0:0:
351,279,113699,1,0,0:0:0:0:
354,269,113755,1,2,0:0:0:0:
321,256,113866,1,0,0:0:0:0:
355,251,113977,1,0,0:0:0:0:
372,251,114032,1,2,0:0:0:0:
357,260,114088,1,2,0:0:0:0:
372,251,114143,1,0,0:0:0:0:
355,251,114199,1,2,0:0:0:0:
372,251,114310,1,0,0:0:0:0:
372,251,114366,1,0,0:0:0:0:
354,269,114421,1,2,0:0:0:0:
369,280,114477,1,0,0:0:0:0:
354,269,114532,1,2,0:0:0:0:
355,251,114588,1,2,0:0:0:0:
365,264,114643,1,0,0:0:0:0:
387,197,114866,1,2,0:0:0:0:
361,220,114977,1,0,0:0:0:0:
348,231,115032,1,0,0:0:0:0:
354,269,115088,1,2,0:0:0:0:
361,284,115143,1,0,0:0:0:0:
369,280,115199,1,2,0:0:0:0:
369,280,115255,1,2,0:0:0:0:
361,220,115310,1,0,0:0:0:0:
361,220,115366,1,2,0:0:0:0:
348,231,115421,1,0,0:0:0:0:
382,225,115532,1,2,0:0:0:0:
387,197,115643,1,0,0:0:0:0:
354,269,115699,1,2,0:0:0:0:
354,269,115755,1,2,0:0:0:0:
362,235,115866,1,0,0:0:0:0:
362,235,115921,1,0,0:0:0:0:
382,225,115977,1,2,0:0:0:0:
369,280,116032,1,0,0:0:0:0:
354,269,116088,1,0,0:0:0:0:
382,225,116143,1,2,0:0:0:0:
396,214,116199,1,0,0:0:0:0:
362,235,116255,1,2,0:0:0:0:
362,235,116310,1,2,0:0:0:0:
362,235,116366,1,2,0:0:0:0:
375,224,116421,1,0,0:0:0:0:
408,212,116532,1,2,0:0:0:0:
373,206,116643,1,0,0:0:0:0:
355,203,116699,1,0,0:0:0:0:
371,196,116755,1,2,0:0:0:0:
405,190,116866,1,0,0:0:0:0:
362,235,116977,1,2,0:0:0:0:
362,235,117032,1,2,0:0:0:0:
362,235,117088,1,0,0:0:0:0:
379,265,117199,1,2,0:0:0:0:
386,230,117310,1,0,0:0:0:0:
379,265,117532,1,2,0:0:0:0:
379,265,117643,1,0,0:0:0:0:
379,265,117699,1,0,0:0:0:0:
392,254,117755,1,2,0:0:0:0:
391,253,117866,1,0,0:0:0:0:
376,243,117921,1,0,0:0:0:0:
387,220,117977,1,2,0:0:0:0:
393,272,118032,1,2,0:0:0:0:
379,265,118088,1,0,0:0:0:0:
340,244,118143,1,2,0:0:0:0:
369,250,118199,1,0,0:0:0:0:
379,265,118255,1,0,0:0:0:0:
379,265,118310,1,2,0:0:0:0:
309,240,118366,1,0,0:0:0:0:
297,253,118421,1,2,0:0:0:0:
285,266,118477,1,2,0:0:0:0:
340,244,118532,1,0,0:0:0:0:
324,250,118588,1,2,0:0:0:0:
315,234,118643,1,0,0:0:0:0:
285,266,118699,1,0,0:0:0:0:
315,234,118755,1,2,0:0:0:0:
293,230,118810,1,0,0:0:0:0:
289,254,118866,1,2,0:0:0:0:
309,240,118921,1,2,0:0:0:0:
309,240,118977,1,0,0:0:0:0:
315,234,119032,1,2,0:0:0:0:
256,192,119088,12,0,119866,0:0:0:0:
328,208,119977,5,4,0:0:0:0:
366,266,120199,1,4,0:0:0:0:
378,334,120421,1,0,0:0:0:0:
403,309,120532,1,2,0:0:0:0:
368,304,120643,1,0,0:0:0:0:
382,271,120755,1,2,0:0:0:0:
412,287,120866,1,0,0:0:0:0:
377,285,120977,1,0,0:0:0:0:
403,309,121088,1,0,0:0:0:0:
377,285,121199,1,0,0:0:0:0:
382,271,121366,1,0,0:0:0:0:
377,285,121477,1,0,0:0:0:0:
382,271,121588,1,2,0:0:0:0:
403,309,121699,1,0,0:0:0:0:
382,271,121866,1,0,0:0:0:0:
408,248,121977,1,2,0:0:0:0:
408,248,122088,1,0,0:0:0:0:
408,248,122199,1,0,0:0:0:0:
442,249,122310,1,2,0:0:0:0:
470,229,122421,1,0,0:0:0:0:
470,229,122532,1,2,0:0:0:0:
470,229,122643,1,0,0:0:0:0:
470,229,122755,1,0,0:0:0:0:
470,229,122866,1,2,0:0:0:0:
442,249,122977,1,0,0:0:0:0:
442,249,123088,1,2,0:0:0:0:
442,249,123199,1,2,0:0:0:0:
407,242,123310,1,0,0:0:0:0:
442,249,123532,1,0,0:0:0:0:
442,249,123643,1,0,0:0:0:0:
464,221,123755,1,2,0:0:0:0:
433,238,123866,1,0,0:0:0:0:
416,268,123977,1,2,0:0:0:0:
416,268,124088,1,2,0:0:0:0:
447,253,124199,1,0,0:0:0:0:
442,249,124310,1,2,0:0:0:0:
442,249,124421,1,0,0:0:0:0:
447,253,124532,1,0,0:0:0:0:
412,253,124643,1,2,0:0:0:0:
416,268,124755,1,0,0:0:0:0:
416,268,124866,1,0,0:0:0:0:
447,253,125088,1,2,0:0:0:0:
447,253,125310,1,0,0:0:0:0:
447,253,125421,1,0,0:0:0:0:
438,219,125532,1,2,0:0:0:0:
438,219,125643,1,2,0:0:0:0:
467,200,125755,1,0,0:0:0:0:
446,228,125866,1,2,0:0:0:0:
479,236,125977,1,0,0:0:0:0:
479,236,126088,1,0,0:0:0:0:
256,192,126199,12,0,126866,0:0:0:0:
270,250,127088,5,4,0:0:0:0:
327,290,127310,1,4,0:0:0:0:
396,286,127532,1,0,0:0:0:0:
386,252,127699,1,2,0:0:0:0:
364,203,127866,1,0,0:0:0:0:
369,237,127977,1,0,0:0:0:0:
386,252,128199,1,2,0:0:0:0:
395,218,128310,1,0,0:0:0:0:
395,218,128366,1,0,0:0:0:0:
395,218,128421,1,0,0:0:0:0:
386,252,128532,1,2,0:0:0:0:
412,228,128755,1,2,0:0:0:0:
460,177,128977,1,0,0:0:0:0:
442,207,129088,1,0,0:0:0:0:
442,207,129199,1,2,0:0:0:0:
472,189,129310,1,0,0:0:0:0:
472,189,129366,1,0,0:0:0:0:
472,189,129421,1,0,0:0:0:0:
441,206,129532,1,2,0:0:0:0:
415,230,129643,1,0,0:0:0:0:
442,207,129755,1,2,0:0:0:0:
442,207,129810,1,2,0:0:0:0:
425,201,129866,1,0,0:0:0:0:
425,201,129921,1,0,0:0:0:0:
472,189,129977,1,2,0:0:0:0:
425,201,130088,1,0,0:0:0:0:
390,204,130199,1,2,0:0:0:0:
412,230,130310,1,0,0:0:0:0:
423,243,130366,1,0,0:0:0:0:
406,246,130421,1,2,0:0:0:0:
461,203,130643,1,0,0:0:0:0:
425,206,130755,1,0,0:0:0:0:
459,205,130866,1,2,0:0:0:0:
484,180,130977,1,0,0:0:0:0:
484,180,131088,1,2,0:0:0:0:
484,180,131143,1,2,0:0:0:0:
498,189,131199,1,0,0:0:0:0:
461,203,131310,1,2,0:0:0:0:
431,220,131421,1,0,0:0:0:0:
465,221,131532,1,2,0:0:0:0:
465,221,131643,1,2,0:0:0:0:
461,203,131755,1,0,0:0:0:0:
494,214,131866,1,2,0:0:0:0:
498,189,131977,1,0,0:0:0:0:
467,275,132199,1,0,0:0:0:0:
467,275,132421,1,0,0:0:0:0:
467,275,132532,1,0,0:0:0:0:
441,250,132643,1,2,0:0:0:0:
441,250,132755,1,0,0:0:0:0:
441,250,132866,1,2,0:0:0:0:
441,250,132977,1,2,0:0:0:0:
412,229,133088,1,0,0:0:0:0:
442,212,133199,1,2,0:0:0:0:
415,234,133310,1,0,0:0:0:0:
389,258,133421,1,0,0:0:0:0:
412,229,133532,1,2,0:0:0:0:
412,229,133643,1,2,0:0:0:0:
380,244,133755,1,0,0:0:0:0:
448,231,133977,1,6,0:0:0:0:
448,231,134199,1,4,0:0:0:0:
448,231,134421,1,2,0:0:0:0:
448,231,134458,1,2,0:0:0:0:
448,231,134495,1,2,0:0:0:0:
442,241,134532,1,0,0:0:0:0:
457,209,134643,1,2,0:0:0:0:
457,209,134755,1,0,0:0:0:0:
457,209,134810,1,0,0:0:0:0:
441,217,134866,1,2,0:0:0:0:
441,217,134977,1,0,0:0:0:0:
433,212,135005,1,0,0:0:0:0:
427,237,135088,1,2,0:0:0:0:
458,222,135199,1,0,0:0:0:0:
427,237,135310,1,2,0:0:0:0:
427,237,135338,1,2,0:0:0:0:
401,231,135421,1,0,0:0:0:0:
435,237,135532,1,2,0:0:0:0:
435,237,135569,1,2,0:0:0:0:
435,237,135606,1,2,0:0:0:0:
441,227,135643,1,0,0:0:0:0:
475,219,135755,1,2,0:0:0:0:
427,237,135977,1,4,0:0:0:0:
359,220,136199,1,4,0:0:0:0:
376,287,136421,1,0,0:0:0:0:
376,287,136532,1,0,0:0:0:0:
403,265,136643,1,2,0:0:0:0:
427,237,136755,1,0,0:0:0:0:
427,237,136866,1,2,0:0:0:0:
427,237,136977,1,2,0:0:0:0:
427,237,137088,1,2,0:0:0:0:
397,218,137199,1,2,0:0:0:0:
431,224,137310,1,0,0:0:0:0:
408,251,137477,1,0,0:0:0:0:
377,234,137643,1,0,0:0:0:0:
311,259,137866,1,0,0:0:0:0:
342,274,137977,1,0,0:0:0:0:
376,272,138088,1,2,0:0:0:0:
342,274,138199,1,0,0:0:0:0:
376,272,138310,1,2,0:0:0:0:
389,304,138421,1,2,0:0:0:0:
409,275,138532,1,0,0:0:0:0:
409,275,138643,1,2,0:0:0:0:
409,275,138699,1,2,0:0:0:0:
409,275,138755,1,2,0:0:0:0:
431,247,138866,1,0,0:0:0:0:
400,230,138977,1,2,0:0:0:0:
431,247,139088,1,0,0:0:0:0:
431,247,139143,1,0,0:0:0:0:
433,229,139199,1,2,0:0:0:0:
433,229,139255,1,2,0:0:0:0:
449,235,139310,1,0,0:0:0:0:
400,230,139532,1,4,0:0:0:0:
397,300,139755,1,4,0:0:0:0:
387,230,139977,1,0,0:0:0:0:
449,235,140143,1,2,0:0:0:0:
449,235,140310,1,2,0:0:0:0:
449,235,140421,1,0,0:0:0:0:
449,235,140532,1,0,0:0:0:0:
449,235,140643,1,2,0:0:0:0:
470,207,140755,1,0,0:0:0:0:
449,235,140866,1,2,0:0:0:0:
449,235,140921,1,2,0:0:0:0:
449,235,140977,1,2,0:0:0:0:
449,235,141088,1,0,0:0:0:0:
419,254,141199,1,2,0:0:0:0:
452,265,141310,1,0,0:0:0:0:
417,256,141421,1,0,0:0:0:0:
385,241,141532,1,2,0:0:0:0:
419,254,141643,1,0,0:0:0:0:
452,265,141755,1,2,0:0:0:0:
452,265,141810,1,2,0:0:0:0:
434,262,141866,1,0,0:0:0:0:
385,241,141977,1,2,0:0:0:0:
354,258,142088,1,0,0:0:0:0:
352,223,142199,1,2,0:0:0:0:
352,223,142255,1,2,0:0:0:0:
360,238,142310,1,0,0:0:0:0:
360,238,142366,1,0,0:0:0:0:
372,249,142421,1,2,0:0:0:0:
390,219,142532,1,0,0:0:0:0:
434,262,142643,1,2,0:0:0:0:
385,241,142755,1,0,0:0:0:0:
374,274,142866,1,2,0:0:0:0:
434,262,142977,1,0,0:0:0:0:
434,262,143088,1,2,0:0:0:0:
434,262,143116,1,2,0:0:0:0:
434,262,143199,1,0,0:0:0:0:
434,262,143310,1,2,0:0:0:0:
434,262,143421,1,0,0:0:0:0:
434,262,143458,1,0,0:0:0:0:
434,262,143495,1,0,0:0:0:0:
444,257,143532,1,2,0:0:0:0:
412,271,143643,1,0,0:0:0:0:
412,262,143671,1,0,0:0:0:0:
434,262,143755,1,2,0:0:0:0:
412,262,143866,1,0,0:0:0:0:
434,262,144088,1,0,0:0:0:0:
434,262,144143,1,0,0:0:0:0:
416,263,144199,1,2,0:0:0:0:
450,258,144310,1,0,0:0:0:0:
434,262,144421,1,2,0:0:0:0:
434,262,144449,1,2,0:0:0:0:
453,244,144532,1,0,0:0:0:0:
436,212,144643,1,2,0:0:0:0:
424,212,144681,1,0,0:0:0:0:
412,212,144718,1,0,0:0:0:0:
423,212,144755,1,2,0:0:0:0:
435,244,144866,1,0,0:0:0:0:
441,260,144921,1,0,0:0:0:0:
452,246,144977,1,2,0:0:0:0:
464,233,145032,1,0,0:0:0:0:
447,238,145088,1,2,0:0:0:0:
430,243,145143,1,2,0:0:0:0:
413,248,145199,1,0,0:0:0:0:
390,274,145310,1,2,0:0:0:0:
397,239,145421,1,0,0:0:0:0:
397,239,145449,1,0,0:0:0:0:
374,225,145532,1,2,0:0:0:0:
435,244,145643,1,0,0:0:0:0:
430,243,145755,1,2,0:0:0:0:
430,243,145792,1,2,0:0:0:0:
430,243,145829,1,2,0:0:0:0:
438,251,145866,1,0,0:0:0:0:
427,237,145921,1,0,0:0:0:0:
422,253,145977,1,2,0:0:0:0:
435,244,146088,1,0,0:0:0:0:
435,244,146199,1,0,0:0:0:0:
435,244,146255,1,0,0:0:0:0:
435,244,146310,1,2,0:0:0:0:
419,252,146366,1,0,0:0:0:0:
401,251,146421,1,2,0:0:0:0:
383,251,146477,1,2,0:0:0:0:
399,244,146532,1,0,0:0:0:0:
431,230,146643,1,2,0:0:0:0:
419,252,146866,1,2,0:0:0:0:
444,228,146977,1,0,0:0:0:0:
431,230,147088,1,2,0:0:0:0:
431,230,147143,1,2,0:0:0:0:
431,230,147199,1,0,0:0:0:0:
427,247,147255,1,0,0:0:0:0:
410,240,147310,1,2,0:0:0:0:
431,230,147421,1,0,0:0:0:0:
405,253,147532,1,2,0:0:0:0:
419,252,147569,1,0,0:0:0:0:
419,252,147606,1,0,0:0:0:0:
431,230,147643,1,2,0:0:0:0:
427,247,147755,1,0,0:0:0:0:
415,234,147810,1,2,0:0:0:0:
431,230,147866,1,0,0:0:0:0:
413,230,147977,1,2,0:0:0:0:
429,223,148032,1,0,0:0:0:0:
413,215,148088,1,2,0:0:0:0:
399,225,148143,1,0,0:0:0:0:
389,240,148199,1,0,0:0:0:0:
420,254,148310,1,2,0:0:0:0:
431,230,148421,1,0,0:0:0:0:
427,247,148477,1,0,0:0:0:0:
398,247,148532,1,2,0:0:0:0:
415,234,148588,1,0,0:0:0:0:
398,247,148643,1,2,0:0:0:0:
398,247,148699,1,2,0:0:0:0:
398,247,148755,1,0,0:0:0:0:
398,247,148810,1,2,0:0:0:0:
366,263,148866,1,0,0:0:0:0:
366,263,148921,1,0,0:0:0:0:
398,247,148977,1,2,0:0:0:0:
398,247,149032,1,2,0:0:0:0:
366,263,149088,1,0,0:0:0:0:
403,321,149310,1,0,0:0:0:0:
349,275,149532,1,0,0:0:0:0:
349,275,150199,1,0,0:0:0:0:
403,231,150421,1,2,0:0:0:0:
376,254,150532,1,2,0:0:0:0:
389,226,150643,1,0,0:0:0:0:
366,296,150866,1,2,0:0:0:0:
386,267,150977,1,2,0:0:0:0:
386,267,151088,1,0,0:0:0:0:
382,301,151199,1,0,0:0:0:0:
407,239,151310,1,2,0:0:0:0:
456,189,151532,1,0,0:0:0:0:
427,209,151643,1,0,0:0:0:0:
440,241,151755,1,2,0:0:0:0:
436,208,152866,1,2,0:0:0:0:
436,208,153088,1,2,0:0:0:0:
436,208,153310,1,2,0:0:0:0:
432,233,153532,1,6,0:0:0:0:
387,258,153755,1,0,0:0:0:0:
375,270,153810,1,0,0:0:0:0:
366,254,153866,1,2,0:0:0:0:
400,247,153977,1,0,0:0:0:0:
432,233,154088,1,2,0:0:0:0:
432,233,154143,1,2,0:0:0:0:
433,250,154199,1,0,0:0:0:0:
432,233,154310,1,2,0:0:0:0:
432,233,154421,1,0,0:0:0:0:
466,229,154532,1,2,0:0:0:0:
400,247,154643,1,0,0:0:0:0:
400,247,154699,1,0,0:0:0:0:
412,234,154755,1,2,0:0:0:0:
412,234,154810,1,2,0:0:0:0:
433,250,154866,1,0,0:0:0:0:
466,229,154977,1,2,0:0:0:0:
448,259,155088,1,0,0:0:0:0:
433,250,155199,1,2,0:0:0:0:
402,266,155310,1,0,0:0:0:0:
402,266,155366,1,0,0:0:0:0:
414,253,155421,1,2,0:0:0:0:
433,250,155532,1,0,0:0:0:0:
433,250,155588,1,0,0:0:0:0:
415,246,155643,1,2,0:0:0:0:
399,237,155699,1,2,0:0:0:0:
389,221,155755,1,0,0:0:0:0:
365,246,155866,1,2,0:0:0:0:
399,237,155977,1,0,0:0:0:0:
412,226,156032,1,2,0:0:0:0:
424,213,156088,1,0,0:0:0:0:
414,246,156199,1,2,0:0:0:0:
381,258,156310,1,0,0:0:0:0:
424,213,156421,1,2,0:0:0:0:
424,213,156477,1,2,0:0:0:0:
424,213,156532,1,0,0:0:0:0:
424,213,156588,1,0,0:0:0:0:
407,217,156643,1,2,0:0:0:0:
373,227,156755,1,2,0:0:0:0:
373,227,156810,1,2,0:0:0:0:
389,222,156866,1,0,0:0:0:0:
424,213,156977,1,0,0:0:0:0:
405,242,157088,1,2,0:0:0:0:
416,172,157310,1,0,0:0:0:0:
411,189,157366,1,0,0:0:0:0:
418,204,157421,1,2,0:0:0:0:
425,219,157477,1,2,0:0:0:0:
424,213,157532,1,0,0:0:0:0:
446,239,157643,1,2,0:0:0:0:
449,203,157755,1,0,0:0:0:0:
449,203,157810,1,0,0:0:0:0:
425,219,157866,1,2,0:0:0:0:
425,219,157977,1,0,0:0:0:0:
425,219,158088,1,2,0:0:0:0:
449,203,158199,1,0,0:0:0:0:
449,203,158255,1,2,0:0:0:0:
431,200,158310,1,0,0:0:0:0:
413,197,158366,1,0,0:0:0:0:
406,213,158421,1,2,0:0:0:0:
449,203,158532,1,0,0:0:0:0:
425,219,158643,1,2,0:0:0:0:
425,219,158699,1,2,0:0:0:0:
410,228,158755,1,0,0:0:0:0:
397,239,158810,1,0,0:0:0:0:
383,227,158866,1,2,0:0:0:0:
356,249,158977,1,0,0:0:0:0:
390,247,159088,1,2,0:0:0:0:
373,242,159143,1,0,0:0:0:0:
360,229,159199,1,2,0:0:0:0:
347,216,159255,1,2,0:0:0:0:
397,239,159310,1,0,0:0:0:0:
356,249,159421,1,2,0:0:0:0:
360,229,159532,1,0,0:0:0:0:
342,233,159588,1,0,0:0:0:0:
356,249,159643,1,2,0:0:0:0:
358,214,159755,1,0,0:0:0:0:
391,203,159866,1,2,0:0:0:0:
397,239,159977,1,0,0:0:0:0:
397,239,160032,1,0,0:0:0:0:
408,225,160088,1,2,0:0:0:0:
410,207,160143,1,0,0:0:0:0:
418,224,160199,1,6,0:0:0:0:
408,225,160421,1,2,0:0:0:0:
408,225,160477,1,2,0:0:0:0:
358,214,160532,1,0,0:0:0:0:
358,214,160588,1,0,0:0:0:0:
347,255,160643,1,6,0:0:0:0:
327,284,160866,1,0,0:0:0:0:
347,255,160977,1,0,0:0:0:0:
347,255,161032,1,0,0:0:0:0:
363,260,161088,1,2,0:0:0:0:
368,227,161199,1,0,0:0:0:0:
363,260,161310,1,2,0:0:0:0:
363,260,161366,1,2,0:0:0:0:
349,249,161421,1,0,0:0:0:0:
331,247,161477,1,0,0:0:0:0:
331,247,161532,1,2,0:0:0:0:
310,275,161643,1,0,0:0:0:0:
347,255,161755,1,2,0:0:0:0:
347,255,161810,1,2,0:0:0:0:
363,260,161866,1,0,0:0:0:0:
397,258,161977,1,2,0:0:0:0:
411,226,162088,1,0,0:0:0:0:
411,226,162143,1,0,0:0:0:0:
394,232,162199,1,2,0:0:0:0:
377,238,162255,1,2,0:0:0:0:
393,242,162310,1,0,0:0:0:0:
347,255,162421,1,2,0:0:0:0:
411,227,162643,1,0,0:0:0:0:
387,252,162755,1,0,0:0:0:0:
365,220,162866,1,6,0:0:0:0:
393,242,163088,1,0,0:0:0:0:
365,220,163199,1,0,0:0:0:0:
401,218,163310,1,6,0:0:0:0:
404,206,163532,1,0,0:0:0:0:
386,204,163588,1,0,0:0:0:0:
390,187,163643,1,2,0:0:0:0:
386,204,163755,1,0,0:0:0:0:
386,204,163866,1,0,0:0:0:0:
366,233,163977,1,2,0:0:0:0:
386,204,164088,1,0,0:0:0:0:
358,225,164199,1,2,0:0:0:0:
341,256,164310,1,2,0:0:0:0:
372,241,164421,1,0,0:0:0:0:
405,232,164532,1,2,0:0:0:0:
433,212,164643,1,0,0:0:0:0:
433,212,164699,1,0,0:0:0:0:
428,229,164755,1,2,0:0:0:0:
462,225,164866,1,0,0:0:0:0:
433,212,164977,1,2,0:0:0:0:
433,212,165032,1,2,0:0:0:0:
437,229,165088,1,0,0:0:0:0:
441,245,165143,1,0,0:0:0:0:
452,231,165199,1,2,0:0:0:0:
441,245,165310,1,0,0:0:0:0:
441,245,165366,1,0,0:0:0:0:
423,243,165421,1,2,0:0:0:0:
405,242,165477,1,2,0:0:0:0:
414,256,165532,1,0,0:0:0:0:
426,243,165588,1,2,0:0:0:0:
405,242,165643,1,0,0:0:0:0:
414,256,165755,1,2,0:0:0:0:
414,256,165810,1,2,0:0:0:0:
430,248,165866,1,0,0:0:0:0:
452,231,165977,1,2,0:0:0:0:
425,207,166088,1,2,0:0:0:0:
450,231,166199,1,0,0:0:0:0:
475,254,166310,1,0,0:0:0:0:
405,242,166421,1,6,0:0:0:0:
430,248,166643,1,0,0:0:0:0:
450,231,166755,1,0,0:0:0:0:
413,227,166866,1,6,0:0:0:0:
477,299,167088,1,0,0:0:0:0:
447,276,167199,1,6,0:0:0:0:
373,306,167421,1,0,0:0:0:0:
395,245,167532,1,6,0:0:0:0:
364,262,167755,1,4,0:0:0:0:
373,306,167977,1,0,0:0:0:0:
373,306,168032,1,0,0:0:0:0:
373,306,168088,1,2,0:0:0:0:
373,306,168143,1,2,0:0:0:0:
388,298,168199,1,0,0:0:0:0:
388,280,168255,1,2,0:0:0:0:
370,282,168310,1,0,0:0:0:0:
341,261,168421,1,2,0:0:0:0:
341,261,168477,1,2,0:0:0:0:
388,280,168532,1,0,0:0:0:0:
370,275,168588,1,0,0:0:0:0:
395,245,168643,1,2,0:0:0:0:
364,262,168755,1,0,0:0:0:0:
392,241,168866,1,2,0:0:0:0:
393,230,168921,1,2,0:0:0:0:
410,228,168977,1,0,0:0:0:0:
393,230,169088,1,2,0:0:0:0:
375,234,169143,1,0,0:0:0:0:
375,234,169199,1,0,0:0:0:0:
410,228,169310,1,2,0:0:0:0:
375,234,169366,1,0,0:0:0:0:
375,234,169421,1,0,0:0:0:0:
375,234,169477,1,0,0:0:0:0:
358,237,169532,1,2,0:0:0:0:
366,212,169643,1,2,0:0:0:0:
399,201,169755,1,0,0:0:0:0:
415,196,169810,1,0,0:0:0:0:
415,196,169866,1,2,0:0:0:0:
413,161,169977,1,0,0:0:0:0:
413,161,170032,1,0,0:0:0:0:
399,171,170088,1,2,0:0:0:0:
366,212,170199,1,0,0:0:0:0:
366,212,170310,1,2,0:0:0:0:
366,212,170366,1,2,0:0:0:0:
399,171,170421,1,0,0:0:0:0:
399,171,170477,1,0,0:0:0:0:
384,180,170532,1,2,0:0:0:0:
366,212,170643,1,0,0:0:0:0:
366,212,170699,1,0,0:0:0:0:
366,212,170755,1,2,0:0:0:0:
349,215,170810,1,0,0:0:0:0:
336,202,170866,1,2,0:0:0:0:
336,202,170921,1,2,0:0:0:0:
349,190,170977,1,0,0:0:0:0:
366,191,171032,1,2,0:0:0:0:
383,193,171088,1,0,0:0:0:0:
411,213,171199,1,2,0:0:0:0:
443,201,171310,1,0,0:0:0:0:
383,193,171347,1,0,0:0:0:0:
419,226,171421,1,2,0:0:0:0:
383,193,171532,1,0,0:0:0:0:
383,193,171588,1,0,0:0:0:0:
366,191,171643,1,2,0:0:0:0:
366,191,171699,1,2,0:0:0:0:
366,191,171755,1,0,0:0:0:0:
373,206,171810,1,2,0:0:0:0:
411,213,171866,1,0,0:0:0:0:
393,243,171977,1,2,0:0:0:0:
393,243,172032,1,2,0:0:0:0:
376,235,172088,1,0,0:0:0:0:
402,212,172199,1,2,0:0:0:0:
395,228,172255,1,0,0:0:0:0:
388,244,172310,1,0,0:0:0:0:
376,235,172421,1,2,0:0:0:0:
376,235,172532,1,0,0:0:0:0:
376,235,172588,1,0,0:0:0:0:
360,242,172643,1,2,0:0:0:0:
376,235,172755,1,0,0:0:0:0:
376,235,172810,1,0,0:0:0:0:
359,242,172866,1,2,0:0:0:0:
343,249,172921,1,2,0:0:0:0:
359,242,172977,1,0,0:0:0:0:
373,210,173088,1,2,0:0:0:0:
338,217,173199,1,0,0:0:0:0:
338,217,173310,1,2,0:0:0:0:
321,222,173366,1,2,0:0:0:0:
312,237,173421,1,0,0:0:0:0:
321,222,173532,1,2,0:0:0:0:
304,216,173588,1,0,0:0:0:0:
373,210,173643,1,2,0:0:0:0:
338,217,173755,1,0,0:0:0:0:
338,217,173810,1,0,0:0:0:0:
355,216,173866,1,2,0:0:0:0:
343,202,173921,1,2,0:0:0:0:
304,216,173977,1,0,0:0:0:0:
321,222,174088,1,2,0:0:0:0:
304,216,174199,1,0,0:0:0:0:
304,216,174236,1,0,0:0:0:0:
304,216,174273,1,0,0:0:0:0:
292,218,174310,1,2,0:0:0:0:
274,221,174366,1,0,0:0:0:0:
263,235,174421,1,2,0:0:0:0:
355,216,174532,1,0,0:0:0:0:
373,201,174643,1,2,0:0:0:0:
389,210,174699,1,0,0:0:0:0:
373,201,174755,1,2,0:0:0:0:
342,183,174866,1,2,0:0:0:0:
388,235,175088,1,0,0:0:0:0:
376,222,175143,1,0,0:0:0:0:
388,235,175199,1,2,0:0:0:0:
390,217,175255,1,0,0:0:0:0:
372,219,175310,1,2,0:0:0:0:
354,221,175366,1,2,0:0:0:0:
371,223,175421,1,0,0:0:0:0:
388,235,175532,1,2,0:0:0:0:
354,221,175643,1,0,0:0:0:0:
345,222,175671,1,0,0:0:0:0:
371,223,175755,1,2,0:0:0:0:
403,236,175866,1,0,0:0:0:0:
417,204,175977,1,2,0:0:0:0:
417,204,176032,1,2,0:0:0:0:
432,196,176088,1,0,0:0:0:0:
432,196,176143,1,0,0:0:0:0:
418,185,176199,1,2,0:0:0:0:
388,235,176310,1,0,0:0:0:0:
388,235,176366,1,0,0:0:0:0:
418,185,176421,1,2,0:0:0:0:
432,196,176532,1,0,0:0:0:0:
400,210,176643,1,2,0:0:0:0:
388,235,176699,1,2,0:0:0:0:
400,210,176755,1,0,0:0:0:0:
369,226,176866,1,2,0:0:0:0:
395,203,176977,1,0,0:0:0:0:
418,185,177032,1,0,0:0:0:0:
400,210,177088,1,2,0:0:0:0:
400,210,177143,1,2,0:0:0:0:
411,196,177199,1,0,0:0:0:0:
427,226,177310,1,2,0:0:0:0:
400,210,177421,1,0,0:0:0:0:
400,210,177477,1,0,0:0:0:0:
400,192,177532,1,2,0:0:0:0:
427,226,177643,1,0,0:0:0:0:
400,210,177755,1,2,0:0:0:0:
400,210,177810,1,2,0:0:0:0:
384,202,177866,1,0,0:0:0:0:
384,202,177921,1,0,0:0:0:0:
371,214,177977,1,2,0:0:0:0:
400,210,178088,1,0,0:0:0:0:
371,214,178199,1,2,0:0:0:0:
400,210,178310,1,0,0:0:0:0:
400,210,178347,1,0,0:0:0:0:
400,210,178384,1,0,0:0:0:0:
384,202,178421,1,2,0:0:0:0:
349,210,178532,1,0,0:0:0:0:
384,202,178569,1,0,0:0:0:0:
384,202,178606,1,0,0:0:0:0:
372,199,178643,1,2,0:0:0:0:
406,193,178755,1,0,0:0:0:0:
404,210,178810,1,0,0:0:0:0:
349,210,178866,1,2,0:0:0:0:
360,196,178921,1,2,0:0:0:0:
371,214,178977,1,0,0:0:0:0:
406,193,179088,1,2,0:0:0:0:
400,210,179143,1,2,0:0:0:0:
416,203,179199,1,0,0:0:0:0:
428,170,179310,1,2,0:0:0:0:
384,202,179366,1,0,0:0:0:0:
406,193,179421,1,0,0:0:0:0:
394,226,179532,1,0,0:0:0:0:
388,242,179588,1,0,0:0:0:0:
400,230,179643,1,2,0:0:0:0:
391,214,179699,1,2,0:0:0:0:
408,212,179755,1,0,0:0:0:0:
400,196,179810,1,2,0:0:0:0:
388,242,179866,1,0,0:0:0:0:
416,221,179977,1,2,0:0:0:0:
413,203,180032,1,0,0:0:0:0:
384,202,180088,1,2,0:0:0:0:
404,173,180199,1,0,0:0:0:0:
416,221,180310,1,2,0:0:0:0:
384,202,180421,1,0,0:0:0:0:
400,196,180477,1,2,0:0:0:0:
383,192,180532,1,0,0:0:0:0:
365,188,180588,1,0,0:0:0:0:
384,202,180643,1,2,0:0:0:0:
357,178,180755,1,0,0:0:0:0:
342,146,180866,1,2,0:0:0:0:
342,146,180921,1,2,0:0:0:0:
356,156,180977,1,0,0:0:0:0:
342,146,181032,1,2,0:0:0:0:
358,140,181088,1,0,0:0:0:0:
358,140,181143,1,0,0:0:0:0:
351,156,181199,1,2,0:0:0:0:
358,140,181255,1,0,0:0:0:0:
256,192,181310,12,0,181977,0:0:0:0:
364,231,182199,5,4,0:0:0:0:
425,237,182421,1,2,0:0:0:0:
425,237,182532,1,2,0:0:0:0:
428,202,182643,1,0,0:0:0:0:
364,231,182866,1,2,0:0:0:0:
433,231,183088,1,0,0:0:0:0:
415,231,183143,1,0,0:0:0:0:
397,231,183199,1,0,0:0:0:0:
428,216,183310,1,2,0:0:0:0:
433,231,183421,1,0,0:0:0:0:
455,204,183532,1,2,0:0:0:0:
509,190,183755,1,4,0:0:0:0:
455,204,183977,1,2,0:0:0:0:
455,204,184032,1,2,0:0:0:0:
465,189,184088,1,0,0:0:0:0:
432,202,184199,1,2,0:0:0:0:
457,178,184310,1,0,0:0:0:0:
455,204,184421,1,2,0:0:0:0:
465,189,184532,1,0,0:0:0:0:
465,189,184588,1,0,0:0:0:0:
465,189,184643,1,2,0:0:0:0:
487,216,184755,1,0,0:0:0:0:
487,216,184866,1,2,0:0:0:0:
487,216,184921,1,2,0:0:0:0:
465,189,184977,1,0,0:0:0:0:
465,189,185032,1,0,0:0:0:0:
482,186,185088,1,2,0:0:0:0:
455,204,185199,1,0,0:0:0:0:
427,224,185310,1,2,0:0:0:0:
406,172,185532,1,4,0:0:0:0:
482,186,185755,1,2,0:0:0:0:
482,186,185810,1,2,0:0:0:0:
474,202,185866,1,0,0:0:0:0:
471,167,185977,1,2,0:0:0:0:
442,187,186088,1,0,0:0:0:0:
442,187,186199,1,0,0:0:0:0:
442,187,186310,1,0,0:0:0:0:
442,187,186366,1,0,0:0:0:0:
471,167,186421,1,2,0:0:0:0:
436,172,186532,1,0,0:0:0:0:
436,172,186643,1,2,0:0:0:0:
436,172,186699,1,2,0:0:0:0:
436,172,186755,1,0,0:0:0:0:
436,172,186810,1,0,0:0:0:0:
418,176,186866,1,2,0:0:0:0:
418,176,186977,1,0,0:0:0:0:
442,187,187088,1,2,0:0:0:0:
407,184,187199,1,0,0:0:0:0:
440,175,187310,1,2,0:0:0:0:
418,176,187366,1,2,0:0:0:0:
436,172,187421,1,0,0:0:0:0:
418,174,187477,1,0,0:0:0:0:
436,172,187532,1,2,0:0:0:0:
404,186,187643,1,0,0:0:0:0:
418,176,187755,1,2,0:0:0:0:
440,175,187866,1,0,0:0:0:0:
440,175,187921,1,0,0:0:0:0:
428,188,187977,1,2,0:0:0:0:
404,186,188088,1,0,0:0:0:0:
440,175,188199,1,2,0:0:0:0:
416,200,188310,1,0,0:0:0:0:
418,176,188421,1,2,0:0:0:0:
418,176,188477,1,2,0:0:0:0:
404,186,188532,1,0,0:0:0:0:
404,186,188588,1,0,0:0:0:0:
420,192,188643,1,2,0:0:0:0:
436,198,188699,1,2,0:0:0:0:
436,198,188755,1,2,0:0:0:0:
436,198,188810,1,2,0:0:0:0:
438,215,188866,1,0,0:0:0:0:
368,223,189088,1,2,0:0:0:0:
335,276,189310,1,4,0:0:0:0:
368,223,189532,1,2,0:0:0:0:
368,223,189643,1,2,0:0:0:0:
334,212,189755,1,0,0:0:0:0:
320,280,189977,1,2,0:0:0:0:
368,223,190199,1,0,0:0:0:0:
368,223,190310,1,0,0:0:0:0:
368,223,190421,1,2,0:0:0:0:
368,223,190532,1,2,0:0:0:0:
368,223,190643,1,0,0:0:0:0:
393,200,190866,1,6,0:0:0:0:
419,176,191088,1,0,0:0:0:0:
393,200,191199,1,0,0:0:0:0:
426,210,191310,1,2,0:0:0:0:
393,200,191421,1,0,0:0:0:0:
393,200,191532,1,2,0:0:0:0:
393,200,191643,1,2,0:0:0:0:
379,167,191755,1,0,0:0:0:0:
379,236,191977,1,2,0:0:0:0:
408,216,192088,1,2,0:0:0:0:
436,236,192199,1,0,0:0:0:0:
408,216,192421,1,6,0:0:0:0:
408,216,192643,1,4,0:0:0:0:
408,216,192866,1,2,0:0:0:0:
408,216,192921,1,2,0:0:0:0:
416,231,192977,1,0,0:0:0:0:
386,249,193088,1,2,0:0:0:0:
408,216,193199,1,0,0:0:0:0:
412,250,193310,1,0,0:0:0:0:
412,250,193366,1,0,0:0:0:0:
397,258,193421,1,2,0:0:0:0:
386,249,193532,1,0,0:0:0:0:
386,249,193643,1,2,0:0:0:0:
416,231,193755,1,0,0:0:0:0:
412,250,193810,1,0,0:0:0:0:
398,260,193866,1,2,0:0:0:0:
384,270,193921,1,2,0:0:0:0:
367,274,193977,1,0,0:0:0:0:
365,239,194088,1,2,0:0:0:0:
365,239,194199,1,0,0:0:0:0:
330,236,194310,1,2,0:0:0:0:
330,236,194421,1,0,0:0:0:0:
365,239,194532,1,2,0:0:0:0:
365,239,194643,1,0,0:0:0:0:
365,239,194699,1,0,0:0:0:0:
365,239,194755,1,2,0:0:0:0:
365,239,194810,1,2,0:0:0:0:
352,226,194866,1,0,0:0:0:0:
324,246,194977,1,2,0:0:0:0:
330,236,195088,1,0,0:0:0:0:
330,236,195143,1,0,0:0:0:0:
346,228,195199,1,2,0:0:0:0:
380,222,195310,1,0,0:0:0:0:
345,214,195421,1,2,0:0:0:0:
380,222,195532,1,0,0:0:0:0:
380,222,195588,1,0,0:0:0:0:
365,232,195643,1,2,0:0:0:0:
369,214,195699,1,2,0:0:0:0:
345,214,195755,1,0,0:0:0:0:
345,214,195810,1,0,0:0:0:0:
346,228,195866,1,2,0:0:0:0:
346,228,195921,1,2,0:0:0:0:
346,228,195977,1,2,0:0:0:0:
365,232,196032,1,2,0:0:0:0:
381,226,196088,1,0,0:0:0:0:
369,214,196199,1,2,0:0:0:0:
380,222,196310,1,0,0:0:0:0:
360,193,196421,1,2,0:0:0:0:
418,230,196643,1,0,0:0:0:0:
350,209,196866,1,0,0:0:0:0:
316,199,196977,1,0,0:0:0:0:
350,199,197088,1,2,0:0:0:0:
340,268,197310,1,0,0:0:0:0:
340,268,197366,1,0,0:0:0:0:
340,268,197421,1,0,0:0:0:0:
365,244,197532,1,2,0:0:0:0:
425,279,197755,1,0,0:0:0:0:
395,261,197866,1,0,0:0:0:0:
413,231,197977,1,2,0:0:0:0:
473,195,198199,1,0,0:0:0:0:
455,196,198255,1,0,0:0:0:0:
438,198,198310,1,0,0:0:0:0:
473,195,198421,1,2,0:0:0:0:
403,204,198643,1,0,0:0:0:0:
368,208,198755,1,0,0:0:0:0:
392,232,198866,1,2,0:0:0:0:
403,204,199088,1,0,0:0:0:0:
403,204,199199,1,0,0:0:0:0:
430,225,199310,1,2,0:0:0:0:
403,204,199421,1,0,0:0:0:0:
437,211,199532,1,2,0:0:0:0:
437,211,199588,1,2,0:0:0:0:
437,211,199643,1,2,0:0:0:0:
437,211,199699,1,2,0:0:0:0:
427,196,199755,1,0,0:0:0:0:
427,265,199977,1,0,0:0:0:0:
427,265,200088,1,0,0:0:0:0:
450,239,200199,1,2,0:0:0:0:
450,239,200421,1,0,0:0:0:0:
450,239,200477,1,0,0:0:0:0:
450,239,200532,1,0,0:0:0:0:
417,251,200643,1,2,0:0:0:0:
450,239,200866,1,0,0:0:0:0:
450,239,200977,1,0,0:0:0:0:
421,218,201088,1,2,0:0:0:0:
472,170,201310,1,0,0:0:0:0:
459,182,201366,1,0,0:0:0:0:
459,182,201421,1,0,0:0:0:0:
428,199,201532,1,2,0:0:0:0:
459,182,201755,1,0,0:0:0:0:
459,182,201866,1,0,0:0:0:0:
425,192,201977,1,2,0:0:0:0:
349,186,202199,1,6,0:0:0:0:
431,186,202310,1,0,0:0:0:0:
404,183,202421,1,6,0:0:0:0:
448,216,202532,1,0,0:0:0:0:
448,216,202643,1,2,0:0:0:0:
448,216,202699,1,2,0:0:0:0:
448,216,202755,1,0,0:0:0:0:
431,186,202866,1,2,0:0:0:0:
448,216,202977,1,0,0:0:0:0:
448,216,203032,1,0,0:0:0:0:
431,186,203088,1,2,0:0:0:0:
462,171,203199,1,0,0:0:0:0:
437,196,203310,1,2,0:0:0:0:
406,213,203421,1,2,0:0:0:0:
404,183,203532,1,0,0:0:0:0:
291,214,210643,5,0,0:0:0:0:
291,214,210865,1,8,0:0:0:0:
291,214,211087,1,0,0:0:0:0:
291,214,211199,1,8,0:0:0:0:
116,121,211421,1,0,0:0:0:0:
291,214,211532,1,8,0:0:0:0:
71,152,211643,1,0,0:0:0:0:
106,155,211755,1,0,0:0:0:0:
291,214,211865,1,8,0:0:0:0:
71,152,212087,1,0,0:0:0:0:
291,214,212199,1,8,0:0:0:0:
305,182,212310,1,0,0:0:0:0:
136,194,212421,1,0,0:0:0:0:
136,194,212532,1,8,0:0:0:0:
136,194,212643,1,0,0:0:0:0:
136,194,212754,1,8,0:0:0:0:
80,137,212976,1,8,0:0:0:0:
80,137,213087,1,0,0:0:0:0:
191,160,213310,1,8,0:0:0:0:
191,160,213532,1,0,0:0:0:0:
191,160,213643,1,8,0:0:0:0:
223,174,213755,1,0,0:0:0:0:
191,160,213976,1,8,0:0:0:0:
258,180,214199,1,0,0:0:0:0:
323,203,214421,1,0,0:0:0:0:
209,148,214643,1,8,0:0:0:0:
213,149,214865,1,0,0:0:0:0:
209,148,214976,1,8,0:0:0:0:
44,196,215087,1,0,0:0:0:0:
73,158,215143,1,0,0:0:0:0:
73,158,215199,1,8,0:0:0:0:
209,148,215254,1,8,0:0:0:0:
73,158,215310,1,0,0:0:0:0:
209,148,215421,1,0,0:0:0:0:
213,149,215532,1,12,0:0:0:0:
209,148,215977,1,0,0:0:0:0:
209,148,216032,1,0,0:0:0:0:
226,149,216088,1,2,0:0:0:0:
247,176,216199,1,0,0:0:0:0:
239,141,216310,1,2,0:0:0:0:
229,156,216366,1,0,0:0:0:0:
219,170,216421,1,2,0:0:0:0:
219,170,216477,1,2,0:0:0:0:
234,178,216532,1,0,0:0:0:0:
267,169,216643,1,2,0:0:0:0:
267,169,216755,1,0,0:0:0:0:
267,169,216866,1,0,0:0:0:0:
267,169,216921,1,0,0:0:0:0:
283,162,216977,1,2,0:0:0:0:
297,152,217032,1,0,0:0:0:0:
287,166,217088,1,2,0:0:0:0:
277,180,217143,1,2,0:0:0:0:
267,169,217199,1,0,0:0:0:0:
297,151,217310,1,2,0:0:0:0:
278,180,217421,1,0,0:0:0:0:
287,166,217477,1,0,0:0:0:0:
301,153,217532,1,2,0:0:0:0:
267,169,217588,1,2,0:0:0:0:
253,179,217643,1,0,0:0:0:0:
283,162,217755,1,2,0:0:0:0:
287,166,217810,1,2,0:0:0:0:
284,183,217866,1,0,0:0:0:0:
317,193,217977,1,2,0:0:0:0:
341,168,218088,1,0,0:0:0:0:
348,183,218143,1,2,0:0:0:0:
346,200,218199,1,0,0:0:0:0:
348,217,218255,1,0,0:0:0:0:
348,183,218310,1,2,0:0:0:0:
319,161,218421,1,0,0:0:0:0:
348,217,218532,1,2,0:0:0:0:
346,200,218643,1,0,0:0:0:0:
346,200,218699,1,0,0:0:0:0:
346,200,218755,1,0,0:0:0:0:
346,200,218810,1,2,0:0:0:0:
346,200,218866,1,0,0:0:0:0:
348,183,218921,1,2,0:0:0:0:
346,200,218977,1,2,0:0:0:0:
346,200,219032,1,0,0:0:0:0:
333,212,219088,1,2,0:0:0:0:
331,207,219143,1,0,0:0:0:0:
315,215,219199,1,0,0:0:0:0:
312,232,219255,1,2,0:0:0:0:
315,215,219310,1,0,0:0:0:0:
346,199,219421,1,2,0:0:0:0:
346,200,219532,1,0,0:0:0:0:
346,200,219588,1,0,0:0:0:0:
333,212,219643,1,2,0:0:0:0:
333,212,219699,1,2,0:0:0:0:
318,221,219755,1,0,0:0:0:0:
335,217,219810,1,2,0:0:0:0:
324,230,219866,1,0,0:0:0:0:
315,215,219977,1,2,0:0:0:0:
315,215,220032,1,2,0:0:0:0:
331,208,220088,1,0,0:0:0:0:
346,199,220143,1,0,0:0:0:0:
363,199,220199,1,2,0:0:0:0:
389,221,220310,1,0,0:0:0:0:
363,199,220421,1,2,0:0:0:0:
333,212,220477,1,0,0:0:0:0:
318,221,220532,1,0,0:0:0:0:
335,217,220588,1,0,0:0:0:0:
350,209,220643,1,2,0:0:0:0:
335,218,220699,1,0,0:0:0:0:
317,215,220755,1,2,0:0:0:0:
346,197,220866,1,0,0:0:0:0:
360,188,220921,1,0,0:0:0:0:
363,199,220977,1,2,0:0:0:0:
349,231,221088,1,0,0:0:0:0:
321,253,221199,1,2,0:0:0:0:
294,230,221310,1,0,0:0:0:0:
278,220,221366,1,0,0:0:0:0:
350,209,221421,1,2,0:0:0:0:
263,211,221477,1,0,0:0:0:0:
350,209,221532,1,2,0:0:0:0:
350,209,221588,1,2,0:0:0:0:
263,211,221643,1,0,0:0:0:0:
350,209,221699,1,2,0:0:0:0:
263,211,221755,1,0,0:0:0:0:
350,209,221810,1,2,0:0:0:0:
269,194,221866,1,0,0:0:0:0:
121,164,221977,1,4,0:0:0:0:
121,165,222088,1,12,0:0:0:0:
121,165,222311,1,4,0:0:0:0:
121,165,222422,1,4,0:0:0:0:
121,165,222533,1,12,0:0:0:0:
121,165,222755,1,12,0:0:0:0:
121,165,222866,1,12,0:0:0:0:
103,184,223088,1,0,0:0:0:0:
171,197,223310,1,6,0:0:0:0:
198,218,223421,1,0,0:0:0:0:
198,218,223532,1,2,0:0:0:0:
198,218,223588,1,2,0:0:0:0:
186,230,223643,1,0,0:0:0:0:
186,230,223699,1,0,0:0:0:0:
200,219,223755,1,2,0:0:0:0:
228,198,223866,1,0,0:0:0:0:
228,198,223977,1,0,0:0:0:0:
252,223,224088,1,0,0:0:0:0:
263,235,224143,1,0,0:0:0:0:
263,217,224199,1,2,0:0:0:0:
296,207,224310,1,0,0:0:0:0:
330,211,224421,1,2,0:0:0:0:
330,211,224532,1,0,0:0:0:0:
330,211,224588,1,0,0:0:0:0:
296,207,224643,1,2,0:0:0:0:
263,235,224699,1,0,0:0:0:0:
310,217,224755,1,0,0:0:0:0:
263,235,224810,1,0,0:0:0:0:
313,182,224866,1,2,0:0:0:0:
330,211,224977,1,0,0:0:0:0:
296,207,225032,1,0,0:0:0:0:
297,200,225088,1,2,0:0:0:0:
277,234,225143,1,0,0:0:0:0:
330,192,225199,1,2,0:0:0:0:
279,212,225310,1,0,0:0:0:0:
310,217,225421,1,2,0:0:0:0:
277,234,225477,1,0,0:0:0:0:
317,226,225532,1,2,0:0:0:0:
325,241,225588,1,2,0:0:0:0:
340,232,225643,1,0,0:0:0:0:
296,207,225699,1,0,0:0:0:0:
307,244,225755,1,2,0:0:0:0:
324,236,225810,1,0,0:0:0:0:
307,244,225866,1,2,0:0:0:0:
325,241,225921,1,0,0:0:0:0:
277,234,225977,1,2,0:0:0:0:
289,248,226088,1,0,0:0:0:0:
319,230,226199,1,2,0:0:0:0:
324,264,226310,1,0,0:0:0:0:
340,232,226421,1,2,0:0:0:0:
320,202,226477,1,0,0:0:0:0:
327,244,226532,1,2,0:0:0:0:
319,230,226643,1,0,0:0:0:0:
319,230,226699,1,0,0:0:0:0:
277,234,226755,1,2,0:0:0:0:
289,248,226810,1,2,0:0:0:0:
340,232,226866,1,0,0:0:0:0:
320,202,226977,1,2,0:0:0:0:
285,209,227088,1,0,0:0:0:0:
285,209,227143,1,0,0:0:0:0:
277,234,227199,1,2,0:0:0:0:
283,268,227310,1,0,0:0:0:0:
249,278,227421,1,2,0:0:0:0:
249,278,227532,1,0,0:0:0:0:
249,278,227588,1,0,0:0:0:0:
340,232,227643,1,2,0:0:0:0:
320,202,227699,1,0,0:0:0:0:
320,202,227755,1,2,0:0:0:0:
320,236,227866,1,0,0:0:0:0:
320,236,227977,1,2,0:0:0:0:
320,236,228032,1,2,0:0:0:0:
320,236,228088,1,2,0:0:0:0:
320,236,228143,1,2,0:0:0:0:
328,251,228199,1,0,0:0:0:0:
328,251,228255,1,0,0:0:0:0:
339,237,228310,1,2,0:0:0:0:
320,236,228421,1,0,0:0:0:0:
312,270,228532,1,0,0:0:0:0:
312,270,228643,1,0,0:0:0:0:
312,270,228755,1,0,0:0:0:0:
320,236,228866,1,2,0:0:0:0:
339,237,228977,1,2,0:0:0:0:
339,237,229088,1,2,0:0:0:0:
320,236,229199,1,2,0:0:0:0:
285,231,229310,1,0,0:0:0:0:
285,231,229421,1,0,0:0:0:0:
285,231,229477,1,0,0:0:0:0:
301,225,229532,1,2,0:0:0:0:
266,226,229643,1,0,0:0:0:0:
252,258,229755,1,2,0:0:0:0:
219,270,229866,1,0,0:0:0:0:
321,265,229977,1,2,0:0:0:0:
354,274,230088,1,2,0:0:0:0:
381,296,230199,1,0,0:0:0:0:
130,171,231088,1,2,0:0:0:0:
130,171,231143,1,2,0:0:0:0:
130,171,231199,1,2,0:0:0:0:
130,171,231255,1,2,0:0:0:0:
130,171,231310,1,2,0:0:0:0:
130,171,231366,1,2,0:0:0:0:
130,171,231421,1,2,0:0:0:0:
130,171,231477,1,2,0:0:0:0:
130,171,231532,1,2,0:0:0:0:
267,197,231977,1,0,0:0:0:0:
233,185,232088,1,2,0:0:0:0:
252,214,232199,1,0,0:0:0:0:
261,228,232255,1,0,0:0:0:0:
278,225,232310,1,2,0:0:0:0:
295,225,232366,1,0,0:0:0:0:
261,228,232421,1,2,0:0:0:0:
261,228,232458,1,2,0:0:0:0:
261,228,232495,1,2,0:0:0:0:
271,232,232532,1,0,0:0:0:0:
265,221,232643,1,2,0:0:0:0:
285,237,232755,1,0,0:0:0:0:
319,234,232866,1,2,0:0:0:0:
295,225,232903,1,0,0:0:0:0:
295,225,232940,1,0,0:0:0:0:
306,227,232977,1,2,0:0:0:0:
327,254,233088,1,0,0:0:0:0:
360,245,233199,1,2,0:0:0:0:
327,254,233255,1,0,0:0:0:0:
310,258,233310,1,2,0:0:0:0:
293,263,233366,1,2,0:0:0:0:
327,254,233421,1,0,0:0:0:0:
325,271,233477,1,0,0:0:0:0:
360,245,233532,1,2,0:0:0:0:
293,263,233643,1,0,0:0:0:0:
321,241,233755,1,0,0:0:0:0:
321,241,233792,1,0,0:0:0:0:
321,241,233829,1,0,0:0:0:0:
327,254,233866,1,2,0:0:0:0:
337,240,233921,1,2,0:0:0:0:
325,271,233977,1,0,0:0:0:0:
292,257,234088,1,2,0:0:0:0:
337,240,234199,1,0,0:0:0:0:
337,240,234255,1,0,0:0:0:0:
323,229,234310,1,2,0:0:0:0:
309,218,234366,1,2,0:0:0:0:
327,254,234421,1,0,0:0:0:0:
327,254,234458,1,0,0:0:0:0:
327,254,234495,1,0,0:0:0:0:
315,255,234532,1,2,0:0:0:0:
327,254,234643,1,0,0:0:0:0:
294,240,234755,1,0,0:0:0:0:
311,270,234866,1,2,0:0:0:0:
329,299,234977,1,2,0:0:0:0:
329,299,235088,1,0,0:0:0:0:
315,255,235199,1,2,0:0:0:0:
315,255,235255,1,2,0:0:0:0:
315,255,235310,1,2,0:0:0:0:
315,255,235366,1,2,0:0:0:0:
327,254,235421,1,0,0:0:0:0:
311,270,235532,1,0,0:0:0:0:
311,270,235643,1,0,0:0:0:0:
315,255,235699,1,0,0:0:0:0:
331,261,235755,1,2,0:0:0:0:
316,229,235866,1,0,0:0:0:0:
347,244,235977,1,2,0:0:0:0:
330,249,236032,1,0,0:0:0:0:
311,270,236088,1,0,0:0:0:0:
338,216,236143,1,0,0:0:0:0:
327,254,236199,1,2,0:0:0:0:
311,270,236255,1,2,0:0:0:0:
308,287,236310,1,0,0:0:0:0:
311,270,236421,1,2,0:0:0:0:
315,255,236477,1,2,0:0:0:0:
305,240,236532,1,0,0:0:0:0:
330,249,236588,1,2,0:0:0:0:
330,249,236643,1,0,0:0:0:0:
330,249,236681,1,0,0:0:0:0:
330,249,236718,1,0,0:0:0:0:
318,249,236755,1,2,0:0:0:0:
315,255,236866,1,0,0:0:0:0:
320,220,236977,1,2,0:0:0:0:
307,231,237032,1,2,0:0:0:0:
297,245,237088,1,0,0:0:0:0:
313,238,237143,1,0,0:0:0:0:
331,244,237199,1,2,0:0:0:0:
305,240,237310,1,0,0:0:0:0:
310,170,237532,1,2,0:0:0:0:
313,238,237755,1,0,0:0:0:0:
313,238,237866,1,0,0:0:0:0:
310,170,237977,1,2,0:0:0:0:
347,245,238199,1,0,0:0:0:0:
347,245,238310,1,0,0:0:0:0:
329,275,238421,1,2,0:0:0:0:
347,245,238532,1,0,0:0:0:0:
256,192,238643,12,2,238866,0:0:0:0:
316,239,239088,5,0,0:0:0:0:
349,227,239199,1,2,0:0:0:0:
349,227,239310,1,0,0:0:0:0:
349,227,239347,1,0,0:0:0:0:
349,227,239384,1,0,0:0:0:0:
347,215,239421,1,2,0:0:0:0:
366,243,239532,1,0,0:0:0:0:
369,277,239643,1,2,0:0:0:0:
369,277,239671,1,2,0:0:0:0:
366,243,239755,1,0,0:0:0:0:
398,230,239866,1,2,0:0:0:0:
428,247,239977,1,0,0:0:0:0:
418,240,240014,1,0,0:0:0:0:
407,234,240051,1,0,0:0:0:0:
366,243,240088,1,2,0:0:0:0:
366,225,240143,1,2,0:0:0:0:
370,242,240199,1,0,0:0:0:0:
366,225,240310,1,2,0:0:0:0:
349,231,240366,1,0,0:0:0:0:
347,213,240421,1,2,0:0:0:0:
345,195,240477,1,2,0:0:0:0:
366,225,240532,1,0,0:0:0:0:
360,241,240588,1,0,0:0:0:0:
347,213,240643,1,2,0:0:0:0:
330,244,240755,1,0,0:0:0:0:
364,241,240866,1,2,0:0:0:0:
372,240,240893,1,2,0:0:0:0:
421,251,240977,1,0,0:0:0:0:
386,249,241088,1,2,0:0:0:0:
370,255,241143,1,0,0:0:0:0:
353,262,241199,1,0,0:0:0:0:
353,262,241255,1,0,0:0:0:0:
366,251,241310,1,2,0:0:0:0:
331,255,241421,1,0,0:0:0:0:
313,225,241532,1,2,0:0:0:0:
313,225,241569,1,0,0:0:0:0:
313,225,241606,1,0,0:0:0:0:
305,233,241643,1,2,0:0:0:0:
353,262,241755,1,0,0:0:0:0:
353,262,241810,1,0,0:0:0:0:
313,225,241866,1,2,0:0:0:0:
302,238,241921,1,0,0:0:0:0:
366,251,241977,1,2,0:0:0:0:
366,251,242014,1,2,0:0:0:0:
366,251,242051,1,2,0:0:0:0:
353,262,242088,1,0,0:0:0:0:
370,231,242199,1,2,0:0:0:0:
366,251,242310,1,0,0:0:0:0:
357,247,242338,5,0,0:0:0:0:
336,263,242421,1,2,0:0:0:0:
368,274,242532,1,0,0:0:0:0:
334,264,242643,1,2,0:0:0:0:
322,260,242681,1,2,0:0:0:0:
310,257,242718,1,2,0:0:0:0:
314,267,242755,1,0,0:0:0:0:
281,279,242866,1,2,0:0:0:0:
336,263,242977,1,0,0:0:0:0:
336,263,243032,1,0,0:0:0:0:
366,251,243088,1,2,0:0:0:0:
366,251,243143,1,2,0:0:0:0:
366,251,243199,1,0,0:0:0:0:
366,251,243236,1,0,0:0:0:0:
366,251,243273,1,0,0:0:0:0:
375,244,243310,1,2,0:0:0:0:
366,251,243421,1,0,0:0:0:0:
375,244,243532,1,2,0:0:0:0:
365,229,243588,1,2,0:0:0:0:
382,228,243643,1,0,0:0:0:0:
365,229,243699,1,2,0:0:0:0:
350,239,243755,1,0,0:0:0:0:
357,273,243866,1,0,0:0:0:0:
357,273,243921,1,0,0:0:0:0:
367,258,243977,1,2,0:0:0:0:
383,262,244032,1,0,0:0:0:0:
382,228,244088,1,2,0:0:0:0:
382,228,244143,1,2,0:0:0:0:
366,237,244199,1,0,0:0:0:0:
376,267,244310,1,2,0:0:0:0:
410,268,244421,1,0,0:0:0:0:
410,268,244458,1,0,0:0:0:0:
410,268,244495,1,0,0:0:0:0:
403,258,244532,1,2,0:0:0:0:
366,237,244643,1,0,0:0:0:0:
366,237,244755,1,2,0:0:0:0:
396,219,244866,1,0,0:0:0:0:
389,235,244921,1,0,0:0:0:0:
389,235,244977,1,0,0:0:0:0:
389,235,245032,1,0,0:0:0:0:
371,230,245088,1,0,0:0:0:0:
354,224,245143,1,0,0:0:0:0:
354,224,245199,1,0,0:0:0:0:
354,224,245255,1,0,0:0:0:0:
337,229,245310,1,2,0:0:0:0:
302,266,246199,1,4,0:0:0:0:
371,273,246421,1,4,0:0:0:0:
304,250,246643,1,4,0:0:0:0:
236,229,246866,1,4,0:0:0:0:
296,263,247088,1,4,0:0:0:0:
357,296,247310,1,4,0:0:0:0:
357,296,247532,1,4,0:0:0:0:
357,296,247755,1,4,0:0:0:0:
347,226,247977,1,4,0:0:0:0:
357,295,248199,1,4,0:0:0:0:
357,296,248421,1,4,0:0:0:0:
357,295,248643,1,4,0:0:0:0:
357,295,248866,1,4,0:0:0:0:
357,296,249088,1,4,0:0:0:0:
357,295,249310,1,4,0:0:0:0:
357,295,249532,1,4,0:0:0:0:
357,296,249755,1,4,0:0:0:0:
357,295,249977,1,4,0:0:0:0:
357,295,250199,1,4,0:0:0:0:
357,296,250421,1,4,0:0:0:0:
357,295,250643,1,4,0:0:0:0:
357,295,250866,1,4,0:0:0:0:
309,243,251088,1,4,0:0:0:0:
309,243,251310,1,4,0:0:0:0:
309,243,251532,1,4,0:0:0:0:
309,243,251755,1,4,0:0:0:0:
309,243,251977,1,4,0:0:0:0:
309,243,252199,1,4,0:0:0:0:
337,228,252421,5,0,0:0:0:0:
309,243,252532,1,6,0:0:0:0:
318,205,252643,1,0,0:0:0:0:
309,243,252755,1,6,0:0:0:0:
337,228,252866,1,0,0:0:0:0:
337,228,252921,1,0,0:0:0:0:
337,228,252977,1,0,0:0:0:0:
377,215,253088,1,6,0:0:0:0:
376,242,253199,1,0,0:0:0:0:
345,280,253310,1,6,0:0:0:0:
364,206,253532,1,6,0:0:0:0:
364,206,253755,1,6,0:0:0:0:
364,206,253977,1,6,0:0:0:0:
364,206,254199,1,6,0:0:0:0:
364,206,254421,1,6,0:0:0:0:
364,206,254643,1,6,0:0:0:0:
364,206,254866,1,6,0:0:0:0:
288,220,255088,1,6,0:0:0:0:
363,206,255310,1,6,0:0:0:0:
287,220,255532,1,6,0:0:0:0:
363,206,255755,1,6,0:0:0:0:
287,220,255977,1,6,0:0:0:0:
362,206,256199,1,6,0:0:0:0:
286,220,256421,1,6,0:0:0:0:
287,220,256643,1,6,0:0:0:0:
286,220,256866,1,6,0:0:0:0:
333,280,257088,1,6,0:0:0:0:
333,280,257310,1,6,0:0:0:0:
333,280,257532,1,6,0:0:0:0:
365,213,257755,1,6,0:0:0:0:
365,213,257977,1,6,0:0:0:0:
365,213,258199,1,6,0:0:0:0:
365,213,258421,1,6,0:0:0:0:
365,213,258643,1,0,0:0:0:0:
343,245,258755,1,0,0:0:0:0:
303,230,258866,1,6,0:0:0:0:
296,242,259088,1,0,0:0:0:0:
330,259,259199,1,0,0:0:0:0:
341,218,259310,1,6,0:0:0:0:
365,213,259532,1,6,0:0:0:0:
365,213,259755,1,6,0:0:0:0:
365,213,259866,1,6,0:0:0:0:
365,213,259977,1,6,0:0:0:0:
331,232,260088,1,6,0:0:0:0:
365,213,260199,5,0,0:0:0:0:
441,207,260421,1,2,0:0:0:0:
441,207,260643,1,0,0:0:0:0:
441,207,260699,1,0,0:0:0:0:
441,207,260755,1,0,0:0:0:0:
441,207,260810,1,0,0:0:0:0:
426,219,260866,1,2,0:0:0:0:
426,219,261088,1,0,0:0:0:0:
349,226,261310,1,6,0:0:0:0:
425,223,261532,1,0,0:0:0:0:
386,224,261643,1,0,0:0:0:0:
426,219,261866,1,6,0:0:0:0:
448,224,262199,1,2,0:0:0:0:
110,1,262977,1,0,0:0:0:0:
154,63,263199,1,2,0:0:0:0:
176,94,263310,1,2,0:0:0:0:
199,124,263421,1,2,0:0:0:0:
199,124,263532,1,2,0:0:0:0:
234,192,263755,1,4,0:0:0:0:
234,192,263977,1,0,0:0:0:0:
234,192,264014,1,0,0:0:0:0:
234,192,264051,1,0,0:0:0:0:
245,197,264088,1,2,0:0:0:0:
264,197,264143,1,0,0:0:0:0:
274,213,264199,1,2,0:0:0:0:
312,214,264310,1,0,0:0:0:0:
312,214,264421,1,2,0:0:0:0:
312,214,264458,1,2,0:0:0:0:
336,220,264532,1,0,0:0:0:0:
301,236,264643,1,2,0:0:0:0:
301,236,264699,1,2,0:0:0:0:
336,220,264755,1,0,0:0:0:0:
336,220,264792,1,0,0:0:0:0:
336,220,264829,1,0,0:0:0:0:
348,219,264866,1,2,0:0:0:0:
336,220,264977,1,0,0:0:0:0:
336,220,265005,1,0,0:0:0:0:
338,248,265088,1,2,0:0:0:0:
300,238,265199,1,0,0:0:0:0:
313,201,265310,1,2,0:0:0:0:
331,194,265366,1,2,0:0:0:0:
346,183,265421,1,0,0:0:0:0:
362,172,265477,1,0,0:0:0:0:
343,174,265532,1,2,0:0:0:0:
336,220,265643,1,0,0:0:0:0:
371,204,265755,1,0,0:0:0:0:
371,204,265810,1,0,0:0:0:0:
338,248,265866,1,2,0:0:0:0:
300,238,265921,1,0,0:0:0:0:
331,194,265977,1,2,0:0:0:0:
331,194,266032,1,2,0:0:0:0:
325,212,266088,1,0,0:0:0:0:
321,224,266125,1,0,0:0:0:0:
321,224,266162,1,0,0:0:0:0:
314,235,266199,1,2,0:0:0:0:
300,238,266310,1,0,0:0:0:0:
325,212,266421,1,2,0:0:0:0:
325,212,266449,1,2,0:0:0:0:
303,231,266532,1,0,0:0:0:0:
337,248,266643,1,0,0:0:0:0:
348,254,266681,1,0,0:0:0:0:
348,254,266718,1,0,0:0:0:0:
341,243,266755,1,2,0:0:0:0:
325,212,266810,1,0,0:0:0:0:
344,211,266866,1,2,0:0:0:0:
303,231,266976,1,2,0:0:0:0:
319,221,267032,1,0,0:0:0:0:
294,191,267143,1,0,0:0:0:0:
286,209,267199,1,2,0:0:0:0:
304,205,267254,1,2,0:0:0:0:
286,212,267310,1,0,0:0:0:0:
307,243,267421,1,2,0:0:0:0:
325,212,267532,1,0,0:0:0:0:
319,221,267643,1,0,0:0:0:0:
338,217,267755,1,2,0:0:0:0:
336,226,267782,1,2,0:0:0:0:
338,217,267866,1,2,0:0:0:0:
338,217,267893,1,2,0:0:0:0:
362,202,267977,1,0,0:0:0:0:
378,192,268032,1,0,0:0:0:0:
362,202,268088,1,2,0:0:0:0:
374,187,268143,1,0,0:0:0:0:
378,192,268199,1,2,0:0:0:0:
378,192,268236,1,2,0:0:0:0:
378,192,268273,1,2,0:0:0:0:
378,192,268310,1,0,0:0:0:0:
378,192,268421,1,0,0:0:0:0:
350,165,268532,1,2,0:0:0:0:
362,202,268643,1,0,0:0:0:0:
378,192,268755,1,0,0:0:0:0:
378,192,268792,1,0,0:0:0:0:
378,192,268829,1,0,0:0:0:0:
390,188,268866,1,2,0:0:0:0:
354,202,268977,1,0,0:0:0:0:
391,194,269088,1,2,0:0:0:0:
390,188,269199,1,2,0:0:0:0:
362,202,269310,1,0,0:0:0:0:
362,202,269338,1,0,0:0:0:0:
335,213,269421,1,2,0:0:0:0:
354,179,269532,1,0,0:0:0:0:
335,213,269588,1,0,0:0:0:0:
326,230,269643,1,2,0:0:0:0:
330,211,269699,1,0,0:0:0:0:
347,220,269755,1,2,0:0:0:0:
363,229,269810,1,2,0:0:0:0:
363,229,269866,1,0,0:0:0:0:
363,229,269977,1,2,0:0:0:0:
363,229,270088,1,2,0:0:0:0:
335,213,270199,1,4,0:0:0:0:
347,220,270421,1,4,0:0:0:0:
284,264,270643,1,6,0:0:0:0:
284,264,270866,1,6,0:0:0:0:
346,218,271088,1,0,0:0:0:0:
346,218,271310,5,2,0:0:0:0:
319,226,271384,1,0,0:0:0:0:
319,226,271458,1,0,0:0:0:0:
346,229,271532,1,2,0:0:0:0:
