osu file format v14

[General]
AudioFilename: audio.mp3
AudioLeadIn: 0
PreviewTime: 67421
Countdown: 0
SampleSet: Normal
StackLeniency: 0.7
Mode: 1
LetterboxInBreaks: 0
WidescreenStoryboard: 1

[Editor]
Bookmarks: 12997,18644,39977,67421,89310,105755,149310,182199,203088,230199
DistanceSpacing: 0.5
BeatDivisor: 4
GridSize: 16
TimelineZoom: 4.499998

[Metadata]
Title:Unchi wo Shite Shimatta Toki no Mashcore
TitleUnicode:うんちをしてしまった時のMashcore
Artist:cexiria
ArtistUnicode:cexiria
Creator:Maimaing
Version:Musyamode
Source:
Tags:Nekomusya7563 XK2238 Salieri applerss japanese electronic j-core jcore hardcore mashcore バーチャル virtual youtuber vtuber hololive ホロライブmad otomad 音mad ディスコミュ星人 discommunication alien 兎田ぺこら usada pekora cover ナナヲアカリ nanawo akari ナユタン星人 turing love チューリングラブ 湊あくあ minato aqua 猫又おかゆ nekomata okayu グッバイ宣言 goodbye sengen ハイカラサウンド highkarasound 紫咲シオン murasaki shion ヴァンパイア vampire deco*27 ボーカロイド vocaloid vocca della verita ボッカデラベリタ roboco-san ロボ子さん hiiragi kirai 柊キライ monster kaibutsu 怪物 tsunomaki watame 角巻わため yoasobi one room sugar life ワンルームシュガーライフ nayutalien nayuta seijin ナユタン星人 watashi idol sengen 私、アイドル宣⾔ chico with honeyworks 私を染める i の歌 wo someru i no uta gom oji 海賊王 shito atsyuk! ヤマコ
BeatmapID:3253176
BeatmapSetID:1521630

[Difficulty]
HPDrainRate:6.3
CircleSize:5
OverallDifficulty:7.5
ApproachRate:5
SliderMultiplier:1.4
SliderTickRate:1

[Events]
//Background and Video events
0,0,"unchi2.png",0,0
//Break Periods
2,11786,17444
2,105732,108110
//Storyboard Layer 0 (Background)
//Storyboard Layer 1 (Fail)
//Storyboard Layer 2 (Pass)
//Storyboard Layer 3 (Foreground)
//Storyboard Layer 4 (Overlay)
//Storyboard Sound Samples

[TimingPoints]
645,352.941176470588,4,1,0,100,1,0
645,-90.9090909090909,4,1,0,100,0,0
10880,-111.111111111111,4,1,0,100,0,0
11233,-125,4,1,0,100,0,0
11586,-142.857142857143,4,1,0,100,0,0
15115,-66.6666666666667,4,1,0,100,0,1
15468,-66.6666666666667,4,1,0,100,0,1
15469,-66.6666666666667,4,1,0,100,0,0
15512,-66.6666666666667,4,1,0,100,0,0
15644,-66.6666666666667,4,1,0,100,0,1
15689,-66.6666666666667,4,1,0,100,0,0
15821,-66.6666666666667,4,1,0,100,0,1
15865,-66.6666666666667,4,1,0,100,0,0
15997,-66.6666666666667,4,1,0,100,0,1
16042,-66.6666666666667,4,1,0,100,0,0
16174,30,4,1,0,100,1,0
16174,-66.6666666666667,4,1,0,100,0,1
18644,222.222222222222,4,1,0,100,1,0
31977,-100,4,1,0,100,0,1
32866,-100,4,1,0,100,0,0
47088,-100,4,1,0,100,0,1
61310,-100,4,1,0,100,0,0
68421,-100,4,1,0,100,0,1
75532,-100,4,1,0,100,0,0
75977,-100,4,1,0,100,0,1
82643,-100,4,1,0,100,0,0
100421,-100,4,1,0,100,0,1
105755,-100,4,1,0,100,0,0
112866,-111.111111111111,4,1,0,100,0,0
134199,-100,4,1,0,100,0,1
135977,-100,4,1,0,100,0,0
143088,-100,4,1,0,100,0,1
143977,-100,4,1,0,100,0,0
144866,-100,4,1,0,100,0,1
145755,-100,4,1,0,100,0,0
146643,-100,4,1,0,100,0,1
147532,-100,4,1,0,100,0,0
148421,-100,4,1,0,100,0,1
149310,-100,4,1,0,100,0,0
153755,-100,4,1,0,100,0,1
166199,-100,4,1,0,100,0,0
167977,-100,4,1,0,100,0,1
167977,-100,4,1,0,100,0,1
182199,-125,4,1,0,100,0,0
196421,-111.111111111111,4,1,0,100,0,0
203532,-121.951219512195,4,1,0,100,0,0
215088,-119.047619047619,4,1,0,100,0,0
215199,-116.279069767442,4,1,0,100,0,0
215310,-113.636363636364,4,1,0,100,0,0
215421,-111.111111111111,4,1,0,100,0,0
215532,-108.695652173913,4,1,0,100,0,0
215643,-106.382978723404,4,1,0,100,0,0
215755,-104.166666666667,4,1,0,100,0,0
215866,-102.040816326531,4,1,0,100,0,0
215977,-100,4,1,0,100,0,1
230199,-100,4,1,0,100,0,0
231977,-100,4,1,0,100,0,1
245310,-100,4,1,0,100,0,0
246199,-100,4,1,0,100,0,1
260421,-100,4,1,0,100,0,0
261310,-100,4,1,0,100,0,1
271532,-100,4,1,0,100,0,0

[HitObjects]
221,158,645,5,0,0:0:0:0:
304,195,997,1,2,0:0:0:0:
301,188,1174,1,2,0:0:0:0:
353,207,1350,1,0,0:0:0:0:
352,160,1527,1,2,0:0:0:0:
279,218,1880,1,2,0:0:0:0:
398,202,2056,1,0,0:0:0:0:
398,202,2233,1,0,0:0:0:0:
334,180,2409,1,2,0:0:0:0:
413,186,2586,1,2,0:0:0:0:
375,174,2762,1,0,0:0:0:0:
436,180,2939,1,2,0:0:0:0:
415,208,3027,1,2,0:0:0:0:
445,180,3115,1,0,0:0:0:0:
313,222,3292,1,2,0:0:0:0:
166,184,3468,1,0,0:0:0:0:
306,208,3821,1,2,0:0:0:0:
401,200,3997,1,2,0:0:0:0:
359,190,4174,1,0,0:0:0:0:
382,208,4350,1,2,0:0:0:0:
477,167,4703,1,2,0:0:0:0:
324,206,4880,1,0,0:0:0:0:
325,206,5056,1,0,0:0:0:0:
400,193,5233,1,2,0:0:0:0:
254,240,5409,1,2,0:0:0:0:
356,255,5586,1,0,0:0:0:0:
414,188,5674,1,0,0:0:0:0:
336,216,5762,1,2,0:0:0:0:
333,213,5850,1,2,0:0:0:0:
470,200,5939,1,0,0:0:0:0:
325,209,6115,1,2,0:0:0:0:
409,220,6292,1,0,0:0:0:0:
342,193,6644,1,2,0:0:0:0:
423,173,6821,1,2,0:0:0:0:
398,196,6997,1,0,0:0:0:0:
417,207,7174,1,2,0:0:0:0:
336,203,7527,1,2,0:0:0:0:
369,190,7703,1,0,0:0:0:0:
360,197,7880,1,0,0:0:0:0:
274,219,8056,1,2,0:0:0:0:
290,214,8233,1,2,0:0:0:0:
354,220,8321,1,2,0:0:0:0:
370,181,8409,1,0,0:0:0:0:
387,206,8497,1,2,0:0:0:0:
374,191,8586,1,0,0:0:0:0:
360,197,8674,1,0,0:0:0:0:
364,206,8762,1,2,0:0:0:0:
415,203,8939,1,2,0:0:0:0:
326,209,9115,1,0,0:0:0:0:
330,222,9468,1,0,0:0:0:0:
335,216,9821,1,0,0:0:0:0:
267,236,9997,1,0,0:0:0:0:
267,236,10086,1,0,0:0:0:0:
267,236,10174,1,2,0:0:0:0:
414,186,10350,1,2,0:0:0:0:
349,230,10527,1,0,0:0:0:0:
292,246,10880,1,0,0:0:0:0:
292,246,11233,1,0,0:0:0:0:
477,213,11586,1,2,0:0:0:0:
254,190,18644,5,0,0:0:0:0:
368,284,18866,1,0,0:0:0:0:
377,204,19088,1,0,0:0:0:0:
381,219,19310,1,0,0:0:0:0:
392,217,19532,1,0,0:0:0:0:
360,210,19755,1,0,0:0:0:0:
360,211,19977,1,0,0:0:0:0:
351,204,20199,1,0,0:0:0:0:
308,220,20310,1,2,0:0:0:0:
325,273,20421,1,0,0:0:0:0:
325,273,20643,1,0,0:0:0:0:
319,268,20866,1,0,0:0:0:0:
312,265,21088,1,0,0:0:0:0:
310,261,21310,1,0,0:0:0:0:
308,261,21532,1,0,0:0:0:0:
35,137,21755,1,0,0:0:0:0:
366,191,21866,1,2,0:0:0:0:
410,231,21922,1,2,0:0:0:0:
454,286,21978,1,0,0:0:0:0:
310,200,22088,1,2,0:0:0:0:
281,230,22199,1,0,0:0:0:0:
401,164,22310,1,0,0:0:0:0:
415,193,22421,1,2,0:0:0:0:
365,177,22643,1,0,0:0:0:0:
357,182,22755,1,0,0:0:0:0:
380,185,22866,1,2,0:0:0:0:
306,151,23088,1,0,0:0:0:0:
306,151,23199,1,0,0:0:0:0:
432,166,23310,1,2,0:0:0:0:
323,223,23421,1,2,0:0:0:0:
379,204,23532,1,0,0:0:0:0:
361,211,23643,1,0,0:0:0:0:
360,209,23699,1,0,0:0:0:0:
340,197,23755,1,2,0:0:0:0:
460,193,23866,1,2,0:0:0:0:
289,248,23977,1,4,0:0:0:0:
224,144,24088,1,4,0:0:0:0:
400,208,24310,1,4,0:0:0:0:
400,208,24532,1,4,0:0:0:0:
464,160,24755,1,6,0:0:0:0:
416,192,24866,1,4,0:0:0:0:
416,208,25088,1,2,0:0:0:0:
432,192,25199,1,2,0:0:0:0:
400,192,25310,1,0,0:0:0:0:
400,192,25366,1,0,0:0:0:0:
400,192,25421,1,2,0:0:0:0:
384,176,25477,1,2,0:0:0:0:
384,176,25532,1,0,0:0:0:0:
352,176,25643,1,2,0:0:0:0:
400,192,25755,1,0,0:0:0:0:
352,192,25866,1,0,0:0:0:0:
352,192,25921,1,0,0:0:0:0:
400,208,25977,1,2,0:0:0:0:
464,160,26088,1,2,0:0:0:0:
352,208,26199,1,0,0:0:0:0:
352,208,26255,1,2,0:0:0:0:
352,208,26310,1,0,0:0:0:0:
384,176,26421,1,2,0:0:0:0:
288,176,26532,1,2,0:0:0:0:
320,176,26643,1,0,0:0:0:0:
336,192,26755,1,0,0:0:0:0:
336,192,26810,1,0,0:0:0:0:
416,160,26866,1,2,0:0:0:0:
368,176,26977,1,2,0:0:0:0:
336,160,27088,1,0,0:0:0:0:
320,160,27199,1,0,0:0:0:0:
352,176,27310,1,2,0:0:0:0:
336,192,27532,1,0,0:0:0:0:
336,192,27643,1,0,0:0:0:0:
336,192,27699,1,0,0:0:0:0:
368,192,27755,1,2,0:0:0:0:
336,224,27866,1,2,0:0:0:0:
432,192,27977,1,0,0:0:0:0:
384,192,28032,1,0,0:0:0:0:
320,160,28088,1,2,0:0:0:0:
384,192,28199,1,2,0:0:0:0:
448,160,28310,1,2,0:0:0:0:
368,208,28421,1,0,0:0:0:0:
336,208,28532,1,0,0:0:0:0:
320,208,28588,1,0,0:0:0:0:
320,208,28643,1,2,0:0:0:0:
368,208,28755,1,2,0:0:0:0:
352,224,28866,1,0,0:0:0:0:
384,224,28977,1,2,0:0:0:0:
352,224,29032,1,2,0:0:0:0:
352,224,29088,1,2,0:0:0:0:
416,176,29199,1,2,0:0:0:0:
400,192,29310,1,0,0:0:0:0:
352,192,29421,1,0,0:0:0:0:
352,192,29476,1,0,0:0:0:0:
400,208,29532,1,2,0:0:0:0:
464,160,29643,1,2,0:0:0:0:
352,208,29754,1,0,0:0:0:0:
352,208,29810,1,2,0:0:0:0:
352,208,29865,1,0,0:0:0:0:
384,176,29976,1,2,0:0:0:0:
288,176,30087,1,2,0:0:0:0:
320,176,30198,1,0,0:0:0:0:
336,192,30310,1,0,0:0:0:0:
336,192,30365,1,0,0:0:0:0:
416,160,30421,1,2,0:0:0:0:
368,176,30532,1,2,0:0:0:0:
336,160,30643,1,0,0:0:0:0:
320,160,30754,1,0,0:0:0:0:
352,176,30865,1,2,0:0:0:0:
336,192,31087,1,0,0:0:0:0:
336,192,31198,1,0,0:0:0:0:
336,192,31254,1,0,0:0:0:0:
368,192,31310,1,2,0:0:0:0:
336,224,31421,1,2,0:0:0:0:
432,192,31532,1,0,0:0:0:0:
384,192,31587,1,0,0:0:0:0:
320,160,31643,1,2,0:0:0:0:
448,160,31698,1,0,0:0:0:0:
384,192,31754,1,2,0:0:0:0:
368,176,31866,1,2,0:0:0:0:
368,240,31977,1,4,0:0:0:0:
368,224,32199,1,4,0:0:0:0:
368,224,32421,1,4,0:0:0:0:
304,224,32643,1,6,0:0:0:0:
320,192,32866,1,0,0:0:0:0:
448,208,32977,1,0,0:0:0:0:
432,208,33032,1,0,0:0:0:0:
480,208,33088,1,2,0:0:0:0:
416,208,33199,1,2,0:0:0:0:
384,208,33310,1,0,0:0:0:0:
448,208,33421,1,2,0:0:0:0:
480,192,33532,1,2,0:0:0:0:
400,176,33643,1,2,0:0:0:0:
400,176,33699,1,2,0:0:0:0:
368,208,33755,1,0,0:0:0:0:
176,144,33866,1,0,0:0:0:0:
384,176,33977,1,2,0:0:0:0:
384,176,34088,1,2,0:0:0:0:
384,176,34143,1,2,0:0:0:0:
384,192,34199,1,0,0:0:0:0:
384,192,34255,1,0,0:0:0:0:
384,192,34310,1,0,0:0:0:0:
480,176,34421,1,2,0:0:0:0:
512,176,34532,1,2,0:0:0:0:
464,160,34643,1,0,0:0:0:0:
432,176,34755,1,0,0:0:0:0:
432,176,34810,1,0,0:0:0:0:
464,160,34866,1,2,0:0:0:0:
384,192,34977,1,2,0:0:0:0:
304,176,35088,1,0,0:0:0:0:
288,176,35143,1,0,0:0:0:0:
368,208,35199,1,2,0:0:0:0:
272,208,35310,1,2,0:0:0:0:
352,224,35421,1,2,0:0:0:0:
336,240,35532,1,0,0:0:0:0:
336,208,35643,1,2,0:0:0:0:
416,192,35755,1,0,0:0:0:0:
368,176,35866,1,2,0:0:0:0:
336,192,35921,1,2,0:0:0:0:
416,192,35977,1,0,0:0:0:0:
400,208,36088,1,0,0:0:0:0:
368,208,36199,1,2,0:0:0:0:
288,256,36421,1,0,0:0:0:0:
288,240,36477,1,0,0:0:0:0:
288,240,36532,1,0,0:0:0:0:
480,160,36588,1,0,0:0:0:0:
368,224,36643,1,2,0:0:0:0:
352,224,36755,1,2,0:0:0:0:
384,224,36866,1,0,0:0:0:0:
352,240,36921,1,0,0:0:0:0:
448,208,36977,1,2,0:0:0:0:
416,304,37088,1,2,0:0:0:0:
416,208,37199,1,0,0:0:0:0:
416,208,37310,1,0,0:0:0:0:
432,192,37421,1,2,0:0:0:0:
416,192,37477,1,2,0:0:0:0:
432,192,37532,1,0,0:0:0:0:
416,192,37643,1,2,0:0:0:0:
384,192,37699,1,2,0:0:0:0:
432,176,37755,1,0,0:0:0:0:
352,192,37866,1,2,0:0:0:0:
432,176,37977,1,2,0:0:0:0:
432,192,38088,1,2,0:0:0:0:
321,199,38199,1,0,0:0:0:0:
321,199,38310,1,0,0:0:0:0:
314,202,38366,1,0,0:0:0:0:
431,151,38421,1,2,0:0:0:0:
415,182,38532,1,2,0:0:0:0:
382,179,38643,1,0,0:0:0:0:
382,179,38699,1,0,0:0:0:0:
403,183,38755,1,2,0:0:0:0:
464,180,38810,1,0,0:0:0:0:
333,231,38866,1,2,0:0:0:0:
366,194,38977,1,2,0:0:0:0:
405,192,39088,1,0,0:0:0:0:
314,218,39199,1,2,0:0:0:0:
407,181,39255,1,2,0:0:0:0:
366,190,39310,1,0,0:0:0:0:
357,194,39421,1,0,0:0:0:0:
377,173,39532,1,2,0:0:0:0:
395,144,39755,1,6,0:0:0:0:
283,149,39977,1,0,0:0:0:0:
281,155,40088,1,0,0:0:0:0:
279,157,40143,1,2,0:0:0:0:
417,162,40310,1,2,0:0:0:0:
399,173,40421,1,0,0:0:0:0:
350,177,40532,1,0,0:0:0:0:
394,176,40587,1,2,0:0:0:0:
412,168,40755,1,2,0:0:0:0:
313,191,40866,1,0,0:0:0:0:
313,191,40977,1,0,0:0:0:0:
368,174,41032,1,2,0:0:0:0:
412,159,41143,1,2,0:0:0:0:
328,169,41199,1,0,0:0:0:0:
381,148,41310,1,0,0:0:0:0:
374,154,41421,1,0,0:0:0:0:
468,161,41532,1,2,0:0:0:0:
468,172,41643,1,2,0:0:0:0:
323,221,41755,1,0,0:0:0:0:
399,192,41866,1,2,0:0:0:0:
453,173,41921,1,2,0:0:0:0:
450,183,42088,1,2,0:0:0:0:
377,195,42199,1,0,0:0:0:0:
392,181,42310,1,2,0:0:0:0:
427,172,42366,1,2,0:0:0:0:
393,193,42532,1,2,0:0:0:0:
363,222,42643,1,0,0:0:0:0:
406,185,42755,1,2,0:0:0:0:
447,160,42810,1,2,0:0:0:0:
426,165,42921,1,2,0:0:0:0:
350,188,42977,1,0,0:0:0:0:
375,231,43088,1,0,0:0:0:0:
371,231,43199,1,0,0:0:0:0:
368,231,43255,1,0,0:0:0:0:
460,202,43310,1,2,0:0:0:0:
340,182,43421,1,2,0:0:0:0:
350,223,43532,1,0,0:0:0:0:
388,203,43755,1,2,0:0:0:0:
430,180,43866,1,0,0:0:0:0:
375,194,43977,1,0,0:0:0:0:
366,197,44088,1,0,0:0:0:0:
386,172,44199,1,2,0:0:0:0:
425,181,44310,1,2,0:0:0:0:
409,187,44366,1,2,0:0:0:0:
405,198,44421,1,0,0:0:0:0:
287,102,44532,1,0,0:0:0:0:
379,209,44643,1,2,0:0:0:0:
395,186,44755,1,2,0:0:0:0:
422,204,44866,1,0,0:0:0:0:
399,217,44977,1,2,0:0:0:0:
408,200,45032,1,0,0:0:0:0:
480,197,45088,1,2,0:0:0:0:
359,217,45199,1,2,0:0:0:0:
395,186,45310,1,0,0:0:0:0:
383,197,45421,1,0,0:0:0:0:
370,193,45532,1,2,0:0:0:0:
345,182,45755,1,0,0:0:0:0:
346,202,45866,1,0,0:0:0:0:
445,269,45921,1,0,0:0:0:0:
405,193,45977,1,2,0:0:0:0:
321,218,46088,1,2,0:0:0:0:
413,182,46199,1,0,0:0:0:0:
384,181,46310,1,0,0:0:0:0:
296,176,46421,1,2,0:0:0:0:
372,178,46477,1,2,0:0:0:0:
408,150,46532,1,0,0:0:0:0:
385,155,46588,1,0,0:0:0:0:
381,188,46643,1,2,0:0:0:0:
397,188,46755,1,0,0:0:0:0:
408,196,46866,1,6,0:0:0:0:
464,192,47088,1,4,0:0:0:0:
448,208,47310,1,4,0:0:0:0:
448,208,47532,1,4,0:0:0:0:
448,192,47755,1,2,0:0:0:0:
448,192,47866,1,2,0:0:0:0:
432,192,47921,1,2,0:0:0:0:
432,192,47977,1,0,0:0:0:0:
416,208,48088,1,0,0:0:0:0:
432,240,48199,1,2,0:0:0:0:
336,192,48310,1,0,0:0:0:0:
336,208,48366,1,0,0:0:0:0:
400,176,48421,1,2,0:0:0:0:
384,208,48532,1,0,0:0:0:0:
400,208,48643,1,2,0:0:0:0:
336,192,48866,1,6,0:0:0:0:
416,176,49088,1,6,0:0:0:0:
448,192,49310,1,6,0:0:0:0:
368,192,49532,1,2,0:0:0:0:
368,192,49643,1,2,0:0:0:0:
336,192,49755,1,0,0:0:0:0:
336,192,49866,1,0,0:0:0:0:
480,192,49977,1,2,0:0:0:0:
416,176,50088,1,2,0:0:0:0:
448,208,50143,1,2,0:0:0:0:
448,208,50199,1,0,0:0:0:0:
384,192,50310,1,0,0:0:0:0:
384,224,50421,1,2,0:0:0:0:
336,208,50643,1,0,0:0:0:0:
336,208,50755,1,0,0:0:0:0:
336,208,50810,1,0,0:0:0:0:
416,192,50866,1,2,0:0:0:0:
464,176,50977,1,2,0:0:0:0:
512,160,51088,1,0,0:0:0:0:
464,176,51199,1,2,0:0:0:0:
464,192,51255,1,2,0:0:0:0:
480,176,51310,1,2,0:0:0:0:
496,160,51421,1,2,0:0:0:0:
432,192,51532,1,0,0:0:0:0:
368,192,51643,1,2,0:0:0:0:
432,192,51699,1,2,0:0:0:0:
432,208,51755,1,0,0:0:0:0:
384,224,51866,1,2,0:0:0:0:
400,192,51921,1,2,0:0:0:0:
448,208,51977,1,0,0:0:0:0:
368,208,52088,1,0,0:0:0:0:
432,192,52199,1,2,0:0:0:0:
368,208,52421,1,0,0:0:0:0:
464,176,52532,1,0,0:0:0:0:
464,176,52588,1,0,0:0:0:0:
496,192,52643,1,2,0:0:0:0:
416,208,52755,1,2,0:0:0:0:
416,208,52866,1,0,0:0:0:0:
368,208,52977,1,0,0:0:0:0:
368,224,53032,1,0,0:0:0:0:
416,192,53088,1,2,0:0:0:0:
480,176,53199,1,2,0:0:0:0:
368,208,53310,1,0,0:0:0:0:
368,208,53421,1,0,0:0:0:0:
368,224,53532,1,6,0:0:0:0:
144,176,53755,1,0,0:0:0:0:
160,192,53866,1,0,0:0:0:0:
368,208,53977,1,6,0:0:0:0:
464,192,54199,1,4,0:0:0:0:
336,144,54421,1,4,0:0:0:0:
448,208,54643,1,4,0:0:0:0:
448,192,54866,1,2,0:0:0:0:
448,192,54977,1,2,0:0:0:0:
432,192,55032,1,2,0:0:0:0:
432,192,55088,1,0,0:0:0:0:
416,208,55199,1,0,0:0:0:0:
432,240,55310,1,2,0:0:0:0:
336,192,55421,1,0,0:0:0:0:
336,208,55477,1,0,0:0:0:0:
400,176,55532,1,2,0:0:0:0:
384,192,55643,1,0,0:0:0:0:
368,176,55755,1,2,0:0:0:0:
336,192,55977,1,6,0:0:0:0:
416,176,56199,1,6,0:0:0:0:
448,192,56421,1,6,0:0:0:0:
368,192,56643,1,2,0:0:0:0:
368,192,56754,1,2,0:0:0:0:
336,192,56866,1,0,0:0:0:0:
336,192,56977,1,0,0:0:0:0:
416,176,57088,1,2,0:0:0:0:
448,208,57143,1,2,0:0:0:0:
448,208,57199,1,0,0:0:0:0:
496,176,57310,1,2,0:0:0:0:
384,192,57421,1,0,0:0:0:0:
384,224,57532,1,2,0:0:0:0:
336,208,57754,1,0,0:0:0:0:
336,208,57866,1,0,0:0:0:0:
336,208,57921,1,0,0:0:0:0:
416,192,57977,1,2,0:0:0:0:
464,176,58088,1,2,0:0:0:0:
512,160,58199,1,0,0:0:0:0:
464,176,58310,1,2,0:0:0:0:
464,192,58366,1,2,0:0:0:0:
480,176,58421,1,2,0:0:0:0:
496,160,58532,1,2,0:0:0:0:
432,192,58643,1,0,0:0:0:0:
368,192,58754,1,2,0:0:0:0:
432,192,58810,1,2,0:0:0:0:
432,208,58866,1,0,0:0:0:0:
384,224,58977,1,2,0:0:0:0:
400,192,59032,1,2,0:0:0:0:
448,208,59088,1,0,0:0:0:0:
368,208,59199,1,0,0:0:0:0:
432,192,59310,1,2,0:0:0:0:
368,208,59532,1,0,0:0:0:0:
464,176,59643,1,0,0:0:0:0:
496,192,59755,1,6,0:0:0:0:
416,208,59977,1,0,0:0:0:0:
368,208,60088,1,0,0:0:0:0:
416,192,60199,1,6,0:0:0:0:
368,208,60421,1,0,0:0:0:0:
368,208,60532,1,0,0:0:0:0:
368,224,60643,1,2,0:0:0:0:
496,208,60754,1,0,0:0:0:0:
144,176,60810,1,0,0:0:0:0:
144,176,60866,1,0,0:0:0:0:
160,192,60977,1,0,0:0:0:0:
368,208,61088,1,2,0:0:0:0:
448,176,61143,1,2,0:0:0:0:
496,176,61199,1,2,0:0:0:0:
336,192,61255,1,2,0:0:0:0:
368,192,61310,1,0,0:0:0:0:
256,176,61532,1,0,0:0:0:0:
256,176,61643,1,0,0:0:0:0:
352,176,61755,1,2,0:0:0:0:
432,160,61866,1,2,0:0:0:0:
416,160,61921,1,2,0:0:0:0:
416,192,61977,1,2,0:0:0:0:
240,144,62088,1,2,0:0:0:0:
352,208,62199,1,0,0:0:0:0:
384,192,62310,1,2,0:0:0:0:
480,160,62421,1,0,0:0:0:0:
384,176,62532,1,2,0:0:0:0:
368,176,62643,1,0,0:0:0:0:
384,176,62755,1,0,0:0:0:0:
464,176,62866,1,2,0:0:0:0:
256,176,63088,1,0,0:0:0:0:
256,176,63199,1,0,0:0:0:0:
352,176,63311,1,2,0:0:0:0:
432,160,63422,1,2,0:0:0:0:
416,160,63477,1,2,0:0:0:0:
416,192,63533,1,0,0:0:0:0:
240,144,63644,1,0,0:0:0:0:
352,208,63755,1,2,0:0:0:0:
384,192,63866,1,2,0:0:0:0:
480,160,63977,1,0,0:0:0:0:
384,176,64088,1,0,0:0:0:0:
464,176,64200,1,2,0:0:0:0:
400,176,64310,1,2,0:0:0:0:
400,160,64421,1,0,0:0:0:0:
400,160,64533,1,0,0:0:0:0:
448,192,64644,1,2,0:0:0:0:
496,160,64699,1,2,0:0:0:0:
432,192,64755,1,2,0:0:0:0:
384,208,64866,1,0,0:0:0:0:
384,224,65088,1,2,0:0:0:0:
416,224,65199,1,0,0:0:0:0:
384,192,65255,1,0,0:0:0:0:
384,224,65310,1,2,0:0:0:0:
416,208,65421,1,0,0:0:0:0:
432,208,65532,1,2,0:0:0:0:
480,192,65644,1,2,0:0:0:0:
432,208,65755,1,0,0:0:0:0:
368,176,65977,1,2,0:0:0:0:
240,96,66088,1,0,0:0:0:0:
240,96,66143,1,0,0:0:0:0:
448,192,66199,1,2,0:0:0:0:
384,192,66310,1,0,0:0:0:0:
384,192,66421,1,2,0:0:0:0:
320,208,66532,1,2,0:0:0:0:
384,224,66643,1,0,0:0:0:0:
272,144,66755,1,0,0:0:0:0:
272,144,66810,1,0,0:0:0:0:
400,176,66866,1,2,0:0:0:0:
400,176,66977,1,0,0:0:0:0:
368,192,67088,1,2,0:0:0:0:
336,208,67199,1,0,0:0:0:0:
336,208,67255,1,0,0:0:0:0:
416,224,67310,1,2,0:0:0:0:
288,192,67421,1,4,0:0:0:0:
336,208,67643,1,6,0:0:0:0:
320,192,67755,1,4,0:0:0:0:
320,192,67866,1,4,0:0:0:0:
432,192,67977,1,6,0:0:0:0:
432,176,68199,1,2,0:0:0:0:
432,192,68310,1,2,0:0:0:0:
285,168,68421,1,0,0:0:0:0:
430,160,68532,1,2,0:0:0:0:
479,146,68588,1,2,0:0:0:0:
414,149,68643,1,0,0:0:0:0:
345,182,68755,1,2,0:0:0:0:
365,177,68866,1,0,0:0:0:0:
365,175,68921,1,0,0:0:0:0:
463,168,68977,1,2,0:0:0:0:
422,180,69032,1,2,0:0:0:0:
368,211,69088,1,0,0:0:0:0:
360,211,69199,1,0,0:0:0:0:
358,213,69255,1,0,0:0:0:0:
363,215,69310,1,0,0:0:0:0:
363,216,69421,1,0,0:0:0:0:
361,218,69477,1,0,0:0:0:0:
333,206,69532,1,2,0:0:0:0:
458,329,69643,1,2,0:0:0:0:
365,168,69755,1,0,0:0:0:0:
361,175,69810,1,0,0:0:0:0:
417,193,69866,1,2,0:0:0:0:
272,167,69921,1,0,0:0:0:0:
376,194,69977,1,2,0:0:0:0:
445,174,70088,1,2,0:0:0:0:
303,215,70199,1,0,0:0:0:0:
317,202,70421,1,2,0:0:0:0:
319,203,70532,1,0,0:0:0:0:
293,203,70588,1,0,0:0:0:0:
293,206,70643,1,0,0:0:0:0:
388,193,70866,1,2,0:0:0:0:
359,194,70977,1,0,0:0:0:0:
359,194,71032,1,0,0:0:0:0:
354,193,71088,1,0,0:0:0:0:
350,195,71199,1,0,0:0:0:0:
349,195,71255,1,0,0:0:0:0:
390,203,71310,1,2,0:0:0:0:
392,197,71421,1,0,0:0:0:0:
361,202,71477,1,0,0:0:0:0:
365,201,71532,1,0,0:0:0:0:
354,209,71643,1,0,0:0:0:0:
441,224,71755,1,2,0:0:0:0:
285,168,71977,1,0,0:0:0:0:
430,160,72088,1,2,0:0:0:0:
479,146,72144,1,2,0:0:0:0:
414,149,72199,1,0,0:0:0:0:
345,182,72311,1,2,0:0:0:0:
365,177,72422,1,0,0:0:0:0:
365,175,72477,1,0,0:0:0:0:
463,168,72533,1,2,0:0:0:0:
422,180,72588,1,2,0:0:0:0:
368,211,72644,1,0,0:0:0:0:
360,211,72755,1,0,0:0:0:0:
358,213,72811,1,0,0:0:0:0:
363,215,72866,1,0,0:0:0:0:
363,216,72977,1,0,0:0:0:0:
361,218,73033,1,0,0:0:0:0:
333,206,73088,1,2,0:0:0:0:
458,329,73199,1,2,0:0:0:0:
365,168,73311,1,0,0:0:0:0:
361,175,73366,1,0,0:0:0:0:
417,193,73422,1,2,0:0:0:0:
272,167,73477,1,2,0:0:0:0:
376,194,73532,1,0,0:0:0:0:
445,174,73644,1,2,0:0:0:0:
303,215,73755,1,0,0:0:0:0:
317,202,73977,1,2,0:0:0:0:
319,203,74088,1,0,0:0:0:0:
293,203,74144,1,0,0:0:0:0:
293,206,74199,1,2,0:0:0:0:
265,176,74310,1,0,0:0:0:0:
338,228,74421,1,2,0:0:0:0:
255,166,74643,1,0,0:0:0:0:
473,178,74755,1,2,0:0:0:0:
374,193,74866,1,2,0:0:0:0:
424,203,74977,1,2,0:0:0:0:
349,229,75088,1,0,0:0:0:0:
446,198,75199,1,2,0:0:0:0:
419,173,75255,1,2,0:0:0:0:
381,173,75310,1,2,0:0:0:0:
356,178,75421,1,2,0:0:0:0:
285,168,75532,1,0,0:0:0:0:
430,160,75643,1,2,0:0:0:0:
479,146,75699,1,2,0:0:0:0:
414,149,75754,1,0,0:0:0:0:
345,182,75866,1,2,0:0:0:0:
365,177,75977,1,0,0:0:0:0:
365,175,76032,1,0,0:0:0:0:
463,168,76088,1,2,0:0:0:0:
422,180,76143,1,2,0:0:0:0:
368,211,76199,1,0,0:0:0:0:
360,211,76310,1,0,0:0:0:0:
358,213,76366,1,0,0:0:0:0:
363,215,76421,1,0,0:0:0:0:
363,216,76532,1,0,0:0:0:0:
361,218,76588,1,0,0:0:0:0:
333,206,76643,1,2,0:0:0:0:
458,329,76754,1,2,0:0:0:0:
365,168,76866,1,0,0:0:0:0:
361,175,76921,1,0,0:0:0:0:
417,193,76977,1,2,0:0:0:0:
272,167,77032,1,0,0:0:0:0:
376,194,77088,1,2,0:0:0:0:
445,174,77199,1,2,0:0:0:0:
303,215,77310,1,0,0:0:0:0:
363,172,77421,1,0,0:0:0:0:
317,202,77532,1,2,0:0:0:0:
319,203,77643,1,0,0:0:0:0:
293,203,77699,1,0,0:0:0:0:
293,206,77754,1,0,0:0:0:0:
284,234,77866,1,0,0:0:0:0:
388,193,77977,1,2,0:0:0:0:
359,194,78088,1,0,0:0:0:0:
359,194,78143,1,0,0:0:0:0:
354,193,78199,1,0,0:0:0:0:
350,195,78310,1,0,0:0:0:0:
349,195,78366,1,0,0:0:0:0:
390,203,78421,1,2,0:0:0:0:
392,197,78532,1,0,0:0:0:0:
361,202,78588,1,0,0:0:0:0:
365,201,78643,1,0,0:0:0:0:
354,209,78754,1,0,0:0:0:0:
441,224,78866,1,2,0:0:0:0:
285,168,79088,1,0,0:0:0:0:
430,160,79199,1,2,0:0:0:0:
479,146,79255,1,2,0:0:0:0:
414,149,79310,1,0,0:0:0:0:
345,182,79422,1,2,0:0:0:0:
365,177,79533,1,0,0:0:0:0:
365,175,79588,1,0,0:0:0:0:
463,168,79644,1,2,0:0:0:0:
422,180,79699,1,2,0:0:0:0:
368,211,79755,1,0,0:0:0:0:
360,211,79866,1,0,0:0:0:0:
358,213,79922,1,0,0:0:0:0:
363,215,79977,1,0,0:0:0:0:
363,216,80088,1,0,0:0:0:0:
361,218,80144,1,0,0:0:0:0:
333,206,80199,1,2,0:0:0:0:
458,329,80310,1,2,0:0:0:0:
365,168,80422,1,0,0:0:0:0:
361,175,80477,1,0,0:0:0:0:
417,193,80533,1,2,0:0:0:0:
272,167,80588,1,0,0:0:0:0:
376,193,80644,1,2,0:0:0:0:
445,174,80755,1,2,0:0:0:0:
303,215,80866,1,0,0:0:0:0:
363,172,80977,1,0,0:0:0:0:
317,202,81088,1,2,0:0:0:0:
319,203,81199,1,2,0:0:0:0:
293,203,81255,1,2,0:0:0:0:
293,206,81310,1,0,0:0:0:0:
284,234,81422,1,0,0:0:0:0:
388,193,81533,1,2,0:0:0:0:
359,194,81643,1,2,0:0:0:0:
359,194,81699,1,2,0:0:0:0:
354,193,81755,1,0,0:0:0:0:
350,195,81866,1,2,0:0:0:0:
349,195,81922,1,0,0:0:0:0:
390,203,81977,1,2,0:0:0:0:
392,197,82088,1,2,0:0:0:0:
365,201,82199,1,0,0:0:0:0:
354,209,82310,1,0,0:0:0:0:
441,224,82422,1,6,0:0:0:0:
273,187,82643,1,0,0:0:0:0:
336,192,82866,1,2,0:0:0:0:
384,192,82977,1,0,0:0:0:0:
432,192,83088,1,2,0:0:0:0:
384,224,83310,1,2,0:0:0:0:
384,208,83532,1,0,0:0:0:0:
384,208,83643,1,0,0:0:0:0:
416,192,83755,1,2,0:0:0:0:
384,208,83866,1,2,0:0:0:0:
368,208,83977,1,0,0:0:0:0:
416,208,84088,1,2,0:0:0:0:
368,192,84143,1,0,0:0:0:0:
384,192,84199,1,2,0:0:0:0:
304,192,84310,1,2,0:0:0:0:
273,187,84421,1,0,0:0:0:0:
320,272,84532,1,0,0:0:0:0:
336,192,84644,1,2,0:0:0:0:
384,192,84755,1,0,0:0:0:0:
432,192,84866,1,2,0:0:0:0:
384,224,85088,1,2,0:0:0:0:
384,208,85310,1,0,0:0:0:0:
384,208,85421,1,0,0:0:0:0:
416,192,85533,1,2,0:0:0:0:
384,208,85644,1,2,0:0:0:0:
368,208,85755,1,0,0:0:0:0:
416,208,85866,1,2,0:0:0:0:
384,192,85977,1,2,0:0:0:0:
304,192,86088,1,2,0:0:0:0:
368,192,86143,1,2,0:0:0:0:
304,192,86199,1,0,0:0:0:0:
384,176,86421,1,2,0:0:0:0:
368,192,86532,1,0,0:0:0:0:
368,192,86588,1,0,0:0:0:0:
368,192,86643,1,0,0:0:0:0:
192,160,86755,1,0,0:0:0:0:
304,224,86866,1,2,0:0:0:0:
336,240,86977,1,0,0:0:0:0:
320,240,87032,1,0,0:0:0:0:
320,240,87088,1,0,0:0:0:0:
336,176,87199,1,0,0:0:0:0:
464,192,87310,1,2,0:0:0:0:
400,224,87421,1,0,0:0:0:0:
384,224,87477,1,0,0:0:0:0:
400,256,87532,1,2,0:0:0:0:
416,224,87643,1,0,0:0:0:0:
384,176,87755,1,2,0:0:0:0:
464,176,87866,1,2,0:0:0:0:
464,176,87921,1,2,0:0:0:0:
416,176,87977,1,0,0:0:0:0:
400,176,88088,1,0,0:0:0:0:
384,208,88199,1,6,0:0:0:0:
288,176,88421,1,0,0:0:0:0:
272,176,88532,1,0,0:0:0:0:
416,192,88643,1,6,0:0:0:0:
368,192,88866,1,0,0:0:0:0:
400,192,88977,1,2,0:0:0:0:
416,192,89032,1,0,0:0:0:0:
480,176,89143,1,2,0:0:0:0:
448,192,89199,1,0,0:0:0:0:
432,192,89310,1,0,0:0:0:0:
416,208,89421,1,0,0:0:0:0:
464,192,89532,1,6,0:0:0:0:
388,171,89755,1,0,0:0:0:0:
388,171,89866,1,0,0:0:0:0:
387,200,89977,1,2,0:0:0:0:
378,193,90199,1,0,0:0:0:0:
368,200,90366,1,0,0:0:0:0:
359,233,90421,1,2,0:0:0:0:
409,208,90532,1,0,0:0:0:0:
390,213,90643,1,0,0:0:0:0:
390,213,90755,1,0,0:0:0:0:
385,215,90866,1,2,0:0:0:0:
405,217,90977,1,0,0:0:0:0:
359,219,91032,1,2,0:0:0:0:
243,234,91088,1,0,0:0:0:0:
268,226,91199,1,0,0:0:0:0:
336,227,91310,1,2,0:0:0:0:
295,214,91421,1,2,0:0:0:0:
435,174,91477,1,2,0:0:0:0:
328,253,91532,1,0,0:0:0:0:
320,252,91643,1,0,0:0:0:0:
363,239,91699,1,0,0:0:0:0:
399,200,91755,1,2,0:0:0:0:
295,214,91866,1,0,0:0:0:0:
285,217,91921,1,0,0:0:0:0:
438,197,91977,1,2,0:0:0:0:
399,200,92088,1,0,0:0:0:0:
361,229,92143,1,0,0:0:0:0:
371,208,92199,1,2,0:0:0:0:
379,216,92255,1,0,0:0:0:0:
417,192,92310,1,2,0:0:0:0:
227,180,92421,1,0,0:0:0:0:
356,244,92532,1,2,0:0:0:0:
357,245,92588,1,2,0:0:0:0:
361,229,92643,1,0,0:0:0:0:
479,188,92755,1,2,0:0:0:0:
412,192,92866,1,2,0:0:0:0:
387,242,92977,1,0,0:0:0:0:
382,242,93032,1,0,0:0:0:0:
409,230,93088,1,2,0:0:0:0:
389,337,93310,1,0,0:0:0:0:
322,196,93421,1,0,0:0:0:0:
372,185,93532,1,2,0:0:0:0:
352,175,93643,1,0,0:0:0:0:
348,180,93699,1,0,0:0:0:0:
345,184,93754,1,0,0:0:0:0:
343,204,93866,1,0,0:0:0:0:
435,183,93977,1,2,0:0:0:0:
447,164,94088,1,0,0:0:0:0:
425,167,94143,1,0,0:0:0:0:
423,168,94199,1,0,0:0:0:0:
414,175,94310,1,0,0:0:0:0:
387,182,94421,1,2,0:0:0:0:
343,200,94532,1,0,0:0:0:0:
343,204,94588,1,0,0:0:0:0:
445,229,94643,1,2,0:0:0:0:
386,242,94755,1,0,0:0:0:0:
461,213,94866,1,2,0:0:0:0:
425,200,94921,1,2,0:0:0:0:
421,197,94977,1,2,0:0:0:0:
450,197,95032,1,2,0:0:0:0:
409,186,95088,1,0,0:0:0:0:
314,205,95199,1,0,0:0:0:0:
310,210,95255,1,0,0:0:0:0:
420,184,95310,1,2,0:0:0:0:
311,210,95421,1,0,0:0:0:0:
383,182,95532,1,2,0:0:0:0:
375,171,95643,1,0,0:0:0:0:
356,179,95699,1,0,0:0:0:0:
458,184,95755,1,2,0:0:0:0:
451,188,95810,1,0,0:0:0:0:
451,188,95866,1,2,0:0:0:0:
469,179,95921,1,2,0:0:0:0:
395,218,95977,1,0,0:0:0:0:
332,175,96088,1,0,0:0:0:0:
383,189,96199,1,2,0:0:0:0:
356,204,96310,1,0,0:0:0:0:
309,155,96366,1,2,0:0:0:0:
348,207,96421,1,0,0:0:0:0:
359,182,96532,1,0,0:0:0:0:
425,187,96643,1,2,0:0:0:0:
363,188,96866,1,0,0:0:0:0:
362,188,96921,1,0,0:0:0:0:
359,191,96977,1,0,0:0:0:0:
359,191,97032,1,0,0:0:0:0:
327,217,97088,1,2,0:0:0:0:
386,198,97199,1,2,0:0:0:0:
312,222,97310,1,0,0:0:0:0:
332,215,97366,1,0,0:0:0:0:
370,209,97421,1,0,0:0:0:0:
183,167,97477,1,0,0:0:0:0:
344,215,97532,1,2,0:0:0:0:
372,164,97643,1,2,0:0:0:0:
417,208,97755,1,0,0:0:0:0:
338,228,97866,1,2,0:0:0:0:
389,178,97921,1,2,0:0:0:0:
418,188,97977,1,0,0:0:0:0:
361,193,98088,1,0,0:0:0:0:
307,248,98199,1,2,0:0:0:0:
425,187,98421,1,2,0:0:0:0:
432,182,98533,1,2,0:0:0:0:
363,188,98644,1,0,0:0:0:0:
362,188,98699,1,0,0:0:0:0:
359,191,98755,1,0,0:0:0:0:
359,191,98810,1,0,0:0:0:0:
327,217,98866,1,2,0:0:0:0:
386,198,98977,1,2,0:0:0:0:
312,222,99088,1,0,0:0:0:0:
332,215,99144,1,0,0:0:0:0:
370,209,99199,1,0,0:0:0:0:
183,167,99255,1,0,0:0:0:0:
344,215,99310,1,2,0:0:0:0:
372,164,99421,1,2,0:0:0:0:
417,208,99533,1,0,0:0:0:0:
338,228,99644,1,2,0:0:0:0:
401,208,99755,1,0,0:0:0:0:
361,193,99866,1,2,0:0:0:0:
357,195,99921,1,2,0:0:0:0:
307,248,99977,1,0,0:0:0:0:
192,188,100088,1,0,0:0:0:0:
352,193,100199,1,2,0:0:0:0:
355,195,100310,1,2,0:0:0:0:
401,208,100421,1,0,0:0:0:0:
383,212,100532,1,0,0:0:0:0:
385,200,100643,1,2,0:0:0:0:
394,193,100755,1,0,0:0:0:0:
386,193,100810,1,0,0:0:0:0:
382,195,100866,1,0,0:0:0:0:
382,195,100977,1,0,0:0:0:0:
428,197,101088,1,2,0:0:0:0:
352,204,101199,1,0,0:0:0:0:
370,208,101255,1,0,0:0:0:0:
365,187,101310,1,2,0:0:0:0:
357,188,101421,1,0,0:0:0:0:
345,192,101532,1,2,0:0:0:0:
395,185,101643,1,2,0:0:0:0:
359,195,101699,1,2,0:0:0:0:
361,206,101755,1,0,0:0:0:0:
339,233,101866,1,0,0:0:0:0:
430,164,101977,1,2,0:0:0:0:
429,178,102032,1,2,0:0:0:0:
397,191,102088,1,2,0:0:0:0:
405,184,102143,1,2,0:0:0:0:
366,221,102199,1,0,0:0:0:0:
248,176,102310,1,0,0:0:0:0:
378,249,102421,1,2,0:0:0:0:
441,180,102532,1,0,0:0:0:0:
417,189,102588,1,0,0:0:0:0:
405,209,102643,1,2,0:0:0:0:
498,184,102699,1,2,0:0:0:0:
330,215,102755,1,0,0:0:0:0:
336,245,102866,1,0,0:0:0:0:
337,176,102977,1,2,0:0:0:0:
323,162,103088,1,0,0:0:0:0:
313,213,103143,1,0,0:0:0:0:
308,215,103199,1,0,0:0:0:0:
312,212,103255,1,0,0:0:0:0:
447,178,103310,1,2,0:0:0:0:
437,177,103366,1,2,0:0:0:0:
437,177,103421,1,0,0:0:0:0:
437,177,103477,1,0,0:0:0:0:
358,202,103532,1,2,0:0:0:0:
358,202,103588,1,2,0:0:0:0:
352,205,103643,1,0,0:0:0:0:
353,204,103699,1,0,0:0:0:0:
387,208,103755,1,2,0:0:0:0:
440,193,103866,1,2,0:0:0:0:
174,177,103977,1,0,0:0:0:0:
178,179,104088,1,0,0:0:0:0:
411,235,104199,1,6,0:0:0:0:
205,133,104421,1,0,0:0:0:0:
205,133,104477,1,0,0:0:0:0:
205,133,104532,1,0,0:0:0:0:
317,169,104643,1,6,0:0:0:0:
342,188,104866,1,0,0:0:0:0:
381,208,104977,1,0,0:0:0:0:
347,180,105032,1,0,0:0:0:0:
291,191,105088,1,2,0:0:0:0:
353,213,105199,1,2,0:0:0:0:
382,225,105310,1,0,0:0:0:0:
414,171,105532,1,6,0:0:0:0:
272,149,109310,5,0,0:0:0:0:
364,195,109755,1,2,0:0:0:0:
317,179,109977,1,0,0:0:0:0:
222,166,110421,1,0,0:0:0:0:
345,242,110643,1,2,0:0:0:0:
304,197,110866,1,0,0:0:0:0:
379,170,110977,1,0,0:0:0:0:
381,225,111088,1,0,0:0:0:0:
300,142,111310,1,0,0:0:0:0:
381,225,111532,1,2,0:0:0:0:
293,191,111755,1,2,0:0:0:0:
293,191,111866,1,2,0:0:0:0:
376,181,111977,1,0,0:0:0:0:
356,180,112088,1,2,0:0:0:0:
297,199,112199,1,0,0:0:0:0:
389,191,112310,1,0,0:0:0:0:
371,206,112421,1,2,0:0:0:0:
412,158,112643,1,2,0:0:0:0:
380,178,112866,1,0,0:0:0:0:
353,195,113088,1,2,0:0:0:0:
365,180,113199,1,0,0:0:0:0:
363,182,113255,1,0,0:0:0:0:
362,188,113310,1,0,0:0:0:0:
362,188,113421,1,0,0:0:0:0:
381,186,113532,1,2,0:0:0:0:
415,182,113643,1,0,0:0:0:0:
356,211,113755,1,0,0:0:0:0:
359,189,113977,1,2,0:0:0:0:
408,194,114088,1,0,0:0:0:0:
401,203,114143,1,2,0:0:0:0:
398,189,114199,1,0,0:0:0:0:
377,196,114310,1,0,0:0:0:0:
370,202,114421,1,2,0:0:0:0:
421,217,114532,1,2,0:0:0:0:
362,205,114643,1,0,0:0:0:0:
353,195,114866,1,2,0:0:0:0:
365,180,114977,1,0,0:0:0:0:
363,182,115033,1,0,0:0:0:0:
362,188,115088,1,0,0:0:0:0:
362,188,115199,1,0,0:0:0:0:
381,186,115310,1,2,0:0:0:0:
415,182,115421,1,0,0:0:0:0:
356,211,115533,1,0,0:0:0:0:
269,284,115643,1,0,0:0:0:0:
269,284,115699,1,0,0:0:0:0:
349,215,115755,1,2,0:0:0:0:
406,200,115866,1,2,0:0:0:0:
450,199,115977,1,0,0:0:0:0:
174,182,116088,1,0,0:0:0:0:
179,185,116143,1,0,0:0:0:0:
441,194,116199,1,2,0:0:0:0:
436,215,116310,1,2,0:0:0:0:
501,201,116421,1,0,0:0:0:0:
353,195,116643,1,2,0:0:0:0:
365,180,116754,1,0,0:0:0:0:
363,182,116810,1,0,0:0:0:0:
362,188,116865,1,0,0:0:0:0:
362,188,116976,1,0,0:0:0:0:
381,186,117087,1,2,0:0:0:0:
415,182,117198,1,0,0:0:0:0:
356,211,117310,1,0,0:0:0:0:
359,189,117532,1,2,0:0:0:0:
408,194,117643,1,0,0:0:0:0:
401,203,117698,1,2,0:0:0:0:
398,189,117754,1,0,0:0:0:0:
377,196,117865,1,0,0:0:0:0:
370,202,117976,1,2,0:0:0:0:
421,217,118087,1,2,0:0:0:0:
362,205,118198,1,0,0:0:0:0:
353,195,118421,1,2,0:0:0:0:
365,180,118532,1,0,0:0:0:0:
363,182,118588,1,0,0:0:0:0:
362,188,118643,1,0,0:0:0:0:
362,188,118754,1,0,0:0:0:0:
381,186,118865,1,2,0:0:0:0:
415,182,118976,1,0,0:0:0:0:
356,211,119088,1,0,0:0:0:0:
269,284,119198,1,0,0:0:0:0:
269,284,119254,1,0,0:0:0:0:
349,215,119310,1,2,0:0:0:0:
406,200,119421,1,2,0:0:0:0:
450,199,119532,1,0,0:0:0:0:
174,182,119643,1,0,0:0:0:0:
179,185,119698,1,0,0:0:0:0:
441,194,119754,1,2,0:0:0:0:
436,215,119865,1,2,0:0:0:0:
501,201,119976,1,0,0:0:0:0:
272,130,120199,1,0,0:0:0:0:
314,230,120421,1,0,0:0:0:0:
314,230,120588,1,0,0:0:0:0:
310,234,120643,1,0,0:0:0:0:
365,193,120755,1,2,0:0:0:0:
348,197,120866,1,0,0:0:0:0:
365,193,120977,1,2,0:0:0:0:
381,206,121088,1,0,0:0:0:0:
376,206,121199,1,2,0:0:0:0:
300,229,121310,1,0,0:0:0:0:
350,247,121477,1,2,0:0:0:0:
321,221,121532,1,2,0:0:0:0:
319,222,121643,1,2,0:0:0:0:
328,260,121755,1,0,0:0:0:0:
262,236,121866,1,0,0:0:0:0:
312,247,121977,1,2,0:0:0:0:
404,165,122088,1,0,0:0:0:0:
331,220,122199,1,2,0:0:0:0:
423,222,122310,1,0,0:0:0:0:
321,229,122421,1,2,0:0:0:0:
317,233,122532,1,2,0:0:0:0:
360,208,122643,1,0,0:0:0:0:
395,191,122755,1,2,0:0:0:0:
283,193,122866,1,0,0:0:0:0:
292,194,122977,1,0,0:0:0:0:
465,220,123088,1,2,0:0:0:0:
260,233,123310,1,2,0:0:0:0:
347,281,123532,1,0,0:0:0:0:
324,249,123643,1,0,0:0:0:0:
324,249,123866,1,0,0:0:0:0:
279,201,123977,1,2,0:0:0:0:
350,184,124199,1,2,0:0:0:0:
337,206,124421,1,0,0:0:0:0:
431,185,124532,1,2,0:0:0:0:
305,165,124643,1,0,0:0:0:0:
318,168,124755,1,0,0:0:0:0:
360,207,124866,1,2,0:0:0:0:
352,222,125088,1,2,0:0:0:0:
330,226,125310,1,0,0:0:0:0:
330,226,125421,1,0,0:0:0:0:
327,211,125532,1,2,0:0:0:0:
363,191,125643,1,0,0:0:0:0:
352,198,125755,1,2,0:0:0:0:
404,191,125866,1,0,0:0:0:0:
395,206,125977,1,2,0:0:0:0:
392,206,126088,1,2,0:0:0:0:
354,226,126199,1,0,0:0:0:0:
293,151,126310,1,2,0:0:0:0:
361,218,126421,1,0,0:0:0:0:
289,241,126532,1,2,0:0:0:0:
354,226,126643,1,0,0:0:0:0:
378,209,126755,1,0,0:0:0:0:
328,209,126866,1,2,0:0:0:0:
321,170,127088,1,0,0:0:0:0:
370,157,127199,1,0,0:0:0:0:
372,209,127310,1,2,0:0:0:0:
314,230,127532,1,0,0:0:0:0:
314,230,127699,1,0,0:0:0:0:
403,215,127755,1,2,0:0:0:0:
365,193,127866,1,2,0:0:0:0:
348,197,127977,1,0,0:0:0:0:
365,193,128088,1,2,0:0:0:0:
381,206,128199,1,0,0:0:0:0:
376,206,128310,1,2,0:0:0:0:
300,229,128421,1,0,0:0:0:0:
350,247,128588,1,2,0:0:0:0:
321,221,128643,1,2,0:0:0:0:
319,222,128754,1,2,0:0:0:0:
328,260,128866,1,0,0:0:0:0:
262,236,128977,1,0,0:0:0:0:
312,247,129088,1,2,0:0:0:0:
404,165,129199,1,0,0:0:0:0:
331,220,129310,1,2,0:0:0:0:
423,222,129421,1,0,0:0:0:0:
321,229,129532,1,2,0:0:0:0:
317,233,129643,1,2,0:0:0:0:
360,208,129754,1,0,0:0:0:0:
395,191,129866,1,2,0:0:0:0:
283,193,129977,1,0,0:0:0:0:
292,194,130088,1,0,0:0:0:0:
465,220,130199,1,2,0:0:0:0:
260,233,130421,1,2,0:0:0:0:
347,281,130643,1,0,0:0:0:0:
324,249,130754,1,0,0:0:0:0:
324,249,130977,1,0,0:0:0:0:
279,201,131088,1,2,0:0:0:0:
350,184,131310,1,2,0:0:0:0:
337,206,131532,1,0,0:0:0:0:
431,185,131643,1,2,0:0:0:0:
305,165,131754,1,0,0:0:0:0:
318,168,131866,1,0,0:0:0:0:
360,207,131977,1,2,0:0:0:0:
352,222,132199,1,2,0:0:0:0:
330,226,132421,1,0,0:0:0:0:
330,226,132532,1,0,0:0:0:0:
327,211,132643,1,2,0:0:0:0:
363,191,132754,1,2,0:0:0:0:
352,198,132866,1,0,0:0:0:0:
404,191,132977,1,2,0:0:0:0:
395,206,133088,1,2,0:0:0:0:
392,206,133199,1,2,0:0:0:0:
354,226,133310,1,0,0:0:0:0:
293,151,133421,1,2,0:0:0:0:
361,218,133532,1,0,0:0:0:0:
289,241,133643,1,2,0:0:0:0:
354,226,133754,1,0,0:0:0:0:
378,209,133866,1,0,0:0:0:0:
328,209,133977,1,2,0:0:0:0:
424,182,134088,1,2,0:0:0:0:
374,214,134199,1,4,0:0:0:0:
380,175,134421,1,2,0:0:0:0:
359,178,134532,1,4,0:0:0:0:
399,171,134755,1,2,0:0:0:0:
408,190,134866,1,4,0:0:0:0:
355,194,135088,1,2,0:0:0:0:
364,184,135199,1,0,0:0:0:0:
226,195,135255,1,0,0:0:0:0:
290,207,135310,1,2,0:0:0:0:
332,210,135421,1,0,0:0:0:0:
251,213,135477,1,0,0:0:0:0:
308,209,135532,1,2,0:0:0:0:
355,164,135643,1,2,0:0:0:0:
346,173,135755,1,2,0:0:0:0:
394,174,135866,1,2,0:0:0:0:
459,175,135977,1,0,0:0:0:0:
401,204,136199,1,2,0:0:0:0:
410,198,136421,1,2,0:0:0:0:
408,198,136643,1,2,0:0:0:0:
408,199,136866,1,2,0:0:0:0:
337,236,137088,1,2,0:0:0:0:
337,236,137310,1,2,0:0:0:0:
421,164,137477,1,2,0:0:0:0:
389,176,137533,1,2,0:0:0:0:
357,190,137643,1,2,0:0:0:0:
350,195,137755,1,2,0:0:0:0:
355,239,137977,1,2,0:0:0:0:
372,195,138199,1,2,0:0:0:0:
363,197,138421,1,2,0:0:0:0:
363,197,138643,1,2,0:0:0:0:
403,213,138866,1,2,0:0:0:0:
403,213,139088,1,2,0:0:0:0:
370,212,139199,1,2,0:0:0:0:
350,211,139310,1,2,0:0:0:0:
348,212,139421,1,2,0:0:0:0:
347,215,139532,1,2,0:0:0:0:
339,171,139755,1,2,0:0:0:0:
352,198,139977,1,2,0:0:0:0:
214,94,140143,1,2,0:0:0:0:
399,213,140199,1,2,0:0:0:0:
408,204,140311,1,2,0:0:0:0:
204,203,140421,1,0,0:0:0:0:
235,190,140532,1,0,0:0:0:0:
463,195,140643,1,2,0:0:0:0:
436,202,140755,1,2,0:0:0:0:
446,173,140866,1,0,0:0:0:0:
415,179,140977,1,0,0:0:0:0:
446,186,141032,1,2,0:0:0:0:
405,179,141143,1,0,0:0:0:0:
434,224,141199,1,2,0:0:0:0:
379,165,141310,1,0,0:0:0:0:
356,174,141421,1,0,0:0:0:0:
356,174,141477,1,0,0:0:0:0:
478,184,141532,1,2,0:0:0:0:
388,188,141643,1,2,0:0:0:0:
403,188,141755,1,0,0:0:0:0:
476,157,141810,1,0,0:0:0:0:
454,184,141866,1,0,0:0:0:0:
446,190,141977,1,2,0:0:0:0:
443,253,142088,1,2,0:0:0:0:
409,179,142199,1,0,0:0:0:0:
392,180,142310,1,0,0:0:0:0:
385,197,142366,1,0,0:0:0:0:
386,203,142421,1,2,0:0:0:0:
383,202,142532,1,0,0:0:0:0:
343,210,142643,1,2,0:0:0:0:
414,217,142866,1,2,0:0:0:0:
432,198,142977,1,2,0:0:0:0:
190,177,143088,1,0,0:0:0:0:
254,180,143199,1,0,0:0:0:0:
303,178,143255,1,0,0:0:0:0:
291,213,143310,1,2,0:0:0:0:
355,214,143421,1,2,0:0:0:0:
383,188,143532,1,0,0:0:0:0:
355,202,143644,1,0,0:0:0:0:
356,202,143699,1,0,0:0:0:0:
364,196,143755,1,2,0:0:0:0:
428,202,143866,1,2,0:0:0:0:
183,171,143977,1,0,0:0:0:0:
297,169,144199,1,2,0:0:0:0:
288,172,144310,1,2,0:0:0:0:
368,177,144421,1,0,0:0:0:0:
348,182,144533,1,0,0:0:0:0:
330,173,144644,1,2,0:0:0:0:
322,178,144755,1,2,0:0:0:0:
340,205,144866,1,0,0:0:0:0:
330,207,144977,1,0,0:0:0:0:
326,208,145032,1,0,0:0:0:0:
362,191,145088,1,2,0:0:0:0:
354,192,145199,1,2,0:0:0:0:
306,211,145310,1,0,0:0:0:0:
305,212,145421,1,0,0:0:0:0:
308,218,145477,1,0,0:0:0:0:
309,219,145532,1,2,0:0:0:0:
298,222,145643,1,2,0:0:0:0:
361,226,145755,1,0,0:0:0:0:
361,212,145977,1,2,0:0:0:0:
335,217,146088,1,2,0:0:0:0:
334,188,146199,1,0,0:0:0:0:
334,188,146310,1,0,0:0:0:0:
334,188,146366,1,0,0:0:0:0:
368,162,146421,1,2,0:0:0:0:
376,189,146532,1,2,0:0:0:0:
341,200,146643,1,0,0:0:0:0:
202,158,146755,1,0,0:0:0:0:
202,158,146810,1,0,0:0:0:0:
334,188,146866,1,2,0:0:0:0:
312,185,146977,1,2,0:0:0:0:
406,179,147088,1,0,0:0:0:0:
376,194,147199,1,0,0:0:0:0:
338,195,147255,1,0,0:0:0:0:
299,226,147310,1,2,0:0:0:0:
299,226,147421,1,2,0:0:0:0:
434,229,147532,1,0,0:0:0:0:
385,239,147643,1,2,0:0:0:0:
378,217,147755,1,0,0:0:0:0:
366,206,147866,1,2,0:0:0:0:
337,242,147977,1,0,0:0:0:0:
319,242,148088,1,0,0:0:0:0:
320,211,148199,1,2,0:0:0:0:
189,191,148310,1,0,0:0:0:0:
432,160,148421,1,2,0:0:0:0:
266,182,148532,1,0,0:0:0:0:
272,192,148588,1,0,0:0:0:0:
239,193,148643,1,2,0:0:0:0:
96,152,148755,1,0,0:0:0:0:
225,162,148810,1,0,0:0:0:0:
366,171,148866,1,2,0:0:0:0:
194,218,148977,1,0,0:0:0:0:
374,228,149032,1,2,0:0:0:0:
283,181,149143,1,0,0:0:0:0:
336,226,149199,1,2,0:0:0:0:
346,170,149755,1,2,0:0:0:0:
354,157,149977,1,2,0:0:0:0:
395,189,150199,1,0,0:0:0:0:
370,204,150421,1,0,0:0:0:0:
374,209,150532,1,0,0:0:0:0:
345,195,150643,1,2,0:0:0:0:
361,211,150866,1,2,0:0:0:0:
351,215,150977,1,2,0:0:0:0:
348,226,151088,1,0,0:0:0:0:
335,230,151199,1,0,0:0:0:0:
413,202,151310,1,2,0:0:0:0:
412,195,151421,1,0,0:0:0:0:
341,215,151532,1,2,0:0:0:0:
214,211,151755,1,2,0:0:0:0:
214,211,151866,1,2,0:0:0:0:
214,211,151977,1,0,0:0:0:0:
208,207,152088,1,0,0:0:0:0:
346,206,152199,1,6,0:0:0:0:
366,214,152421,1,0,0:0:0:0:
416,215,152532,1,0,0:0:0:0:
406,189,152643,1,6,0:0:0:0:
332,233,152866,1,0,0:0:0:0:
400,192,152977,1,2,0:0:0:0:
400,192,153032,1,2,0:0:0:0:
432,208,153088,1,0,0:0:0:0:
416,192,153199,1,2,0:0:0:0:
384,176,153310,1,0,0:0:0:0:
368,192,153421,1,0,0:0:0:0:
320,192,153532,1,6,0:0:0:0:
336,160,153755,1,0,0:0:0:0:
432,176,153866,1,2,0:0:0:0:
400,176,153921,1,2,0:0:0:0:
336,192,153977,1,0,0:0:0:0:
304,208,154088,1,2,0:0:0:0:
384,192,154199,1,0,0:0:0:0:
368,192,154310,1,0,0:0:0:0:
368,192,154366,1,0,0:0:0:0:
384,208,154421,1,2,0:0:0:0:
272,208,154532,1,2,0:0:0:0:
224,160,154643,1,0,0:0:0:0:
224,160,154755,1,0,0:0:0:0:
368,208,154866,1,2,0:0:0:0:
352,208,154921,1,2,0:0:0:0:
288,208,154977,1,0,0:0:0:0:
240,224,155088,1,2,0:0:0:0:
224,240,155310,1,2,0:0:0:0:
224,240,155366,1,2,0:0:0:0:
224,240,155421,1,2,0:0:0:0:
304,208,155532,1,0,0:0:0:0:
304,208,155643,1,0,0:0:0:0:
320,208,155755,1,2,0:0:0:0:
304,208,155810,1,2,0:0:0:0:
320,192,155866,1,0,0:0:0:0:
288,192,155977,1,0,0:0:0:0:
176,160,156088,1,0,0:0:0:0:
368,224,156199,1,2,0:0:0:0:
448,176,156255,1,2,0:0:0:0:
352,192,156310,1,2,0:0:0:0:
320,192,156366,1,2,0:0:0:0:
416,192,156421,1,0,0:0:0:0:
288,192,156643,1,2,0:0:0:0:
288,192,156755,1,2,0:0:0:0:
288,192,156866,1,0,0:0:0:0:
288,208,156977,1,0,0:0:0:0:
320,224,157088,1,2,0:0:0:0:
416,192,157199,1,0,0:0:0:0:
448,208,157310,1,2,0:0:0:0:
432,176,157421,1,0,0:0:0:0:
400,176,157477,1,0,0:0:0:0:
336,192,157532,1,2,0:0:0:0:
304,208,157643,1,0,0:0:0:0:
384,192,157754,1,2,0:0:0:0:
368,192,157865,1,0,0:0:0:0:
368,192,157921,1,0,0:0:0:0:
384,208,157976,1,2,0:0:0:0:
272,208,158087,1,2,0:0:0:0:
224,160,158198,1,0,0:0:0:0:
224,160,158310,1,0,0:0:0:0:
368,208,158421,1,2,0:0:0:0:
288,208,158532,1,0,0:0:0:0:
240,224,158643,1,2,0:0:0:0:
112,176,158755,1,0,0:0:0:0:
176,176,158810,1,0,0:0:0:0:
384,192,158866,1,2,0:0:0:0:
352,192,158977,1,2,0:0:0:0:
256,160,159088,1,0,0:0:0:0:
256,176,159199,1,0,0:0:0:0:
320,192,159310,1,2,0:0:0:0:
304,208,159366,1,2,0:0:0:0:
320,192,159421,1,2,0:0:0:0:
336,208,159532,1,0,0:0:0:0:
304,224,159643,1,0,0:0:0:0:
336,208,159755,1,2,0:0:0:0:
336,208,159810,1,2,0:0:0:0:
336,208,159866,1,2,0:0:0:0:
304,192,159977,1,0,0:0:0:0:
240,176,160088,1,0,0:0:0:0:
192,208,160199,1,6,0:0:0:0:
224,224,160421,1,0,0:0:0:0:
256,96,160532,1,0,0:0:0:0:
288,192,160643,1,6,0:0:0:0:
336,160,160866,1,0,0:0:0:0:
432,176,160977,1,2,0:0:0:0:
400,176,161032,1,2,0:0:0:0:
336,192,161088,1,0,0:0:0:0:
304,208,161199,1,2,0:0:0:0:
384,192,161310,1,0,0:0:0:0:
368,192,161421,1,0,0:0:0:0:
368,192,161477,1,0,0:0:0:0:
384,208,161532,1,2,0:0:0:0:
272,208,161643,1,2,0:0:0:0:
224,160,161754,1,0,0:0:0:0:
224,160,161866,1,0,0:0:0:0:
368,208,161977,1,2,0:0:0:0:
352,208,162032,1,2,0:0:0:0:
288,208,162088,1,0,0:0:0:0:
240,224,162199,1,2,0:0:0:0:
224,240,162421,1,2,0:0:0:0:
224,240,162477,1,2,0:0:0:0:
224,240,162532,1,2,0:0:0:0:
304,208,162643,1,0,0:0:0:0:
304,208,162754,1,0,0:0:0:0:
320,208,162866,1,2,0:0:0:0:
304,208,162921,1,2,0:0:0:0:
320,192,162977,1,0,0:0:0:0:
288,192,163088,1,0,0:0:0:0:
176,160,163199,1,0,0:0:0:0:
368,224,163310,1,2,0:0:0:0:
448,176,163366,1,2,0:0:0:0:
352,192,163421,1,0,0:0:0:0:
320,192,163477,1,0,0:0:0:0:
416,192,163532,1,2,0:0:0:0:
384,128,163643,1,0,0:0:0:0:
368,128,163699,1,0,0:0:0:0:
368,128,163755,1,2,0:0:0:0:
368,128,163866,1,0,0:0:0:0:
352,128,163977,1,2,0:0:0:0:
336,128,164088,1,0,0:0:0:0:
336,128,164199,1,2,0:0:0:0:
368,176,164421,1,0,0:0:0:0:
352,192,164532,1,2,0:0:0:0:
400,176,164643,1,0,0:0:0:0:
400,208,164755,1,2,0:0:0:0:
160,144,164866,1,0,0:0:0:0:
400,192,164977,1,2,0:0:0:0:
384,208,165032,1,2,0:0:0:0:
400,192,165088,1,0,0:0:0:0:
336,208,165199,1,2,0:0:0:0:
336,240,165310,1,0,0:0:0:0:
336,224,165421,1,0,0:0:0:0:
336,240,165477,1,0,0:0:0:0:
304,224,165532,1,2,0:0:0:0:
336,208,165643,1,0,0:0:0:0:
432,208,165755,1,2,0:0:0:0:
448,192,165866,1,2,0:0:0:0:
368,208,165921,1,0,0:0:0:0:
352,240,165977,1,2,0:0:0:0:
352,240,166088,1,2,0:0:0:0:
304,256,166199,1,0,0:0:0:0:
304,256,166310,1,0,0:0:0:0:
320,240,166421,1,6,0:0:0:0:
416,224,166643,1,0,0:0:0:0:
384,224,166755,1,0,0:0:0:0:
352,240,166866,1,6,0:0:0:0:
288,176,167199,1,4,0:0:0:0:
336,208,167421,1,4,0:0:0:0:
320,208,167532,1,4,0:0:0:0:
368,176,167755,1,6,0:0:0:0:
288,224,167977,1,0,0:0:0:0:
320,208,168088,1,2,0:0:0:0:
304,224,168199,1,0,0:0:0:0:
352,224,168310,1,2,0:0:0:0:
192,224,168421,1,0,0:0:0:0:
432,208,168532,1,2,0:0:0:0:
384,176,168643,1,0,0:0:0:0:
352,240,168755,1,2,0:0:0:0:
288,176,168866,1,0,0:0:0:0:
400,192,168977,1,2,0:0:0:0:
416,208,169088,1,0,0:0:0:0:
304,208,169199,1,2,0:0:0:0:
320,208,169310,1,0,0:0:0:0:
480,176,169421,1,2,0:0:0:0:
448,176,169477,1,2,0:0:0:0:
384,208,169532,1,0,0:0:0:0:
368,192,169643,1,2,0:0:0:0:
336,176,169755,1,0,0:0:0:0:
400,208,169866,1,2,0:0:0:0:
400,160,169977,1,0,0:0:0:0:
416,192,170088,1,2,0:0:0:0:
448,176,170199,1,0,0:0:0:0:
400,208,170310,1,2,0:0:0:0:
432,176,170421,1,0,0:0:0:0:
400,192,170532,1,2,0:0:0:0:
448,192,170643,1,0,0:0:0:0:
384,192,170755,1,2,0:0:0:0:
368,208,170810,1,2,0:0:0:0:
336,208,170866,1,0,0:0:0:0:
368,192,170977,1,2,0:0:0:0:
336,208,171088,1,0,0:0:0:0:
352,208,171199,1,2,0:0:0:0:
352,208,171255,1,2,0:0:0:0:
352,240,171310,1,0,0:0:0:0:
368,208,171421,1,2,0:0:0:0:
352,224,171477,1,2,0:0:0:0:
368,256,171532,1,0,0:0:0:0:
400,240,171643,1,2,0:0:0:0:
368,240,171755,1,0,0:0:0:0:
368,208,171866,1,2,0:0:0:0:
416,224,171977,1,0,0:0:0:0:
416,240,172088,1,2,0:0:0:0:
400,240,172199,1,0,0:0:0:0:
432,240,172310,1,2,0:0:0:0:
336,176,172366,1,2,0:0:0:0:
256,160,172421,1,0,0:0:0:0:
320,224,172532,1,2,0:0:0:0:
400,208,172643,1,0,0:0:0:0:
288,208,172755,1,2,0:0:0:0:
400,176,172866,1,0,0:0:0:0:
352,224,172977,1,2,0:0:0:0:
384,208,173032,1,2,0:0:0:0:
416,208,173088,1,0,0:0:0:0:
384,208,173199,1,2,0:0:0:0:
288,176,173310,1,0,0:0:0:0:
384,176,173421,1,2,0:0:0:0:
384,176,173477,1,2,0:0:0:0:
400,192,173532,1,0,0:0:0:0:
384,192,173643,1,2,0:0:0:0:
368,192,173699,1,2,0:0:0:0:
240,208,173755,1,0,0:0:0:0:
368,192,173866,1,2,0:0:0:0:
368,192,173921,1,2,0:0:0:0:
320,192,173977,1,0,0:0:0:0:
400,224,174088,1,2,0:0:0:0:
272,128,174199,1,0,0:0:0:0:
256,128,174255,1,0,0:0:0:0:
256,128,174310,1,0,0:0:0:0:
256,128,174366,1,0,0:0:0:0:
256,144,174421,1,2,0:0:0:0:
240,144,174532,1,2,0:0:0:0:
304,160,174643,1,0,0:0:0:0:
384,192,174755,1,0,0:0:0:0:
400,208,174866,1,6,0:0:0:0:
288,224,175088,1,0,0:0:0:0:
320,208,175199,1,2,0:0:0:0:
304,224,175310,1,0,0:0:0:0:
352,224,175421,1,2,0:0:0:0:
192,224,175532,1,0,0:0:0:0:
432,208,175643,1,2,0:0:0:0:
384,176,175754,1,0,0:0:0:0:
352,240,175866,1,2,0:0:0:0:
288,176,175977,1,0,0:0:0:0:
400,192,176088,1,2,0:0:0:0:
416,208,176199,1,0,0:0:0:0:
304,208,176310,1,2,0:0:0:0:
320,208,176421,1,0,0:0:0:0:
480,176,176532,1,2,0:0:0:0:
448,176,176588,1,2,0:0:0:0:
384,208,176643,1,0,0:0:0:0:
368,192,176754,1,2,0:0:0:0:
336,176,176866,1,0,0:0:0:0:
400,208,176977,1,2,0:0:0:0:
400,160,177088,1,0,0:0:0:0:
416,192,177199,1,2,0:0:0:0:
448,176,177310,1,0,0:0:0:0:
400,208,177421,1,2,0:0:0:0:
432,176,177532,1,0,0:0:0:0:
400,192,177643,1,2,0:0:0:0:
448,192,177754,1,0,0:0:0:0:
384,192,177866,1,2,0:0:0:0:
368,208,177921,1,2,0:0:0:0:
336,208,177977,1,0,0:0:0:0:
368,192,178088,1,2,0:0:0:0:
336,208,178199,1,0,0:0:0:0:
352,208,178310,1,2,0:0:0:0:
352,208,178366,1,2,0:0:0:0:
352,240,178421,1,0,0:0:0:0:
368,208,178532,1,2,0:0:0:0:
352,224,178588,1,2,0:0:0:0:
368,256,178643,1,0,0:0:0:0:
400,240,178754,1,2,0:0:0:0:
368,240,178866,1,0,0:0:0:0:
368,208,178977,1,2,0:0:0:0:
416,224,179088,1,0,0:0:0:0:
416,240,179199,1,2,0:0:0:0:
400,240,179310,1,0,0:0:0:0:
336,176,179366,1,0,0:0:0:0:
432,240,179421,1,2,0:0:0:0:
256,160,179532,1,0,0:0:0:0:
320,224,179643,1,2,0:0:0:0:
400,208,179754,1,0,0:0:0:0:
288,208,179866,1,2,0:0:0:0:
400,176,179977,1,0,0:0:0:0:
352,224,180088,1,2,0:0:0:0:
384,208,180143,1,2,0:0:0:0:
416,208,180199,1,0,0:0:0:0:
384,208,180310,1,2,0:0:0:0:
288,176,180421,1,0,0:0:0:0:
384,176,180532,1,0,0:0:0:0:
384,176,180588,1,0,0:0:0:0:
400,192,180643,1,2,0:0:0:0:
384,192,180754,1,0,0:0:0:0:
368,192,180810,1,0,0:0:0:0:
240,208,180866,1,2,0:0:0:0:
368,192,180977,1,0,0:0:0:0:
368,192,181032,1,0,0:0:0:0:
320,192,181088,1,2,0:0:0:0:
400,224,181199,1,2,0:0:0:0:
272,128,181310,1,0,0:0:0:0:
256,128,181366,1,0,0:0:0:0:
256,128,181421,1,0,0:0:0:0:
256,128,181477,1,0,0:0:0:0:
256,144,181532,1,2,0:0:0:0:
240,144,181643,1,2,0:0:0:0:
304,160,181754,1,0,0:0:0:0:
192,176,181866,1,0,0:0:0:0:
400,208,181977,1,6,0:0:0:0:
272,224,182199,1,0,0:0:0:0:
288,224,182421,1,0,0:0:0:0:
272,208,182532,1,0,0:0:0:0:
416,208,182643,1,2,0:0:0:0:
416,208,182866,1,2,0:0:0:0:
416,208,182977,1,2,0:0:0:0:
144,176,183088,1,0,0:0:0:0:
192,176,183199,1,0,0:0:0:0:
192,160,183310,1,0,0:0:0:0:
192,176,183421,1,0,0:0:0:0:
384,208,183532,1,2,0:0:0:0:
272,176,183755,1,2,0:0:0:0:
432,160,183866,1,2,0:0:0:0:
272,224,183977,1,0,0:0:0:0:
288,224,184199,1,0,0:0:0:0:
272,208,184310,1,0,0:0:0:0:
416,208,184421,1,2,0:0:0:0:
416,208,184644,1,2,0:0:0:0:
416,208,184755,1,2,0:0:0:0:
144,176,184866,1,0,0:0:0:0:
192,176,184977,1,2,0:0:0:0:
192,160,185088,1,0,0:0:0:0:
192,176,185199,1,0,0:0:0:0:
384,208,185310,1,2,0:0:0:0:
384,192,185532,1,2,0:0:0:0:
384,192,185643,1,2,0:0:0:0:
272,224,185755,1,0,0:0:0:0:
288,224,185977,1,0,0:0:0:0:
272,208,186088,1,0,0:0:0:0:
416,208,186199,1,2,0:0:0:0:
416,208,186422,1,2,0:0:0:0:
416,208,186533,1,2,0:0:0:0:
144,176,186644,1,0,0:0:0:0:
192,176,186755,1,0,0:0:0:0:
192,160,186866,1,2,0:0:0:0:
192,176,186977,1,0,0:0:0:0:
384,208,187088,1,2,0:0:0:0:
384,160,187310,1,2,0:0:0:0:
400,176,187421,1,2,0:0:0:0:
272,224,187532,1,0,0:0:0:0:
288,224,187754,1,0,0:0:0:0:
272,208,187865,1,0,0:0:0:0:
416,208,187976,1,2,0:0:0:0:
416,208,188199,1,2,0:0:0:0:
416,208,188310,1,2,0:0:0:0:
144,176,188421,1,0,0:0:0:0:
192,176,188532,1,2,0:0:0:0:
192,160,188643,1,0,0:0:0:0:
192,176,188754,1,0,0:0:0:0:
384,208,188865,1,2,0:0:0:0:
336,176,188977,1,2,0:0:0:0:
352,208,189088,1,2,0:0:0:0:
400,176,189199,1,2,0:0:0:0:
272,224,189310,1,0,0:0:0:0:
288,224,189532,1,0,0:0:0:0:
272,208,189643,1,0,0:0:0:0:
416,208,189754,1,2,0:0:0:0:
416,208,189977,1,2,0:0:0:0:
416,208,190088,1,2,0:0:0:0:
144,176,190199,1,0,0:0:0:0:
192,176,190310,1,0,0:0:0:0:
240,256,190366,1,0,0:0:0:0:
192,160,190421,1,0,0:0:0:0:
192,176,190532,1,0,0:0:0:0:
384,208,190643,1,2,0:0:0:0:
272,176,190866,1,2,0:0:0:0:
432,160,190977,1,2,0:0:0:0:
272,224,191088,1,0,0:0:0:0:
288,224,191310,1,0,0:0:0:0:
272,208,191421,1,0,0:0:0:0:
416,208,191532,1,2,0:0:0:0:
416,208,191755,1,2,0:0:0:0:
416,208,191866,1,2,0:0:0:0:
144,176,191977,1,0,0:0:0:0:
192,176,192088,1,2,0:0:0:0:
336,256,192143,1,2,0:0:0:0:
192,160,192199,1,0,0:0:0:0:
192,176,192310,1,0,0:0:0:0:
384,208,192421,1,2,0:0:0:0:
384,192,192643,1,2,0:0:0:0:
384,192,192754,1,2,0:0:0:0:
272,224,192866,1,0,0:0:0:0:
288,224,193088,1,0,0:0:0:0:
272,208,193199,1,0,0:0:0:0:
416,208,193310,1,2,0:0:0:0:
416,208,193533,1,2,0:0:0:0:
416,208,193644,1,2,0:0:0:0:
144,176,193755,1,0,0:0:0:0:
192,176,193866,1,0,0:0:0:0:
304,224,193921,1,0,0:0:0:0:
192,160,193977,1,2,0:0:0:0:
192,176,194088,1,0,0:0:0:0:
384,208,194199,1,2,0:0:0:0:
384,160,194421,1,2,0:0:0:0:
400,176,194532,1,2,0:0:0:0:
272,224,194643,1,0,0:0:0:0:
288,224,194865,1,0,0:0:0:0:
272,208,194976,1,0,0:0:0:0:
416,208,195087,1,2,0:0:0:0:
416,208,195310,1,2,0:0:0:0:
368,208,195421,1,0,0:0:0:0:
144,176,195532,1,0,0:0:0:0:
192,176,195643,1,2,0:0:0:0:
192,160,195754,1,0,0:0:0:0:
192,176,195865,1,0,0:0:0:0:
384,160,195977,1,2,0:0:0:0:
384,160,196088,1,2,0:0:0:0:
384,160,196143,1,2,0:0:0:0:
384,176,196199,1,0,0:0:0:0:
384,176,196310,1,2,0:0:0:0:
432,192,196421,1,0,0:0:0:0:
144,176,196532,1,0,0:0:0:0:
336,208,196643,1,2,0:0:0:0:
80,176,196977,1,0,0:0:0:0:
368,176,197088,1,2,0:0:0:0:
256,160,197310,1,0,0:0:0:0:
320,112,197532,1,2,0:0:0:0:
448,144,197643,1,0,0:0:0:0:
432,144,197866,1,0,0:0:0:0:
288,160,197977,1,2,0:0:0:0:
160,208,198199,1,0,0:0:0:0:
192,208,198310,1,0,0:0:0:0:
352,176,198421,1,2,0:0:0:0:
336,176,198754,1,0,0:0:0:0:
288,256,198866,1,2,0:0:0:0:
288,208,199088,1,0,0:0:0:0:
272,192,199310,1,2,0:0:0:0:
304,224,199421,1,0,0:0:0:0:
288,208,199532,1,2,0:0:0:0:
288,208,199588,1,2,0:0:0:0:
272,208,199643,1,2,0:0:0:0:
384,192,199754,1,2,0:0:0:0:
448,176,199866,1,2,0:0:0:0:
432,192,199977,1,0,0:0:0:0:
144,176,200088,1,0,0:0:0:0:
336,208,200199,1,2,0:0:0:0:
80,176,200533,1,0,0:0:0:0:
368,176,200644,1,2,0:0:0:0:
256,160,200866,1,0,0:0:0:0:
320,112,201088,1,2,0:0:0:0:
448,144,201199,1,0,0:0:0:0:
432,144,201422,1,0,0:0:0:0:
288,160,201533,1,2,0:0:0:0:
160,208,201755,1,0,0:0:0:0:
192,208,201866,1,0,0:0:0:0:
352,176,201977,1,2,0:0:0:0:
304,160,202199,1,2,0:0:0:0:
336,176,202310,1,0,0:0:0:0:
288,256,202422,1,2,0:0:0:0:
400,160,202532,1,0,0:0:0:0:
464,160,202643,1,2,0:0:0:0:
336,176,202755,1,0,0:0:0:0:
320,192,202866,1,2,0:0:0:0:
304,192,202977,1,0,0:0:0:0:
304,192,203032,1,0,0:0:0:0:
288,192,203088,1,2,0:0:0:0:
272,224,203199,1,0,0:0:0:0:
288,208,203310,1,2,0:0:0:0:
352,192,203532,1,0,0:0:0:0:
336,192,203866,1,0,0:0:0:0:
224,192,203977,1,2,0:0:0:0:
192,160,204199,1,0,0:0:0:0:
192,176,204310,1,0,0:0:0:0:
192,176,204421,1,0,0:0:0:0:
336,256,204643,1,0,0:0:0:0:
336,256,204755,1,0,0:0:0:0:
416,224,204866,1,2,0:0:0:0:
368,176,205088,1,2,0:0:0:0:
288,224,205310,1,0,0:0:0:0:
272,240,205421,1,0,0:0:0:0:
272,240,205643,1,0,0:0:0:0:
352,240,205755,1,2,0:0:0:0:
384,160,205977,1,2,0:0:0:0:
336,144,206199,1,0,0:0:0:0:
336,144,206421,1,0,0:0:0:0:
336,144,206532,1,0,0:0:0:0:
384,144,206643,1,2,0:0:0:0:
336,144,206866,1,2,0:0:0:0:
448,192,207088,1,0,0:0:0:0:
304,224,207421,1,0,0:0:0:0:
304,192,207532,1,2,0:0:0:0:
336,160,207755,1,2,0:0:0:0:
352,192,207977,1,0,0:0:0:0:
336,192,208199,1,0,0:0:0:0:
432,160,208421,1,2,0:0:0:0:
400,192,208643,1,2,0:0:0:0:
336,224,208755,1,2,0:0:0:0:
288,208,208866,1,0,0:0:0:0:
336,192,209088,1,0,0:0:0:0:
304,176,209310,1,2,0:0:0:0:
272,192,209532,1,0,0:0:0:0:
272,192,209643,1,0,0:0:0:0:
320,208,209755,1,2,0:0:0:0:
288,208,209866,1,0,0:0:0:0:
320,208,209977,1,0,0:0:0:0:
352,224,210199,1,2,0:0:0:0:
368,192,210421,1,2,0:0:0:0:
368,192,210532,1,2,0:0:0:0:
448,208,210643,1,0,0:0:0:0:
320,192,210977,1,0,0:0:0:0:
400,208,211088,1,2,0:0:0:0:
304,128,211310,1,2,0:0:0:0:
288,128,211421,1,2,0:0:0:0:
416,192,211532,1,0,0:0:0:0:
272,224,211755,1,0,0:0:0:0:
320,176,211866,1,0,0:0:0:0:
336,160,211977,1,2,0:0:0:0:
320,160,212199,1,2,0:0:0:0:
320,160,212310,1,2,0:0:0:0:
336,192,212421,1,0,0:0:0:0:
320,208,212643,1,2,0:0:0:0:
320,176,212755,1,2,0:0:0:0:
352,208,212866,1,0,0:0:0:0:
320,224,213088,1,2,0:0:0:0:
320,224,213199,1,2,0:0:0:0:
448,208,213310,1,0,0:0:0:0:
320,224,213421,1,0,0:0:0:0:
320,208,213532,1,2,0:0:0:0:
320,176,213755,1,0,0:0:0:0:
368,208,213977,1,2,0:0:0:0:
384,240,214088,1,2,0:0:0:0:
400,224,214199,1,0,0:0:0:0:
272,192,214421,1,0,0:0:0:0:
400,160,214643,1,2,0:0:0:0:
336,208,214866,1,2,0:0:0:0:
320,208,215088,1,0,0:0:0:0:
320,208,215199,1,0,0:0:0:0:
320,208,215310,1,0,0:0:0:0:
320,208,215421,1,0,0:0:0:0:
352,176,215532,1,2,0:0:0:0:
352,192,215643,1,2,0:0:0:0:
448,176,215754,1,2,0:0:0:0:
448,176,215865,1,2,0:0:0:0:
336,192,215977,1,0,0:0:0:0:
368,176,216088,1,2,0:0:0:0:
368,192,216143,1,2,0:0:0:0:
400,192,216199,1,0,0:0:0:0:
368,208,216310,1,2,0:0:0:0:
288,208,216421,1,0,0:0:0:0:
288,208,216477,1,0,0:0:0:0:
336,208,216532,1,2,0:0:0:0:
304,208,216643,1,0,0:0:0:0:
384,192,216755,1,2,0:0:0:0:
368,208,216866,1,0,0:0:0:0:
352,208,216977,1,0,0:0:0:0:
384,224,217088,1,2,0:0:0:0:
384,224,217199,1,2,0:0:0:0:
352,192,217310,1,0,0:0:0:0:
336,192,217532,1,2,0:0:0:0:
352,192,217755,1,0,0:0:0:0:
384,192,217866,1,2,0:0:0:0:
400,192,217921,1,2,0:0:0:0:
384,192,217977,1,0,0:0:0:0:
416,192,218088,1,2,0:0:0:0:
352,208,218199,1,0,0:0:0:0:
336,208,218255,1,0,0:0:0:0:
400,192,218310,1,2,0:0:0:0:
320,192,218421,1,0,0:0:0:0:
352,192,218532,1,2,0:0:0:0:
384,192,218643,1,0,0:0:0:0:
384,192,218755,1,0,0:0:0:0:
416,160,218866,1,2,0:0:0:0:
400,192,218977,1,2,0:0:0:0:
432,192,219088,1,0,0:0:0:0:
400,208,219199,1,2,0:0:0:0:
384,208,219310,1,2,0:0:0:0:
384,192,219421,1,2,0:0:0:0:
208,176,219532,1,0,0:0:0:0:
256,208,219755,1,2,0:0:0:0:
256,208,219866,1,2,0:0:0:0:
256,208,219921,1,2,0:0:0:0:
336,176,219977,1,0,0:0:0:0:
336,192,220088,1,0,0:0:0:0:
272,208,220199,1,2,0:0:0:0:
272,208,220310,1,2,0:0:0:0:
256,208,220366,1,2,0:0:0:0:
288,224,220421,1,0,0:0:0:0:
320,192,220532,1,0,0:0:0:0:
320,192,220643,1,2,0:0:0:0:
352,224,220755,1,2,0:0:0:0:
336,208,220810,1,2,0:0:0:0:
368,208,220866,1,0,0:0:0:0:
336,160,220977,1,0,0:0:0:0:
288,176,221032,1,0,0:0:0:0:
384,208,221088,1,2,0:0:0:0:
352,208,221199,1,2,0:0:0:0:
448,208,221310,1,0,0:0:0:0:
352,192,221421,1,0,0:0:0:0:
352,224,221532,1,2,0:0:0:0:
336,224,221643,1,0,0:0:0:0:
336,224,221699,1,0,0:0:0:0:
384,256,221755,1,2,0:0:0:0:
304,176,221866,1,0,0:0:0:0:
288,240,221977,1,6,0:0:0:0:
336,192,222088,1,4,0:0:0:0:
336,192,222310,1,4,0:0:0:0:
240,192,222421,1,6,0:0:0:0:
336,224,222532,1,4,0:0:0:0:
336,208,222755,1,4,0:0:0:0:
320,176,222866,1,6,0:0:0:0:
368,160,223088,1,4,0:0:0:0:
416,144,223310,1,2,0:0:0:0:
352,144,223421,1,0,0:0:0:0:
336,144,223477,1,0,0:0:0:0:
336,144,223532,1,0,0:0:0:0:
336,128,223643,1,0,0:0:0:0:
416,192,223755,1,2,0:0:0:0:
368,176,223866,1,2,0:0:0:0:
368,176,223921,1,2,0:0:0:0:
352,176,223977,1,0,0:0:0:0:
384,208,224088,1,0,0:0:0:0:
288,176,224199,1,2,0:0:0:0:
320,176,224310,1,0,0:0:0:0:
400,192,224421,1,2,0:0:0:0:
368,192,224532,1,0,0:0:0:0:
368,192,224588,1,0,0:0:0:0:
352,208,224643,1,2,0:0:0:0:
320,160,224755,1,2,0:0:0:0:
368,176,224866,1,0,0:0:0:0:
304,176,224977,1,0,0:0:0:0:
304,176,225032,1,0,0:0:0:0:
400,176,225088,1,2,0:0:0:0:
288,240,225199,1,2,0:0:0:0:
368,192,225310,1,0,0:0:0:0:
320,176,225421,1,0,0:0:0:0:
320,176,225477,1,0,0:0:0:0:
416,176,225532,1,2,0:0:0:0:
416,192,225643,1,2,0:0:0:0:
384,192,225755,1,0,0:0:0:0:
416,192,225866,1,2,0:0:0:0:
368,208,225921,1,0,0:0:0:0:
400,208,225977,1,2,0:0:0:0:
432,256,226199,1,2,0:0:0:0:
432,256,226255,1,2,0:0:0:0:
432,256,226310,1,2,0:0:0:0:
432,256,226366,1,2,0:0:0:0:
416,208,226421,1,0,0:0:0:0:
416,208,226477,1,0,0:0:0:0:
416,192,226532,1,2,0:0:0:0:
416,192,226588,1,2,0:0:0:0:
368,208,226643,1,0,0:0:0:0:
368,224,226755,1,0,0:0:0:0:
400,208,226866,1,2,0:0:0:0:
400,208,226977,1,2,0:0:0:0:
384,208,227032,1,2,0:0:0:0:
352,192,227088,1,0,0:0:0:0:
416,192,227199,1,0,0:0:0:0:
368,208,227310,1,2,0:0:0:0:
384,208,227421,1,2,0:0:0:0:
384,208,227477,1,2,0:0:0:0:
368,192,227532,1,0,0:0:0:0:
368,192,227643,1,0,0:0:0:0:
368,224,227755,1,2,0:0:0:0:
368,224,227810,1,2,0:0:0:0:
384,208,227866,1,0,0:0:0:0:
368,224,227921,1,0,0:0:0:0:
368,224,227977,1,2,0:0:0:0:
144,160,228088,1,0,0:0:0:0:
448,192,228199,1,6,0:0:0:0:
160,176,228421,1,0,0:0:0:0:
160,176,228532,1,0,0:0:0:0:
160,176,228643,1,0,0:0:0:0:
336,208,228755,1,0,0:0:0:0:
368,192,228866,1,2,0:0:0:0:
368,192,228977,1,2,0:0:0:0:
368,192,229088,1,2,0:0:0:0:
368,192,229199,1,2,0:0:0:0:
352,240,229310,1,0,0:0:0:0:
352,240,229421,1,0,0:0:0:0:
352,240,229477,1,0,0:0:0:0:
384,192,229532,1,2,0:0:0:0:
368,208,229643,1,0,0:0:0:0:
368,192,229755,1,2,0:0:0:0:
352,192,229866,1,0,0:0:0:0:
320,208,229921,1,0,0:0:0:0:
384,208,229977,1,2,0:0:0:0:
368,208,230088,1,2,0:0:0:0:
480,208,230199,1,4,0:0:0:0:
384,240,231088,1,2,0:0:0:0:
352,208,231143,1,2,0:0:0:0:
352,224,231199,1,2,0:0:0:0:
352,224,231255,1,2,0:0:0:0:
352,224,231310,1,2,0:0:0:0:
352,224,231366,1,2,0:0:0:0:
336,208,231421,1,2,0:0:0:0:
336,224,231477,1,2,0:0:0:0:
368,176,231977,1,0,0:0:0:0:
352,176,232088,1,2,0:0:0:0:
480,176,232199,1,0,0:0:0:0:
416,192,232310,1,2,0:0:0:0:
400,192,232421,1,0,0:0:0:0:
416,208,232532,1,2,0:0:0:0:
416,208,232588,1,2,0:0:0:0:
416,208,232643,1,0,0:0:0:0:
416,224,232755,1,2,0:0:0:0:
432,208,232866,1,0,0:0:0:0:
400,208,232977,1,2,0:0:0:0:
384,224,233088,1,0,0:0:0:0:
432,192,233199,1,2,0:0:0:0:
320,208,233310,1,0,0:0:0:0:
336,192,233421,1,2,0:0:0:0:
336,192,233477,1,2,0:0:0:0:
336,192,233532,1,2,0:0:0:0:
384,192,233643,1,2,0:0:0:0:
384,208,233755,1,0,0:0:0:0:
320,208,233866,1,0,0:0:0:0:
320,224,233977,1,2,0:0:0:0:
352,224,234088,1,0,0:0:0:0:
112,176,234199,1,0,0:0:0:0:
320,208,234310,1,0,0:0:0:0:
304,208,234366,1,0,0:0:0:0:
368,208,234421,1,2,0:0:0:0:
368,192,234532,1,2,0:0:0:0:
368,192,234643,1,0,0:0:0:0:
368,192,234754,1,0,0:0:0:0:
384,192,234866,1,2,0:0:0:0:
416,208,234977,1,0,0:0:0:0:
144,160,235088,1,0,0:0:0:0:
144,160,235144,1,0,0:0:0:0:
352,240,235199,1,2,0:0:0:0:
352,192,235310,1,2,0:0:0:0:
320,224,235532,1,0,0:0:0:0:
240,144,235643,1,0,0:0:0:0:
352,144,235755,1,2,0:0:0:0:
352,208,235866,1,2,0:0:0:0:
368,176,235977,1,0,0:0:0:0:
352,192,236088,1,2,0:0:0:0:
336,192,236143,1,2,0:0:0:0:
336,192,236199,1,2,0:0:0:0:
368,208,236310,1,2,0:0:0:0:
448,192,236421,1,0,0:0:0:0:
432,208,236532,1,0,0:0:0:0:
416,192,236643,1,2,0:0:0:0:
416,192,236755,1,2,0:0:0:0:
352,208,236866,1,0,0:0:0:0:
256,192,236977,1,0,0:0:0:0:
256,192,237032,1,0,0:0:0:0:
416,192,237088,1,2,0:0:0:0:
384,192,237199,1,2,0:0:0:0:
368,208,237310,1,0,0:0:0:0:
448,208,237421,1,0,0:0:0:0:
384,160,237532,1,6,0:0:0:0:
192,176,237755,1,0,0:0:0:0:
240,176,237866,1,0,0:0:0:0:
384,176,237977,1,6,0:0:0:0:
384,192,238199,1,0,0:0:0:0:
368,192,238310,1,0,0:0:0:0:
384,160,238421,1,2,0:0:0:0:
352,192,238532,1,0,0:0:0:0:
352,208,238588,1,2,0:0:0:0:
448,160,238643,1,0,0:0:0:0:
448,176,238755,1,0,0:0:0:0:
384,192,238866,1,6,0:0:0:0:
288,208,239088,1,0,0:0:0:0:
288,208,239199,1,0,0:0:0:0:
352,192,239310,1,2,0:0:0:0:
352,192,239421,1,2,0:0:0:0:
352,192,239477,1,2,0:0:0:0:
448,192,239532,1,0,0:0:0:0:
400,176,239643,1,2,0:0:0:0:
384,144,239755,1,0,0:0:0:0:
352,160,239866,1,2,0:0:0:0:
320,192,239921,1,2,0:0:0:0:
416,128,239977,1,0,0:0:0:0:
352,192,240088,1,2,0:0:0:0:
352,208,240199,1,0,0:0:0:0:
368,224,240310,1,2,0:0:0:0:
448,176,240366,1,2,0:0:0:0:
448,176,240421,1,2,0:0:0:0:
272,160,240532,1,0,0:0:0:0:
352,192,240643,1,2,0:0:0:0:
352,224,240755,1,0,0:0:0:0:
432,208,240810,1,2,0:0:0:0:
464,208,240866,1,0,0:0:0:0:
432,224,240977,1,0,0:0:0:0:
336,240,241088,1,2,0:0:0:0:
336,240,241199,1,2,0:0:0:0:
336,240,241255,1,2,0:0:0:0:
368,192,241310,1,0,0:0:0:0:
352,192,241421,1,2,0:0:0:0:
368,208,241532,1,0,0:0:0:0:
352,208,241643,1,2,0:0:0:0:
352,208,241699,1,2,0:0:0:0:
400,224,241755,1,0,0:0:0:0:
368,160,241866,1,2,0:0:0:0:
496,176,241977,1,0,0:0:0:0:
352,192,242088,1,2,0:0:0:0:
352,192,242143,1,2,0:0:0:0:
336,192,242199,1,2,0:0:0:0:
320,208,242310,1,0,0:0:0:0:
288,224,242421,1,2,0:0:0:0:
368,176,242532,1,2,0:0:0:0:
336,256,242643,1,0,0:0:0:0:
432,224,242866,1,2,0:0:0:0:
448,208,242977,1,2,0:0:0:0:
432,208,243032,1,2,0:0:0:0:
368,192,243088,1,0,0:0:0:0:
416,176,243199,1,2,0:0:0:0:
352,160,243310,1,0,0:0:0:0:
400,176,243421,1,2,0:0:0:0:
336,176,243532,1,0,0:0:0:0:
176,128,243588,1,0,0:0:0:0:
192,144,243643,1,0,0:0:0:0:
368,176,243755,1,2,0:0:0:0:
432,192,243866,1,0,0:0:0:0:
416,192,243921,1,0,0:0:0:0:
448,176,243977,1,2,0:0:0:0:
448,176,244088,1,2,0:0:0:0:
464,160,244199,1,0,0:0:0:0:
432,160,244255,1,0,0:0:0:0:
352,176,244310,1,2,0:0:0:0:
352,176,244366,1,2,0:0:0:0:
416,208,244421,1,0,0:0:0:0:
320,208,244532,1,0,0:0:0:0:
432,176,244643,1,2,0:0:0:0:
432,176,244755,1,2,0:0:0:0:
432,176,244810,1,2,0:0:0:0:
496,192,244866,1,0,0:0:0:0:
480,208,244977,1,0,0:0:0:0:
432,192,245088,1,2,0:0:0:0:
416,208,245199,1,2,0:0:0:0:
464,192,245310,1,0,0:0:0:0:
320,192,245755,1,2,0:0:0:0:
320,192,245977,1,2,0:0:0:0:
368,176,246199,1,4,0:0:0:0:
304,240,246421,1,4,0:0:0:0:
304,240,246643,1,4,0:0:0:0:
304,240,246866,1,4,0:0:0:0:
304,240,247088,1,4,0:0:0:0:
304,240,247310,1,4,0:0:0:0:
288,240,247532,1,4,0:0:0:0:
288,240,247755,1,4,0:0:0:0:
288,240,247977,1,4,0:0:0:0:
288,208,248199,1,4,0:0:0:0:
288,208,248421,1,4,0:0:0:0:
272,208,248643,1,4,0:0:0:0:
272,208,248866,1,4,0:0:0:0:
320,224,249088,1,4,0:0:0:0:
320,224,249310,1,4,0:0:0:0:
320,224,249532,1,4,0:0:0:0:
320,224,249755,1,4,0:0:0:0:
400,192,249977,1,4,0:0:0:0:
368,256,250199,1,4,0:0:0:0:
400,224,250421,1,4,0:0:0:0:
368,176,250643,1,4,0:0:0:0:
432,160,250866,1,4,0:0:0:0:
400,224,251088,1,4,0:0:0:0:
384,240,251310,1,4,0:0:0:0:
320,240,251532,1,4,0:0:0:0:
320,240,251755,1,4,0:0:0:0:
320,224,251977,1,4,0:0:0:0:
320,224,252199,1,4,0:0:0:0:
320,224,252421,1,4,0:0:0:0:
352,192,252532,1,6,0:0:0:0:
352,176,252643,1,4,0:0:0:0:
336,176,252755,1,6,0:0:0:0:
64,160,252866,1,0,0:0:0:0:
208,160,252977,1,0,0:0:0:0:
208,160,253032,1,0,0:0:0:0:
208,160,253088,1,0,0:0:0:0:
224,176,253199,1,0,0:0:0:0:
288,192,253310,1,6,0:0:0:0:
336,192,253532,1,6,0:0:0:0:
400,192,253755,1,6,0:0:0:0:
384,208,253977,1,6,0:0:0:0:
384,208,254199,1,6,0:0:0:0:
384,192,254421,1,6,0:0:0:0:
368,176,254643,1,6,0:0:0:0:
352,176,254866,1,6,0:0:0:0:
352,176,255088,1,6,0:0:0:0:
352,176,255310,1,6,0:0:0:0:
336,176,255532,1,6,0:0:0:0:
336,176,255755,1,6,0:0:0:0:
320,176,255977,1,6,0:0:0:0:
320,176,256199,1,6,0:0:0:0:
320,160,256421,1,6,0:0:0:0:
304,160,256643,1,6,0:0:0:0:
304,160,256866,1,6,0:0:0:0:
272,192,256977,1,0,0:0:0:0:
288,224,257088,1,2,0:0:0:0:
256,160,257199,1,0,0:0:0:0:
288,256,257310,1,2,0:0:0:0:
320,160,257421,1,0,0:0:0:0:
320,160,257477,1,0,0:0:0:0:
400,208,257532,1,2,0:0:0:0:
352,208,257643,1,0,0:0:0:0:
272,208,257755,1,6,0:0:0:0:
256,224,257866,1,0,0:0:0:0:
352,224,257977,1,2,0:0:0:0:
320,240,258088,1,0,0:0:0:0:
400,208,258199,1,2,0:0:0:0:
384,208,258310,1,2,0:0:0:0:
448,192,258366,1,0,0:0:0:0:
352,192,258421,1,2,0:0:0:0:
432,192,258532,1,0,0:0:0:0:
304,192,258643,1,0,0:0:0:0:
304,192,258754,1,0,0:0:0:0:
288,256,258865,1,6,0:0:0:0:
304,208,259088,1,0,0:0:0:0:
288,208,259199,1,0,0:0:0:0:
368,224,259310,1,6,0:0:0:0:
352,224,259532,1,6,0:0:0:0:
384,224,259755,1,6,0:0:0:0:
352,208,259977,1,6,0:0:0:0:
352,160,260199,1,2,0:0:0:0:
352,160,260310,1,2,0:0:0:0:
352,176,260366,1,2,0:0:0:0:
336,208,260421,1,0,0:0:0:0:
160,160,260755,1,0,0:0:0:0:
272,160,260810,1,0,0:0:0:0:
464,176,260866,1,2,0:0:0:0:
352,240,261310,1,4,0:0:0:0:
336,224,261532,1,6,0:0:0:0:
272,208,261643,1,4,0:0:0:0:
320,208,261866,1,6,0:0:0:0:
288,192,261977,1,4,0:0:0:0:
400,192,262088,1,6,0:0:0:0:
288,224,262199,1,4,0:0:0:0:
368,192,262421,1,2,0:0:0:0:
384,208,262532,1,2,0:0:0:0:
384,224,262588,1,2,0:0:0:0:
304,176,262643,1,0,0:0:0:0:
368,176,262755,1,0,0:0:0:0:
368,208,262866,1,2,0:0:0:0:
352,208,262977,1,4,0:0:0:0:
384,208,263199,1,4,0:0:0:0:
368,192,263310,1,6,0:0:0:0:
416,192,263421,1,4,0:0:0:0:
304,160,263532,1,6,0:0:0:0:
256,160,263755,1,6,0:0:0:0:
240,192,263977,1,0,0:0:0:0:
272,224,264088,1,0,0:0:0:0:
240,192,264199,1,2,0:0:0:0:
208,176,264310,1,0,0:0:0:0:
272,192,264421,1,0,0:0:0:0:
272,192,264477,1,0,0:0:0:0:
320,208,264532,1,2,0:0:0:0:
368,208,264643,1,0,0:0:0:0:
352,208,264699,1,0,0:0:0:0:
336,208,264754,1,2,0:0:0:0:
224,160,264866,1,0,0:0:0:0:
240,176,264977,1,0,0:0:0:0:
400,192,265088,1,2,0:0:0:0:
368,224,265199,1,2,0:0:0:0:
400,208,265310,1,0,0:0:0:0:
368,176,265421,1,2,0:0:0:0:
368,176,265532,1,2,0:0:0:0:
416,224,265755,1,0,0:0:0:0:
400,224,265866,1,0,0:0:0:0:
352,224,265977,1,2,0:0:0:0:
256,224,266088,1,0,0:0:0:0:
256,224,266199,1,0,0:0:0:0:
256,224,266255,1,2,0:0:0:0:
320,176,266310,1,0,0:0:0:0:
416,208,266421,1,0,0:0:0:0:
400,224,266477,1,0,0:0:0:0:
320,192,266532,1,2,0:0:0:0:
320,160,266643,1,0,0:0:0:0:
432,192,266755,1,2,0:0:0:0:
432,192,266810,1,2,0:0:0:0:
384,192,266866,1,0,0:0:0:0:
368,224,266977,1,2,0:0:0:0:
336,208,267088,1,0,0:0:0:0:
352,208,267199,1,0,0:0:0:0:
336,176,267310,1,2,0:0:0:0:
256,176,267532,1,0,0:0:0:0:
272,176,267643,1,0,0:0:0:0:
336,224,267755,1,2,0:0:0:0:
352,240,267866,1,2,0:0:0:0:
336,240,267977,1,0,0:0:0:0:
320,240,268032,1,0,0:0:0:0:
400,192,268088,1,2,0:0:0:0:
400,224,268199,1,0,0:0:0:0:
400,224,268255,1,0,0:0:0:0:
400,208,268310,1,2,0:0:0:0:
368,160,268421,1,0,0:0:0:0:
448,208,268532,1,0,0:0:0:0:
448,208,268643,1,2,0:0:0:0:
416,208,268755,1,2,0:0:0:0:
480,176,268810,1,0,0:0:0:0:
448,192,268866,1,2,0:0:0:0:
384,192,268977,1,0,0:0:0:0:
384,192,269032,1,0,0:0:0:0:
448,176,269088,1,2,0:0:0:0:
320,192,269199,1,2,0:0:0:0:
304,192,269310,1,0,0:0:0:0:
304,208,269421,1,0,0:0:0:0:
368,208,269532,1,2,0:0:0:0:
336,208,269644,1,0,0:0:0:0:
320,208,269699,1,0,0:0:0:0:
480,192,269755,1,2,0:0:0:0:
448,192,269810,1,2,0:0:0:0:
416,208,269866,1,0,0:0:0:0:
352,208,269977,1,2,0:0:0:0:
352,208,270088,1,2,0:0:0:0:
304,192,270199,1,4,0:0:0:0:
304,144,270421,1,4,0:0:0:0:
448,176,270643,1,4,0:0:0:0:
304,144,270755,1,2,0:0:0:0:
304,144,270810,1,2,0:0:0:0:
304,144,270866,1,2,0:0:0:0:
368,192,271088,1,6,0:0:0:0:
352,176,271310,1,0,0:0:0:0:
352,176,271366,1,0,0:0:0:0:
336,176,271421,1,0,0:0:0:0:
336,176,271477,1,0,0:0:0:0:
400,224,271532,1,2,0:0:0:0:
