osu file format v14

[General]
AudioFilename: audio.mp3
AudioLeadIn: 0
PreviewTime: 67421
Countdown: 0
SampleSet: Normal
StackLeniency: 0.7
Mode: 1
LetterboxInBreaks: 0
WidescreenStoryboard: 1

[Editor]
Bookmarks: 12997,18644,39977,67421,89310,105755,149310,182199,203088,230199
DistanceSpacing: 0.5
BeatDivisor: 6
GridSize: 16
TimelineZoom: 3.899999

[Metadata]
Title:Unchi wo Shite Shimatta Toki no Mashcore
TitleUnicode:うんちをしてしまった時のMashcore
Artist:cexiria
ArtistUnicode:cexiria
Creator:Maimaing
Version:Applemode
Source:
Tags:Nekomusya7563 XK2238 Salieri applerss japanese electronic j-core jcore hardcore mashcore バーチャル virtual youtuber vtuber hololive ホロライブmad otomad 音mad ディスコミュ星人 discommunication alien 兎田ぺこら usada pekora cover ナナヲアカリ nanawo akari ナユタン星人 turing love チューリングラブ 湊あくあ minato aqua 猫又おかゆ nekomata okayu グッバイ宣言 goodbye sengen ハイカラサウンド highkarasound 紫咲シオン murasaki shion ヴァンパイア vampire deco*27 ボーカロイド vocaloid vocca della verita ボッカデラベリタ roboco-san ロボ子さん hiiragi kirai 柊キライ monster kaibutsu 怪物 tsunomaki watame 角巻わため yoasobi one room sugar life ワンルームシュガーライフ nayutalien nayuta seijin ナユタン星人 watashi idol sengen 私、アイドル宣⾔ chico with honeyworks 私を染める i の歌 wo someru i no uta gom oji 海賊王 shito atsyuk! ヤマコ
BeatmapID:3206603
BeatmapSetID:1521630

[Difficulty]
HPDrainRate:6.7
CircleSize:4
OverallDifficulty:6.3
ApproachRate:6
SliderMultiplier:1.4
SliderTickRate:0.5

[Events]
//Background and Video events
0,0,"unchi2.png",0,0
//Break Periods
2,12668,17594
//Storyboard Layer 0 (Background)
//Storyboard Layer 1 (Fail)
//Storyboard Layer 2 (Pass)
//Storyboard Layer 3 (Foreground)
//Storyboard Layer 4 (Overlay)
//Storyboard Sound Samples

[TimingPoints]
645,352.941176470588,4,1,0,70,1,0
9027,-100,4,1,0,90,0,0
10439,-100,4,1,0,65,0,0
11939,-125,4,1,0,5,0,0
12997,-33.3333333333333,4,1,0,5,0,0
18616,-100,4,1,0,95,0,0
18644,222.222222222222,4,1,0,95,1,0
24032,-101.264380908987,4,1,0,95,0,0
24254,-103.891550777142,4,1,0,95,0,0
24476,-106.658668266347,4,1,0,95,0,0
24699,-109.590729783037,4,1,0,95,0,0
24810,-111.111111111111,4,1,0,95,0,0
24921,-117.647058823529,4,1,0,70,0,0
25032,-117.647058823529,4,1,0,70,0,0
25143,-118.810117563235,4,1,0,70,0,0
25254,-119.996401906989,4,1,0,70,0,0
25365,-121.206614573869,4,1,0,70,0,0
25476,-122.441486920606,4,1,0,70,0,0
25587,-123.70178041543,4,1,0,70,0,0
25699,-100,4,1,0,95,0,0
31866,-80,4,1,0,95,0,0
32615,-97.566323174742,4,1,0,95,0,0
32671,-96.971017650904,4,1,0,95,0,0
32727,-96.382932640243,4,1,0,95,0,0
32838,-95.238095238095,4,1,0,95,0,0
39069,-95.2380952380952,4,1,0,77,0,0
39199,-111.111111111111,4,1,0,77,0,0
39866,-125,4,1,0,60,0,0
40366,-100,4,1,0,90,0,0
40755,-125,4,1,0,60,0,0
41255,-100,4,1,0,90,0,0
41643,-125,4,1,0,60,0,0
42143,-100,4,1,0,90,0,0
42310,-125,4,1,0,60,0,0
42977,-100,4,1,0,90,0,0
43310,-125,4,1,0,60,0,0
43921,-100,4,1,0,90,0,0
44088,-125,4,1,0,60,0,0
44810,-100,4,1,0,90,0,0
44977,-125,4,1,0,60,0,0
46755,-83.3333333333333,4,1,0,90,0,0
46977,-100,4,1,0,90,0,0
47087,-100,4,1,0,90,0,1
53477,-89.2857142857143,4,1,0,90,0,1
53588,-100,4,1,0,90,0,1
53921,-89.2857142857143,4,1,0,90,0,1
54032,-100,4,1,0,90,0,1
59699,-89.2857142857143,4,1,0,90,0,1
59866,-100,4,1,0,90,0,1
60143,-89.2857142857143,4,1,0,90,0,1
60411,-96.157175004328,4,1,0,95,0,1
60467,-95.234013372193,4,1,0,95,0,1
60522,-94.344429347826,4,1,0,95,0,1
60578,-93.455585464334,4,1,0,95,0,1
60633,-92.598766461077,4,1,0,95,0,1
60689,-91.742361684558,4,1,0,95,0,1
60745,-90.901652757323,4,1,0,95,0,1
60800,-90.090820629257,4,1,0,95,0,1
60856,-89.279974284796,4,1,0,95,0,1
60893,-88.752196836555,4,1,0,95,0,1
60930,-88.230622617535,4,1,0,95,0,1
60967,-87.715142902258,4,1,0,95,0,1
61022,-86.959924859111,4,1,0,95,0,1
61078,-86.204220980757,4,1,0,95,0,1
61115,-85.712081468909,4,1,0,95,0,1
61152,-85.225529303467,4,1,0,95,0,1
61189,-84.744469870328,4,1,0,95,0,1
61226,-84.268810679612,4,1,0,95,0,1
61263,-83.798461306381,4,1,0,95,0,1
61300,-83.333333333333,4,1,0,95,0,1
61310,-83.333333333333,4,1,0,95,0,0
61699,-74.0740740740741,4,1,0,90,0,0
61866,-83.3333333333333,4,1,0,90,0,0
62532,-74.0740740740741,4,1,0,90,0,0
62755,-83.3333333333333,4,1,0,90,0,0
63477,-74.0740740740741,4,1,0,90,0,0
63643,-83.3333333333333,4,1,0,90,0,0
64395,-74.074074074074,4,1,0,95,0,0
64451,-75.124504093863,4,1,0,95,0,0
64506,-76.185584660161,4,1,0,95,0,0
64617,-78.421006256058,4,1,0,95,0,0
64673,-79.599320275467,4,1,0,95,0,0
64729,-80.813583946245,4,1,0,95,0,0
64784,-82.042772861357,4,1,0,95,0,0
64840,-83.333333333333,4,1,0,95,0,0
65255,-80,4,1,0,90,0,0
65421,-83.3333333333333,4,1,0,90,0,0
66143,-80,4,1,0,90,0,0
66255,-83.3333333333333,4,1,0,90,0,0
66840,-81.389266659692,4,1,0,95,0,0
66951,-80.455015511892,4,1,0,95,0,0
67062,-79.541969123811,4,1,0,95,0,0
67173,-78.64941366761,4,1,0,95,0,0
67284,-77.7766669999,4,1,0,95,0,0
67366,-71.4285714285714,4,1,0,90,0,0
68366,-100,4,1,0,85,0,0
68420,-100,4,1,0,85,0,1
75421,-100,4,1,0,5,0,1
75532,-12.8700128700129,4,1,0,5,0,1
75810,-100,4,1,0,85,0,1
82310,-75.187969924812,4,1,0,95,0,1
82532,-100,4,1,0,85,0,1
82642,-100,4,1,0,85,0,0
89366,-100,4,1,0,75,0,0
89699,-100,4,1,0,85,0,0
89921,-89.2857142857143,4,1,0,85,0,0
90032,-100,4,1,0,85,0,0
90198,-100,4,1,0,85,0,1
96911,-98.175787728027,4,1,0,95,0,1
96967,-96.385542168675,4,1,0,95,0,1
97022,-94.689699296225,4,1,0,95,0,1
97078,-93.023255813953,4,1,0,95,0,1
97106,-92.211838006231,4,1,0,95,0,1
97189,-89.887640449438,4,1,0,95,0,1
97217,-89.129780186691,4,1,0,95,0,1
97300,-95.238095238095,4,1,0,95,0,1
97356,-93.556186271418,4,1,0,95,0,1
97411,-91.961148997727,4,1,0,95,0,1
97467,-90.392037375584,4,1,0,95,0,1
97522,-88.902207571671,4,1,0,95,0,1
97550,-88.162456661714,4,1,0,95,0,1
97633,-86.040216550657,4,1,0,95,0,1
97661,-85.347142309168,4,1,0,95,0,1
97699,-89.2857142857143,4,1,0,85,0,1
98143,-77.5193798449612,4,1,0,85,0,1
98310,-95.2380952380952,4,1,0,85,0,1
98633,-95.238095238095,4,1,0,95,0,1
98689,-93.556186271418,4,1,0,95,0,1
98745,-91.93265158558,4,1,0,95,0,1
98800,-90.392037375584,4,1,0,95,0,1
98856,-88.875574196125,4,1,0,95,0,1
98883,-88.162456661714,4,1,0,95,0,1
98967,-86.015270126607,4,1,0,95,0,1
98995,-85.322596107756,4,1,0,95,0,1
99078,-90.909090909091,4,1,0,95,0,1
99133,-89.398973119903,4,1,0,95,0,1
99189,-87.912087912088,4,1,0,95,0,1
99245,-86.473853345019,4,1,0,95,0,1
99300,-85.106382978723,4,1,0,95,0,1
99328,-84.426697090702,4,1,0,95,0,1
99411,-82.474226804124,4,1,0,95,0,1
99439,-81.835775504562,4,1,0,95,0,1
99477,-75.7575757575758,4,1,0,85,0,1
100143,-66.6666666666667,4,1,0,85,0,1
100366,-100,4,1,0,85,0,1
103173,-97.563652326602,4,1,0,95,0,1
103229,-96.379011274935,4,1,0,95,0,1
103284,-95.243196914506,4,1,0,95,0,1
103340,-94.113910650011,4,1,0,95,0,1
103395,-93.030556718292,4,1,0,95,0,1
103451,-91.952834091849,4,1,0,95,0,1
103506,-90.91838821845,4,1,0,95,0,1
103562,-89.888776541962,4,1,0,95,0,1
103617,-88.9,4,1,0,95,0,1
103673,-87.915348101266,4,1,0,95,0,1
103729,-86.952269170579,4,1,0,95,0,1
103784,-86.026707954326,4,1,0,95,0,1
103840,-85.10434616121,4,1,0,95,0,1
103921,-100,4,1,0,85,0,1
104143,-83.3333333333333,4,1,0,85,0,1
104366,-100,4,1,0,85,0,1
104588,-74.0740740740741,4,1,0,85,0,1
104810,-100,4,1,0,85,0,1
105477,-64.5161290322581,4,1,0,85,0,1
105643,-142.857142857143,4,1,0,40,0,1
105753,-142.857142857143,4,1,0,40,0,0
109255,-111.111111111111,4,1,0,70,0,0
112366,-90.0900900900901,4,1,0,90,0,0
112755,-100,4,1,0,72,0,0
119866,-111.111111111111,4,1,0,60,0,0
126199,-151.515151515152,4,1,0,22,0,0
126977,-111.111111111111,4,1,0,60,0,0
134143,-100,4,1,0,85,0,0
134198,-100,4,1,0,85,0,1
135866,-117.647058823529,4,1,0,58,0,1
135975,-117.647058823529,4,1,0,58,0,0
139421,-111.111111111111,4,1,0,63,0,0
142977,-89.2857142857143,4,1,0,88,0,0
144088,-100,4,1,0,88,0,0
144810,-89.2857142857143,4,1,0,88,0,0
145921,-100,4,1,0,88,0,0
146588,-89.2857142857143,4,1,0,88,0,0
149255,-125,4,1,0,44,0,0
150088,-117.647058823529,4,1,0,70,0,0
151921,-105.263157894737,4,1,0,85,0,0
153477,-75.187969924812,4,1,0,87,0,0
153699,-100,4,1,0,87,0,0
153753,-100,4,1,0,87,0,1
160143,-83.3333333333333,4,1,0,87,0,1
160366,-100,4,1,0,87,0,1
160588,-83.3333333333333,4,1,0,87,0,1
160810,-100,4,1,0,87,0,1
162810,-83.3333333333333,4,1,0,87,0,1
162921,-100,4,1,0,87,0,1
163255,-83.3333333333333,4,1,0,87,0,1
163366,-100,4,1,0,87,0,1
167921,-94.3396226415094,4,1,0,87,0,1
174810,-77.5193798449612,4,1,0,92,0,1
174977,-89.2857142857143,4,1,0,87,0,1
181949,-89.2857142857143,4,1,0,58,0,1
181977,-89.2857142857143,4,1,0,58,0,0
182143,-111.111111111111,4,1,0,55,0,0
182588,-111.111111111111,4,1,0,77,0,0
182699,-111.111111111111,4,1,0,55,0,0
183477,-111.111111111111,4,1,0,77,0,0
183588,-111.111111111111,4,1,0,55,0,0
184366,-111.111111111111,4,1,0,77,0,0
184477,-111.111111111111,4,1,0,55,0,0
185255,-111.111111111111,4,1,0,77,0,0
185366,-111.111111111111,4,1,0,55,0,0
186143,-111.111111111111,4,1,0,77,0,0
186255,-111.111111111111,4,1,0,55,0,0
187032,-111.111111111111,4,1,0,77,0,0
187143,-111.111111111111,4,1,0,55,0,0
187921,-111.111111111111,4,1,0,77,0,0
188032,-111.111111111111,4,1,0,55,0,0
188810,-108.695652173913,4,1,0,77,0,0
188921,-106.382978723404,4,1,0,55,0,0
189032,-104.166666666667,4,1,0,55,0,0
189143,-102.040816326531,4,1,0,55,0,0
189255,-100,4,1,0,55,0,0
189699,-100,4,1,0,77,0,0
189810,-100,4,1,0,55,0,0
190588,-100,4,1,0,77,0,0
190699,-100,4,1,0,55,0,0
191477,-100,4,1,0,77,0,0
191588,-100,4,1,0,55,0,0
192366,-100,4,1,0,77,0,0
192477,-100,4,1,0,55,0,0
193255,-100,4,1,0,77,0,0
193366,-100,4,1,0,55,0,0
194143,-100,4,1,0,77,0,0
194255,-100,4,1,0,55,0,0
195032,-100,4,1,0,77,0,0
195143,-100,4,1,0,55,0,0
195949,-100,4,1,0,77,0,0
196005,-100,4,1,0,55,0,0
196366,-78.7401574803149,4,1,0,77,0,0
203477,-142.857142857143,4,1,0,30,0,0
210532,-100,4,1,0,80,0,0
215477,-76.9230769230769,4,1,0,80,0,0
215588,-100,4,1,0,80,0,0
215975,-100,4,1,0,80,0,1
221921,-90.9090909090909,4,1,0,80,0,1
222032,-75.7575757575758,4,1,0,80,0,1
222977,-12.8700128700129,4,1,0,5,0,1
223199,-100,4,1,0,80,0,1
228522,-97.563652326602,4,1,0,80,0,1
228633,-95.243196914506,4,1,0,80,0,1
228745,-93.011090186231,4,1,0,80,0,1
228856,-90.899795501023,4,1,0,80,0,1
228967,-88.882223555289,4,1,0,80,0,1
229078,-86.952269170579,4,1,0,80,0,1
229189,-85.10434616121,4,1,0,80,0,1
229300,-83.333333333333,4,1,0,80,0,1
229411,-81.634527089073,4,1,0,80,0,1
229467,-80.803490274496,4,1,0,80,0,1
229522,-80.003599712023,4,1,0,80,0,1
229633,-78.436562555144,4,1,0,80,0,1
229745,-76.916421526216,4,1,0,80,0,1
229856,-75.466893039049,4,1,0,80,0,1
229967,-74.070988168639,4,1,0,80,0,1
230078,-72.725785340314,4,1,0,80,0,1
230143,-71.4285714285714,4,1,0,33,0,1
230198,-66.6666666666667,4,1,0,33,0,0
231032,-62.5,4,1,0,88,0,0
231921,-97.0873786407767,4,1,0,90,0,0
231975,-97.0873786407767,4,1,0,90,0,1
237255,-75.187969924812,4,1,0,90,0,1
238532,-97.0873786407767,4,1,0,90,0,1
245310,-97.0873786407767,4,1,0,90,0,0
246088,-90.9090909090909,4,1,0,67,0,0
246199,-90.9090909090909,4,1,0,67,0,1
253255,-86.9565217391304,4,1,0,76,0,1
258755,-74.0740740740741,4,1,0,90,0,1
258977,-86.9565217391304,4,1,0,76,0,1
259255,-74.0740740740741,4,1,0,90,0,1
259421,-83.3333333333333,4,1,0,76,0,1
260366,-80,4,1,0,85,0,1
260420,-80,4,1,0,85,0,0
260643,-100,4,1,0,85,0,0
261199,-83.3333333333333,4,1,0,90,0,0
261309,-83.3333333333333,4,1,0,90,0,1
262143,-76.9230769230769,4,1,0,90,0,1
262199,-76.9230769230769,4,1,0,90,0,0
262977,-76.9230769230769,4,1,0,90,0,1
263866,-97.0873786407767,4,1,0,82,0,0
263977,-97.0873786407767,4,1,0,82,0,1
271588,-97.0873786407767,4,1,0,82,0,0
271755,-125,4,1,0,5,0,0
275200,-10.1317122593718,4,1,0,5,0,0

[HitObjects]
256,192,645,5,0,0:0:0:0:
256,192,997,1,8,0:0:0:0:
256,192,1350,1,0,0:0:0:0:
256,176,1703,1,8,0:0:0:0:
256,192,2056,1,0,0:0:0:0:
256,176,2409,1,8,0:0:0:0:
256,192,2762,1,0,0:0:0:0:
256,176,3115,1,8,0:0:0:0:
256,192,3468,1,0,0:0:0:0:
272,176,3821,1,8,0:0:0:0:
256,192,4174,1,0,0:0:0:0:
272,176,4527,1,8,0:0:0:0:
256,192,4880,1,0,0:0:0:0:
272,176,5233,1,8,0:0:0:0:
256,192,5586,1,0,0:0:0:0:
256,192,5850,1,0,0:0:0:0:
272,176,5939,1,8,0:0:0:0:
256,192,6115,1,8,0:0:0:0:
256,192,6292,1,0,0:0:0:0:
256,192,6644,1,8,0:0:0:0:
256,192,6997,1,0,0:0:0:0:
256,192,7350,1,8,0:0:0:0:
256,192,7703,1,0,0:0:0:0:
256,192,8056,1,8,0:0:0:0:
256,192,8409,1,0,0:0:0:0:
256,192,8762,1,8,0:0:0:0:
256,192,9115,1,8,0:0:0:0:
256,192,9468,1,8,0:0:0:0:
256,192,9821,1,8,0:0:0:0:
256,192,9997,1,0,0:0:0:0:
256,192,10086,1,8,0:0:0:0:
272,192,10174,1,8,0:0:0:0:
272,192,10350,1,8,0:0:0:0:
256,176,10527,1,0,0:0:0:0:
256,176,10880,1,0,0:0:0:0:
256,176,11233,1,0,0:0:0:0:
256,176,11586,1,0,0:0:0:0:
256,192,12027,12,0,12468,0:0:0:0:
208,176,18644,5,4,0:0:0:0:
256,192,18755,1,0,0:0:0:0:
240,208,18866,1,8,0:0:0:0:
256,208,18977,1,0,0:0:0:0:
256,192,19088,1,8,0:0:0:0:
256,192,19199,1,0,0:0:0:0:
256,192,19310,1,0,0:0:0:0:
256,192,19366,1,0,0:0:0:0:
256,192,19421,1,0,0:0:0:0:
256,192,19532,1,0,0:0:0:0:
256,192,19644,1,0,0:0:0:0:
256,192,19699,1,0,0:0:0:0:
256,192,19755,1,8,0:0:0:0:
256,192,19866,1,0,0:0:0:0:
256,192,19977,1,8,0:0:0:0:
256,192,20032,1,0,0:0:0:0:
256,192,20088,1,8,0:0:0:0:
256,192,20199,1,8,0:0:0:0:
256,192,20310,1,0,0:0:0:0:
256,192,20421,1,0,0:0:0:0:
256,192,20532,1,0,0:0:0:0:
256,192,20643,1,8,0:0:0:0:
256,192,20755,1,0,0:0:0:0:
256,176,20866,1,8,0:0:0:0:
256,176,20921,1,8,0:0:0:0:
256,176,20977,1,0,0:0:0:0:
256,176,21088,1,0,0:0:0:0:
256,176,21143,1,0,0:0:0:0:
256,176,21199,1,0,0:0:0:0:
256,176,21310,1,8,0:0:0:0:
256,176,21421,1,0,0:0:0:0:
256,176,21532,1,0,0:0:0:0:
256,176,21588,1,0,0:0:0:0:
256,176,21643,1,0,0:0:0:0:
256,176,21755,1,8,0:0:0:0:
256,176,21866,1,0,0:0:0:0:
256,176,21921,1,0,0:0:0:0:
256,176,21977,1,8,0:0:0:0:
256,176,22032,1,0,0:0:0:0:
256,176,22088,1,8,0:0:0:0:
272,192,22125,1,8,0:0:0:0:
272,192,22162,1,8,0:0:0:0:
272,192,22199,1,0,0:0:0:0:
272,192,22255,1,0,0:0:0:0:
272,192,22310,1,0,0:0:0:0:
272,192,22421,1,8,0:0:0:0:
272,192,22532,1,0,0:0:0:0:
272,192,22643,1,8,0:0:0:0:
256,192,22699,1,8,0:0:0:0:
256,192,22755,1,0,0:0:0:0:
256,192,22810,1,0,0:0:0:0:
256,192,22866,1,8,0:0:0:0:
256,192,22977,1,0,0:0:0:0:
256,192,23088,1,0,0:0:0:0:
256,192,23143,1,0,0:0:0:0:
256,192,23199,1,0,0:0:0:0:
256,192,23310,1,8,0:0:0:0:
256,192,23366,1,0,0:0:0:0:
256,192,23421,1,8,0:0:0:0:
256,192,23477,1,8,0:0:0:0:
256,192,23532,1,0,0:0:0:0:
256,192,23643,1,8,0:0:0:0:
256,192,23681,1,8,0:0:0:0:
256,192,23718,1,8,0:0:0:0:
256,192,23755,1,0,0:0:0:0:
256,208,23810,1,0,0:0:0:0:
256,208,23866,1,8,0:0:0:0:
256,176,23903,1,0,0:0:0:0:
256,176,23940,1,0,0:0:0:0:
256,176,23977,1,8,0:0:0:0:
256,192,24088,1,0,0:0:0:0:
256,192,24310,1,0,0:0:0:0:
256,192,24532,1,0,0:0:0:0:
256,192,24755,1,8,0:0:0:0:
256,192,24866,1,0,0:0:0:0:
256,192,25088,1,0,0:0:0:0:
256,192,25199,1,0,0:0:0:0:
256,192,25310,1,0,0:0:0:0:
256,192,25421,1,8,0:0:0:0:
256,192,25532,1,8,0:0:0:0:
256,192,25643,1,0,0:0:0:0:
256,192,25755,1,4,0:0:0:0:
256,192,25866,1,0,0:0:0:0:
256,192,25921,1,0,0:0:0:0:
256,192,25977,1,8,0:0:0:0:
256,192,26088,1,8,0:0:0:0:
256,192,26143,1,0,0:0:0:0:
256,192,26199,1,0,0:0:0:0:
256,192,26255,1,8,0:0:0:0:
256,192,26310,1,0,0:0:0:0:
256,192,26366,1,0,0:0:0:0:
256,192,26421,1,8,0:0:0:0:
256,192,26532,1,8,0:0:0:0:
256,192,26588,1,8,0:0:0:0:
240,192,26643,1,0,0:0:0:0:
240,192,26810,1,0,0:0:0:0:
240,192,26866,1,8,0:0:0:0:
240,192,26977,1,0,0:0:0:0:
240,192,27032,1,8,0:0:0:0:
240,192,27088,1,0,0:0:0:0:
240,192,27143,1,0,0:0:0:0:
240,192,27199,1,0,0:0:0:0:
240,192,27255,1,0,0:0:0:0:
240,192,27310,1,8,0:0:0:0:
240,192,27421,1,8,0:0:0:0:
240,192,27477,1,8,0:0:0:0:
240,192,27532,1,0,0:0:0:0:
240,192,27643,1,8,0:0:0:0:
240,192,27699,1,8,0:0:0:0:
240,192,27755,1,8,0:0:0:0:
240,192,27866,1,8,0:0:0:0:
240,192,27921,1,0,0:0:0:0:
240,192,27977,1,8,0:0:0:0:
240,192,28032,1,8,0:0:0:0:
240,192,28088,1,0,0:0:0:0:
240,192,28143,1,0,0:0:0:0:
240,192,28199,1,8,0:0:0:0:
240,192,28310,1,8,0:0:0:0:
240,192,28366,1,8,0:0:0:0:
240,192,28421,1,0,0:0:0:0:
240,192,28588,1,0,0:0:0:0:
240,192,28643,1,8,0:0:0:0:
240,192,28755,1,0,0:0:0:0:
256,192,28810,1,8,0:0:0:0:
256,192,28866,1,8,0:0:0:0:
256,192,28977,1,0,0:0:0:0:
256,192,29032,1,0,0:0:0:0:
256,192,29088,1,8,0:0:0:0:
256,192,29199,1,8,0:0:0:0:
256,192,29255,1,8,0:0:0:0:
256,192,29310,1,0,0:0:0:0:
256,192,29421,1,0,0:0:0:0:
256,192,29532,1,8,0:0:0:0:
256,192,29643,1,0,0:0:0:0:
256,192,29699,1,8,0:0:0:0:
272,176,29755,1,8,0:0:0:0:
272,176,29810,1,8,0:0:0:0:
272,192,29866,1,0,0:0:0:0:
272,192,29921,1,0,0:0:0:0:
272,192,29977,1,8,0:0:0:0:
272,176,30088,1,8,0:0:0:0:
272,176,30143,1,8,0:0:0:0:
272,176,30199,1,0,0:0:0:0:
272,176,30366,1,0,0:0:0:0:
272,176,30421,1,8,0:0:0:0:
272,176,30532,1,8,0:0:0:0:
272,176,30588,1,8,0:0:0:0:
272,176,30643,1,0,0:0:0:0:
272,176,30699,1,8,0:0:0:0:
272,176,30755,1,0,0:0:0:0:
272,176,30866,1,8,0:0:0:0:
272,176,30977,1,0,0:0:0:0:
272,192,31032,1,0,0:0:0:0:
272,192,31088,1,8,0:0:0:0:
272,192,31199,1,0,0:0:0:0:
272,192,31255,1,0,0:0:0:0:
272,192,31310,1,8,0:0:0:0:
272,192,31366,1,8,0:0:0:0:
272,192,31421,1,0,0:0:0:0:
272,192,31532,1,8,0:0:0:0:
272,192,31699,1,8,0:0:0:0:
272,192,31755,1,0,0:0:0:0:
256,176,31977,1,4,0:0:0:0:
256,176,32199,1,4,0:0:0:0:
256,176,32421,1,4,0:0:0:0:
256,176,32643,1,0,0:0:0:0:
256,176,32699,1,0,0:0:0:0:
256,176,32755,1,8,0:0:0:0:
256,176,32866,1,0,0:0:0:0:
272,176,32921,1,0,0:0:0:0:
272,176,32977,1,0,0:0:0:0:
272,176,33032,1,0,0:0:0:0:
272,176,33088,1,8,0:0:0:0:
272,192,33199,1,8,0:0:0:0:
272,192,33310,1,0,0:0:0:0:
272,192,33421,1,8,0:0:0:0:
272,192,33532,1,8,0:0:0:0:
272,192,33569,1,0,0:0:0:0:
272,192,33606,1,0,0:0:0:0:
272,192,33643,1,8,0:0:0:0:
272,192,33699,1,8,0:0:0:0:
272,192,33755,1,0,0:0:0:0:
256,192,33866,1,8,0:0:0:0:
256,192,33977,1,8,0:0:0:0:
256,192,34088,1,8,0:0:0:0:
256,192,34199,1,8,0:0:0:0:
256,192,34310,1,8,0:0:0:0:
256,192,34421,1,0,0:0:0:0:
256,192,34458,1,0,0:0:0:0:
256,192,34495,1,8,0:0:0:0:
256,192,34532,1,8,0:0:0:0:
256,192,34588,1,8,0:0:0:0:
256,192,34643,1,0,0:0:0:0:
256,192,34755,1,0,0:0:0:0:
256,192,34810,1,0,0:0:0:0:
256,192,34866,1,8,0:0:0:0:
256,192,34921,1,0,0:0:0:0:
256,192,34977,1,8,0:0:0:0:
256,192,35088,1,8,0:0:0:0:
256,192,35143,1,8,0:0:0:0:
256,192,35255,1,8,0:0:0:0:
256,192,35310,1,0,0:0:0:0:
256,192,35421,1,0,0:0:0:0:
256,192,35532,1,8,0:0:0:0:
256,176,35569,1,0,0:0:0:0:
256,176,35606,1,0,0:0:0:0:
256,192,35643,1,8,0:0:0:0:
256,192,35755,1,0,0:0:0:0:
256,192,35792,1,0,0:0:0:0:
256,192,35829,1,0,0:0:0:0:
288,176,35866,1,8,0:0:0:0:
256,176,35977,1,8,0:0:0:0:
256,192,36088,1,0,0:0:0:0:
256,192,36199,1,8,0:0:0:0:
256,192,36255,1,8,0:0:0:0:
256,192,36310,1,8,0:0:0:0:
256,192,36421,1,0,0:0:0:0:
256,192,36477,1,0,0:0:0:0:
256,192,36532,1,0,0:0:0:0:
256,192,36588,1,0,0:0:0:0:
256,192,36643,1,8,0:0:0:0:
256,192,36755,1,8,0:0:0:0:
256,192,36810,1,8,0:0:0:0:
256,192,36866,1,0,0:0:0:0:
256,192,36903,1,0,0:0:0:0:
256,192,36940,1,0,0:0:0:0:
256,192,36977,1,8,0:0:0:0:
256,192,37032,1,8,0:0:0:0:
256,192,37088,1,0,0:0:0:0:
272,208,37143,1,0,0:0:0:0:
256,192,37199,1,8,0:0:0:0:
272,208,37236,1,8,0:0:0:0:
256,208,37273,1,8,0:0:0:0:
256,208,37310,1,0,0:0:0:0:
272,208,37366,1,8,0:0:0:0:
272,208,37421,1,0,0:0:0:0:
272,208,37477,1,8,0:0:0:0:
272,208,37532,1,8,0:0:0:0:
272,208,37643,1,8,0:0:0:0:
272,208,37755,1,0,0:0:0:0:
256,208,37792,1,8,0:0:0:0:
256,208,37829,1,8,0:0:0:0:
256,208,37866,1,0,0:0:0:0:
272,208,37921,1,8,0:0:0:0:
272,208,37977,1,0,0:0:0:0:
272,192,38014,1,0,0:0:0:0:
272,192,38051,1,0,0:0:0:0:
272,208,38088,1,8,0:0:0:0:
272,208,38143,1,8,0:0:0:0:
272,208,38199,1,0,0:0:0:0:
272,208,38255,1,0,0:0:0:0:
272,208,38366,1,0,0:0:0:0:
272,208,38421,1,8,0:0:0:0:
272,208,38458,1,0,0:0:0:0:
272,208,38495,1,0,0:0:0:0:
272,208,38532,1,8,0:0:0:0:
272,208,38569,1,8,0:0:0:0:
272,208,38606,1,8,0:0:0:0:
272,208,38643,1,0,0:0:0:0:
240,208,38718,1,8,0:0:0:0:
256,192,38866,1,8,0:0:0:0:
256,208,38903,1,8,0:0:0:0:
256,208,38940,1,8,0:0:0:0:
256,208,38977,1,0,0:0:0:0:
256,208,39014,1,8,0:0:0:0:
256,208,39051,1,8,0:0:0:0:
256,208,39088,1,0,0:0:0:0:
256,208,39310,1,0,0:0:0:0:
256,208,39532,1,8,0:0:0:0:
256,208,39755,1,8,0:0:0:0:
256,208,39977,1,4,0:0:0:0:
256,224,40088,1,0,0:0:0:0:
256,208,40310,1,0,0:0:0:0:
256,208,40421,1,12,0:0:0:0:
256,192,40866,1,0,0:0:0:0:
256,192,40977,1,0,0:0:0:0:
256,192,41032,1,0,0:0:0:0:
256,192,41088,1,8,0:0:0:0:
256,192,41143,1,8,0:0:0:0:
256,192,41199,1,0,0:0:0:0:
256,192,41310,1,12,0:0:0:0:
256,192,41755,1,0,0:0:0:0:
256,192,41866,1,0,0:0:0:0:
256,192,42088,1,0,0:0:0:0:
256,192,42199,1,12,0:0:0:0:
256,192,42532,1,8,0:0:0:0:
256,192,42643,1,0,0:0:0:0:
256,192,42866,1,8,0:0:0:0:
256,192,43088,1,12,0:0:0:0:
256,192,43532,1,0,0:0:0:0:
256,192,43866,1,0,0:0:0:0:
256,192,43977,1,12,0:0:0:0:
256,192,44310,1,8,0:0:0:0:
256,192,44421,1,0,0:0:0:0:
256,192,44532,1,0,0:0:0:0:
256,192,44643,1,8,0:0:0:0:
256,192,44866,1,12,0:0:0:0:
256,192,45088,1,8,0:0:0:0:
256,192,45143,1,8,0:0:0:0:
256,192,45199,1,8,0:0:0:0:
256,192,45255,1,8,0:0:0:0:
256,192,45310,1,0,0:0:0:0:
256,192,45421,1,0,0:0:0:0:
256,192,45532,1,8,0:0:0:0:
256,192,45643,1,0,0:0:0:0:
256,192,45755,1,0,0:0:0:0:
256,192,45921,1,0,0:0:0:0:
256,192,46088,1,8,0:0:0:0:
256,192,46199,1,0,0:0:0:0:
256,192,46310,1,0,0:0:0:0:
256,208,46421,1,8,0:0:0:0:
256,192,46532,1,8,0:0:0:0:
256,208,46643,1,8,0:0:0:0:
256,208,46866,1,12,0:0:0:0:
256,208,47088,1,0,0:0:0:0:
272,192,47199,1,8,0:0:0:0:
272,192,47310,1,0,0:0:0:0:
272,192,47366,1,0,0:0:0:0:
272,192,47421,1,8,0:0:0:0:
272,192,47532,1,0,0:0:0:0:
272,192,47643,1,8,0:0:0:0:
272,192,47755,1,0,0:0:0:0:
256,192,47810,1,0,0:0:0:0:
256,192,47866,1,8,0:0:0:0:
256,192,47921,1,8,0:0:0:0:
256,192,47977,1,0,0:0:0:0:
256,192,48088,1,0,0:0:0:0:
256,192,48199,1,8,0:0:0:0:
272,192,48310,1,0,0:0:0:0:
256,192,48366,1,8,0:0:0:0:
256,192,48421,1,0,0:0:0:0:
256,192,48477,1,0,0:0:0:0:
272,192,48532,1,8,0:0:0:0:
272,192,48643,1,0,0:0:0:0:
272,176,48755,1,8,0:0:0:0:
272,176,48866,1,0,0:0:0:0:
272,176,48977,1,8,0:0:0:0:
272,176,49088,1,0,0:0:0:0:
272,176,49143,1,0,0:0:0:0:
272,176,49199,1,8,0:0:0:0:
272,176,49310,1,0,0:0:0:0:
272,176,49366,1,0,0:0:0:0:
272,176,49421,1,8,0:0:0:0:
272,176,49532,1,0,0:0:0:0:
272,176,49643,1,0,0:0:0:0:
272,176,49755,1,8,0:0:0:0:
272,160,49866,1,0,0:0:0:0:
272,160,49921,1,0,0:0:0:0:
272,160,49977,1,8,0:0:0:0:
272,160,50032,1,0,0:0:0:0:
272,160,50088,1,8,0:0:0:0:
272,160,50143,1,8,0:0:0:0:
272,160,50199,1,0,0:0:0:0:
272,160,50310,1,8,0:0:0:0:
272,160,50421,1,0,0:0:0:0:
272,160,50477,1,8,0:0:0:0:
256,160,50532,1,8,0:0:0:0:
256,160,50588,1,0,0:0:0:0:
256,160,50643,1,8,0:0:0:0:
256,160,50755,1,0,0:0:0:0:
256,160,50866,1,8,0:0:0:0:
256,160,50921,1,0,0:0:0:0:
256,160,50977,1,8,0:0:0:0:
256,160,51032,1,8,0:0:0:0:
256,160,51088,1,0,0:0:0:0:
256,160,51199,1,8,0:0:0:0:
256,160,51310,1,0,0:0:0:0:
256,160,51366,1,0,0:0:0:0:
256,160,51421,1,8,0:0:0:0:
260,167,51477,1,8,0:0:0:0:
262,165,51532,1,0,0:0:0:0:
256,160,51643,1,8,0:0:0:0:
256,160,51755,1,0,0:0:0:0:
256,160,51810,1,8,0:0:0:0:
256,160,51866,1,8,0:0:0:0:
256,160,51921,1,8,0:0:0:0:
256,160,51977,1,0,0:0:0:0:
256,160,52032,1,0,0:0:0:0:
256,160,52088,1,8,0:0:0:0:
256,160,52199,1,0,0:0:0:0:
256,160,52255,1,0,0:0:0:0:
256,160,52310,1,8,0:0:0:0:
256,160,52421,1,0,0:0:0:0:
272,192,52532,1,8,0:0:0:0:
272,192,52643,1,0,0:0:0:0:
272,192,52699,1,8,0:0:0:0:
272,192,52755,1,8,0:0:0:0:
272,192,52866,1,0,0:0:0:0:
272,192,52977,1,8,0:0:0:0:
272,192,53088,1,0,0:0:0:0:
272,192,53143,1,0,0:0:0:0:
272,192,53199,1,8,0:0:0:0:
272,192,53255,1,8,0:0:0:0:
272,192,53310,1,0,0:0:0:0:
272,192,53421,1,0,0:0:0:0:
272,192,53532,1,12,0:0:0:0:
272,192,53643,1,8,0:0:0:0:
272,192,53699,1,8,0:0:0:0:
272,192,53755,1,0,0:0:0:0:
272,192,53810,1,0,0:0:0:0:
272,192,53866,1,0,0:0:0:0:
272,192,53977,1,12,0:0:0:0:
272,192,54088,1,8,0:0:0:0:
256,192,54143,1,8,0:0:0:0:
272,192,54199,1,0,0:0:0:0:
272,192,54310,1,0,0:0:0:0:
272,192,54421,1,0,0:0:0:0:
272,192,54477,1,0,0:0:0:0:
272,192,54532,1,8,0:0:0:0:
272,192,54643,1,0,0:0:0:0:
272,192,54755,1,8,0:0:0:0:
272,192,54866,1,0,0:0:0:0:
256,192,54903,1,0,0:0:0:0:
256,192,54940,1,8,0:0:0:0:
272,192,54977,1,8,0:0:0:0:
272,192,55032,1,8,0:0:0:0:
272,192,55088,1,0,0:0:0:0:
272,192,55199,1,8,0:0:0:0:
272,192,55310,1,0,0:0:0:0:
272,192,55421,1,8,0:0:0:0:
272,192,55477,1,8,0:0:0:0:
272,192,55532,1,0,0:0:0:0:
272,192,55643,1,8,0:0:0:0:
272,192,55755,1,0,0:0:0:0:
272,192,55866,1,8,0:0:0:0:
272,192,55977,1,0,0:0:0:0:
272,192,56088,1,0,0:0:0:0:
272,192,56199,1,0,0:0:0:0:
256,208,56255,1,0,0:0:0:0:
256,208,56310,1,0,0:0:0:0:
272,192,56421,1,0,0:0:0:0:
256,208,56532,1,8,0:0:0:0:
272,192,56643,1,0,0:0:0:0:
272,192,56755,1,8,0:0:0:0:
272,192,56810,1,8,0:0:0:0:
272,192,56866,1,0,0:0:0:0:
272,192,56977,1,8,0:0:0:0:
272,192,57088,1,0,0:0:0:0:
256,192,57199,1,8,0:0:0:0:
272,192,57310,1,0,0:0:0:0:
272,192,57421,1,8,0:0:0:0:
256,192,57532,1,8,0:0:0:0:
272,192,57755,1,0,0:0:0:0:
272,192,57866,1,0,0:0:0:0:
272,192,57921,1,0,0:0:0:0:
272,192,57977,1,8,0:0:0:0:
272,192,58088,1,8,0:0:0:0:
272,192,58199,1,0,0:0:0:0:
272,192,58310,1,0,0:0:0:0:
272,192,58366,1,0,0:0:0:0:
272,192,58421,1,8,0:0:0:0:
272,192,58532,1,8,0:0:0:0:
272,192,58643,1,0,0:0:0:0:
272,192,58866,1,8,0:0:0:0:
272,192,58921,1,8,0:0:0:0:
272,192,58977,1,8,0:0:0:0:
272,192,59088,1,0,0:0:0:0:
272,192,59199,1,0,0:0:0:0:
272,192,59310,1,8,0:0:0:0:
272,176,59366,1,0,0:0:0:0:
272,176,59421,1,8,0:0:0:0:
272,176,59477,1,8,0:0:0:0:
272,176,59532,1,0,0:0:0:0:
272,176,59643,1,0,0:0:0:0:
272,176,59755,1,12,0:0:0:0:
272,176,59977,1,8,0:0:0:0:
272,176,60088,1,0,0:0:0:0:
288,176,60199,1,12,0:0:0:0:
288,176,60421,1,8,0:0:0:0:
288,176,60477,1,0,0:0:0:0:
288,176,60532,1,8,0:0:0:0:
288,176,60588,1,8,0:0:0:0:
288,176,60643,1,0,0:0:0:0:
288,176,60699,1,0,0:0:0:0:
288,176,60755,1,8,0:0:0:0:
288,176,60810,1,8,0:0:0:0:
272,192,60866,1,0,0:0:0:0:
272,192,60903,1,0,0:0:0:0:
272,192,60940,1,0,0:0:0:0:
288,192,60977,1,8,0:0:0:0:
288,192,61032,1,8,0:0:0:0:
288,192,61088,1,0,0:0:0:0:
272,192,61125,1,8,0:0:0:0:
272,192,61162,1,8,0:0:0:0:
272,192,61199,1,0,0:0:0:0:
272,192,61236,1,0,0:0:0:0:
272,192,61273,1,8,0:0:0:0:
272,192,61310,1,0,0:0:0:0:
256,192,61421,1,0,0:0:0:0:
256,192,61532,1,0,0:0:0:0:
256,192,61755,1,12,0:0:0:0:
256,192,61977,1,8,0:0:0:0:
256,192,62088,1,8,0:0:0:0:
272,192,62199,1,0,0:0:0:0:
272,192,62310,1,0,0:0:0:0:
272,192,62421,1,0,0:0:0:0:
256,192,62643,1,12,0:0:0:0:
256,192,62866,1,8,0:0:0:0:
256,192,63088,1,0,0:0:0:0:
256,192,63199,1,0,0:0:0:0:
272,192,63421,1,0,0:0:0:0:
272,192,63532,1,12,0:0:0:0:
272,192,63755,1,8,0:0:0:0:
288,192,63866,1,8,0:0:0:0:
288,192,63977,1,0,0:0:0:0:
288,192,64088,1,0,0:0:0:0:
288,192,64199,1,8,0:0:0:0:
288,192,64310,1,0,0:0:0:0:
288,192,64421,1,8,0:0:0:0:
288,192,64477,1,8,0:0:0:0:
288,192,64532,1,0,0:0:0:0:
288,192,64643,1,8,0:0:0:0:
288,192,64699,1,8,0:0:0:0:
288,192,64755,1,0,0:0:0:0:
288,192,64810,1,0,0:0:0:0:
288,192,64866,1,0,0:0:0:0:
288,192,65088,1,0,0:0:0:0:
288,192,65310,1,8,0:0:0:0:
288,192,65532,1,0,0:0:0:0:
288,192,65643,1,0,0:0:0:0:
288,192,65755,1,8,0:0:0:0:
288,192,65866,1,0,0:0:0:0:
288,192,66088,1,0,0:0:0:0:
288,192,66199,1,8,0:0:0:0:
288,192,66310,1,0,0:0:0:0:
288,192,66421,1,8,0:0:0:0:
288,192,66532,1,8,0:0:0:0:
288,192,66643,1,0,0:0:0:0:
288,192,66866,1,0,0:0:0:0:
288,192,66977,1,0,0:0:0:0:
288,192,67088,1,8,0:0:0:0:
288,192,67199,1,0,0:0:0:0:
288,192,67310,1,8,0:0:0:0:
288,192,67421,1,4,0:0:0:0:
288,192,67643,1,12,0:0:0:0:
288,192,67755,1,4,0:0:0:0:
288,192,67866,1,4,0:0:0:0:
288,192,67977,1,12,0:0:0:0:
288,192,68421,1,4,0:0:0:0:
288,192,68532,1,0,0:0:0:0:
304,192,68588,1,0,0:0:0:0:
288,192,68643,1,8,0:0:0:0:
288,192,68699,1,0,0:0:0:0:
288,192,68755,1,8,0:0:0:0:
288,192,68810,1,8,0:0:0:0:
288,192,68866,1,0,0:0:0:0:
288,192,68921,1,8,0:0:0:0:
288,192,68977,1,0,0:0:0:0:
288,192,69032,1,0,0:0:0:0:
288,192,69088,1,8,0:0:0:0:
288,192,69199,1,8,0:0:0:0:
288,192,69310,1,0,0:0:0:0:
288,192,69421,1,8,0:0:0:0:
288,192,69532,1,0,0:0:0:0:
288,208,69588,1,0,0:0:0:0:
288,208,69643,1,8,0:0:0:0:
288,208,69755,1,0,0:0:0:0:
288,208,69866,1,8,0:0:0:0:
288,224,69903,1,8,0:0:0:0:
288,224,69940,1,8,0:0:0:0:
288,224,69977,1,0,0:0:0:0:
272,208,70032,1,0,0:0:0:0:
288,208,70088,1,8,0:0:0:0:
288,208,70143,1,8,0:0:0:0:
288,208,70199,1,0,0:0:0:0:
272,208,70310,1,0,0:0:0:0:
272,208,70421,1,8,0:0:0:0:
288,208,70532,1,0,0:0:0:0:
272,208,70569,1,8,0:0:0:0:
272,208,70606,1,8,0:0:0:0:
272,224,70643,1,0,0:0:0:0:
272,224,70755,1,0,0:0:0:0:
272,224,70866,1,8,0:0:0:0:
272,224,70977,1,0,0:0:0:0:
272,224,71032,1,0,0:0:0:0:
272,224,71088,1,8,0:0:0:0:
272,224,71143,1,8,0:0:0:0:
272,224,71199,1,8,0:0:0:0:
272,224,71310,1,0,0:0:0:0:
272,224,71421,1,8,0:0:0:0:
272,224,71532,1,8,0:0:0:0:
272,224,71588,1,8,0:0:0:0:
272,224,71643,1,0,0:0:0:0:
272,224,71755,1,0,0:0:0:0:
272,224,71866,1,8,0:0:0:0:
272,192,71977,1,0,0:0:0:0:
272,192,72032,1,8,0:0:0:0:
272,192,72088,1,0,0:0:0:0:
272,192,72143,1,0,0:0:0:0:
272,192,72199,1,8,0:0:0:0:
272,192,72255,1,0,0:0:0:0:
272,192,72310,1,8,0:0:0:0:
272,192,72366,1,8,0:0:0:0:
272,192,72421,1,0,0:0:0:0:
272,192,72532,1,0,0:0:0:0:
272,192,72569,1,8,0:0:0:0:
272,192,72606,1,8,0:0:0:0:
272,192,72643,1,0,0:0:0:0:
272,176,72755,1,0,0:0:0:0:
272,192,72866,1,0,0:0:0:0:
272,192,72921,1,0,0:0:0:0:
272,192,72977,1,8,0:0:0:0:
272,192,73032,1,8,0:0:0:0:
272,192,73088,1,0,0:0:0:0:
272,192,73199,1,0,0:0:0:0:
272,192,73310,1,8,0:0:0:0:
272,192,73366,1,0,0:0:0:0:
272,192,73421,1,8,0:0:0:0:
272,192,73458,1,8,0:0:0:0:
272,192,73495,1,8,0:0:0:0:
272,192,73532,1,0,0:0:0:0:
272,208,73588,1,0,0:0:0:0:
272,208,73643,1,8,0:0:0:0:
272,208,73699,1,8,0:0:0:0:
272,208,73755,1,0,0:0:0:0:
272,208,73866,1,0,0:0:0:0:
272,208,73977,1,8,0:0:0:0:
272,208,74088,1,0,0:0:0:0:
272,208,74143,1,0,0:0:0:0:
272,208,74199,1,8,0:0:0:0:
272,208,74310,1,0,0:0:0:0:
272,208,74421,1,8,0:0:0:0:
272,208,74477,1,0,0:0:0:0:
272,208,74532,1,8,0:0:0:0:
272,208,74588,1,8,0:0:0:0:
272,208,74643,1,0,0:0:0:0:
272,208,74699,1,0,0:0:0:0:
272,192,74755,1,8,0:0:0:0:
272,192,74792,1,8,0:0:0:0:
272,192,74829,1,8,0:0:0:0:
272,192,74866,1,0,0:0:0:0:
256,208,74977,1,0,0:0:0:0:
256,176,75088,1,0,0:0:0:0:
256,176,75310,1,8,0:0:0:0:
256,176,75866,1,8,0:0:0:0:
256,176,75977,1,0,0:0:0:0:
256,176,76032,1,8,0:0:0:0:
256,176,76088,1,8,0:0:0:0:
256,176,76143,1,8,0:0:0:0:
256,176,76199,1,0,0:0:0:0:
256,176,76310,1,8,0:0:0:0:
256,176,76421,1,0,0:0:0:0:
256,176,76532,1,8,0:0:0:0:
256,176,76643,1,0,0:0:0:0:
256,176,76699,1,0,0:0:0:0:
256,176,76755,1,0,0:0:0:0:
256,176,76866,1,8,0:0:0:0:
256,176,76977,1,8,0:0:0:0:
256,192,77014,1,8,0:0:0:0:
256,192,77051,1,8,0:0:0:0:
256,192,77088,1,0,0:0:0:0:
256,176,77199,1,8,0:0:0:0:
256,176,77310,1,0,0:0:0:0:
256,176,77421,1,8,0:0:0:0:
256,176,77532,1,0,0:0:0:0:
256,176,77643,1,8,0:0:0:0:
256,176,77699,1,8,0:0:0:0:
256,176,77755,1,0,0:0:0:0:
256,176,77810,1,8,0:0:0:0:
256,176,77866,1,0,0:0:0:0:
256,176,77921,1,0,0:0:0:0:
256,176,77977,1,8,0:0:0:0:
256,176,78088,1,8,0:0:0:0:
256,176,78143,1,8,0:0:0:0:
256,176,78199,1,0,0:0:0:0:
256,176,78310,1,8,0:0:0:0:
256,176,78421,1,0,0:0:0:0:
256,176,78477,1,0,0:0:0:0:
256,176,78532,1,0,0:0:0:0:
256,176,78588,1,0,0:0:0:0:
256,176,78643,1,8,0:0:0:0:
256,176,78755,1,0,0:0:0:0:
256,176,78866,1,8,0:0:0:0:
256,192,78977,1,8,0:0:0:0:
256,192,79088,1,0,0:0:0:0:
256,192,79199,1,0,0:0:0:0:
256,192,79255,1,0,0:0:0:0:
256,192,79310,1,8,0:0:0:0:
256,192,79366,1,0,0:0:0:0:
256,192,79421,1,8,0:0:0:0:
256,192,79477,1,8,0:0:0:0:
256,192,79532,1,0,0:0:0:0:
256,192,79588,1,0,0:0:0:0:
256,192,79643,1,8,0:0:0:0:
256,192,79699,1,8,0:0:0:0:
256,192,79755,1,0,0:0:0:0:
256,192,79866,1,8,0:0:0:0:
256,192,79977,1,0,0:0:0:0:
256,192,80088,1,8,0:0:0:0:
256,192,80143,1,8,0:0:0:0:
256,192,80199,1,0,0:0:0:0:
256,192,80310,1,8,0:0:0:0:
256,192,80421,1,0,0:0:0:0:
256,192,80477,1,0,0:0:0:0:
256,192,80532,1,8,0:0:0:0:
256,192,80569,1,8,0:0:0:0:
256,192,80606,1,8,0:0:0:0:
256,192,80643,1,0,0:0:0:0:
256,192,80755,1,8,0:0:0:0:
256,192,80866,1,0,0:0:0:0:
256,192,81088,1,0,0:0:0:0:
256,192,81199,1,8,0:0:0:0:
256,192,81255,1,8,0:0:0:0:
256,192,81310,1,0,0:0:0:0:
256,192,81366,1,8,0:0:0:0:
256,192,81421,1,8,0:0:0:0:
256,192,81532,1,8,0:0:0:0:
256,192,81643,1,0,0:0:0:0:
240,208,81755,1,0,0:0:0:0:
240,208,81866,1,8,0:0:0:0:
240,208,81977,1,0,0:0:0:0:
256,208,82088,1,0,0:0:0:0:
256,208,82199,1,8,0:0:0:0:
256,208,82421,1,12,0:0:0:0:
256,208,82643,1,4,0:0:0:0:
256,208,82977,1,0,0:0:0:0:
256,208,83088,1,12,0:0:0:0:
256,208,83310,1,8,0:0:0:0:
256,208,83532,1,0,0:0:0:0:
256,208,83643,1,0,0:0:0:0:
256,192,83681,1,0,0:0:0:0:
256,192,83718,1,0,0:0:0:0:
256,192,83755,1,8,0:0:0:0:
272,192,83866,1,8,0:0:0:0:
256,208,83903,1,0,0:0:0:0:
256,208,83940,1,0,0:0:0:0:
256,208,83977,1,8,0:0:0:0:
272,192,84088,1,8,0:0:0:0:
272,192,84143,1,8,0:0:0:0:
272,192,84199,1,0,0:0:0:0:
256,208,84236,1,0,0:0:0:0:
256,208,84273,1,0,0:0:0:0:
256,208,84310,1,0,0:0:0:0:
272,208,84366,1,0,0:0:0:0:
272,192,84421,1,8,0:0:0:0:
272,192,84532,1,0,0:0:0:0:
256,192,84755,1,0,0:0:0:0:
256,192,84866,1,12,0:0:0:0:
256,192,85088,1,8,0:0:0:0:
256,208,85199,1,8,0:0:0:0:
256,208,85310,1,0,0:0:0:0:
256,192,85421,1,0,0:0:0:0:
256,192,85477,1,0,0:0:0:0:
256,192,85532,1,8,0:0:0:0:
256,192,85588,1,0,0:0:0:0:
256,192,85643,1,8,0:0:0:0:
256,208,85755,1,12,0:0:0:0:
256,208,85866,1,8,0:0:0:0:
256,192,85903,1,8,0:0:0:0:
256,192,85940,1,8,0:0:0:0:
256,192,85977,1,0,0:0:0:0:
272,192,86032,1,0,0:0:0:0:
272,192,86088,1,8,0:0:0:0:
272,192,86143,1,8,0:0:0:0:
272,192,86199,1,0,0:0:0:0:
272,192,86421,1,0,0:0:0:0:
272,192,86532,1,0,0:0:0:0:
272,192,86643,1,12,0:0:0:0:
272,192,86866,1,8,0:0:0:0:
272,192,87088,1,0,0:0:0:0:
272,192,87199,1,0,0:0:0:0:
272,192,87310,1,8,0:0:0:0:
272,192,87366,1,8,0:0:0:0:
272,192,87421,1,0,0:0:0:0:
272,192,87532,1,12,0:0:0:0:
272,192,87643,1,0,0:0:0:0:
272,192,87755,1,8,0:0:0:0:
272,192,87810,1,0,0:0:0:0:
272,192,87866,1,8,0:0:0:0:
272,192,87921,1,8,0:0:0:0:
272,192,87977,1,0,0:0:0:0:
272,192,88088,1,0,0:0:0:0:
272,208,88421,1,0,0:0:0:0:
272,208,88532,1,0,0:0:0:0:
272,208,88866,1,0,0:0:0:0:
272,208,89032,1,0,0:0:0:0:
272,208,89199,1,8,0:0:0:0:
288,208,89310,1,0,0:0:0:0:
272,192,89421,1,0,0:0:0:0:
272,192,89458,1,0,0:0:0:0:
272,192,89495,1,0,0:0:0:0:
288,192,89532,1,8,0:0:0:0:
256,208,89588,1,8,0:0:0:0:
272,192,89643,1,0,0:0:0:0:
272,192,89755,1,0,0:0:0:0:
272,192,89977,1,12,0:0:0:0:
272,192,90088,1,8,0:0:0:0:
272,192,90199,1,0,0:0:0:0:
272,192,90310,1,0,0:0:0:0:
272,192,90366,1,0,0:0:0:0:
272,192,90421,1,8,0:0:0:0:
256,192,90532,1,0,0:0:0:0:
256,192,90643,1,0,0:0:0:0:
256,192,90681,1,0,0:0:0:0:
256,192,90718,1,0,0:0:0:0:
256,192,90755,1,8,0:0:0:0:
256,192,90866,1,0,0:0:0:0:
256,192,90921,1,0,0:0:0:0:
272,192,90977,1,8,0:0:0:0:
256,192,91088,1,8,0:0:0:0:
256,192,91199,1,0,0:0:0:0:
256,192,91255,1,8,0:0:0:0:
256,192,91310,1,0,0:0:0:0:
256,192,91366,1,0,0:0:0:0:
256,192,91421,1,8,0:0:0:0:
256,192,91477,1,8,0:0:0:0:
256,192,91532,1,8,0:0:0:0:
256,192,91643,1,0,0:0:0:0:
256,192,91699,1,0,0:0:0:0:
256,192,91755,1,8,0:0:0:0:
256,192,91810,1,8,0:0:0:0:
256,192,91866,1,0,0:0:0:0:
256,192,91921,1,0,0:0:0:0:
256,192,91977,1,8,0:0:0:0:
256,192,92088,1,8,0:0:0:0:
256,192,92199,1,0,0:0:0:0:
272,192,92255,1,0,0:0:0:0:
272,192,92310,1,8,0:0:0:0:
272,192,92421,1,8,0:0:0:0:
272,192,92532,1,8,0:0:0:0:
272,192,92643,1,0,0:0:0:0:
272,192,92699,1,0,0:0:0:0:
272,192,92755,1,0,0:0:0:0:
272,192,92810,1,0,0:0:0:0:
272,192,92866,1,8,0:0:0:0:
272,192,92977,1,0,0:0:0:0:
272,192,93088,1,8,0:0:0:0:
272,192,93143,1,0,0:0:0:0:
272,192,93199,1,8,0:0:0:0:
256,192,93255,1,8,0:0:0:0:
256,192,93310,1,8,0:0:0:0:
256,192,93421,1,0,0:0:0:0:
256,192,93532,1,8,0:0:0:0:
256,192,93569,1,8,0:0:0:0:
256,192,93606,1,8,0:0:0:0:
256,192,93643,1,8,0:0:0:0:
272,192,93699,1,8,0:0:0:0:
272,192,93755,1,0,0:0:0:0:
272,176,93866,1,8,0:0:0:0:
272,192,93977,1,0,0:0:0:0:
272,192,94088,1,8,0:0:0:0:
272,192,94199,1,0,0:0:0:0:
272,208,94310,1,8,0:0:0:0:
272,208,94366,1,8,0:0:0:0:
272,208,94421,1,0,0:0:0:0:
272,208,94477,1,0,0:0:0:0:
272,208,94532,1,8,0:0:0:0:
272,208,94643,1,8,0:0:0:0:
272,208,94755,1,0,0:0:0:0:
256,208,94866,1,8,0:0:0:0:
256,208,94921,1,0,0:0:0:0:
272,208,94977,1,8,0:0:0:0:
272,208,95088,1,0,0:0:0:0:
272,208,95143,1,8,0:0:0:0:
272,208,95199,1,0,0:0:0:0:
272,208,95255,1,0,0:0:0:0:
272,208,95310,1,8,0:0:0:0:
272,208,95366,1,8,0:0:0:0:
272,208,95421,1,8,0:0:0:0:
272,208,95477,1,8,0:0:0:0:
288,192,95532,1,0,0:0:0:0:
288,192,95588,1,0,0:0:0:0:
288,192,95643,1,8,0:0:0:0:
288,192,95699,1,0,0:0:0:0:
288,192,95755,1,8,0:0:0:0:
288,192,95810,1,0,0:0:0:0:
304,192,95866,1,8,0:0:0:0:
304,192,95921,1,8,0:0:0:0:
304,192,95977,1,0,0:0:0:0:
304,192,96032,1,0,0:0:0:0:
304,192,96088,1,0,0:0:0:0:
304,192,96143,1,0,0:0:0:0:
304,192,96199,1,8,0:0:0:0:
304,192,96255,1,0,0:0:0:0:
304,192,96310,1,0,0:0:0:0:
304,192,96366,1,8,0:0:0:0:
304,192,96421,1,0,0:0:0:0:
304,192,96477,1,8,0:0:0:0:
304,192,96532,1,8,0:0:0:0:
304,192,96588,1,8,0:0:0:0:
304,192,96643,1,0,0:0:0:0:
304,192,96699,1,0,0:0:0:0:
304,192,96755,1,8,0:0:0:0:
304,192,96810,1,8,0:0:0:0:
304,192,96866,1,0,0:0:0:0:
304,192,96921,1,8,0:0:0:0:
304,192,96977,1,0,0:0:0:0:
304,192,97032,1,0,0:0:0:0:
304,192,97088,1,8,0:0:0:0:
288,192,97116,1,8,0:0:0:0:
288,192,97199,1,8,0:0:0:0:
288,192,97227,1,8,0:0:0:0:
288,192,97310,1,0,0:0:0:0:
272,192,97366,1,0,0:0:0:0:
288,192,97421,1,0,0:0:0:0:
288,192,97477,1,0,0:0:0:0:
288,192,97532,1,8,0:0:0:0:
288,176,97560,1,8,0:0:0:0:
288,176,97643,1,0,0:0:0:0:
288,176,97671,1,0,0:0:0:0:
288,176,97755,1,0,0:0:0:0:
288,176,97921,1,0,0:0:0:0:
288,176,97977,1,8,0:0:0:0:
288,176,98088,1,0,0:0:0:0:
272,176,98199,1,12,0:0:0:0:
272,176,98421,1,0,0:0:0:0:
272,176,98643,1,8,0:0:0:0:
272,176,98699,1,8,0:0:0:0:
272,176,98755,1,0,0:0:0:0:
272,176,98810,1,0,0:0:0:0:
272,176,98866,1,8,0:0:0:0:
272,176,98893,1,8,0:0:0:0:
272,176,98977,1,0,0:0:0:0:
272,176,99005,1,0,0:0:0:0:
272,176,99088,1,0,0:0:0:0:
272,176,99143,1,0,0:0:0:0:
272,176,99199,1,0,0:0:0:0:
272,176,99255,1,0,0:0:0:0:
272,176,99310,1,8,0:0:0:0:
272,176,99338,1,8,0:0:0:0:
272,176,99421,1,8,0:0:0:0:
272,176,99449,1,8,0:0:0:0:
272,176,99532,1,4,0:0:0:0:
272,176,99699,1,4,0:0:0:0:
272,176,99866,1,4,0:0:0:0:
272,176,99977,1,4,0:0:0:0:
272,176,100199,1,12,0:0:0:0:
272,176,100421,1,0,0:0:0:0:
256,160,100477,1,0,0:0:0:0:
256,160,100532,1,0,0:0:0:0:
256,160,100588,1,0,0:0:0:0:
272,176,100643,1,8,0:0:0:0:
256,160,100699,1,0,0:0:0:0:
256,160,100755,1,8,0:0:0:0:
272,176,100866,1,0,0:0:0:0:
256,160,100977,1,8,0:0:0:0:
272,176,101014,1,8,0:0:0:0:
272,176,101051,1,8,0:0:0:0:
272,176,101088,1,0,0:0:0:0:
272,176,101199,1,8,0:0:0:0:
272,176,101310,1,8,0:0:0:0:
272,176,101421,1,8,0:0:0:0:
272,176,101477,1,8,0:0:0:0:
272,176,101532,1,0,0:0:0:0:
272,176,101588,1,0,0:0:0:0:
272,176,101643,1,8,0:0:0:0:
272,176,101699,1,0,0:0:0:0:
288,176,101755,1,8,0:0:0:0:
288,176,101866,1,0,0:0:0:0:
288,176,101977,1,8,0:0:0:0:
272,192,102032,1,8,0:0:0:0:
272,192,102088,1,0,0:0:0:0:
272,192,102143,1,8,0:0:0:0:
272,192,102199,1,0,0:0:0:0:
272,192,102310,1,0,0:0:0:0:
272,192,102421,1,8,0:0:0:0:
272,192,102477,1,8,0:0:0:0:
272,192,102532,1,8,0:0:0:0:
272,192,102588,1,8,0:0:0:0:
272,192,102643,1,0,0:0:0:0:
272,192,102755,1,0,0:0:0:0:
272,192,102866,1,8,0:0:0:0:
272,192,102921,1,0,0:0:0:0:
272,192,102977,1,8,0:0:0:0:
272,192,103032,1,8,0:0:0:0:
272,192,103088,1,0,0:0:0:0:
256,192,103199,1,0,0:0:0:0:
256,192,103255,1,0,0:0:0:0:
256,192,103310,1,8,0:0:0:0:
256,192,103366,1,0,0:0:0:0:
272,192,103421,1,8,0:0:0:0:
272,192,103477,1,8,0:0:0:0:
272,192,103532,1,0,0:0:0:0:
256,208,103588,1,0,0:0:0:0:
256,208,103643,1,8,0:0:0:0:
256,208,103699,1,8,0:0:0:0:
256,208,103755,1,0,0:0:0:0:
256,208,103810,1,8,0:0:0:0:
256,208,103866,1,8,0:0:0:0:
240,192,103977,1,4,0:0:0:0:
256,208,104199,1,8,0:0:0:0:
256,208,104421,1,4,0:0:0:0:
240,192,104643,1,8,0:0:0:0:
240,192,104866,1,4,0:0:0:0:
240,192,105032,1,4,0:0:0:0:
240,192,105199,1,4,0:0:0:0:
240,192,105310,1,4,0:0:0:0:
240,192,105532,1,12,0:0:0:0:
240,192,105755,1,0,0:0:0:0:
240,192,105977,1,0,0:0:0:0:
256,192,106199,1,0,0:0:0:0:
256,192,106366,1,8,0:0:0:0:
256,192,106532,1,8,0:0:0:0:
256,192,106643,1,0,0:0:0:0:
256,192,106866,1,0,0:0:0:0:
256,192,107088,1,8,0:0:0:0:
256,192,107255,1,8,0:0:0:0:
256,192,107421,1,8,0:0:0:0:
256,192,107532,1,0,0:0:0:0:
256,192,107755,1,0,0:0:0:0:
256,192,107977,1,8,0:0:0:0:
256,192,108143,1,8,0:0:0:0:
256,192,108310,1,0,0:0:0:0:
256,192,108421,1,0,0:0:0:0:
256,192,108643,1,0,0:0:0:0:
256,192,108866,1,8,0:0:0:0:
256,192,109088,1,0,0:0:0:0:
256,192,109199,1,8,0:0:0:0:
256,192,109310,1,0,0:0:0:0:
256,192,109366,1,0,0:0:0:0:
256,192,109421,1,0,0:0:0:0:
256,192,109477,1,0,0:0:0:0:
256,192,109532,1,8,0:0:0:0:
256,192,109588,1,8,0:0:0:0:
256,192,109643,1,0,0:0:0:0:
256,192,109699,1,0,0:0:0:0:
256,192,109755,1,8,0:0:0:0:
256,192,109921,1,8,0:0:0:0:
256,192,110088,1,0,0:0:0:0:
256,192,110199,1,0,0:0:0:0:
256,192,110310,1,0,0:0:0:0:
256,192,110421,1,8,0:0:0:0:
256,192,110532,1,0,0:0:0:0:
256,192,110643,1,8,0:0:0:0:
256,192,110810,1,8,0:0:0:0:
256,192,110977,1,0,0:0:0:0:
256,192,111088,1,0,0:0:0:0:
256,192,111143,1,0,0:0:0:0:
256,192,111199,1,8,0:0:0:0:
256,192,111255,1,8,0:0:0:0:
256,192,111310,1,0,0:0:0:0:
256,192,111366,1,8,0:0:0:0:
256,192,111421,1,0,0:0:0:0:
256,192,111477,1,0,0:0:0:0:
256,192,111532,1,8,0:0:0:0:
256,192,111643,1,0,0:0:0:0:
256,192,111755,1,8,0:0:0:0:
256,192,111866,1,8,0:0:0:0:
256,192,111977,1,8,0:0:0:0:
256,192,112088,1,0,0:0:0:0:
256,192,112310,1,0,0:0:0:0:
256,192,112421,1,12,0:0:0:0:
256,208,112643,1,12,0:0:0:0:
256,208,112866,1,4,0:0:0:0:
256,176,113088,1,0,0:0:0:0:
256,176,113199,1,8,0:0:0:0:
256,176,113310,1,8,0:0:0:0:
256,176,113421,1,0,0:0:0:0:
256,176,113532,1,0,0:0:0:0:
256,176,113588,1,8,0:0:0:0:
256,176,113643,1,0,0:0:0:0:
256,176,113699,1,0,0:0:0:0:
256,176,113755,1,8,0:0:0:0:
256,176,113977,1,8,0:0:0:0:
256,176,114088,1,8,0:0:0:0:
256,176,114199,1,0,0:0:0:0:
256,176,114310,1,8,0:0:0:0:
256,176,114366,1,8,0:0:0:0:
256,176,114421,1,8,0:0:0:0:
256,176,114477,1,0,0:0:0:0:
256,176,114532,1,8,0:0:0:0:
256,176,114588,1,8,0:0:0:0:
256,176,114643,1,0,0:0:0:0:
256,176,114866,1,0,0:0:0:0:
256,176,114977,1,0,0:0:0:0:
256,176,115088,1,8,0:0:0:0:
256,176,115143,1,8,0:0:0:0:
256,176,115199,1,0,0:0:0:0:
256,176,115310,1,0,0:0:0:0:
256,176,115366,1,8,0:0:0:0:
256,176,115477,1,8,0:0:0:0:
256,176,115532,1,0,0:0:0:0:
256,176,115755,1,0,0:0:0:0:
256,176,115866,1,0,0:0:0:0:
256,176,115977,1,0,0:0:0:0:
288,176,116088,1,0,0:0:0:0:
272,192,116199,1,8,0:0:0:0:
272,176,116310,1,0,0:0:0:0:
256,176,116421,1,0,0:0:0:0:
256,176,116532,1,8,0:0:0:0:
256,176,116643,1,0,0:0:0:0:
256,176,116755,1,8,0:0:0:0:
256,176,116866,1,8,0:0:0:0:
256,176,116921,1,8,0:0:0:0:
256,176,116977,1,0,0:0:0:0:
256,176,117088,1,0,0:0:0:0:
256,176,117143,1,0,0:0:0:0:
256,176,117199,1,0,0:0:0:0:
240,176,117255,1,0,0:0:0:0:
256,176,117310,1,8,0:0:0:0:
240,176,117366,1,0,0:0:0:0:
240,176,117477,1,0,0:0:0:0:
240,176,117532,1,8,0:0:0:0:
240,176,117643,1,8,0:0:0:0:
240,176,117699,1,8,0:0:0:0:
240,176,117755,1,0,0:0:0:0:
240,176,117810,1,0,0:0:0:0:
240,176,117866,1,8,0:0:0:0:
240,176,117977,1,8,0:0:0:0:
240,176,118032,1,0,0:0:0:0:
240,176,118088,1,8,0:0:0:0:
240,176,118143,1,8,0:0:0:0:
240,176,118199,1,0,0:0:0:0:
240,176,118421,1,8,0:0:0:0:
240,176,118532,1,0,0:0:0:0:
240,176,118643,1,0,0:0:0:0:
240,176,118699,1,8,0:0:0:0:
240,176,118755,1,0,0:0:0:0:
240,176,118866,1,8,0:0:0:0:
240,176,118921,1,8,0:0:0:0:
240,176,119032,1,8,0:0:0:0:
240,176,119088,1,0,0:0:0:0:
240,160,119199,1,0,0:0:0:0:
240,160,119310,1,8,0:0:0:0:
240,160,119421,1,8,0:0:0:0:
256,160,119477,1,8,0:0:0:0:
256,160,119532,1,0,0:0:0:0:
256,160,119588,1,0,0:0:0:0:
256,160,119643,1,8,0:0:0:0:
256,160,119755,1,8,0:0:0:0:
256,160,119977,1,0,0:0:0:0:
256,160,120199,1,0,0:0:0:0:
256,160,120421,1,0,0:0:0:0:
256,160,120532,1,8,0:0:0:0:
256,160,120643,1,0,0:0:0:0:
256,160,120699,1,0,0:0:0:0:
256,160,120755,1,8,0:0:0:0:
256,160,120866,1,0,0:0:0:0:
256,160,120977,1,0,0:0:0:0:
256,160,121088,1,0,0:0:0:0:
256,160,121125,1,8,0:0:0:0:
256,160,121162,1,8,0:0:0:0:
256,160,121199,1,0,0:0:0:0:
256,160,121310,1,0,0:0:0:0:
256,160,121643,1,0,0:0:0:0:
256,160,121755,1,8,0:0:0:0:
256,160,121866,1,0,0:0:0:0:
256,160,121977,1,8,0:0:0:0:
256,160,122088,1,8,0:0:0:0:
256,160,122199,1,0,0:0:0:0:
256,160,122310,1,0,0:0:0:0:
272,160,122421,1,0,0:0:0:0:
272,160,122532,1,0,0:0:0:0:
256,160,122643,1,0,0:0:0:0:
256,160,122755,1,8,0:0:0:0:
256,160,122866,1,0,0:0:0:0:
256,160,122977,1,0,0:0:0:0:
256,160,123088,1,8,0:0:0:0:
256,160,123199,1,8,0:0:0:0:
256,160,123236,1,8,0:0:0:0:
256,160,123273,1,8,0:0:0:0:
256,160,123310,1,0,0:0:0:0:
256,176,123366,1,0,0:0:0:0:
256,176,123421,1,8,0:0:0:0:
256,176,123532,1,8,0:0:0:0:
256,176,123643,1,0,0:0:0:0:
256,176,123866,1,0,0:0:0:0:
256,176,123977,1,8,0:0:0:0:
256,176,124199,1,8,0:0:0:0:
256,176,124421,1,0,0:0:0:0:
256,176,124532,1,0,0:0:0:0:
256,176,124755,1,8,0:0:0:0:
256,176,124866,1,0,0:0:0:0:
256,176,124903,1,0,0:0:0:0:
256,176,124940,1,8,0:0:0:0:
256,192,124977,1,8,0:0:0:0:
272,176,125032,1,8,0:0:0:0:
256,176,125088,1,0,0:0:0:0:
256,176,125199,1,8,0:0:0:0:
256,176,125310,1,0,0:0:0:0:
256,176,125421,1,0,0:0:0:0:
256,176,125643,1,8,0:0:0:0:
256,192,125681,1,0,0:0:0:0:
256,192,125718,1,0,0:0:0:0:
256,176,125755,1,8,0:0:0:0:
256,176,125977,1,8,0:0:0:0:
256,176,126088,1,0,0:0:0:0:
256,176,127088,1,0,0:0:0:0:
256,176,127199,1,0,0:0:0:0:
256,176,127643,1,0,0:0:0:0:
256,160,127755,1,8,0:0:0:0:
256,160,127866,1,8,0:0:0:0:
256,160,127977,1,0,0:0:0:0:
256,160,128014,1,0,0:0:0:0:
256,160,128051,1,8,0:0:0:0:
256,160,128088,1,8,0:0:0:0:
256,160,128199,1,8,0:0:0:0:
256,160,128310,1,0,0:0:0:0:
256,160,128347,1,0,0:0:0:0:
256,160,128384,1,0,0:0:0:0:
256,160,128421,1,8,0:0:0:0:
256,176,128532,1,0,0:0:0:0:
256,176,128588,1,0,0:0:0:0:
256,176,128643,1,8,0:0:0:0:
256,176,128866,1,0,0:0:0:0:
256,176,128977,1,0,0:0:0:0:
272,176,129199,1,0,0:0:0:0:
272,176,129310,1,8,0:0:0:0:
272,176,129532,1,0,0:0:0:0:
256,176,129643,1,0,0:0:0:0:
256,176,129699,1,0,0:0:0:0:
256,176,129755,1,8,0:0:0:0:
256,176,129792,1,0,0:0:0:0:
256,176,129829,1,0,0:0:0:0:
256,176,129866,1,8,0:0:0:0:
256,176,129977,1,8,0:0:0:0:
256,176,130088,1,8,0:0:0:0:
256,176,130143,1,8,0:0:0:0:
256,176,130199,1,0,0:0:0:0:
256,176,130310,1,0,0:0:0:0:
256,176,130421,1,8,0:0:0:0:
240,176,130532,1,8,0:0:0:0:
240,176,130643,1,0,0:0:0:0:
256,160,130755,1,0,0:0:0:0:
256,160,130977,1,8,0:0:0:0:
256,160,131088,1,0,0:0:0:0:
256,176,131143,1,0,0:0:0:0:
256,176,131199,1,8,0:0:0:0:
256,176,131310,1,0,0:0:0:0:
256,176,131421,1,8,0:0:0:0:
256,176,131458,1,8,0:0:0:0:
256,160,131495,1,8,0:0:0:0:
256,176,131532,1,0,0:0:0:0:
256,176,131643,1,8,0:0:0:0:
256,176,131755,1,0,0:0:0:0:
256,192,131792,1,0,0:0:0:0:
256,192,131829,1,0,0:0:0:0:
256,192,131866,1,8,0:0:0:0:
272,176,131921,1,8,0:0:0:0:
256,192,131977,1,0,0:0:0:0:
256,192,132088,1,8,0:0:0:0:
256,192,132143,1,8,0:0:0:0:
256,192,132199,1,0,0:0:0:0:
288,192,132236,1,8,0:0:0:0:
288,192,132273,1,8,0:0:0:0:
272,192,132310,1,0,0:0:0:0:
256,192,132421,1,8,0:0:0:0:
256,192,132532,1,8,0:0:0:0:
256,192,132643,1,0,0:0:0:0:
256,192,132755,1,0,0:0:0:0:
256,192,132792,1,0,0:0:0:0:
256,192,132829,1,0,0:0:0:0:
256,192,132866,1,8,0:0:0:0:
272,208,132977,1,0,0:0:0:0:
256,208,133088,1,8,0:0:0:0:
272,208,133143,1,8,0:0:0:0:
272,208,133199,1,0,0:0:0:0:
272,208,133310,1,0,0:0:0:0:
272,208,133366,1,8,0:0:0:0:
272,208,133421,1,0,0:0:0:0:
272,208,133532,1,0,0:0:0:0:
272,208,133643,1,8,0:0:0:0:
272,208,133755,1,8,0:0:0:0:
272,192,133792,1,8,0:0:0:0:
256,192,133829,1,0,0:0:0:0:
256,192,133866,1,0,0:0:0:0:
256,192,133977,1,0,0:0:0:0:
256,192,134088,1,0,0:0:0:0:
256,192,134199,1,4,0:0:0:0:
240,192,134421,1,0,0:0:0:0:
256,192,134458,1,0,0:0:0:0:
256,192,134495,1,0,0:0:0:0:
256,192,134532,1,8,0:0:0:0:
240,192,134755,1,0,0:0:0:0:
240,192,134866,1,0,0:0:0:0:
256,192,134977,1,8,0:0:0:0:
256,192,135014,1,0,0:0:0:0:
256,192,135051,1,0,0:0:0:0:
256,192,135088,1,8,0:0:0:0:
272,192,135199,1,0,0:0:0:0:
272,192,135310,1,8,0:0:0:0:
272,192,135421,1,0,0:0:0:0:
272,192,135532,1,8,0:0:0:0:
272,192,135643,1,8,0:0:0:0:
272,192,135699,1,8,0:0:0:0:
272,192,135755,1,0,0:0:0:0:
256,192,135977,1,4,0:0:0:0:
256,192,136199,1,8,0:0:0:0:
256,192,136421,1,8,0:0:0:0:
256,176,136588,1,8,0:0:0:0:
256,176,136755,1,0,0:0:0:0:
256,176,136866,1,8,0:0:0:0:
256,176,137088,1,8,0:0:0:0:
256,176,137310,1,8,0:0:0:0:
256,176,137477,1,8,0:0:0:0:
256,176,137643,1,0,0:0:0:0:
256,176,137755,1,8,0:0:0:0:
256,176,137977,1,8,0:0:0:0:
256,176,138199,1,8,0:0:0:0:
256,176,138421,1,8,0:0:0:0:
256,176,138643,1,8,0:0:0:0:
256,176,138866,1,8,0:0:0:0:
256,176,139088,1,8,0:0:0:0:
256,176,139310,1,8,0:0:0:0:
256,176,139532,1,0,0:0:0:0:
256,176,139643,1,0,0:0:0:0:
256,176,139755,1,8,0:0:0:0:
256,176,139977,1,0,0:0:0:0:
256,176,140088,1,0,0:0:0:0:
256,176,140143,1,0,0:0:0:0:
256,176,140199,1,8,0:0:0:0:
256,176,140310,1,0,0:0:0:0:
256,176,140366,1,8,0:0:0:0:
256,176,140421,1,0,0:0:0:0:
256,176,140532,1,0,0:0:0:0:
256,176,140643,1,8,0:0:0:0:
256,176,140866,1,8,0:0:0:0:
272,192,141032,1,0,0:0:0:0:
272,192,141088,1,8,0:0:0:0:
272,192,141199,1,0,0:0:0:0:
272,192,141310,1,8,0:0:0:0:
272,192,141421,1,0,0:0:0:0:
272,192,141532,1,8,0:0:0:0:
272,192,141643,1,8,0:0:0:0:
272,192,141755,1,8,0:0:0:0:
272,192,141866,1,0,0:0:0:0:
272,192,141921,1,0,0:0:0:0:
272,192,141977,1,8,0:0:0:0:
272,192,142088,1,8,0:0:0:0:
272,192,142199,1,4,0:0:0:0:
272,192,142366,1,0,0:0:0:0:
272,192,142421,1,8,0:0:0:0:
272,192,142532,1,0,0:0:0:0:
272,192,142643,1,8,0:0:0:0:
272,192,142699,1,8,0:0:0:0:
272,192,142755,1,0,0:0:0:0:
272,192,142810,1,0,0:0:0:0:
272,192,142866,1,8,0:0:0:0:
272,192,143088,1,4,0:0:0:0:
256,192,143199,1,0,0:0:0:0:
256,192,143310,1,8,0:0:0:0:
240,192,143347,1,0,0:0:0:0:
240,192,143384,1,0,0:0:0:0:
240,192,143421,1,8,0:0:0:0:
240,192,143477,1,8,0:0:0:0:
240,192,143532,1,8,0:0:0:0:
240,192,143588,1,8,0:0:0:0:
240,192,143643,1,0,0:0:0:0:
240,192,143699,1,8,0:0:0:0:
256,192,143755,1,0,0:0:0:0:
240,192,143792,1,0,0:0:0:0:
240,192,143829,1,0,0:0:0:0:
240,192,143866,1,8,0:0:0:0:
240,192,143921,1,8,0:0:0:0:
240,192,143977,1,0,0:0:0:0:
256,192,144199,1,0,0:0:0:0:
256,192,144310,1,0,0:0:0:0:
256,192,144421,1,12,0:0:0:0:
256,192,144532,1,0,0:0:0:0:
256,192,144643,1,8,0:0:0:0:
256,192,144681,1,8,0:0:0:0:
256,192,144718,1,0,0:0:0:0:
256,192,144755,1,0,0:0:0:0:
272,192,144866,1,0,0:0:0:0:
272,192,144921,1,0,0:0:0:0:
272,192,144977,1,0,0:0:0:0:
272,192,145032,1,0,0:0:0:0:
272,192,145088,1,8,0:0:0:0:
272,192,145199,1,0,0:0:0:0:
272,192,145310,1,0,0:0:0:0:
272,192,145366,1,0,0:0:0:0:
272,192,145421,1,8,0:0:0:0:
272,192,145532,1,8,0:0:0:0:
272,208,145588,1,0,0:0:0:0:
272,208,145643,1,8,0:0:0:0:
288,208,145699,1,8,0:0:0:0:
288,192,145755,1,0,0:0:0:0:
288,192,145792,1,8,0:0:0:0:
288,192,145829,1,8,0:0:0:0:
288,192,145866,1,0,0:0:0:0:
256,192,145977,1,8,0:0:0:0:
256,192,146088,1,0,0:0:0:0:
272,192,146143,1,0,0:0:0:0:
256,192,146199,1,8,0:0:0:0:
256,192,146310,1,8,0:0:0:0:
256,192,146421,1,8,0:0:0:0:
272,192,146458,1,8,0:0:0:0:
272,192,146495,1,8,0:0:0:0:
272,192,146532,1,8,0:0:0:0:
272,192,146643,1,0,0:0:0:0:
256,192,146866,1,8,0:0:0:0:
256,192,146977,1,0,0:0:0:0:
256,192,147199,1,8,0:0:0:0:
256,192,147310,1,0,0:0:0:0:
256,192,147532,1,8,0:0:0:0:
256,192,147643,1,0,0:0:0:0:
256,192,147699,1,8,0:0:0:0:
256,192,147755,1,0,0:0:0:0:
256,192,147866,1,0,0:0:0:0:
256,192,147977,1,4,0:0:0:0:
256,192,148199,1,0,0:0:0:0:
256,192,148255,1,8,0:0:0:0:
256,192,148310,1,8,0:0:0:0:
256,192,148366,1,8,0:0:0:0:
256,192,148421,1,0,0:0:0:0:
256,192,148532,1,8,0:0:0:0:
256,192,148643,1,0,0:0:0:0:
256,192,148699,1,0,0:0:0:0:
256,192,148755,1,8,0:0:0:0:
256,192,148810,1,8,0:0:0:0:
256,192,148866,1,8,0:0:0:0:
256,192,148977,1,0,0:0:0:0:
272,208,149014,1,0,0:0:0:0:
272,208,149051,1,0,0:0:0:0:
256,208,149088,1,8,0:0:0:0:
256,208,149143,1,0,0:0:0:0:
256,208,149199,1,8,0:0:0:0:
256,208,149310,1,0,0:0:0:0:
256,208,149532,1,0,0:0:0:0:
256,208,150199,1,4,0:0:0:0:
240,192,150421,1,8,0:0:0:0:
240,192,150643,1,0,0:0:0:0:
240,192,150866,1,8,0:0:0:0:
240,192,151088,1,0,0:0:0:0:
240,192,151199,1,0,0:0:0:0:
256,208,151421,1,0,0:0:0:0:
272,192,151477,1,0,0:0:0:0:
256,208,151532,1,8,0:0:0:0:
240,192,151755,1,8,0:0:0:0:
256,176,151977,1,4,0:0:0:0:
256,176,152199,1,8,0:0:0:0:
256,176,152421,1,0,0:0:0:0:
256,176,152532,1,0,0:0:0:0:
256,176,152643,1,8,0:0:0:0:
256,176,152755,1,8,0:0:0:0:
256,176,152866,1,0,0:0:0:0:
256,176,152921,1,0,0:0:0:0:
256,176,152977,1,0,0:0:0:0:
256,176,153088,1,8,0:0:0:0:
240,176,153143,1,8,0:0:0:0:
240,176,153199,1,0,0:0:0:0:
256,192,153236,1,0,0:0:0:0:
256,192,153273,1,0,0:0:0:0:
256,176,153310,1,8,0:0:0:0:
256,192,153366,1,8,0:0:0:0:
256,192,153421,1,0,0:0:0:0:
256,192,153532,1,12,0:0:0:0:
256,192,153755,1,4,0:0:0:0:
256,192,153977,1,0,0:0:0:0:
256,192,154032,1,0,0:0:0:0:
256,192,154088,1,0,0:0:0:0:
256,192,154143,1,0,0:0:0:0:
256,192,154199,1,8,0:0:0:0:
256,192,154310,1,0,0:0:0:0:
256,192,154421,1,8,0:0:0:0:
256,192,154477,1,8,0:0:0:0:
256,192,154532,1,0,0:0:0:0:
256,192,154643,1,8,0:0:0:0:
256,192,154755,1,0,0:0:0:0:
256,192,154866,1,8,0:0:0:0:
256,192,154921,1,0,0:0:0:0:
256,192,154977,1,8,0:0:0:0:
256,192,155032,1,8,0:0:0:0:
256,192,155088,1,0,0:0:0:0:
256,192,155143,1,0,0:0:0:0:
256,192,155199,1,0,0:0:0:0:
256,192,155310,1,8,0:0:0:0:
256,192,155421,1,8,0:0:0:0:
256,192,155532,1,0,0:0:0:0:
256,192,155643,1,0,0:0:0:0:
256,176,155755,1,8,0:0:0:0:
256,176,155810,1,8,0:0:0:0:
256,176,155866,1,0,0:0:0:0:
256,176,155921,1,0,0:0:0:0:
256,176,155977,1,8,0:0:0:0:
256,176,156088,1,0,0:0:0:0:
272,176,156199,1,8,0:0:0:0:
272,176,156255,1,8,0:0:0:0:
272,176,156310,1,8,0:0:0:0:
272,176,156366,1,8,0:0:0:0:
272,176,156421,1,0,0:0:0:0:
272,176,156532,1,8,0:0:0:0:
272,176,156643,1,0,0:0:0:0:
272,176,156699,1,0,0:0:0:0:
272,176,156755,1,8,0:0:0:0:
272,176,156810,1,8,0:0:0:0:
272,176,156866,1,0,0:0:0:0:
272,176,156977,1,0,0:0:0:0:
272,176,157088,1,8,0:0:0:0:
272,192,157143,1,8,0:0:0:0:
272,192,157199,1,0,0:0:0:0:
272,192,157310,1,0,0:0:0:0:
272,192,157421,1,0,0:0:0:0:
272,192,157532,1,8,0:0:0:0:
272,192,157588,1,0,0:0:0:0:
272,192,157643,1,0,0:0:0:0:
272,192,157699,1,0,0:0:0:0:
272,192,157755,1,8,0:0:0:0:
272,192,157866,1,8,0:0:0:0:
272,192,157977,1,0,0:0:0:0:
272,192,158032,1,8,0:0:0:0:
272,192,158088,1,0,0:0:0:0:
272,192,158143,1,0,0:0:0:0:
272,192,158199,1,8,0:0:0:0:
272,192,158310,1,0,0:0:0:0:
272,192,158421,1,0,0:0:0:0:
256,192,158477,1,8,0:0:0:0:
256,192,158532,1,0,0:0:0:0:
256,192,158643,1,8,0:0:0:0:
240,192,158755,1,0,0:0:0:0:
256,192,158866,1,8,0:0:0:0:
256,192,158921,1,8,0:0:0:0:
256,192,158977,1,0,0:0:0:0:
256,192,159032,1,8,0:0:0:0:
256,192,159088,1,0,0:0:0:0:
240,192,159199,1,0,0:0:0:0:
256,192,159236,1,0,0:0:0:0:
256,192,159273,1,0,0:0:0:0:
272,208,159310,1,8,0:0:0:0:
272,208,159421,1,8,0:0:0:0:
256,192,159458,1,0,0:0:0:0:
256,192,159495,1,0,0:0:0:0:
256,192,159532,1,8,0:0:0:0:
256,192,159588,1,8,0:0:0:0:
256,192,159643,1,0,0:0:0:0:
256,192,159755,1,0,0:0:0:0:
256,192,159866,1,0,0:0:0:0:
272,192,159903,1,0,0:0:0:0:
272,192,159940,1,0,0:0:0:0:
272,192,159977,1,8,0:0:0:0:
256,176,160088,1,0,0:0:0:0:
256,176,160199,1,12,0:0:0:0:
256,176,160421,1,0,0:0:0:0:
256,176,160532,1,0,0:0:0:0:
256,176,160643,1,12,0:0:0:0:
256,176,160866,1,4,0:0:0:0:
256,176,160977,1,8,0:0:0:0:
256,176,161088,1,0,0:0:0:0:
256,176,161143,1,0,0:0:0:0:
256,176,161199,1,0,0:0:0:0:
256,176,161310,1,8,0:0:0:0:
256,176,161421,1,8,0:0:0:0:
256,176,161532,1,0,0:0:0:0:
256,176,161588,1,0,0:0:0:0:
256,176,161643,1,8,0:0:0:0:
256,176,161699,1,0,0:0:0:0:
256,176,161755,1,8,0:0:0:0:
256,176,161866,1,0,0:0:0:0:
256,176,161977,1,8,0:0:0:0:
256,176,162032,1,8,0:0:0:0:
256,176,162088,1,8,0:0:0:0:
256,176,162143,1,8,0:0:0:0:
256,176,162199,1,0,0:0:0:0:
256,176,162310,1,0,0:0:0:0:
256,176,162366,1,0,0:0:0:0:
256,176,162421,1,8,0:0:0:0:
256,176,162532,1,8,0:0:0:0:
256,176,162643,1,0,0:0:0:0:
256,176,162755,1,0,0:0:0:0:
256,176,162866,1,12,0:0:0:0:
256,192,162977,1,0,0:0:0:0:
256,176,163088,1,0,0:0:0:0:
256,192,163199,1,0,0:0:0:0:
256,192,163310,1,12,0:0:0:0:
256,192,163421,1,8,0:0:0:0:
256,192,163477,1,8,0:0:0:0:
256,192,163532,1,0,0:0:0:0:
256,192,163643,1,0,0:0:0:0:
256,192,163699,1,0,0:0:0:0:
256,192,163755,1,8,0:0:0:0:
256,192,163866,1,0,0:0:0:0:
256,192,163977,1,8,0:0:0:0:
256,192,164088,1,8,0:0:0:0:
256,192,164199,1,8,0:0:0:0:
256,192,164310,1,8,0:0:0:0:
256,192,164421,1,0,0:0:0:0:
256,192,164532,1,8,0:0:0:0:
256,192,164643,1,0,0:0:0:0:
256,192,164699,1,0,0:0:0:0:
256,192,164755,1,0,0:0:0:0:
256,192,164866,1,8,0:0:0:0:
256,192,164977,1,8,0:0:0:0:
256,192,165032,1,8,0:0:0:0:
256,192,165088,1,0,0:0:0:0:
256,192,165143,1,0,0:0:0:0:
256,192,165199,1,0,0:0:0:0:
256,192,165255,1,0,0:0:0:0:
256,192,165310,1,8,0:0:0:0:
256,192,165421,1,0,0:0:0:0:
256,192,165477,1,0,0:0:0:0:
256,192,165532,1,8,0:0:0:0:
256,192,165643,1,8,0:0:0:0:
256,192,165755,1,0,0:0:0:0:
256,192,165866,1,8,0:0:0:0:
256,176,165977,1,0,0:0:0:0:
256,192,166199,1,0,0:0:0:0:
256,192,166310,1,0,0:0:0:0:
256,192,166643,1,0,0:0:0:0:
256,192,166755,1,0,0:0:0:0:
256,192,167199,1,4,0:0:0:0:
256,192,167421,1,12,0:0:0:0:
256,192,167532,1,4,0:0:0:0:
256,192,167977,1,0,0:0:0:0:
272,176,168088,1,8,0:0:0:0:
256,176,168199,1,0,0:0:0:0:
256,192,168255,1,0,0:0:0:0:
256,192,168310,1,8,0:0:0:0:
256,192,168421,1,0,0:0:0:0:
256,192,168532,1,8,0:0:0:0:
256,192,168643,1,0,0:0:0:0:
256,192,168699,1,0,0:0:0:0:
256,192,168755,1,8,0:0:0:0:
256,192,168810,1,8,0:0:0:0:
256,192,168866,1,0,0:0:0:0:
256,192,168977,1,8,0:0:0:0:
256,192,169088,1,0,0:0:0:0:
256,192,169143,1,0,0:0:0:0:
256,192,169199,1,8,0:0:0:0:
256,192,169310,1,0,0:0:0:0:
256,192,169421,1,8,0:0:0:0:
256,176,169477,1,8,0:0:0:0:
256,192,169532,1,0,0:0:0:0:
256,192,169588,1,0,0:0:0:0:
256,192,169643,1,8,0:0:0:0:
256,192,169755,1,0,0:0:0:0:
256,192,169866,1,8,0:0:0:0:
256,192,169977,1,0,0:0:0:0:
256,192,170032,1,0,0:0:0:0:
256,192,170088,1,8,0:0:0:0:
256,192,170199,1,0,0:0:0:0:
256,192,170310,1,8,0:0:0:0:
256,192,170421,1,0,0:0:0:0:
256,192,170477,1,0,0:0:0:0:
256,192,170532,1,8,0:0:0:0:
256,192,170588,1,8,0:0:0:0:
256,192,170643,1,0,0:0:0:0:
256,192,170699,1,0,0:0:0:0:
256,192,170755,1,8,0:0:0:0:
256,192,170866,1,0,0:0:0:0:
256,192,170977,1,8,0:0:0:0:
256,192,171088,1,0,0:0:0:0:
256,192,171199,1,8,0:0:0:0:
256,192,171236,1,8,0:0:0:0:
256,192,171273,1,8,0:0:0:0:
256,176,171310,1,0,0:0:0:0:
256,192,171421,1,8,0:0:0:0:
256,192,171458,1,8,0:0:0:0:
256,192,171495,1,8,0:0:0:0:
256,192,171532,1,0,0:0:0:0:
256,192,171643,1,8,0:0:0:0:
256,192,171755,1,0,0:0:0:0:
256,192,171810,1,0,0:0:0:0:
256,192,171866,1,8,0:0:0:0:
256,192,171977,1,0,0:0:0:0:
272,192,172088,1,8,0:0:0:0:
272,192,172199,1,0,0:0:0:0:
272,192,172255,1,0,0:0:0:0:
272,192,172310,1,8,0:0:0:0:
256,192,172366,1,8,0:0:0:0:
256,192,172421,1,0,0:0:0:0:
256,192,172532,1,8,0:0:0:0:
256,192,172643,1,0,0:0:0:0:
256,192,172699,1,0,0:0:0:0:
256,192,172755,1,8,0:0:0:0:
256,192,172866,1,0,0:0:0:0:
256,192,172977,1,8,0:0:0:0:
256,192,173032,1,8,0:0:0:0:
256,192,173088,1,0,0:0:0:0:
256,192,173143,1,0,0:0:0:0:
256,192,173199,1,8,0:0:0:0:
256,192,173255,1,8,0:0:0:0:
256,192,173310,1,0,0:0:0:0:
256,192,173421,1,8,0:0:0:0:
256,192,173532,1,0,0:0:0:0:
256,192,173643,1,8,0:0:0:0:
256,192,173755,1,0,0:0:0:0:
256,192,173866,1,8,0:0:0:0:
256,192,173921,1,8,0:0:0:0:
256,192,173977,1,0,0:0:0:0:
256,192,174088,1,8,0:0:0:0:
256,192,174199,1,0,0:0:0:0:
256,208,174236,1,8,0:0:0:0:
256,208,174273,1,8,0:0:0:0:
256,208,174310,1,0,0:0:0:0:
256,208,174347,1,8,0:0:0:0:
256,208,174384,1,8,0:0:0:0:
256,192,174421,1,0,0:0:0:0:
256,192,174532,1,8,0:0:0:0:
256,192,174588,1,8,0:0:0:0:
256,192,174643,1,0,0:0:0:0:
256,208,174755,1,0,0:0:0:0:
256,208,174866,1,12,0:0:0:0:
256,208,175088,1,0,0:0:0:0:
256,208,175199,1,8,0:0:0:0:
256,160,175255,1,8,0:0:0:0:
256,208,175310,1,0,0:0:0:0:
256,160,175366,1,0,0:0:0:0:
256,176,175421,1,8,0:0:0:0:
256,176,175532,1,0,0:0:0:0:
256,160,175643,1,8,0:0:0:0:
256,160,175755,1,0,0:0:0:0:
256,160,175866,1,8,0:0:0:0:
256,160,175977,1,0,0:0:0:0:
256,176,176088,1,8,0:0:0:0:
256,176,176143,1,8,0:0:0:0:
256,176,176199,1,0,0:0:0:0:
256,176,176310,1,8,0:0:0:0:
256,176,176421,1,0,0:0:0:0:
256,176,176532,1,8,0:0:0:0:
256,176,176588,1,8,0:0:0:0:
256,176,176643,1,0,0:0:0:0:
256,176,176699,1,0,0:0:0:0:
256,176,176755,1,8,0:0:0:0:
256,176,176866,1,0,0:0:0:0:
256,176,176977,1,8,0:0:0:0:
256,192,177088,1,0,0:0:0:0:
256,192,177199,1,8,0:0:0:0:
256,192,177255,1,8,0:0:0:0:
256,192,177310,1,0,0:0:0:0:
256,192,177421,1,8,0:0:0:0:
256,192,177532,1,0,0:0:0:0:
256,192,177588,1,0,0:0:0:0:
256,192,177643,1,8,0:0:0:0:
240,192,177699,1,8,0:0:0:0:
240,192,177755,1,0,0:0:0:0:
240,192,177810,1,0,0:0:0:0:
240,192,177866,1,8,0:0:0:0:
240,192,177977,1,0,0:0:0:0:
240,192,178088,1,8,0:0:0:0:
240,192,178199,1,0,0:0:0:0:
240,192,178310,1,8,0:0:0:0:
256,192,178347,1,8,0:0:0:0:
256,192,178384,1,8,0:0:0:0:
256,192,178421,1,0,0:0:0:0:
256,192,178532,1,8,0:0:0:0:
256,192,178569,1,8,0:0:0:0:
256,192,178606,1,0,0:0:0:0:
256,192,178643,1,8,0:0:0:0:
256,192,178755,1,8,0:0:0:0:
256,192,178866,1,0,0:0:0:0:
256,192,178921,1,0,0:0:0:0:
256,192,178977,1,0,0:0:0:0:
256,192,179088,1,8,0:0:0:0:
256,192,179199,1,8,0:0:0:0:
256,192,179310,1,0,0:0:0:0:
256,192,179366,1,0,0:0:0:0:
256,192,179421,1,8,0:0:0:0:
256,192,179532,1,0,0:0:0:0:
256,192,179643,1,8,0:0:0:0:
256,192,179755,1,0,0:0:0:0:
256,192,179810,1,0,0:0:0:0:
256,192,179866,1,8,0:0:0:0:
256,192,179977,1,8,0:0:0:0:
256,192,180088,1,8,0:0:0:0:
256,192,180199,1,0,0:0:0:0:
256,192,180255,1,0,0:0:0:0:
256,192,180310,1,8,0:0:0:0:
256,192,180366,1,8,0:0:0:0:
256,192,180421,1,0,0:0:0:0:
256,192,180532,1,0,0:0:0:0:
240,192,180588,1,0,0:0:0:0:
240,192,180643,1,8,0:0:0:0:
240,192,180699,1,0,0:0:0:0:
240,192,180755,1,8,0:0:0:0:
224,192,180810,1,8,0:0:0:0:
224,192,180866,1,0,0:0:0:0:
224,192,180921,1,8,0:0:0:0:
224,192,180977,1,0,0:0:0:0:
224,192,181032,1,0,0:0:0:0:
224,192,181088,1,8,0:0:0:0:
224,192,181143,1,8,0:0:0:0:
224,192,181199,1,0,0:0:0:0:
224,192,181255,1,0,0:0:0:0:
224,192,181310,1,8,0:0:0:0:
224,192,181366,1,0,0:0:0:0:
224,192,181421,1,0,0:0:0:0:
224,192,181477,1,0,0:0:0:0:
224,192,181532,1,8,0:0:0:0:
224,192,181588,1,0,0:0:0:0:
224,192,181643,1,8,0:0:0:0:
224,192,181699,1,8,0:0:0:0:
224,192,181755,1,0,0:0:0:0:
224,192,181810,1,8,0:0:0:0:
224,192,181866,1,0,0:0:0:0:
224,208,181921,1,0,0:0:0:0:
224,208,181977,1,8,0:0:0:0:
240,176,182199,1,0,0:0:0:0:
240,176,182643,1,8,0:0:0:0:
240,176,182866,1,0,0:0:0:0:
240,176,183310,1,0,0:0:0:0:
240,176,183532,1,8,0:0:0:0:
240,176,183977,1,0,0:0:0:0:
240,176,184421,1,8,0:0:0:0:
240,176,184755,1,0,0:0:0:0:
240,176,185088,1,0,0:0:0:0:
240,176,185310,1,8,0:0:0:0:
240,176,185755,1,0,0:0:0:0:
240,176,186199,1,8,0:0:0:0:
240,176,186421,1,0,0:0:0:0:
240,176,186866,1,0,0:0:0:0:
240,176,187088,1,8,0:0:0:0:
240,176,187532,1,0,0:0:0:0:
240,176,187977,1,8,0:0:0:0:
240,176,188310,1,0,0:0:0:0:
240,176,188421,1,8,0:0:0:0:
240,176,188643,1,0,0:0:0:0:
240,176,188866,1,8,0:0:0:0:
240,176,188977,1,0,0:0:0:0:
240,176,189088,1,0,0:0:0:0:
240,176,189199,1,8,0:0:0:0:
240,176,189310,1,0,0:0:0:0:
240,176,189532,1,0,0:0:0:0:
256,176,189569,1,0,0:0:0:0:
240,176,189606,1,8,0:0:0:0:
240,176,189643,1,8,0:0:0:0:
240,176,189755,1,8,0:0:0:0:
240,176,189977,1,0,0:0:0:0:
256,176,190032,1,0,0:0:0:0:
256,176,190088,1,8,0:0:0:0:
256,176,190199,1,0,0:0:0:0:
256,176,190255,1,0,0:0:0:0:
256,176,190310,1,0,0:0:0:0:
256,176,190421,1,0,0:0:0:0:
256,176,190643,1,8,0:0:0:0:
256,176,190866,1,8,0:0:0:0:
256,176,191088,1,0,0:0:0:0:
256,176,191310,1,8,0:0:0:0:
256,176,191347,1,8,0:0:0:0:
240,176,191384,1,0,0:0:0:0:
256,176,191421,1,0,0:0:0:0:
256,176,191532,1,8,0:0:0:0:
256,176,191755,1,8,0:0:0:0:
256,176,191866,1,0,0:0:0:0:
256,176,191977,1,0,0:0:0:0:
256,176,192032,1,0,0:0:0:0:
272,176,192088,1,0,0:0:0:0:
256,176,192199,1,0,0:0:0:0:
256,176,192421,1,8,0:0:0:0:
240,176,192532,1,0,0:0:0:0:
240,176,192588,1,0,0:0:0:0:
256,176,192643,1,8,0:0:0:0:
256,176,192755,1,8,0:0:0:0:
240,176,192866,1,0,0:0:0:0:
256,176,193088,1,8,0:0:0:0:
256,176,193125,1,8,0:0:0:0:
256,176,193162,1,0,0:0:0:0:
256,176,193199,1,0,0:0:0:0:
240,176,193310,1,8,0:0:0:0:
240,176,193532,1,0,0:0:0:0:
256,176,193569,1,8,0:0:0:0:
256,176,193606,1,8,0:0:0:0:
240,176,193643,1,0,0:0:0:0:
240,176,193755,1,0,0:0:0:0:
256,160,193977,1,0,0:0:0:0:
256,160,194199,1,8,0:0:0:0:
256,160,194310,1,8,0:0:0:0:
256,160,194532,1,0,0:0:0:0:
256,160,194643,1,8,0:0:0:0:
256,160,194866,1,0,0:0:0:0:
240,176,194903,1,0,0:0:0:0:
256,176,194940,1,8,0:0:0:0:
256,176,194977,1,8,0:0:0:0:
256,160,195088,1,8,0:0:0:0:
256,160,195310,1,8,0:0:0:0:
240,160,195421,1,0,0:0:0:0:
240,160,195532,1,0,0:0:0:0:
240,160,195588,1,0,0:0:0:0:
240,160,195643,1,0,0:0:0:0:
240,160,195699,1,0,0:0:0:0:
240,160,195755,1,0,0:0:0:0:
240,160,195810,1,0,0:0:0:0:
256,160,195866,1,0,0:0:0:0:
256,160,195921,1,0,0:0:0:0:
256,160,195977,1,8,0:0:0:0:
256,160,196088,1,0,0:0:0:0:
256,160,196143,1,0,0:0:0:0:
256,160,196199,1,8,0:0:0:0:
256,160,196310,1,8,0:0:0:0:
256,160,196421,1,0,0:0:0:0:
256,176,196532,1,0,0:0:0:0:
256,176,196643,1,12,0:0:0:0:
256,176,196977,1,0,0:0:0:0:
256,176,197088,1,12,0:0:0:0:
256,176,197421,1,0,0:0:0:0:
256,176,197532,1,12,0:0:0:0:
256,176,197866,1,0,0:0:0:0:
256,176,197977,1,12,0:0:0:0:
256,176,198088,1,0,0:0:0:0:
256,176,198199,1,0,0:0:0:0:
256,176,198421,1,12,0:0:0:0:
256,176,198755,1,0,0:0:0:0:
256,176,198866,1,12,0:0:0:0:
256,176,199199,1,0,0:0:0:0:
256,176,199310,1,12,0:0:0:0:
256,176,199643,1,0,0:0:0:0:
256,176,199755,1,12,0:0:0:0:
256,176,199866,1,8,0:0:0:0:
256,176,199977,1,0,0:0:0:0:
256,176,200199,1,12,0:0:0:0:
256,176,200532,1,0,0:0:0:0:
256,176,200643,1,12,0:0:0:0:
256,176,200977,1,0,0:0:0:0:
256,176,201088,1,12,0:0:0:0:
256,176,201421,1,0,0:0:0:0:
256,176,201532,1,12,0:0:0:0:
256,176,201755,1,0,0:0:0:0:
256,176,201921,1,0,0:0:0:0:
256,176,201977,1,8,0:0:0:0:
256,176,202088,1,0,0:0:0:0:
256,176,202199,1,12,0:0:0:0:
240,176,202310,1,0,0:0:0:0:
240,176,202421,1,8,0:0:0:0:
240,176,202477,1,8,0:0:0:0:
240,176,202532,1,0,0:0:0:0:
240,176,202588,1,0,0:0:0:0:
240,176,202643,1,8,0:0:0:0:
240,176,202755,1,0,0:0:0:0:
224,176,202866,1,0,0:0:0:0:
224,176,202977,1,0,0:0:0:0:
224,176,203032,1,0,0:0:0:0:
224,176,203088,1,8,0:0:0:0:
224,176,203199,1,0,0:0:0:0:
240,176,203236,1,0,0:0:0:0:
240,176,203273,1,0,0:0:0:0:
240,176,203310,1,8,0:0:0:0:
240,192,203421,1,8,0:0:0:0:
256,176,203532,1,0,0:0:0:0:
256,176,203755,1,0,0:0:0:0:
256,176,203977,1,8,0:0:0:0:
256,176,204199,1,8,0:0:0:0:
256,176,204310,1,8,0:0:0:0:
256,176,204421,1,0,0:0:0:0:
256,176,204643,1,0,0:0:0:0:
256,176,204866,1,8,0:0:0:0:
256,176,204977,1,0,0:0:0:0:
256,176,205088,1,8,0:0:0:0:
256,176,205310,1,0,0:0:0:0:
256,176,205532,1,0,0:0:0:0:
256,176,205755,1,8,0:0:0:0:
256,176,205977,1,0,0:0:0:0:
256,176,206088,1,0,0:0:0:0:
256,176,206199,1,8,0:0:0:0:
256,176,206421,1,0,0:0:0:0:
256,176,206643,1,8,0:0:0:0:
256,176,206866,1,8,0:0:0:0:
256,192,207088,1,4,0:0:0:0:
256,176,207532,1,8,0:0:0:0:
256,176,207755,1,8,0:0:0:0:
256,176,207866,1,8,0:0:0:0:
256,176,207977,1,0,0:0:0:0:
256,176,208088,1,8,0:0:0:0:
256,176,208199,1,0,0:0:0:0:
256,176,208421,1,0,0:0:0:0:
256,176,208643,1,8,0:0:0:0:
256,176,208755,1,8,0:0:0:0:
256,176,208866,1,0,0:0:0:0:
256,176,209310,1,8,0:0:0:0:
256,176,209532,1,0,0:0:0:0:
256,176,209588,1,0,0:0:0:0:
256,176,209643,1,0,0:0:0:0:
256,176,209699,1,0,0:0:0:0:
256,176,209755,1,8,0:0:0:0:
256,176,209866,1,0,0:0:0:0:
256,176,209977,1,8,0:0:0:0:
256,176,210199,1,0,0:0:0:0:
256,176,210421,1,0,0:0:0:0:
256,176,210643,1,12,0:0:0:0:
256,176,210866,1,8,0:0:0:0:
256,176,211088,1,0,0:0:0:0:
256,176,211199,1,8,0:0:0:0:
256,176,211310,1,0,0:0:0:0:
256,176,211366,1,0,0:0:0:0:
256,176,211421,1,0,0:0:0:0:
256,176,211532,1,8,0:0:0:0:
256,176,211643,1,0,0:0:0:0:
256,192,211755,1,0,0:0:0:0:
256,192,211866,1,8,0:0:0:0:
256,192,212088,1,0,0:0:0:0:
256,192,212199,1,8,0:0:0:0:
240,192,212310,1,0,0:0:0:0:
240,192,212421,1,0,0:0:0:0:
240,192,212532,1,0,0:0:0:0:
256,192,212569,1,8,0:0:0:0:
256,208,212606,1,8,0:0:0:0:
256,192,212643,1,0,0:0:0:0:
256,192,212755,1,8,0:0:0:0:
240,192,212866,1,0,0:0:0:0:
240,192,212977,1,8,0:0:0:0:
256,192,213088,1,0,0:0:0:0:
256,192,213310,1,8,0:0:0:0:
256,192,213532,1,0,0:0:0:0:
256,192,213643,1,8,0:0:0:0:
256,208,213866,1,0,0:0:0:0:
256,208,213977,1,8,0:0:0:0:
256,208,214088,1,0,0:0:0:0:
256,208,214143,1,0,0:0:0:0:
256,208,214199,1,8,0:0:0:0:
256,208,214421,1,8,0:0:0:0:
256,208,214643,1,8,0:0:0:0:
256,208,214755,1,0,0:0:0:0:
256,208,214866,1,0,0:0:0:0:
256,208,214977,1,8,0:0:0:0:
256,208,215088,1,0,0:0:0:0:
256,208,215199,1,8,0:0:0:0:
256,208,215236,1,8,0:0:0:0:
256,208,215273,1,8,0:0:0:0:
256,208,215310,1,0,0:0:0:0:
256,208,215421,1,0,0:0:0:0:
256,208,215532,1,12,0:0:0:0:
240,208,215977,1,0,0:0:0:0:
240,208,216088,1,8,0:0:0:0:
240,176,216143,1,8,0:0:0:0:
240,208,216199,1,0,0:0:0:0:
240,192,216255,1,0,0:0:0:0:
256,208,216310,1,0,0:0:0:0:
256,208,216421,1,8,0:0:0:0:
256,208,216532,1,8,0:0:0:0:
256,208,216643,1,0,0:0:0:0:
240,208,216699,1,0,0:0:0:0:
240,208,216755,1,8,0:0:0:0:
240,208,216866,1,0,0:0:0:0:
240,208,216977,1,8,0:0:0:0:
240,208,217032,1,8,0:0:0:0:
240,208,217088,1,0,0:0:0:0:
240,208,217143,1,0,0:0:0:0:
240,208,217199,1,8,0:0:0:0:
240,208,217255,1,8,0:0:0:0:
240,208,217310,1,0,0:0:0:0:
240,208,217421,1,0,0:0:0:0:
240,208,217532,1,8,0:0:0:0:
240,208,217588,1,0,0:0:0:0:
240,208,217643,1,8,0:0:0:0:
240,208,217699,1,8,0:0:0:0:
240,208,217755,1,0,0:0:0:0:
224,208,217866,1,8,0:0:0:0:
224,208,217977,1,8,0:0:0:0:
224,208,218032,1,8,0:0:0:0:
224,208,218088,1,0,0:0:0:0:
224,208,218199,1,8,0:0:0:0:
224,208,218310,1,0,0:0:0:0:
224,208,218421,1,0,0:0:0:0:
224,224,218477,1,0,0:0:0:0:
224,224,218532,1,8,0:0:0:0:
224,224,218588,1,8,0:0:0:0:
224,224,218643,1,0,0:0:0:0:
256,176,218755,1,0,0:0:0:0:
256,176,218866,1,8,0:0:0:0:
256,176,218921,1,0,0:0:0:0:
256,176,218977,1,8,0:0:0:0:
256,176,219032,1,8,0:0:0:0:
256,176,219088,1,0,0:0:0:0:
256,176,219143,1,0,0:0:0:0:
256,176,219199,1,8,0:0:0:0:
256,176,219310,1,8,0:0:0:0:
256,176,219421,1,0,0:0:0:0:
256,176,219477,1,0,0:0:0:0:
256,176,219532,1,0,0:0:0:0:
256,176,219643,1,0,0:0:0:0:
256,176,219755,1,8,0:0:0:0:
256,176,219866,1,0,0:0:0:0:
256,176,219921,1,0,0:0:0:0:
256,176,219977,1,8,0:0:0:0:
256,176,220088,1,0,0:0:0:0:
256,176,220199,1,8,0:0:0:0:
256,176,220255,1,8,0:0:0:0:
256,176,220310,1,8,0:0:0:0:
256,176,220366,1,8,0:0:0:0:
256,176,220421,1,0,0:0:0:0:
256,176,220532,1,0,0:0:0:0:
256,176,220643,1,8,0:0:0:0:
256,176,220699,1,8,0:0:0:0:
256,176,220755,1,0,0:0:0:0:
256,176,220866,1,8,0:0:0:0:
256,192,220977,1,0,0:0:0:0:
256,192,221088,1,8,0:0:0:0:
256,192,221143,1,0,0:0:0:0:
256,192,221199,1,8,0:0:0:0:
256,192,221255,1,8,0:0:0:0:
256,192,221310,1,0,0:0:0:0:
256,192,221421,1,8,0:0:0:0:
256,192,221532,1,0,0:0:0:0:
256,192,221588,1,0,0:0:0:0:
256,192,221643,1,8,0:0:0:0:
256,192,221699,1,8,0:0:0:0:
256,192,221755,1,0,0:0:0:0:
240,192,221866,1,0,0:0:0:0:
240,192,221977,1,8,0:0:0:0:
240,192,222088,1,12,0:0:0:0:
240,192,222310,1,4,0:0:0:0:
240,192,222421,1,12,0:0:0:0:
240,192,222532,1,4,0:0:0:0:
240,192,222755,1,4,0:0:0:0:
240,192,222866,1,12,0:0:0:0:
256,160,223310,1,0,0:0:0:0:
240,192,223421,1,0,0:0:0:0:
240,192,223532,1,8,0:0:0:0:
256,176,223643,1,8,0:0:0:0:
256,176,223755,1,0,0:0:0:0:
256,176,223810,1,0,0:0:0:0:
256,160,223866,1,8,0:0:0:0:
256,176,223903,1,8,0:0:0:0:
256,176,223940,1,8,0:0:0:0:
256,176,223977,1,0,0:0:0:0:
256,192,224088,1,0,0:0:0:0:
256,192,224199,1,8,0:0:0:0:
256,192,224255,1,8,0:0:0:0:
256,192,224310,1,0,0:0:0:0:
256,176,224366,1,0,0:0:0:0:
256,192,224421,1,0,0:0:0:0:
256,176,224532,1,8,0:0:0:0:
256,176,224643,1,0,0:0:0:0:
256,176,224699,1,8,0:0:0:0:
256,176,224755,1,8,0:0:0:0:
256,176,224866,1,0,0:0:0:0:
256,176,224977,1,0,0:0:0:0:
256,192,225014,1,0,0:0:0:0:
256,192,225051,1,0,0:0:0:0:
256,192,225088,1,8,0:0:0:0:
256,176,225199,1,0,0:0:0:0:
256,176,225310,1,0,0:0:0:0:
256,176,225366,1,0,0:0:0:0:
256,176,225421,1,8,0:0:0:0:
256,176,225532,1,8,0:0:0:0:
256,176,225643,1,0,0:0:0:0:
256,176,225755,1,8,0:0:0:0:
256,176,225866,1,0,0:0:0:0:
256,176,225921,1,0,0:0:0:0:
256,176,225977,1,8,0:0:0:0:
256,176,226088,1,8,0:0:0:0:
256,176,226143,1,8,0:0:0:0:
256,176,226199,1,0,0:0:0:0:
256,176,226310,1,0,0:0:0:0:
256,176,226421,1,8,0:0:0:0:
256,176,226477,1,8,0:0:0:0:
256,176,226532,1,0,0:0:0:0:
256,176,226588,1,0,0:0:0:0:
256,176,226643,1,0,0:0:0:0:
240,176,226755,1,0,0:0:0:0:
240,192,226866,1,8,0:0:0:0:
240,192,226977,1,0,0:0:0:0:
240,192,227032,1,0,0:0:0:0:
240,192,227088,1,8,0:0:0:0:
240,192,227199,1,0,0:0:0:0:
240,192,227310,1,8,0:0:0:0:
240,192,227366,1,8,0:0:0:0:
240,192,227421,1,8,0:0:0:0:
240,192,227477,1,8,0:0:0:0:
240,192,227532,1,0,0:0:0:0:
224,192,227643,1,0,0:0:0:0:
224,192,227755,1,8,0:0:0:0:
224,192,227810,1,0,0:0:0:0:
224,192,227866,1,8,0:0:0:0:
224,192,227921,1,8,0:0:0:0:
224,192,227977,1,0,0:0:0:0:
224,192,228088,1,0,0:0:0:0:
224,192,228199,1,8,0:0:0:0:
240,192,228236,1,0,0:0:0:0:
240,192,228273,1,0,0:0:0:0:
240,192,228310,1,8,0:0:0:0:
240,192,228366,1,8,0:0:0:0:
256,176,228421,1,0,0:0:0:0:
256,176,228532,1,0,0:0:0:0:
256,176,228643,1,8,0:0:0:0:
256,176,228755,1,8,0:0:0:0:
256,176,228866,1,0,0:0:0:0:
256,176,228977,1,0,0:0:0:0:
256,176,229088,1,8,0:0:0:0:
256,176,229199,1,8,0:0:0:0:
256,176,229310,1,0,0:0:0:0:
240,192,229421,1,0,0:0:0:0:
240,192,229477,1,0,0:0:0:0:
240,192,229532,1,8,0:0:0:0:
240,192,229643,1,0,0:0:0:0:
256,192,229755,1,8,0:0:0:0:
240,192,229866,1,0,0:0:0:0:
240,192,229977,1,8,0:0:0:0:
240,192,230088,1,8,0:0:0:0:
240,192,230199,1,0,0:0:0:0:
240,192,231088,1,8,0:0:0:0:
240,192,231143,1,8,0:0:0:0:
240,192,231199,1,8,0:0:0:0:
240,192,231255,1,8,0:0:0:0:
240,192,231310,1,8,0:0:0:0:
240,192,231366,1,8,0:0:0:0:
240,192,231421,1,8,0:0:0:0:
240,192,231477,1,8,0:0:0:0:
240,192,231532,1,8,0:0:0:0:
240,176,231977,1,0,0:0:0:0:
256,160,232088,1,0,0:0:0:0:
272,176,232125,1,0,0:0:0:0:
272,176,232162,1,0,0:0:0:0:
256,176,232199,1,8,0:0:0:0:
256,160,232310,1,8,0:0:0:0:
256,160,232421,1,0,0:0:0:0:
256,160,232532,1,8,0:0:0:0:
256,176,232643,1,0,0:0:0:0:
256,160,232681,1,0,0:0:0:0:
256,160,232718,1,8,0:0:0:0:
256,160,232755,1,8,0:0:0:0:
256,176,232810,1,8,0:0:0:0:
256,176,232866,1,0,0:0:0:0:
256,160,232977,1,0,0:0:0:0:
256,176,233088,1,8,0:0:0:0:
256,176,233199,1,8,0:0:0:0:
256,176,233255,1,8,0:0:0:0:
256,176,233310,1,8,0:0:0:0:
256,176,233421,1,0,0:0:0:0:
240,160,233643,1,8,0:0:0:0:
256,160,233755,1,0,0:0:0:0:
256,176,233866,1,0,0:0:0:0:
256,160,233903,1,0,0:0:0:0:
256,160,233940,1,0,0:0:0:0:
256,160,233977,1,8,0:0:0:0:
256,160,234032,1,8,0:0:0:0:
256,160,234088,1,0,0:0:0:0:
240,160,234199,1,0,0:0:0:0:
240,160,234310,1,8,0:0:0:0:
256,160,234347,1,8,0:0:0:0:
240,160,234384,1,8,0:0:0:0:
240,160,234421,1,0,0:0:0:0:
256,160,234477,1,0,0:0:0:0:
256,160,234532,1,8,0:0:0:0:
272,160,234569,1,0,0:0:0:0:
256,160,234606,1,0,0:0:0:0:
272,176,234643,1,8,0:0:0:0:
272,176,234699,1,8,0:0:0:0:
272,176,234755,1,0,0:0:0:0:
272,176,234866,1,0,0:0:0:0:
272,176,234921,1,0,0:0:0:0:
272,160,234977,1,8,0:0:0:0:
272,176,235014,1,8,0:0:0:0:
272,176,235051,1,8,0:0:0:0:
272,176,235088,1,0,0:0:0:0:
272,192,235199,1,0,0:0:0:0:
272,192,235255,1,0,0:0:0:0:
272,192,235310,1,8,0:0:0:0:
272,192,235421,1,0,0:0:0:0:
272,192,235477,1,0,0:0:0:0:
272,192,235532,1,0,0:0:0:0:
272,192,235643,1,0,0:0:0:0:
272,192,235699,1,0,0:0:0:0:
272,192,235755,1,8,0:0:0:0:
272,192,235866,1,8,0:0:0:0:
256,192,235977,1,0,0:0:0:0:
256,192,236088,1,8,0:0:0:0:
256,192,236143,1,8,0:0:0:0:
256,192,236199,1,0,0:0:0:0:
256,208,236236,1,8,0:0:0:0:
256,192,236273,1,8,0:0:0:0:
256,192,236310,1,0,0:0:0:0:
256,192,236366,1,0,0:0:0:0:
256,192,236421,1,8,0:0:0:0:
256,192,236532,1,0,0:0:0:0:
240,192,236643,1,0,0:0:0:0:
240,176,236755,1,8,0:0:0:0:
240,192,236792,1,8,0:0:0:0:
240,192,236829,1,8,0:0:0:0:
240,192,236866,1,0,0:0:0:0:
240,192,236977,1,8,0:0:0:0:
256,192,237014,1,8,0:0:0:0:
256,192,237051,1,8,0:0:0:0:
240,192,237088,1,0,0:0:0:0:
240,192,237310,1,4,0:0:0:0:
240,192,237532,1,12,0:0:0:0:
240,192,237643,1,4,0:0:0:0:
240,192,237755,1,4,0:0:0:0:
240,208,237977,1,12,0:0:0:0:
240,208,238088,1,4,0:0:0:0:
240,208,238199,1,4,0:0:0:0:
240,208,238421,1,4,0:0:0:0:
240,208,238643,1,8,0:0:0:0:
272,192,238681,1,8,0:0:0:0:
272,192,238718,1,8,0:0:0:0:
256,208,238755,1,0,0:0:0:0:
288,192,238866,1,0,0:0:0:0:
288,192,238903,1,8,0:0:0:0:
288,192,238940,1,8,0:0:0:0:
272,192,238977,1,0,0:0:0:0:
272,192,239032,1,0,0:0:0:0:
272,192,239088,1,8,0:0:0:0:
288,176,239199,1,0,0:0:0:0:
288,176,239255,1,0,0:0:0:0:
288,176,239310,1,8,0:0:0:0:
256,192,239347,1,0,0:0:0:0:
256,192,239384,1,0,0:0:0:0:
256,192,239421,1,8,0:0:0:0:
288,192,239477,1,8,0:0:0:0:
288,192,239532,1,0,0:0:0:0:
272,192,239588,1,8,0:0:0:0:
288,192,239643,1,0,0:0:0:0:
256,192,239681,1,0,0:0:0:0:
256,192,239718,1,0,0:0:0:0:
256,192,239755,1,8,0:0:0:0:
256,192,239792,1,0,0:0:0:0:
256,192,239829,1,0,0:0:0:0:
256,192,239866,1,8,0:0:0:0:
272,192,239921,1,8,0:0:0:0:
256,208,239977,1,0,0:0:0:0:
256,192,240088,1,0,0:0:0:0:
256,192,240199,1,8,0:0:0:0:
256,192,240236,1,8,0:0:0:0:
256,192,240273,1,8,0:0:0:0:
256,192,240310,1,0,0:0:0:0:
272,176,240421,1,8,0:0:0:0:
272,176,240532,1,0,0:0:0:0:
256,176,240569,1,8,0:0:0:0:
256,176,240606,1,8,0:0:0:0:
272,192,240643,1,0,0:0:0:0:
256,176,240755,1,8,0:0:0:0:
256,176,240866,1,0,0:0:0:0:
256,176,240921,1,0,0:0:0:0:
256,176,240977,1,8,0:0:0:0:
256,176,241088,1,8,0:0:0:0:
256,176,241143,1,8,0:0:0:0:
256,176,241199,1,0,0:0:0:0:
256,192,241255,1,0,0:0:0:0:
240,192,241310,1,8,0:0:0:0:
272,176,241366,1,8,0:0:0:0:
272,160,241421,1,0,0:0:0:0:
256,176,241458,1,8,0:0:0:0:
256,176,241495,1,8,0:0:0:0:
256,176,241532,1,0,0:0:0:0:
272,176,241569,1,0,0:0:0:0:
272,176,241606,1,0,0:0:0:0:
256,160,241643,1,8,0:0:0:0:
256,176,241699,1,8,0:0:0:0:
256,176,241755,1,0,0:0:0:0:
256,160,241810,1,8,0:0:0:0:
256,160,241866,1,0,0:0:0:0:
256,160,241921,1,0,0:0:0:0:
256,160,241977,1,8,0:0:0:0:
256,160,242088,1,0,0:0:0:0:
256,160,242199,1,8,0:0:0:0:
256,160,242255,1,8,0:0:0:0:
256,160,242310,1,0,0:0:0:0:
256,160,242366,1,0,0:0:0:0:
256,176,242421,1,8,0:0:0:0:
256,176,242477,1,0,0:0:0:0:
272,176,242532,1,8,0:0:0:0:
256,176,242588,1,8,0:0:0:0:
256,176,242643,1,0,0:0:0:0:
240,160,242755,1,0,0:0:0:0:
256,176,242866,1,0,0:0:0:0:
256,176,242903,1,0,0:0:0:0:
256,176,242940,1,0,0:0:0:0:
256,176,242977,1,8,0:0:0:0:
256,176,243032,1,8,0:0:0:0:
256,176,243088,1,0,0:0:0:0:
256,176,243199,1,8,0:0:0:0:
256,192,243236,1,8,0:0:0:0:
256,192,243273,1,0,0:0:0:0:
256,192,243310,1,8,0:0:0:0:
256,192,243366,1,0,0:0:0:0:
256,192,243421,1,8,0:0:0:0:
240,176,243458,1,8,0:0:0:0:
240,176,243495,1,8,0:0:0:0:
240,176,243532,1,0,0:0:0:0:
256,176,243643,1,0,0:0:0:0:
256,176,243699,1,0,0:0:0:0:
256,176,243755,1,8,0:0:0:0:
240,176,243810,1,8,0:0:0:0:
240,176,243866,1,0,0:0:0:0:
240,176,243977,1,8,0:0:0:0:
240,176,244088,1,8,0:0:0:0:
240,176,244199,1,0,0:0:0:0:
240,160,244255,1,0,0:0:0:0:
256,176,244310,1,8,0:0:0:0:
256,176,244347,1,8,0:0:0:0:
256,176,244384,1,8,0:0:0:0:
256,176,244421,1,0,0:0:0:0:
256,176,244458,1,0,0:0:0:0:
256,176,244495,1,0,0:0:0:0:
256,176,244532,1,8,0:0:0:0:
256,176,244643,1,0,0:0:0:0:
256,176,244755,1,8,0:0:0:0:
256,176,244866,1,8,0:0:0:0:
256,176,244921,1,0,0:0:0:0:
260,170,244977,1,8,0:0:0:0:
256,176,245032,1,8,0:0:0:0:
256,176,245088,1,0,0:0:0:0:
256,176,245143,1,0,0:0:0:0:
256,176,245199,1,8,0:0:0:0:
256,192,245236,1,0,0:0:0:0:
256,176,245273,1,0,0:0:0:0:
256,176,245310,1,8,0:0:0:0:
256,176,246199,1,8,0:0:0:0:
256,176,246310,1,0,0:0:0:0:
256,176,246421,1,8,0:0:0:0:
256,176,246477,1,8,0:0:0:0:
256,176,246532,1,8,0:0:0:0:
256,176,246588,1,8,0:0:0:0:
256,176,246643,1,0,0:0:0:0:
256,176,246792,1,0,0:0:0:0:
256,176,246866,1,8,0:0:0:0:
240,176,247014,1,8,0:0:0:0:
256,160,247088,1,0,0:0:0:0:
256,160,247199,1,0,0:0:0:0:
256,160,247310,1,8,0:0:0:0:
256,160,247366,1,0,0:0:0:0:
256,160,247477,1,0,0:0:0:0:
256,160,247532,1,8,0:0:0:0:
256,160,247643,1,8,0:0:0:0:
256,160,247755,1,0,0:0:0:0:
256,160,247810,1,0,0:0:0:0:
256,160,247866,1,8,0:0:0:0:
256,160,247921,1,8,0:0:0:0:
256,160,247977,1,0,0:0:0:0:
256,160,248088,1,0,0:0:0:0:
256,160,248199,1,8,0:0:0:0:
256,160,248255,1,8,0:0:0:0:
256,160,248310,1,8,0:0:0:0:
256,160,248366,1,8,0:0:0:0:
256,160,248421,1,0,0:0:0:0:
256,144,248532,1,8,0:0:0:0:
256,176,248755,1,0,0:0:0:0:
256,176,248866,1,8,0:0:0:0:
272,176,248977,1,0,0:0:0:0:
272,176,249032,1,0,0:0:0:0:
272,176,249088,1,8,0:0:0:0:
272,176,249199,1,0,0:0:0:0:
272,176,249310,1,8,0:0:0:0:
272,176,249366,1,0,0:0:0:0:
272,176,249421,1,8,0:0:0:0:
272,176,249477,1,8,0:0:0:0:
272,176,249532,1,0,0:0:0:0:
272,176,249643,1,8,0:0:0:0:
272,176,249755,1,8,0:0:0:0:
272,176,249810,1,8,0:0:0:0:
272,176,249866,1,0,0:0:0:0:
272,176,249977,1,8,0:0:0:0:
272,176,250088,1,0,0:0:0:0:
272,176,250199,1,0,0:0:0:0:
272,176,250255,1,0,0:0:0:0:
272,176,250310,1,0,0:0:0:0:
272,176,250421,1,8,0:0:0:0:
272,192,250532,1,0,0:0:0:0:
272,192,250643,1,8,0:0:0:0:
272,192,250699,1,8,0:0:0:0:
272,192,250755,1,8,0:0:0:0:
272,192,250810,1,8,0:0:0:0:
272,192,250866,1,0,0:0:0:0:
272,192,250977,1,0,0:0:0:0:
272,192,251088,1,8,0:0:0:0:
256,192,251199,1,0,0:0:0:0:
256,192,251255,1,0,0:0:0:0:
256,192,251310,1,8,0:0:0:0:
256,192,251421,1,0,0:0:0:0:
256,192,251532,1,8,0:0:0:0:
256,192,251588,1,8,0:0:0:0:
256,192,251643,1,0,0:0:0:0:
256,192,251755,1,8,0:0:0:0:
256,192,251903,1,0,0:0:0:0:
256,192,251977,1,8,0:0:0:0:
240,192,252125,1,0,0:0:0:0:
240,192,252199,1,8,0:0:0:0:
256,192,252347,1,0,0:0:0:0:
256,192,252421,1,0,0:0:0:0:
256,192,252532,1,8,0:0:0:0:
256,192,252643,1,0,0:0:0:0:
256,192,252755,1,8,0:0:0:0:
256,192,252866,1,0,0:0:0:0:
256,192,252977,1,0,0:0:0:0:
240,192,253032,1,0,0:0:0:0:
240,192,253088,1,0,0:0:0:0:
240,192,253199,1,0,0:0:0:0:
256,176,253310,1,8,0:0:0:0:
256,192,253532,1,8,0:0:0:0:
256,176,253643,1,8,0:0:0:0:
256,176,253699,1,0,0:0:0:0:
272,176,253755,1,8,0:0:0:0:
256,160,253866,1,0,0:0:0:0:
256,192,253977,1,8,0:0:0:0:
256,192,254088,1,0,0:0:0:0:
256,192,254125,1,0,0:0:0:0:
256,192,254162,1,0,0:0:0:0:
256,192,254199,1,8,0:0:0:0:
256,176,254310,1,0,0:0:0:0:
240,192,254366,1,0,0:0:0:0:
240,176,254421,1,8,0:0:0:0:
240,176,254477,1,8,0:0:0:0:
240,192,254532,1,0,0:0:0:0:
256,192,254569,1,0,0:0:0:0:
256,192,254606,1,0,0:0:0:0:
256,192,254643,1,8,0:0:0:0:
240,176,254755,1,0,0:0:0:0:
240,176,254866,1,8,0:0:0:0:
240,176,254921,1,0,0:0:0:0:
240,176,254977,1,8,0:0:0:0:
240,176,255032,1,8,0:0:0:0:
240,176,255088,1,0,0:0:0:0:
240,176,255236,1,0,0:0:0:0:
256,160,255310,1,8,0:0:0:0:
256,176,255421,1,0,0:0:0:0:
256,176,255458,1,0,0:0:0:0:
240,176,255495,1,0,0:0:0:0:
240,176,255532,1,8,0:0:0:0:
240,176,255643,1,0,0:0:0:0:
240,176,255755,1,8,0:0:0:0:
240,176,255866,1,0,0:0:0:0:
240,176,255921,1,0,0:0:0:0:
240,176,255977,1,8,0:0:0:0:
240,176,256088,1,0,0:0:0:0:
240,176,256199,1,8,0:0:0:0:
240,192,256236,1,8,0:0:0:0:
240,192,256273,1,8,0:0:0:0:
256,192,256310,1,0,0:0:0:0:
256,192,256366,1,0,0:0:0:0:
256,192,256421,1,8,0:0:0:0:
256,192,256532,1,0,0:0:0:0:
256,192,256643,1,8,0:0:0:0:
256,192,256699,1,0,0:0:0:0:
256,192,256755,1,8,0:0:0:0:
256,192,256810,1,8,0:0:0:0:
256,192,256866,1,0,0:0:0:0:
256,192,256977,1,8,0:0:0:0:
256,192,257088,1,0,0:0:0:0:
256,192,257143,1,0,0:0:0:0:
256,192,257199,1,8,0:0:0:0:
256,192,257310,1,0,0:0:0:0:
256,192,257421,1,8,0:0:0:0:
256,192,257532,1,0,0:0:0:0:
256,208,257569,1,0,0:0:0:0:
256,208,257606,1,0,0:0:0:0:
256,192,257643,1,8,0:0:0:0:
256,192,257699,1,8,0:0:0:0:
256,192,257755,1,0,0:0:0:0:
256,192,257866,1,8,0:0:0:0:
256,192,257977,1,0,0:0:0:0:
256,192,258032,1,0,0:0:0:0:
256,192,258088,1,8,0:0:0:0:
240,192,258199,1,0,0:0:0:0:
256,192,258310,1,8,0:0:0:0:
256,208,258347,1,8,0:0:0:0:
256,208,258384,1,8,0:0:0:0:
256,208,258421,1,0,0:0:0:0:
240,208,258532,1,8,0:0:0:0:
240,208,258643,1,0,0:0:0:0:
240,224,258866,1,12,0:0:0:0:
240,192,259088,1,0,0:0:0:0:
256,176,259199,1,0,0:0:0:0:
256,176,259310,1,8,0:0:0:0:
256,176,259532,1,8,0:0:0:0:
240,192,259643,1,8,0:0:0:0:
240,208,259755,1,8,0:0:0:0:
240,208,259810,1,8,0:0:0:0:
240,192,259866,1,8,0:0:0:0:
240,208,259977,1,0,0:0:0:0:
240,208,260088,1,8,0:0:0:0:
240,208,260199,1,0,0:0:0:0:
240,208,260236,1,0,0:0:0:0:
256,208,260273,1,8,0:0:0:0:
256,208,260310,1,8,0:0:0:0:
256,176,260421,1,4,0:0:0:0:
240,224,260755,1,0,0:0:0:0:
256,208,260810,1,0,0:0:0:0:
256,208,260866,1,8,0:0:0:0:
240,224,261310,1,12,0:0:0:0:
240,224,261532,1,12,0:0:0:0:
240,224,261643,1,4,0:0:0:0:
240,224,261866,1,4,0:0:0:0:
240,224,261977,1,0,0:0:0:0:
240,224,262088,1,8,0:0:0:0:
240,224,262199,1,4,0:0:0:0:
240,224,262977,1,4,0:0:0:0:
240,224,263199,1,4,0:0:0:0:
240,224,263310,1,4,0:0:0:0:
240,224,263421,1,12,0:0:0:0:
240,224,263532,1,4,0:0:0:0:
224,224,263643,1,0,0:0:0:0:
240,224,263699,1,0,0:0:0:0:
240,224,263755,1,8,0:0:0:0:
240,192,263977,1,8,0:0:0:0:
240,192,264032,1,0,0:0:0:0:
240,192,264088,1,0,0:0:0:0:
240,192,264199,1,8,0:0:0:0:
240,192,264310,1,0,0:0:0:0:
240,192,264421,1,0,0:0:0:0:
240,192,264477,1,0,0:0:0:0:
240,192,264532,1,8,0:0:0:0:
240,192,264643,1,0,0:0:0:0:
256,176,264681,1,0,0:0:0:0:
256,176,264718,1,0,0:0:0:0:
256,192,264755,1,8,0:0:0:0:
256,192,264792,1,8,0:0:0:0:
256,192,264829,1,8,0:0:0:0:
272,176,264866,1,0,0:0:0:0:
272,176,264977,1,0,0:0:0:0:
272,176,265032,1,0,0:0:0:0:
272,176,265088,1,8,0:0:0:0:
272,176,265143,1,8,0:0:0:0:
256,176,265199,1,0,0:0:0:0:
256,176,265255,1,8,0:0:0:0:
256,176,265310,1,8,0:0:0:0:
256,176,265421,1,0,0:0:0:0:
256,176,265532,1,8,0:0:0:0:
256,176,265588,1,0,0:0:0:0:
256,176,265643,1,8,0:0:0:0:
272,192,265681,1,8,0:0:0:0:
272,192,265718,1,8,0:0:0:0:
256,192,265755,1,0,0:0:0:0:
272,208,265866,1,0,0:0:0:0:
272,208,265921,1,0,0:0:0:0:
272,208,265977,1,8,0:0:0:0:
272,208,266088,1,0,0:0:0:0:
272,208,266143,1,0,0:0:0:0:
272,208,266199,1,8,0:0:0:0:
256,208,266310,1,0,0:0:0:0:
256,208,266421,1,0,0:0:0:0:
256,208,266477,1,0,0:0:0:0:
256,208,266532,1,8,0:0:0:0:
256,208,266588,1,8,0:0:0:0:
256,208,266643,1,0,0:0:0:0:
256,176,266681,1,8,0:0:0:0:
256,192,266718,1,8,0:0:0:0:
256,208,266755,1,0,0:0:0:0:
256,208,266810,1,0,0:0:0:0:
256,208,266866,1,8,0:0:0:0:
256,208,266977,1,8,0:0:0:0:
256,192,267014,1,8,0:0:0:0:
256,192,267051,1,8,0:0:0:0:
256,192,267088,1,0,0:0:0:0:
272,208,267143,1,0,0:0:0:0:
256,208,267199,1,8,0:0:0:0:
256,208,267255,1,8,0:0:0:0:
256,208,267310,1,0,0:0:0:0:
256,208,267421,1,8,0:0:0:0:
256,208,267477,1,8,0:0:0:0:
256,208,267532,1,0,0:0:0:0:
256,208,267643,1,0,0:0:0:0:
256,208,267699,1,0,0:0:0:0:
256,208,267755,1,8,0:0:0:0:
256,208,267866,1,8,0:0:0:0:
256,208,267977,1,0,0:0:0:0:
272,192,268014,1,0,0:0:0:0:
256,192,268051,1,0,0:0:0:0:
272,192,268088,1,8,0:0:0:0:
256,192,268125,1,0,0:0:0:0:
256,192,268162,1,0,0:0:0:0:
256,192,268199,1,8,0:0:0:0:
256,192,268310,1,0,0:0:0:0:
256,192,268366,1,0,0:0:0:0:
256,192,268421,1,8,0:0:0:0:
256,192,268569,1,0,0:0:0:0:
256,192,268606,1,0,0:0:0:0:
256,192,268643,1,8,0:0:0:0:
256,192,268755,1,0,0:0:0:0:
272,192,268866,1,8,0:0:0:0:
272,192,268921,1,8,0:0:0:0:
272,192,268977,1,0,0:0:0:0:
256,192,269088,1,8,0:0:0:0:
256,192,269199,1,8,0:0:0:0:
272,192,269366,1,0,0:0:0:0:
256,192,269421,1,0,0:0:0:0:
256,192,269477,1,0,0:0:0:0:
256,192,269532,1,8,0:0:0:0:
256,192,269643,1,0,0:0:0:0:
272,192,269699,1,0,0:0:0:0:
272,192,269755,1,8,0:0:0:0:
272,208,269810,1,8,0:0:0:0:
272,192,269866,1,0,0:0:0:0:
272,192,269977,1,0,0:0:0:0:
272,192,270088,1,8,0:0:0:0:
240,192,270199,1,8,0:0:0:0:
240,192,270255,1,8,0:0:0:0:
256,208,270310,1,0,0:0:0:0:
256,208,270366,1,0,0:0:0:0:
256,208,270421,1,8,0:0:0:0:
256,208,270477,1,0,0:0:0:0:
304,192,270532,1,8,0:0:0:0:
288,192,270588,1,8,0:0:0:0:
256,208,270643,1,0,0:0:0:0:
256,208,270699,1,0,0:0:0:0:
256,208,270755,1,8,0:0:0:0:
256,208,270866,1,0,0:0:0:0:
256,192,270903,1,0,0:0:0:0:
256,192,270940,1,0,0:0:0:0:
256,192,270977,1,8,0:0:0:0:
256,192,271032,1,8,0:0:0:0:
272,192,271088,1,0,0:0:0:0:
272,192,271310,1,8,0:0:0:0:
272,192,271347,1,8,0:0:0:0:
272,192,271384,1,8,0:0:0:0:
272,176,271421,1,0,0:0:0:0:
272,176,271458,1,0,0:0:0:0:
272,176,271495,1,8,0:0:0:0:
272,176,271532,1,0,0:0:0:0:
256,192,271588,1,0,0:0:0:0:
