osu file format v14

[General]
AudioFilename: audio.mp3
AudioLeadIn: 0
PreviewTime: 67421
Countdown: 0
SampleSet: Normal
StackLeniency: 0
Mode: 1
LetterboxInBreaks: 0
WidescreenStoryboard: 1

[Editor]
Bookmarks: 12292,12469,12997,18644,25755,39977,67421,89310,105755,149310,182199,203088,230199,263976
DistanceSpacing: 0.1
BeatDivisor: 4
GridSize: 32
TimelineZoom: 4.799998

[Metadata]
Title:Unchi wo Shite Shimatta Toki no Mashcore
TitleUnicode:うんちをしてしまった時のMashcore
Artist:cexiria
ArtistUnicode:cexiria
Creator:Maimaing
Version:(not) Sicko mode
Source:
Tags:Nekomusya7563 XK2238 Salieri applerss japanese electronic j-core jcore hardcore mashcore バーチャル virtual youtuber vtuber hololive ホロライブmad otomad 音mad ディスコミュ星人 discommunication alien 兎田ぺこら usada pekora cover ナナヲアカリ nanawo akari ナユタン星人 turing love チューリングラブ 湊あくあ minato aqua 猫又おかゆ nekomata okayu グッバイ宣言 goodbye sengen ハイカラサウンド highkarasound 紫咲シオン murasaki shion ヴァンパイア vampire deco*27 ボーカロイド vocaloid vocca della verita ボッカデラベリタ roboco-san ロボ子さん hiiragi kirai 柊キライ monster kaibutsu 怪物 tsunomaki watame 角巻わため yoasobi one room sugar life ワンルームシュガーライフ nayutalien nayuta seijin ナユタン星人 watashi idol sengen 私、アイドル宣⾔ chico with honeyworks 私を染める i の歌 wo someru i no uta gom oji 海賊王 shito atsyuk! ヤマコ
BeatmapID:3284652
BeatmapSetID:1521630

[Difficulty]
HPDrainRate:5
CircleSize:7
OverallDifficulty:7.5
ApproachRate:2
SliderMultiplier:1.4
SliderTickRate:1

[Events]
//Background and Video events
0,0,"unchi2.png",0,0
//Break Periods
2,13198,17083
//Storyboard Layer 0 (Background)
//Storyboard Layer 1 (Fail)
//Storyboard Layer 2 (Pass)
//Storyboard Layer 3 (Foreground)
//Storyboard Layer 4 (Overlay)
//Storyboard Sound Samples

[TimingPoints]
645,352.941176470588,4,1,0,93,1,0
11939,352.941176470588,4,1,0,93,1,8
11940,352.941176470588,4,1,0,93,1,0
11940,-100,1,1,0,93,0,0
11962,352.941176470588,4,1,0,93,1,0
11962,-83.3333333333333,1,1,0,93,0,0
11984,352.941176470588,4,1,0,93,1,0
11984,-71.4285714285714,1,1,0,93,0,0
12006,352.941176470588,4,1,0,93,1,0
12006,-62.5,1,1,0,93,0,0
12028,352.941176470588,4,1,0,93,1,0
12028,-55.5555555555556,1,1,0,93,0,0
12050,352.941176470588,4,1,0,93,1,0
12050,-50,1,1,0,93,0,0
12072,352.941176470588,4,1,0,93,1,0
12072,-45.4545454545455,1,1,0,93,0,0
12094,352.941176470588,4,1,0,93,1,0
12094,-41.6666666666667,1,1,0,93,0,0
12116,352.941176470588,4,1,0,93,1,0
12116,-38.4615384615385,1,1,0,93,0,0
12138,352.941176470588,4,1,0,93,1,0
12138,-35.7142857142857,1,1,0,93,0,0
12160,352.941176470588,4,1,0,93,1,0
12160,-33.3333333333333,1,1,0,93,0,0
12182,352.941176470588,4,1,0,93,1,0
12182,-30.3030303030303,1,1,0,93,0,0
12204,352.941176470588,4,1,0,93,1,0
12204,-27.7777777777778,1,1,0,93,0,0
12226,352.941176470588,4,1,0,93,1,0
12226,-25.6410256410256,1,1,0,93,0,0
12248,352.941176470588,4,1,0,93,1,0
12248,-23.8095238095238,1,1,0,93,0,0
12270,352.941176470588,4,1,0,93,1,0
12270,-22.2222222222222,1,1,0,93,0,0
12292,352.941176470588,4,1,0,93,1,0
12292,-20.8333333333333,1,1,0,93,0,0
12314,352.941176470588,4,1,0,93,1,0
12314,-19.6078431372549,1,1,0,93,0,0
12337,352.941176470588,4,1,0,93,1,0
12337,-18.5185185185185,1,1,0,93,0,0
12358,352.941176470588,4,1,0,93,1,0
12358,-17.5438596491228,1,1,0,93,0,0
12381,352.941176470588,4,1,0,93,1,0
12381,-16.6666666666666,1,1,0,93,0,0
12402,352.941176470588,4,1,0,93,1,0
12402,-15.625,1,1,0,93,0,0
12425,352.941176470588,4,1,0,93,1,0
12425,-14.7058823529412,1,1,0,93,0,0
12446,352.941176470588,4,1,0,93,1,0
12446,-13.8888888888889,1,1,0,93,0,0
12469,352.941176470588,4,1,0,93,1,0
12469,-13.1578947368421,4,1,0,93,0,0
12645,-131.578947368421,4,1,0,93,0,0
12997,352.941176470588,16,1,0,93,1,0
12997,-526.315789473684,4,1,0,93,0,0
17755,222.222222222222,4,1,0,93,1,0
61310,-100,4,1,0,93,0,1
67977,-100,4,1,0,93,0,0
82643,-100,4,1,0,93,0,1
89532,-100,4,1,0,93,0,0
105532,222.222222222222,4,1,0,93,1,0
105532,-20,4,1,0,93,0,0
105754,222.222222222222,4,1,0,93,1,0
105754,-100,4,1,0,93,0,0
107531,-138.888888888889,4,1,0,93,0,0
112642,222.222222222222,4,1,0,93,1,0
112642,-27.7777777777778,4,1,0,93,0,0
112865,222.222222222222,4,1,0,93,1,0
112865,-227.272727272727,4,1,0,93,0,0
134198,-100,4,1,0,93,0,0
136864,-227.272727272727,4,1,0,93,0,0
150198,-138.888888888889,4,1,0,93,0,0
153753,-100,4,1,0,93,0,0
167976,-100,4,1,0,93,0,1
182253,-138.888888888889,4,1,0,93,0,0
196420,-100,4,1,0,93,0,0
203587,-138.888888888889,4,1,0,93,0,0
210642,-227.272727272727,4,1,0,93,0,0
215976,-100,4,1,0,93,0,0
263976,-64.1025641025641,4,1,0,93,0,1
271086,222.222222222222,4,1,0,93,1,1
271086,-138.888888888889,4,1,0,93,0,1
271087,-64.1025641025641,4,1,0,93,0,1
271308,222.222222222222,4,1,0,93,1,1
271308,-138.888888888889,4,1,0,93,0,1
271530,222.222222222222,4,1,0,93,1,1
271530,-138.888888888889,4,1,0,93,0,1
272418,222.222222222222,4,1,0,93,1,9

[HitObjects]
256,192,3821,5,8,0:0:0:0:
256,192,4527,1,8,0:0:0:0:
256,192,5233,1,8,0:0:0:0:
256,192,5939,1,8,0:0:0:0:
256,192,6115,1,8,0:0:0:0:
256,192,6292,5,0,0:0:0:0:
256,192,6644,1,8,0:0:0:0:
256,192,6997,1,0,0:0:0:0:
256,192,7174,1,0,0:0:0:0:
256,192,7350,1,8,0:0:0:0:
256,192,7703,1,0,0:0:0:0:
256,192,8055,1,8,0:0:0:0:
256,192,8408,1,0,0:0:0:0:
256,192,8585,1,8,0:0:0:0:
256,192,8761,1,8,0:0:0:0:
256,192,9115,1,0,0:0:0:0:
256,192,9468,1,0,0:0:0:0:
256,192,9644,1,8,0:0:0:0:
256,192,9821,1,0,0:0:0:0:
256,192,9909,1,8,0:0:0:0:
256,192,10086,1,8,0:0:0:0:
256,192,10174,1,0,0:0:0:0:
256,192,10350,1,8,0:0:0:0:
256,192,10527,1,0,0:0:0:0:
256,192,10880,1,0,0:0:0:0:
256,192,11233,1,8,0:0:0:0:
256,192,11586,1,8,0:0:0:0:
256,192,11939,2,0,B|256:52|256:52|352:52,1,210
256,192,12998,1,8,0:0:0:0:
256,192,18643,5,4,0:0:0:0:
256,192,18866,1,8,0:0:0:0:
256,192,19088,1,0,0:0:0:0:
256,192,19199,1,0,0:0:0:0:
256,192,19310,1,8,0:0:0:0:
256,192,19532,1,0,0:0:0:0:
256,192,19644,1,0,0:0:0:0:
256,192,19699,1,0,0:0:0:0:
256,192,19755,1,8,0:0:0:0:
256,192,19866,1,0,0:0:0:0:
256,192,19977,1,0,0:0:0:0:
256,192,20032,1,0,0:0:0:0:
256,192,20088,1,0,0:0:0:0:
256,192,20199,1,8,0:0:0:0:
256,192,20310,1,0,0:0:0:0:
256,192,20421,1,0,0:0:0:0:
256,192,20643,1,8,0:0:0:0:
256,192,20865,1,0,0:0:0:0:
256,192,20976,1,0,0:0:0:0:
256,192,21087,1,8,0:0:0:0:
256,192,21309,1,0,0:0:0:0:
256,192,21421,1,0,0:0:0:0:
256,192,21476,1,0,0:0:0:0:
256,192,21532,1,8,0:0:0:0:
256,192,21643,1,0,0:0:0:0:
256,192,21754,1,0,0:0:0:0:
256,192,21866,1,8,0:0:0:0:
256,192,21921,1,8,0:0:0:0:
256,192,21976,1,8,0:0:0:0:
256,192,22087,1,0,0:0:0:0:
256,192,22198,1,0,0:0:0:0:
256,192,22421,1,8,0:0:0:0:
256,192,22643,1,0,0:0:0:0:
256,192,22754,1,0,0:0:0:0:
256,192,22865,1,8,0:0:0:0:
256,192,23087,1,0,0:0:0:0:
256,192,23199,1,0,0:0:0:0:
256,192,23254,1,0,0:0:0:0:
256,192,23310,1,8,0:0:0:0:
256,192,23421,1,0,0:0:0:0:
256,192,23532,1,0,0:0:0:0:
256,192,23643,1,8,0:0:0:0:
256,192,23699,1,8,0:0:0:0:
256,192,23754,1,0,0:0:0:0:
256,192,23866,1,8,0:0:0:0:
256,192,23903,1,8,0:0:0:0:
256,192,23940,1,8,0:0:0:0:
256,192,23977,1,0,0:0:0:0:
256,192,24088,1,0,0:0:0:0:
256,192,24310,1,0,0:0:0:0:
256,192,24532,1,0,0:0:0:0:
256,192,24755,1,0,0:0:0:0:
256,192,24866,1,8,0:0:0:0:
256,192,25088,1,8,0:0:0:0:
256,192,25310,1,8,0:0:0:0:
256,192,25532,1,12,0:0:0:0:
256,192,25755,1,4,0:0:0:0:
256,192,25977,1,8,0:0:0:0:
256,192,26088,1,8,0:0:0:0:
256,192,26143,1,8,0:0:0:0:
256,192,26199,1,0,0:0:0:0:
256,192,26310,1,0,0:0:0:0:
256,192,26421,1,8,0:0:0:0:
256,192,26532,1,0,0:0:0:0:
256,192,26643,1,0,0:0:0:0:
256,192,26755,1,8,0:0:0:0:
256,192,26866,1,8,0:0:0:0:
256,192,26921,1,8,0:0:0:0:
256,192,26977,1,8,0:0:0:0:
256,192,27088,1,8,0:0:0:0:
256,192,27199,1,0,0:0:0:0:
256,192,27310,1,8,0:0:0:0:
256,192,27421,1,8,0:0:0:0:
256,192,27532,1,0,0:0:0:0:
256,192,27643,1,0,0:0:0:0:
256,192,27699,1,0,0:0:0:0:
256,192,27755,1,8,0:0:0:0:
256,192,27866,1,8,0:0:0:0:
256,192,27977,1,8,0:0:0:0:
256,192,28032,1,8,0:0:0:0:
256,192,28088,1,0,0:0:0:0:
256,192,28199,1,8,0:0:0:0:
256,192,28310,1,0,0:0:0:0:
256,192,28421,1,0,0:0:0:0:
256,192,28477,1,0,0:0:0:0:
256,192,28532,1,8,0:0:0:0:
256,192,28588,1,0,0:0:0:0:
256,192,28643,1,8,0:0:0:0:
256,192,28755,1,8,0:0:0:0:
256,192,28866,1,8,0:0:0:0:
256,192,28922,1,0,0:0:0:0:
256,192,28977,1,8,0:0:0:0:
256,192,29033,1,0,0:0:0:0:
256,192,29088,1,0,0:0:0:0:
256,192,29199,1,8,0:0:0:0:
256,192,29310,1,0,0:0:0:0:
256,192,29532,1,8,0:0:0:0:
256,192,29643,1,0,0:0:0:0:
256,192,29699,1,8,0:0:0:0:
256,192,29755,1,0,0:0:0:0:
256,192,29866,1,0,0:0:0:0:
256,192,29977,1,8,0:0:0:0:
256,192,30088,1,0,0:0:0:0:
256,192,30199,1,0,0:0:0:0:
256,192,30310,1,0,0:0:0:0:
256,192,30366,1,0,0:0:0:0:
256,192,30421,1,8,0:0:0:0:
256,192,30477,1,8,0:0:0:0:
256,192,30532,1,8,0:0:0:0:
256,192,30643,1,0,0:0:0:0:
256,192,30755,1,0,0:0:0:0:
256,192,30866,1,8,0:0:0:0:
256,192,30921,1,8,0:0:0:0:
256,192,30977,1,0,0:0:0:0:
256,192,31088,1,0,0:0:0:0:
256,192,31199,1,8,0:0:0:0:
256,192,31255,1,8,0:0:0:0:
256,192,31310,1,8,0:0:0:0:
256,192,31421,1,8,0:0:0:0:
256,192,31532,1,0,0:0:0:0:
256,192,31643,1,0,0:0:0:0:
256,192,31699,1,8,0:0:0:0:
256,192,31755,1,8,0:0:0:0:
256,192,31810,1,8,0:0:0:0:
256,192,31866,1,0,0:0:0:0:
256,192,31977,1,4,0:0:0:0:
256,192,32199,1,4,0:0:0:0:
256,192,32421,1,4,0:0:0:0:
256,192,32643,1,0,0:0:0:0:
256,192,32755,1,0,0:0:0:0:
256,192,32866,1,4,0:0:0:0:
256,192,33032,1,0,0:0:0:0:
256,192,33088,1,8,0:0:0:0:
256,192,33199,1,8,0:0:0:0:
256,192,33310,1,0,0:0:0:0:
256,192,33421,1,8,0:0:0:0:
256,192,33532,1,8,0:0:0:0:
256,192,33588,1,0,0:0:0:0:
256,192,33643,1,8,0:0:0:0:
256,192,33699,1,8,0:0:0:0:
256,192,33755,1,0,0:0:0:0:
256,192,33866,1,8,0:0:0:0:
256,192,33977,1,0,0:0:0:0:
256,192,34032,1,0,0:0:0:0:
256,192,34088,1,8,0:0:0:0:
256,192,34143,1,8,0:0:0:0:
256,192,34199,1,0,0:0:0:0:
256,192,34255,1,8,0:0:0:0:
256,192,34310,1,8,0:0:0:0:
256,192,34421,1,0,0:0:0:0:
256,192,34532,1,8,0:0:0:0:
256,192,34643,1,0,0:0:0:0:
256,192,34755,1,0,0:0:0:0:
256,192,34866,1,8,0:0:0:0:
256,192,34921,1,0,0:0:0:0:
256,192,34977,1,8,0:0:0:0:
256,192,35032,1,8,0:0:0:0:
256,192,35088,1,0,0:0:0:0:
256,192,35199,1,8,0:0:0:0:
256,192,35236,1,8,0:0:0:0:
256,192,35273,1,8,0:0:0:0:
256,192,35310,1,8,0:0:0:0:
256,192,35421,1,8,0:0:0:0:
256,192,35532,1,0,0:0:0:0:
256,192,35588,1,8,0:0:0:0:
256,192,35643,1,8,0:0:0:0:
256,192,35755,1,0,0:0:0:0:
256,192,35866,1,8,0:0:0:0:
256,192,35977,1,0,0:0:0:0:
256,192,36199,1,0,0:0:0:0:
256,192,36236,1,8,0:0:0:0:
256,192,36273,1,8,0:0:0:0:
256,192,36310,1,8,0:0:0:0:
256,192,36347,1,8,0:0:0:0:
256,192,36384,1,8,0:0:0:0:
256,192,36421,1,0,0:0:0:0:
256,192,36643,1,8,0:0:0:0:
256,192,36755,1,8,0:0:0:0:
256,192,36866,1,0,0:0:0:0:
256,192,36921,1,0,0:0:0:0:
256,192,36977,1,0,0:0:0:0:
256,192,37088,1,8,0:0:0:0:
256,192,37199,1,0,0:0:0:0:
256,192,37310,1,0,0:0:0:0:
256,192,37421,1,8,0:0:0:0:
256,192,37477,1,8,0:0:0:0:
256,192,37532,1,0,0:0:0:0:
256,192,37643,1,8,0:0:0:0:
256,192,37755,1,0,0:0:0:0:
256,192,37866,1,8,0:0:0:0:
256,192,37921,1,8,0:0:0:0:
256,192,37977,1,0,0:0:0:0:
256,192,38032,1,8,0:0:0:0:
256,192,38088,1,8,0:0:0:0:
256,192,38143,1,8,0:0:0:0:
256,192,38199,1,0,0:0:0:0:
256,192,38310,1,0,0:0:0:0:
256,192,38366,1,0,0:0:0:0:
256,192,38421,1,8,0:0:0:0:
256,192,38477,1,0,0:0:0:0:
256,192,38532,1,8,0:0:0:0:
256,192,38643,1,0,0:0:0:0:
256,192,38755,1,0,0:0:0:0:
256,192,38792,1,0,0:0:0:0:
256,192,38829,1,0,0:0:0:0:
256,192,38866,1,8,0:0:0:0:
256,192,38977,1,8,0:0:0:0:
256,192,39014,1,8,0:0:0:0:
256,192,39051,1,8,0:0:0:0:
256,192,39088,1,0,0:0:0:0:
256,192,39310,1,4,0:0:0:0:
256,192,39532,1,4,0:0:0:0:
256,192,39755,1,12,0:0:0:0:
256,192,39977,1,4,0:0:0:0:
256,192,40421,1,8,0:0:0:0:
256,192,40755,1,0,0:0:0:0:
256,192,40977,1,0,0:0:0:0:
256,192,41088,1,0,0:0:0:0:
256,192,41310,1,8,0:0:0:0:
256,192,41755,1,0,0:0:0:0:
256,192,42199,1,8,0:0:0:0:
256,192,42310,1,0,0:0:0:0:
256,192,42421,1,8,0:0:0:0:
256,192,42532,1,0,0:0:0:0:
256,192,42643,1,0,0:0:0:0:
256,192,42866,1,0,0:0:0:0:
256,192,43088,1,8,0:0:0:0:
256,192,43532,1,0,0:0:0:0:
256,192,43755,1,0,0:0:0:0:
256,192,43866,1,0,0:0:0:0:
256,192,43977,1,8,0:0:0:0:
256,192,44088,1,0,0:0:0:0:
256,192,44310,1,0,0:0:0:0:
256,192,44643,1,0,0:0:0:0:
256,192,44866,1,8,0:0:0:0:
256,192,45310,1,0,0:0:0:0:
256,192,45532,1,0,0:0:0:0:
256,192,45755,1,0,0:0:0:0:
256,192,45866,1,8,0:0:0:0:
256,192,45977,1,0,0:0:0:0:
256,192,46088,1,8,0:0:0:0:
256,192,46199,1,8,0:0:0:0:
256,192,46310,1,8,0:0:0:0:
256,192,46421,1,0,0:0:0:0:
256,192,46532,1,8,0:0:0:0:
256,192,46643,1,0,0:0:0:0:
256,192,46866,1,8,0:0:0:0:
256,192,47088,1,4,0:0:0:0:
256,192,47310,1,8,0:0:0:0:
256,192,47421,1,0,0:0:0:0:
256,192,47532,1,0,0:0:0:0:
256,192,47588,1,0,0:0:0:0:
256,192,47643,1,8,0:0:0:0:
256,192,47755,1,8,0:0:0:0:
256,192,47866,1,0,0:0:0:0:
256,192,47977,1,0,0:0:0:0:
256,192,48032,1,0,0:0:0:0:
256,192,48088,1,8,0:0:0:0:
256,192,48143,1,8,0:0:0:0:
256,192,48199,1,0,0:0:0:0:
256,192,48310,1,0,0:0:0:0:
256,192,48421,1,8,0:0:0:0:
256,192,48477,1,0,0:0:0:0:
256,192,48588,1,0,0:0:0:0:
256,192,48643,1,8,0:0:0:0:
256,192,48699,1,8,0:0:0:0:
256,192,48755,1,0,0:0:0:0:
256,192,48866,1,0,0:0:0:0:
256,192,48977,1,0,0:0:0:0:
256,192,49088,1,8,0:0:0:0:
256,192,49199,1,8,0:0:0:0:
256,192,49310,1,0,0:0:0:0:
256,192,49366,1,8,0:0:0:0:
256,192,49421,1,8,0:0:0:0:
256,192,49532,1,8,0:0:0:0:
256,192,49643,1,0,0:0:0:0:
256,192,49755,1,0,0:0:0:0:
256,192,49810,1,8,0:0:0:0:
256,192,49866,1,8,0:0:0:0:
256,192,49921,1,8,0:0:0:0:
256,192,49977,1,0,0:0:0:0:
256,192,50088,1,0,0:0:0:0:
256,192,50199,1,8,0:0:0:0:
256,192,50310,1,0,0:0:0:0:
256,192,50421,1,8,0:0:0:0:
256,192,50643,1,8,0:0:0:0:
256,192,50755,1,8,0:0:0:0:
256,192,50866,1,0,0:0:0:0:
256,192,50977,1,0,0:0:0:0:
256,192,51088,1,8,0:0:0:0:
256,192,51143,1,8,0:0:0:0:
256,192,51199,1,8,0:0:0:0:
256,192,51310,1,0,0:0:0:0:
256,192,51366,1,0,0:0:0:0:
256,192,51421,1,0,0:0:0:0:
256,192,51532,1,8,0:0:0:0:
256,192,51643,1,0,0:0:0:0:
256,192,51755,1,8,0:0:0:0:
256,192,51866,1,0,0:0:0:0:
256,192,51977,1,0,0:0:0:0:
256,192,52032,1,8,0:0:0:0:
256,192,52088,1,0,0:0:0:0:
256,192,52143,1,8,0:0:0:0:
256,192,52199,1,0,0:0:0:0:
256,192,52310,1,0,0:0:0:0:
256,192,52421,1,8,0:0:0:0:
256,192,52477,1,8,0:0:0:0:
256,192,52532,1,8,0:0:0:0:
256,192,52643,1,0,0:0:0:0:
256,192,52699,1,0,0:0:0:0:
256,192,52755,1,0,0:0:0:0:
256,192,52866,1,8,0:0:0:0:
256,192,52977,1,8,0:0:0:0:
256,192,53088,1,0,0:0:0:0:
256,192,53199,1,0,0:0:0:0:
256,192,53310,1,8,0:0:0:0:
256,192,53366,1,0,0:0:0:0:
256,192,53421,1,0,0:0:0:0:
256,192,53532,1,8,0:0:0:0:
256,192,53588,1,8,0:0:0:0:
256,192,53643,1,0,0:0:0:0:
256,192,53755,1,8,0:0:0:0:
256,192,53866,1,0,0:0:0:0:
256,192,53921,1,0,0:0:0:0:
256,192,53977,1,8,0:0:0:0:
256,192,54199,1,0,0:0:0:0:
256,192,54310,1,8,0:0:0:0:
256,192,54421,1,0,0:0:0:0:
256,192,54532,1,8,0:0:0:0:
256,192,54588,1,8,0:0:0:0:
256,192,54643,1,0,0:0:0:0:
256,192,54755,1,8,0:0:0:0:
256,192,54866,1,0,0:0:0:0:
256,192,54921,1,0,0:0:0:0:
256,192,54977,1,8,0:0:0:0:
256,192,55088,1,0,0:0:0:0:
256,192,55143,1,8,0:0:0:0:
256,192,55199,1,8,0:0:0:0:
256,192,55255,1,8,0:0:0:0:
256,192,55310,1,0,0:0:0:0:
256,192,55366,1,8,0:0:0:0:
256,192,55421,1,8,0:0:0:0:
256,192,55532,1,0,0:0:0:0:
256,192,55643,1,8,0:0:0:0:
256,192,55699,1,0,0:0:0:0:
256,192,55755,1,0,0:0:0:0:
256,192,55866,1,8,0:0:0:0:
256,192,55921,1,0,0:0:0:0:
256,192,55977,1,0,0:0:0:0:
256,192,56088,1,8,0:0:0:0:
256,192,56199,1,0,0:0:0:0:
256,192,56310,1,8,0:0:0:0:
256,192,56366,1,0,0:0:0:0:
256,192,56421,1,0,0:0:0:0:
256,192,56477,1,8,0:0:0:0:
256,192,56588,1,8,0:0:0:0:
256,192,56643,1,0,0:0:0:0:
256,192,56755,1,8,0:0:0:0:
256,192,56866,1,0,0:0:0:0:
256,192,56977,1,0,0:0:0:0:
256,192,57032,1,0,0:0:0:0:
256,192,57088,1,8,0:0:0:0:
256,192,57199,1,8,0:0:0:0:
256,192,57310,1,0,0:0:0:0:
256,192,57366,1,8,0:0:0:0:
256,192,57421,1,0,0:0:0:0:
256,192,57532,1,8,0:0:0:0:
256,192,57755,1,0,0:0:0:0:
256,192,57866,1,0,0:0:0:0:
256,192,57977,1,8,0:0:0:0:
256,192,58032,1,8,0:0:0:0:
256,192,58088,1,0,0:0:0:0:
256,192,58199,1,0,0:0:0:0:
256,192,58310,1,0,0:0:0:0:
256,192,58421,1,8,0:0:0:0:
256,192,58476,1,8,0:0:0:0:
256,192,58532,1,0,0:0:0:0:
256,192,58643,1,0,0:0:0:0:
256,192,58754,1,0,0:0:0:0:
256,192,58810,1,0,0:0:0:0:
256,192,58865,1,8,0:0:0:0:
256,192,58920,1,8,0:0:0:0:
256,192,58976,1,0,0:0:0:0:
256,192,59088,1,0,0:0:0:0:
256,192,59199,1,0,0:0:0:0:
256,192,59255,1,0,0:0:0:0:
256,192,59310,1,8,0:0:0:0:
256,192,59365,1,8,0:0:0:0:
256,192,59421,1,0,0:0:0:0:
256,192,59532,1,0,0:0:0:0:
256,192,59588,1,8,0:0:0:0:
256,192,59643,1,0,0:0:0:0:
256,192,59699,1,0,0:0:0:0:
256,192,59754,1,8,0:0:0:0:
256,192,59865,1,0,0:0:0:0:
256,192,59977,1,0,0:0:0:0:
256,192,60033,1,8,0:0:0:0:
256,192,60088,1,0,0:0:0:0:
256,192,60144,1,0,0:0:0:0:
256,192,60199,1,8,0:0:0:0:
256,192,60310,1,0,0:0:0:0:
256,192,60421,1,0,0:0:0:0:
256,192,60477,1,8,0:0:0:0:
256,192,60532,1,0,0:0:0:0:
256,192,60588,1,8,0:0:0:0:
256,192,60643,1,0,0:0:0:0:
256,192,60699,1,0,0:0:0:0:
256,192,60755,1,0,0:0:0:0:
256,192,60810,1,0,0:0:0:0:
256,192,60866,1,8,0:0:0:0:
256,192,60977,1,0,0:0:0:0:
256,192,61088,1,8,0:0:0:0:
256,192,61125,1,8,0:0:0:0:
256,192,61162,1,8,0:0:0:0:
256,192,61199,1,8,0:0:0:0:
256,192,61236,1,8,0:0:0:0:
256,192,61273,1,8,0:0:0:0:
256,192,61310,1,0,0:0:0:0:
256,192,61755,1,8,0:0:0:0:
256,192,62088,1,0,0:0:0:0:
256,192,62199,1,0,0:0:0:0:
256,192,62421,1,0,0:0:0:0:
256,192,62643,1,8,0:0:0:0:
256,192,63088,1,0,0:0:0:0:
256,192,63421,1,0,0:0:0:0:
256,192,63532,1,8,0:0:0:0:
256,192,63866,1,0,0:0:0:0:
256,192,63977,1,0,0:0:0:0:
256,192,64088,1,8,0:0:0:0:
256,192,64199,1,0,0:0:0:0:
256,192,64421,1,8,0:0:0:0:
256,192,64866,1,0,0:0:0:0:
256,192,65199,1,0,0:0:0:0:
256,192,65310,1,8,0:0:0:0:
256,192,65421,1,0,0:0:0:0:
256,192,65643,1,0,0:0:0:0:
256,192,65866,1,0,0:0:0:0:
256,192,65977,1,0,0:0:0:0:
256,192,66088,1,0,0:0:0:0:
256,192,66199,1,8,0:0:0:0:
256,192,66421,1,0,0:0:0:0:
256,192,66643,1,0,0:0:0:0:
256,192,66755,1,8,0:0:0:0:
256,192,66866,1,0,0:0:0:0:
256,192,66977,1,8,0:0:0:0:
256,192,67088,1,0,0:0:0:0:
256,192,67199,1,8,0:0:0:0:
256,192,67255,1,8,0:0:0:0:
256,192,67310,1,0,0:0:0:0:
256,192,67366,1,8,0:0:0:0:
256,192,67421,1,8,0:0:0:0:
256,192,67532,1,0,0:0:0:0:
256,192,67643,1,0,0:0:0:0:
256,192,67755,1,0,0:0:0:0:
256,192,67866,1,0,0:0:0:0:
256,192,67977,1,0,0:0:0:0:
256,192,68421,1,4,0:0:0:0:
256,192,68643,1,0,0:0:0:0:
256,192,68755,1,8,0:0:0:0:
256,192,68866,1,0,0:0:0:0:
256,192,68921,1,0,0:0:0:0:
256,192,68977,1,8,0:0:0:0:
256,192,69088,1,0,0:0:0:0:
256,192,69199,1,8,0:0:0:0:
256,192,69255,1,8,0:0:0:0:
256,192,69310,1,0,0:0:0:0:
256,192,69421,1,8,0:0:0:0:
256,192,69477,1,8,0:0:0:0:
256,192,69532,1,0,0:0:0:0:
256,192,69643,1,8,0:0:0:0:
256,192,69755,1,0,0:0:0:0:
256,192,69866,1,0,0:0:0:0:
256,192,69921,1,8,0:0:0:0:
256,192,69977,1,0,0:0:0:0:
256,192,70032,1,8,0:0:0:0:
256,192,70088,1,0,0:0:0:0:
256,192,70199,1,0,0:0:0:0:
256,192,70255,1,0,0:0:0:0:
256,192,70366,1,8,0:0:0:0:
256,192,70421,1,0,0:0:0:0:
256,192,70532,1,8,0:0:0:0:
256,192,70643,1,0,0:0:0:0:
256,192,70699,1,8,0:0:0:0:
256,192,70810,1,0,0:0:0:0:
256,192,70865,1,0,0:0:0:0:
256,192,70976,1,8,0:0:0:0:
256,192,71087,1,0,0:0:0:0:
256,192,71143,1,8,0:0:0:0:
256,192,71199,1,8,0:0:0:0:
256,192,71255,1,8,0:0:0:0:
256,192,71310,1,0,0:0:0:0:
256,192,71421,1,8,0:0:0:0:
256,192,71532,1,0,0:0:0:0:
256,192,71643,1,0,0:0:0:0:
256,192,71755,1,0,0:0:0:0:
256,192,71977,1,0,0:0:0:0:
256,192,72088,1,8,0:0:0:0:
256,192,72143,1,8,0:0:0:0:
256,192,72199,1,0,0:0:0:0:
256,192,72310,1,8,0:0:0:0:
256,192,72421,1,0,0:0:0:0:
256,192,72532,1,8,0:0:0:0:
256,192,72587,1,8,0:0:0:0:
256,192,72643,1,0,0:0:0:0:
256,192,72754,1,8,0:0:0:0:
256,192,72866,1,0,0:0:0:0:
256,192,72977,1,0,0:0:0:0:
256,192,73032,1,8,0:0:0:0:
256,192,73088,1,0,0:0:0:0:
256,192,73199,1,0,0:0:0:0:
256,192,73310,1,0,0:0:0:0:
256,192,73421,1,8,0:0:0:0:
256,192,73477,1,8,0:0:0:0:
256,192,73532,1,0,0:0:0:0:
256,192,73588,1,0,0:0:0:0:
256,192,73643,1,8,0:0:0:0:
256,192,73699,1,8,0:0:0:0:
256,192,73755,1,0,0:0:0:0:
256,192,73866,1,8,0:0:0:0:
256,192,73977,1,0,0:0:0:0:
256,192,74088,1,8,0:0:0:0:
256,192,74143,1,8,0:0:0:0:
256,192,74199,1,0,0:0:0:0:
256,192,74255,1,8,0:0:0:0:
256,192,74366,1,8,0:0:0:0:
256,192,74422,1,0,0:0:0:0:
256,192,74478,1,8,0:0:0:0:
256,192,74532,1,8,0:0:0:0:
256,192,74643,1,0,0:0:0:0:
256,192,74755,1,0,0:0:0:0:
256,192,74810,1,0,0:0:0:0:
256,192,74866,1,0,0:0:0:0:
256,192,74977,1,0,0:0:0:0:
256,192,75199,1,8,0:0:0:0:
256,192,75421,1,8,0:0:0:0:
256,192,75532,1,0,0:0:0:0:
256,192,75755,1,4,0:0:0:0:
256,192,75977,1,0,0:0:0:0:
256,192,76088,1,8,0:0:0:0:
256,192,76199,1,0,0:0:0:0:
256,192,76310,1,0,0:0:0:0:
256,192,76366,1,8,0:0:0:0:
256,192,76421,1,0,0:0:0:0:
256,192,76532,1,0,0:0:0:0:
256,192,76588,1,8,0:0:0:0:
256,192,76643,1,0,0:0:0:0:
256,192,76755,1,8,0:0:0:0:
256,192,76866,1,0,0:0:0:0:
256,192,76977,1,8,0:0:0:0:
256,192,77032,1,0,0:0:0:0:
256,192,77088,1,0,0:0:0:0:
256,192,77143,1,8,0:0:0:0:
256,192,77199,1,8,0:0:0:0:
256,192,77255,1,0,0:0:0:0:
256,192,77310,1,0,0:0:0:0:
256,192,77421,1,8,0:0:0:0:
256,192,77532,1,0,0:0:0:0:
256,192,77588,1,8,0:0:0:0:
256,192,77643,1,8,0:0:0:0:
256,192,77755,1,0,0:0:0:0:
256,192,77866,1,8,0:0:0:0:
256,192,77977,1,0,0:0:0:0:
256,192,78032,1,8,0:0:0:0:
256,192,78088,1,8,0:0:0:0:
256,192,78199,1,0,0:0:0:0:
256,192,78310,1,0,0:0:0:0:
256,192,78366,1,0,0:0:0:0:
256,192,78421,1,8,0:0:0:0:
256,192,78532,1,8,0:0:0:0:
256,192,78643,1,0,0:0:0:0:
256,192,78699,1,0,0:0:0:0:
256,192,78755,1,0,0:0:0:0:
256,192,78866,1,8,0:0:0:0:
256,192,79088,1,0,0:0:0:0:
256,192,79199,1,8,0:0:0:0:
256,192,79310,1,0,0:0:0:0:
256,192,79421,1,8,0:0:0:0:
256,192,79532,1,0,0:0:0:0:
256,192,79588,1,8,0:0:0:0:
256,192,79643,1,0,0:0:0:0:
256,192,79699,1,8,0:0:0:0:
256,192,79755,1,0,0:0:0:0:
256,192,79866,1,8,0:0:0:0:
256,192,79977,1,0,0:0:0:0:
256,192,80032,1,0,0:0:0:0:
256,192,80088,1,8,0:0:0:0:
256,192,80143,1,8,0:0:0:0:
256,192,80199,1,0,0:0:0:0:
256,192,80310,1,8,0:0:0:0:
256,192,80421,1,0,0:0:0:0:
256,192,80532,1,8,0:0:0:0:
256,192,80588,1,8,0:0:0:0:
256,192,80643,1,0,0:0:0:0:
256,192,80699,1,8,0:0:0:0:
256,192,80755,1,8,0:0:0:0:
256,192,80810,1,8,0:0:0:0:
256,192,80866,1,0,0:0:0:0:
256,192,81088,1,0,0:0:0:0:
256,192,81199,1,8,0:0:0:0:
256,192,81310,1,0,0:0:0:0:
256,192,81421,1,8,0:0:0:0:
256,192,81532,1,0,0:0:0:0:
256,192,81755,1,0,0:0:0:0:
256,192,81866,1,0,0:0:0:0:
256,192,81977,1,0,0:0:0:0:
256,192,82088,1,0,0:0:0:0:
256,192,82199,1,0,0:0:0:0:
256,192,82421,1,4,0:0:0:0:
256,192,82643,1,0,0:0:0:0:
256,192,82977,1,0,0:0:0:0:
256,192,83088,1,8,0:0:0:0:
256,192,83310,1,0,0:0:0:0:
256,192,83532,1,0,0:0:0:0:
256,192,83643,1,0,0:0:0:0:
256,192,83755,1,0,0:0:0:0:
256,192,83977,1,8,0:0:0:0:
256,192,84421,1,0,0:0:0:0:
256,192,84755,1,0,0:0:0:0:
256,192,84866,1,8,0:0:0:0:
256,192,84977,1,0,0:0:0:0:
256,192,85088,1,0,0:0:0:0:
256,192,85310,1,0,0:0:0:0:
256,192,85533,1,8,0:0:0:0:
256,192,85643,1,0,0:0:0:0:
256,192,85755,1,0,0:0:0:0:
256,192,85866,1,8,0:0:0:0:
256,192,85977,1,0,0:0:0:0:
256,192,86199,1,0,0:0:0:0:
256,192,86421,1,0,0:0:0:0:
256,192,86533,1,0,0:0:0:0:
256,192,86644,1,8,0:0:0:0:
256,192,86866,1,0,0:0:0:0:
256,192,87088,1,0,0:0:0:0:
256,192,87199,1,0,0:0:0:0:
256,192,87311,1,0,0:0:0:0:
256,192,87421,1,0,0:0:0:0:
256,192,87533,1,8,0:0:0:0:
256,192,87755,1,0,0:0:0:0:
256,192,87977,1,0,0:0:0:0:
256,192,88143,1,8,0:0:0:0:
256,192,88310,1,8,0:0:0:0:
256,192,88421,1,0,0:0:0:0:
256,192,88588,1,8,0:0:0:0:
256,192,88755,1,8,0:0:0:0:
256,192,88866,1,0,0:0:0:0:
256,192,89032,1,0,0:0:0:0:
256,192,89199,1,0,0:0:0:0:
256,192,89310,1,0,0:0:0:0:
256,192,89366,1,0,0:0:0:0:
256,192,89421,1,0,0:0:0:0:
256,192,89477,1,0,0:0:0:0:
256,192,89532,1,0,0:0:0:0:
256,192,89755,1,4,0:0:0:0:
256,192,89977,1,12,0:0:0:0:
256,192,90199,1,0,0:0:0:0:
256,192,90310,1,0,0:0:0:0:
256,192,90421,1,0,0:0:0:0:
256,192,90477,1,0,0:0:0:0:
256,192,90532,1,8,0:0:0:0:
256,192,90643,1,0,0:0:0:0:
256,192,90699,1,0,0:0:0:0:
256,192,90755,1,8,0:0:0:0:
256,192,90866,1,0,0:0:0:0:
256,192,90977,1,0,0:0:0:0:
256,192,91088,1,0,0:0:0:0:
256,192,91143,1,8,0:0:0:0:
256,192,91255,1,8,0:0:0:0:
256,192,91310,1,0,0:0:0:0:
256,192,91421,1,8,0:0:0:0:
256,192,91532,1,0,0:0:0:0:
256,192,91755,1,0,0:0:0:0:
256,192,91866,1,8,0:0:0:0:
256,192,91977,1,0,0:0:0:0:
256,192,92032,1,8,0:0:0:0:
256,192,92088,1,8,0:0:0:0:
256,192,92199,1,0,0:0:0:0:
256,192,92310,1,8,0:0:0:0:
256,192,92366,1,8,0:0:0:0:
256,192,92421,1,0,0:0:0:0:
256,192,92532,1,8,0:0:0:0:
256,192,92643,1,0,0:0:0:0:
256,192,92755,1,8,0:0:0:0:
256,192,92866,1,0,0:0:0:0:
256,192,92921,1,0,0:0:0:0:
256,192,92977,1,0,0:0:0:0:
256,192,93032,1,8,0:0:0:0:
256,192,93088,1,0,0:0:0:0:
256,192,93199,1,8,0:0:0:0:
256,192,93310,1,0,0:0:0:0:
256,192,93532,1,12,0:0:0:0:
256,192,93755,1,0,0:0:0:0:
256,192,93866,1,0,0:0:0:0:
256,192,93977,1,0,0:0:0:0:
256,192,94088,1,0,0:0:0:0:
256,192,94199,1,8,0:0:0:0:
256,192,94310,1,8,0:0:0:0:
256,192,94421,1,8,0:0:0:0:
256,192,94532,1,8,0:0:0:0:
256,192,94643,1,0,0:0:0:0:
256,192,94755,1,0,0:0:0:0:
256,192,94866,1,0,0:0:0:0:
256,192,94977,1,0,0:0:0:0:
256,192,95088,1,0,0:0:0:0:
256,192,95162,1,0,0:0:0:0:
256,192,95236,1,0,0:0:0:0:
256,192,95310,1,8,0:0:0:0:
256,192,95384,1,8,0:0:0:0:
256,192,95458,1,8,0:0:0:0:
256,192,95532,1,0,0:0:0:0:
256,192,95588,1,0,0:0:0:0:
256,192,95643,1,0,0:0:0:0:
256,192,95699,1,0,0:0:0:0:
256,192,95755,1,8,0:0:0:0:
256,192,95810,1,8,0:0:0:0:
256,192,95866,1,8,0:0:0:0:
256,192,95921,1,8,0:0:0:0:
256,192,95977,1,0,0:0:0:0:
256,192,96032,1,0,0:0:0:0:
256,192,96088,1,8,0:0:0:0:
256,192,96143,1,8,0:0:0:0:
256,192,96199,1,0,0:0:0:0:
256,192,96254,1,0,0:0:0:0:
256,192,96310,1,8,0:0:0:0:
256,192,96365,1,8,0:0:0:0:
256,192,96421,1,0,0:0:0:0:
256,192,96643,1,0,0:0:0:0:
256,192,96755,1,0,0:0:0:0:
256,192,96866,1,0,0:0:0:0:
256,192,96903,1,0,0:0:0:0:
256,192,96940,1,0,0:0:0:0:
256,192,96977,1,0,0:0:0:0:
256,192,97199,1,8,0:0:0:0:
256,192,97310,1,0,0:0:0:0:
256,192,97347,1,0,0:0:0:0:
256,192,97384,1,0,0:0:0:0:
256,192,97421,1,0,0:0:0:0:
256,192,97643,1,8,0:0:0:0:
256,192,97755,1,0,0:0:0:0:
256,192,97866,1,0,0:0:0:0:
256,192,97921,1,8,0:0:0:0:
256,192,97977,1,0,0:0:0:0:
256,192,98088,1,8,0:0:0:0:
256,192,98199,1,8,0:0:0:0:
256,192,98310,1,0,0:0:0:0:
256,192,98365,1,8,0:0:0:0:
256,192,98421,1,0,0:0:0:0:
256,192,98532,1,0,0:0:0:0:
256,192,98643,1,0,0:0:0:0:
256,192,98680,1,0,0:0:0:0:
256,192,98717,1,0,0:0:0:0:
256,192,98754,1,0,0:0:0:0:
256,192,98976,1,8,0:0:0:0:
256,192,99087,1,0,0:0:0:0:
256,192,99124,1,0,0:0:0:0:
256,192,99161,1,0,0:0:0:0:
256,192,99198,1,0,0:0:0:0:
256,192,99421,1,8,0:0:0:0:
256,192,99532,1,0,0:0:0:0:
256,192,99588,1,8,0:0:0:0:
256,192,99643,1,8,0:0:0:0:
256,192,99699,1,0,0:0:0:0:
256,192,99755,1,8,0:0:0:0:
256,192,99810,1,8,0:0:0:0:
256,192,99866,1,0,0:0:0:0:
256,192,99977,1,0,0:0:0:0:
256,192,100088,1,0,0:0:0:0:
256,192,100143,1,0,0:0:0:0:
256,192,100199,1,8,0:0:0:0:
256,192,100310,1,8,0:0:0:0:
256,192,100421,1,0,0:0:0:0:
256,192,100532,1,0,0:0:0:0:
256,192,100643,1,8,0:0:0:0:
256,192,100866,1,0,0:0:0:0:
256,192,100977,1,0,0:0:0:0:
256,192,101032,1,0,0:0:0:0:
256,192,101088,1,8,0:0:0:0:
256,192,101143,1,0,0:0:0:0:
256,192,101199,1,0,0:0:0:0:
256,192,101310,1,0,0:0:0:0:
256,192,101366,1,0,0:0:0:0:
256,192,101477,1,8,0:0:0:0:
256,192,101532,1,8,0:0:0:0:
256,192,101643,1,0,0:0:0:0:
256,192,101755,1,0,0:0:0:0:
256,192,101810,1,0,0:0:0:0:
256,192,101866,1,8,0:0:0:0:
256,192,101921,1,0,0:0:0:0:
256,192,101977,1,8,0:0:0:0:
256,192,102088,1,8,0:0:0:0:
256,192,102199,1,0,0:0:0:0:
256,192,102310,1,0,0:0:0:0:
256,192,102366,1,8,0:0:0:0:
256,192,102421,1,0,0:0:0:0:
256,192,102532,1,0,0:0:0:0:
256,192,102643,1,8,0:0:0:0:
256,192,102754,1,8,0:0:0:0:
256,192,102810,1,0,0:0:0:0:
256,192,102865,1,8,0:0:0:0:
256,192,102976,1,8,0:0:0:0:
256,192,103088,1,0,0:0:0:0:
256,192,103143,1,0,0:0:0:0:
256,192,103199,1,0,0:0:0:0:
256,192,103310,1,0,0:0:0:0:
256,192,103366,1,0,0:0:0:0:
256,192,103421,1,0,0:0:0:0:
256,192,103532,1,0,0:0:0:0:
256,192,103588,1,8,0:0:0:0:
256,192,103643,1,8,0:0:0:0:
256,192,103699,1,8,0:0:0:0:
256,192,103755,1,0,0:0:0:0:
256,192,103811,1,8,0:0:0:0:
256,192,103866,1,8,0:0:0:0:
256,192,103922,1,8,0:0:0:0:
256,192,103977,1,0,0:0:0:0:
256,192,104199,1,12,0:0:0:0:
256,192,104421,1,0,0:0:0:0:
256,192,104643,1,4,0:0:0:0:
256,192,104866,1,0,0:0:0:0:
256,192,105032,1,0,0:0:0:0:
256,192,105199,1,0,0:0:0:0:
256,192,105310,1,0,0:0:0:0:
256,192,105754,1,0,0:0:0:0:
256,192,105976,1,0,0:0:0:0:
256,192,106198,1,8,0:0:0:0:
256,192,106420,1,0,0:0:0:0:
256,192,106642,1,0,0:0:0:0:
256,192,106754,1,8,0:0:0:0:
256,192,106865,1,0,0:0:0:0:
256,192,107087,1,8,0:0:0:0:
256,192,107531,1,0,0:0:0:0:
256,192,107754,1,0,0:0:0:0:
256,192,107976,1,8,0:0:0:0:
256,192,108087,1,8,0:0:0:0:
256,192,108198,1,8,0:0:0:0:
256,192,108309,1,0,0:0:0:0:
256,192,108420,1,0,0:0:0:0:
256,192,108642,1,0,0:0:0:0:
256,192,108865,1,8,0:0:0:0:
256,192,109309,1,0,0:0:0:0:
256,192,109420,1,0,0:0:0:0:
256,192,109531,1,8,0:0:0:0:
256,192,109642,1,0,0:0:0:0:
256,192,109698,1,0,0:0:0:0:
256,192,109754,1,8,0:0:0:0:
256,192,109865,1,8,0:0:0:0:
256,192,109976,1,0,0:0:0:0:
256,192,110087,1,0,0:0:0:0:
256,192,110198,1,0,0:0:0:0:
256,192,110254,1,8,0:0:0:0:
256,192,110309,1,0,0:0:0:0:
256,192,110365,1,0,0:0:0:0:
256,192,110420,1,8,0:0:0:0:
256,192,110531,1,0,0:0:0:0:
256,192,110642,1,8,0:0:0:0:
256,192,110698,1,8,0:0:0:0:
256,192,110809,1,8,0:0:0:0:
256,192,110865,1,0,0:0:0:0:
256,192,110976,1,0,0:0:0:0:
256,192,111087,1,0,0:0:0:0:
256,192,111142,1,0,0:0:0:0:
256,192,111198,1,0,0:0:0:0:
256,192,111254,1,0,0:0:0:0:
256,192,111309,1,8,0:0:0:0:
256,192,111365,1,8,0:0:0:0:
256,192,111420,1,0,0:0:0:0:
256,192,111531,1,8,0:0:0:0:
256,192,111587,1,0,0:0:0:0:
256,192,111642,1,8,0:0:0:0:
256,192,111754,1,0,0:0:0:0:
256,192,111865,1,0,0:0:0:0:
256,192,111976,1,0,0:0:0:0:
256,192,112087,1,8,0:0:0:0:
256,192,112198,1,0,0:0:0:0:
256,192,112309,1,8,0:0:0:0:
256,192,112420,1,0,0:0:0:0:
256,192,112865,1,0,0:0:0:0:
256,192,113087,1,8,0:0:0:0:
256,192,113198,1,0,0:0:0:0:
256,192,113309,1,8,0:0:0:0:
256,192,113365,1,8,0:0:0:0:
256,192,113420,1,0,0:0:0:0:
256,192,113531,1,0,0:0:0:0:
256,192,113642,1,8,0:0:0:0:
256,192,113753,1,0,0:0:0:0:
256,192,113809,1,0,0:0:0:0:
256,192,113865,1,8,0:0:0:0:
256,192,113920,1,8,0:0:0:0:
256,192,113976,1,0,0:0:0:0:
256,192,114087,1,0,0:0:0:0:
256,192,114198,1,8,0:0:0:0:
256,192,114309,1,0,0:0:0:0:
256,192,114365,1,8,0:0:0:0:
256,192,114420,1,8,0:0:0:0:
256,192,114531,1,8,0:0:0:0:
256,192,114642,1,0,0:0:0:0:
256,192,114864,1,8,0:0:0:0:
256,192,114975,1,0,0:0:0:0:
256,192,115086,1,8,0:0:0:0:
256,192,115198,1,0,0:0:0:0:
256,192,115253,1,8,0:0:0:0:
256,192,115308,1,0,0:0:0:0:
256,192,115420,1,8,0:0:0:0:
256,192,115530,1,0,0:0:0:0:
256,192,115587,1,0,0:0:0:0:
256,192,115642,1,8,0:0:0:0:
256,192,115698,1,8,0:0:0:0:
256,192,115753,1,0,0:0:0:0:
256,192,115809,1,8,0:0:0:0:
256,192,115865,1,8,0:0:0:0:
256,192,115920,1,0,0:0:0:0:
256,192,115975,1,8,0:0:0:0:
256,192,116087,1,0,0:0:0:0:
256,192,116142,1,0,0:0:0:0:
256,192,116197,1,8,0:0:0:0:
256,192,116308,1,8,0:0:0:0:
256,192,116420,1,0,0:0:0:0:
256,192,116476,1,0,0:0:0:0:
256,192,116587,1,0,0:0:0:0:
256,192,116642,1,8,0:0:0:0:
256,192,116698,1,8,0:0:0:0:
256,192,116753,1,0,0:0:0:0:
256,192,116864,1,8,0:0:0:0:
256,192,116976,1,8,0:0:0:0:
256,192,117086,1,0,0:0:0:0:
256,192,117198,1,0,0:0:0:0:
256,192,117308,1,0,0:0:0:0:
256,192,117365,1,8,0:0:0:0:
256,192,117420,1,8,0:0:0:0:
256,192,117476,1,8,0:0:0:0:
256,192,117531,1,0,0:0:0:0:
256,192,117642,1,8,0:0:0:0:
256,192,117753,1,8,0:0:0:0:
256,192,117809,1,0,0:0:0:0:
256,192,117865,1,0,0:0:0:0:
256,192,117920,1,0,0:0:0:0:
256,192,117975,1,8,0:0:0:0:
256,192,118086,1,8,0:0:0:0:
256,192,118198,1,0,0:0:0:0:
256,192,118253,1,0,0:0:0:0:
256,192,118309,1,8,0:0:0:0:
256,192,118365,1,8,0:0:0:0:
256,192,118420,1,8,0:0:0:0:
256,192,118476,1,8,0:0:0:0:
256,192,118531,1,0,0:0:0:0:
256,192,118587,1,8,0:0:0:0:
256,192,118642,1,0,0:0:0:0:
256,192,118698,1,8,0:0:0:0:
256,192,118753,1,8,0:0:0:0:
256,192,118809,1,8,0:0:0:0:
256,192,118865,1,0,0:0:0:0:
256,192,118920,1,8,0:0:0:0:
256,192,118976,1,8,0:0:0:0:
256,192,119031,1,0,0:0:0:0:
256,192,119087,1,8,0:0:0:0:
256,192,119198,1,0,0:0:0:0:
256,192,119309,1,0,0:0:0:0:
256,192,119531,1,0,0:0:0:0:
256,192,119976,1,0,0:0:0:0:
256,192,120198,1,8,0:0:0:0:
256,192,120420,1,0,0:0:0:0:
256,192,120642,1,8,0:0:0:0:
256,192,120864,1,0,0:0:0:0:
256,192,120976,1,0,0:0:0:0:
256,192,121087,1,8,0:0:0:0:
256,192,121198,1,8,0:0:0:0:
256,192,121309,1,0,0:0:0:0:
256,192,121531,1,8,0:0:0:0:
256,192,121753,1,0,0:0:0:0:
256,192,121976,1,8,0:0:0:0:
256,192,122087,1,8,0:0:0:0:
256,192,122198,1,0,0:0:0:0:
256,192,122309,1,8,0:0:0:0:
256,192,122420,1,8,0:0:0:0:
256,192,122531,1,8,0:0:0:0:
256,192,122642,1,0,0:0:0:0:
256,192,122698,1,0,0:0:0:0:
256,192,122753,1,0,0:0:0:0:
256,192,122864,1,8,0:0:0:0:
256,192,122976,1,8,0:0:0:0:
256,192,123087,1,0,0:0:0:0:
256,192,123142,1,0,0:0:0:0:
256,192,123198,1,8,0:0:0:0:
256,192,123309,1,8,0:0:0:0:
256,192,123420,1,8,0:0:0:0:
256,192,123531,1,0,0:0:0:0:
256,192,123753,1,8,0:0:0:0:
256,192,123864,1,8,0:0:0:0:
256,192,123976,1,0,0:0:0:0:
256,192,124198,1,8,0:0:0:0:
256,192,124420,1,0,0:0:0:0:
256,192,124531,1,8,0:0:0:0:
256,192,124587,1,8,0:0:0:0:
256,192,124642,1,0,0:0:0:0:
256,192,124753,1,8,0:0:0:0:
256,192,124864,1,0,0:0:0:0:
256,192,124976,1,8,0:0:0:0:
256,192,125031,1,8,0:0:0:0:
256,192,125087,1,0,0:0:0:0:
256,192,125198,1,8,0:0:0:0:
256,192,125309,1,0,0:0:0:0:
256,192,125531,1,0,0:0:0:0:
256,192,125753,1,0,0:0:0:0:
256,192,125864,1,8,0:0:0:0:
256,192,125976,1,0,0:0:0:0:
256,192,126087,1,8,0:0:0:0:
256,192,126198,1,0,0:0:0:0:
256,192,127087,1,0,0:0:0:0:
256,192,127309,1,0,0:0:0:0:
256,192,127531,1,8,0:0:0:0:
256,192,127753,1,8,0:0:0:0:
256,192,127976,1,0,0:0:0:0:
256,192,128087,1,8,0:0:0:0:
256,192,128198,1,0,0:0:0:0:
256,192,128309,1,0,0:0:0:0:
256,192,128420,1,8,0:0:0:0:
256,192,128476,1,8,0:0:0:0:
256,192,128531,1,0,0:0:0:0:
256,192,128587,1,0,0:0:0:0:
256,192,128642,1,8,0:0:0:0:
256,192,128753,1,8,0:0:0:0:
256,192,128864,1,0,0:0:0:0:
256,192,129087,1,0,0:0:0:0:
256,192,129309,1,8,0:0:0:0:
256,192,129531,1,0,0:0:0:0:
256,192,129753,1,8,0:0:0:0:
256,192,129790,1,8,0:0:0:0:
256,192,129827,1,8,0:0:0:0:
256,192,129864,1,0,0:0:0:0:
256,192,129976,1,8,0:0:0:0:
256,192,130087,1,8,0:0:0:0:
256,192,130124,1,8,0:0:0:0:
256,192,130161,1,8,0:0:0:0:
256,192,130198,1,0,0:0:0:0:
256,192,130309,1,8,0:0:0:0:
256,192,130420,1,8,0:0:0:0:
256,192,130476,1,8,0:0:0:0:
256,192,130531,1,8,0:0:0:0:
256,192,130642,1,0,0:0:0:0:
256,192,130864,1,0,0:0:0:0:
256,192,130976,1,0,0:0:0:0:
256,192,131086,1,8,0:0:0:0:
256,192,131308,1,8,0:0:0:0:
256,192,131531,1,0,0:0:0:0:
256,192,131587,1,0,0:0:0:0:
256,192,131642,1,0,0:0:0:0:
256,192,131753,1,8,0:0:0:0:
256,192,131864,1,8,0:0:0:0:
256,192,131976,1,0,0:0:0:0:
256,192,132013,1,0,0:0:0:0:
256,192,132050,1,0,0:0:0:0:
256,192,132087,1,0,0:0:0:0:
256,192,132124,1,0,0:0:0:0:
256,192,132161,1,0,0:0:0:0:
256,192,132198,1,8,0:0:0:0:
256,192,132420,1,0,0:0:0:0:
256,192,132642,1,0,0:0:0:0:
256,192,132864,1,8,0:0:0:0:
256,192,132976,1,8,0:0:0:0:
256,192,133087,1,0,0:0:0:0:
256,192,133309,1,8,0:0:0:0:
256,192,133420,1,0,0:0:0:0:
256,192,133531,1,8,0:0:0:0:
256,192,133753,1,0,0:0:0:0:
256,192,134198,1,0,0:0:0:0:
256,192,134309,1,0,0:0:0:0:
256,192,134420,1,8,0:0:0:0:
256,192,134476,1,8,0:0:0:0:
256,192,134531,1,0,0:0:0:0:
256,192,134642,1,0,0:0:0:0:
256,192,134753,1,8,0:0:0:0:
256,192,134809,1,8,0:0:0:0:
256,192,134864,1,0,0:0:0:0:
256,192,134976,1,8,0:0:0:0:
256,192,135013,1,8,0:0:0:0:
256,192,135050,1,8,0:0:0:0:
256,192,135087,1,0,0:0:0:0:
256,192,135198,1,8,0:0:0:0:
256,192,135309,1,0,0:0:0:0:
256,192,135420,1,8,0:0:0:0:
256,192,135531,1,8,0:0:0:0:
256,192,135642,1,0,0:0:0:0:
256,192,135753,1,0,0:0:0:0:
256,192,135976,1,0,0:0:0:0:
256,192,136864,1,8,0:0:0:0:
256,192,137309,1,8,0:0:0:0:
256,192,137753,1,0,0:0:0:0:
256,192,138642,1,0,0:0:0:0:
256,192,139087,1,0,0:0:0:0:
256,192,139531,1,8,0:0:0:0:
256,192,140420,1,8,0:0:0:0:
256,192,140864,1,8,0:0:0:0:
256,192,141309,1,0,0:0:0:0:
256,192,142198,1,0,0:0:0:0:
256,192,142420,1,0,0:0:0:0:
256,192,142642,1,0,0:0:0:0:
256,192,142864,1,0,0:0:0:0:
256,192,143087,1,0,0:0:0:0:
256,192,143198,1,0,0:0:0:0:
256,192,143309,1,0,0:0:0:0:
256,192,143420,1,8,0:0:0:0:
256,192,143531,1,0,0:0:0:0:
256,192,143642,1,8,0:0:0:0:
256,192,143698,1,8,0:0:0:0:
256,192,143753,1,0,0:0:0:0:
256,192,143864,1,8,0:0:0:0:
256,192,143976,1,0,0:0:0:0:
256,192,144087,1,0,0:0:0:0:
256,192,144198,1,8,0:0:0:0:
256,192,144309,1,0,0:0:0:0:
256,192,144420,1,8,0:0:0:0:
256,192,144531,1,8,0:0:0:0:
256,192,144642,1,8,0:0:0:0:
256,192,144698,1,8,0:0:0:0:
256,192,144753,1,8,0:0:0:0:
256,192,144809,1,8,0:0:0:0:
256,192,144864,1,0,0:0:0:0:
256,192,144975,1,0,0:0:0:0:
256,192,145086,1,0,0:0:0:0:
256,192,145197,1,8,0:0:0:0:
256,192,145308,1,0,0:0:0:0:
256,192,145419,1,8,0:0:0:0:
256,192,145475,1,8,0:0:0:0:
256,192,145530,1,0,0:0:0:0:
256,192,145641,1,8,0:0:0:0:
256,192,145753,1,0,0:0:0:0:
256,192,145864,1,0,0:0:0:0:
256,192,145975,1,8,0:0:0:0:
256,192,146086,1,0,0:0:0:0:
256,192,146197,1,8,0:0:0:0:
256,192,146308,1,8,0:0:0:0:
256,192,146419,1,8,0:0:0:0:
256,192,146457,1,8,0:0:0:0:
256,192,146494,1,8,0:0:0:0:
256,192,146530,1,8,0:0:0:0:
256,192,146568,1,8,0:0:0:0:
256,192,146605,1,8,0:0:0:0:
256,192,146642,1,0,0:0:0:0:
256,192,146864,1,0,0:0:0:0:
256,192,146976,1,8,0:0:0:0:
256,192,147087,1,0,0:0:0:0:
256,192,147309,1,0,0:0:0:0:
256,192,147420,1,8,0:0:0:0:
256,192,147531,1,0,0:0:0:0:
256,192,147753,1,0,0:0:0:0:
256,192,147864,1,8,0:0:0:0:
256,192,147976,1,0,0:0:0:0:
256,192,148087,1,8,0:0:0:0:
256,192,148198,1,8,0:0:0:0:
256,192,148309,1,8,0:0:0:0:
256,192,148420,1,0,0:0:0:0:
256,192,148476,1,8,0:0:0:0:
256,192,148531,1,0,0:0:0:0:
256,192,148587,1,8,0:0:0:0:
256,192,148642,1,8,0:0:0:0:
256,192,148698,1,0,0:0:0:0:
256,192,148753,1,8,0:0:0:0:
256,192,148809,1,0,0:0:0:0:
256,192,148864,1,0,0:0:0:0:
256,192,148920,1,8,0:0:0:0:
256,192,148975,1,8,0:0:0:0:
256,192,149031,1,0,0:0:0:0:
256,192,149087,1,0,0:0:0:0:
256,192,149143,1,8,0:0:0:0:
256,192,149198,1,8,0:0:0:0:
256,192,149254,1,0,0:0:0:0:
256,192,149309,1,0,0:0:0:0:
256,192,149531,1,0,0:0:0:0:
256,192,149753,1,0,0:0:0:0:
256,192,150198,1,4,0:0:0:0:
256,192,150642,1,8,0:0:0:0:
256,192,151087,1,8,0:0:0:0:
256,192,151531,1,8,0:0:0:0:
256,192,151753,1,8,0:0:0:0:
256,192,151976,1,4,0:0:0:0:
256,192,152420,1,4,0:0:0:0:
256,192,152864,1,0,0:0:0:0:
256,192,153087,1,0,0:0:0:0:
256,192,153309,1,4,0:0:0:0:
256,192,153753,1,0,0:0:0:0:
256,192,153864,1,0,0:0:0:0:
256,192,153976,1,8,0:0:0:0:
256,192,154031,1,8,0:0:0:0:
256,192,154087,1,8,0:0:0:0:
256,192,154198,1,0,0:0:0:0:
256,192,154309,1,0,0:0:0:0:
256,192,154420,1,8,0:0:0:0:
256,192,154476,1,8,0:0:0:0:
256,192,154531,1,8,0:0:0:0:
256,192,154642,1,0,0:0:0:0:
256,192,154753,1,8,0:0:0:0:
256,192,154865,1,0,0:0:0:0:
256,192,154976,1,0,0:0:0:0:
256,192,155087,1,8,0:0:0:0:
256,192,155142,1,0,0:0:0:0:
256,192,155198,1,0,0:0:0:0:
256,192,155309,1,8,0:0:0:0:
256,192,155364,1,8,0:0:0:0:
256,192,155420,1,0,0:0:0:0:
256,192,155531,1,8,0:0:0:0:
256,192,155642,1,8,0:0:0:0:
256,192,155753,1,0,0:0:0:0:
256,192,155809,1,0,0:0:0:0:
256,192,155864,1,0,0:0:0:0:
256,192,155975,1,8,0:0:0:0:
256,192,156087,1,8,0:0:0:0:
256,192,156198,1,0,0:0:0:0:
256,192,156253,1,0,0:0:0:0:
256,192,156309,1,0,0:0:0:0:
256,192,156420,1,8,0:0:0:0:
256,192,156531,1,0,0:0:0:0:
256,192,156642,1,8,0:0:0:0:
256,192,156753,1,0,0:0:0:0:
256,192,156864,1,0,0:0:0:0:
256,192,156920,1,0,0:0:0:0:
256,192,156976,1,8,0:0:0:0:
256,192,157031,1,8,0:0:0:0:
256,192,157087,1,0,0:0:0:0:
256,192,157142,1,0,0:0:0:0:
256,192,157198,1,8,0:0:0:0:
256,192,157309,1,0,0:0:0:0:
256,192,157420,1,8,0:0:0:0:
256,192,157532,1,8,0:0:0:0:
256,192,157587,1,8,0:0:0:0:
256,192,157642,1,0,0:0:0:0:
256,192,157754,1,0,0:0:0:0:
256,192,157864,1,8,0:0:0:0:
256,192,157976,1,8,0:0:0:0:
256,192,158031,1,8,0:0:0:0:
256,192,158087,1,0,0:0:0:0:
256,192,158198,1,0,0:0:0:0:
256,192,158309,1,8,0:0:0:0:
256,192,158421,1,0,0:0:0:0:
256,192,158531,1,8,0:0:0:0:
256,192,158643,1,8,0:0:0:0:
256,192,158753,1,0,0:0:0:0:
256,192,158809,1,0,0:0:0:0:
256,192,158865,1,8,0:0:0:0:
256,192,158920,1,8,0:0:0:0:
256,192,158976,1,0,0:0:0:0:
256,192,159087,1,8,0:0:0:0:
256,192,159198,1,0,0:0:0:0:
256,192,159309,1,0,0:0:0:0:
256,192,159364,1,0,0:0:0:0:
256,192,159420,1,8,0:0:0:0:
256,192,159531,1,8,0:0:0:0:
256,192,159642,1,0,0:0:0:0:
256,192,159754,1,0,0:0:0:0:
256,192,159809,1,0,0:0:0:0:
256,192,159864,1,8,0:0:0:0:
256,192,159976,1,8,0:0:0:0:
256,192,160198,1,8,0:0:0:0:
256,192,160420,1,12,0:0:0:0:
256,192,160864,1,0,0:0:0:0:
256,192,160920,1,0,0:0:0:0:
256,192,160976,1,0,0:0:0:0:
256,192,161087,1,8,0:0:0:0:
256,192,161198,1,8,0:0:0:0:
256,192,161309,1,0,0:0:0:0:
256,192,161364,1,0,0:0:0:0:
256,192,161420,1,0,0:0:0:0:
256,192,161531,1,8,0:0:0:0:
256,192,161642,1,8,0:0:0:0:
256,192,161753,1,0,0:0:0:0:
256,192,161864,1,8,0:0:0:0:
256,192,161920,1,8,0:0:0:0:
256,192,161976,1,0,0:0:0:0:
256,192,162087,1,8,0:0:0:0:
256,192,162198,1,8,0:0:0:0:
256,192,162309,1,0,0:0:0:0:
256,192,162364,1,0,0:0:0:0:
256,192,162420,1,8,0:0:0:0:
256,192,162531,1,0,0:0:0:0:
256,192,162642,1,0,0:0:0:0:
256,192,162698,1,0,0:0:0:0:
256,192,162809,1,8,0:0:0:0:
256,192,162864,1,0,0:0:0:0:
256,192,162976,1,8,0:0:0:0:
256,192,163087,1,0,0:0:0:0:
256,192,163143,1,0,0:0:0:0:
256,192,163254,1,8,0:0:0:0:
256,192,163309,1,0,0:0:0:0:
256,192,163421,1,8,0:0:0:0:
256,192,163531,1,8,0:0:0:0:
256,192,163587,1,0,0:0:0:0:
256,192,163642,1,0,0:0:0:0:
256,192,163698,1,8,0:0:0:0:
256,192,163753,1,8,0:0:0:0:
256,192,163864,1,0,0:0:0:0:
256,192,163975,1,0,0:0:0:0:
256,192,164087,1,8,0:0:0:0:
256,192,164198,1,0,0:0:0:0:
256,192,164420,1,0,0:0:0:0:
256,192,164476,1,0,0:0:0:0:
256,192,164587,1,0,0:0:0:0:
256,192,164643,1,8,0:0:0:0:
256,192,164698,1,0,0:0:0:0:
256,192,164809,1,0,0:0:0:0:
256,192,164865,1,0,0:0:0:0:
256,192,164976,1,0,0:0:0:0:
256,192,165031,1,0,0:0:0:0:
256,192,165087,1,8,0:0:0:0:
256,192,165142,1,0,0:0:0:0:
256,192,165198,1,8,0:0:0:0:
256,192,165309,1,0,0:0:0:0:
256,192,165420,1,8,0:0:0:0:
256,192,165532,1,0,0:0:0:0:
256,192,165587,1,0,0:0:0:0:
256,192,165642,1,8,0:0:0:0:
256,192,165754,1,8,0:0:0:0:
256,192,165864,1,0,0:0:0:0:
256,192,165976,1,8,0:0:0:0:
256,192,166031,1,8,0:0:0:0:
256,192,166087,1,0,0:0:0:0:
256,192,166198,1,8,0:0:0:0:
256,192,166309,1,8,0:0:0:0:
256,192,166420,1,8,0:0:0:0:
256,192,166531,1,8,0:0:0:0:
256,192,166642,1,0,0:0:0:0:
256,192,166753,1,0,0:0:0:0:
256,192,166864,1,0,0:0:0:0:
256,192,166976,1,0,0:0:0:0:
256,192,167087,1,8,0:0:0:0:
256,192,167309,1,8,0:0:0:0:
256,192,167531,1,12,0:0:0:0:
256,192,167976,1,0,0:0:0:0:
256,192,168087,1,8,0:0:0:0:
256,192,168198,1,0,0:0:0:0:
256,192,168309,1,8,0:0:0:0:
256,192,168420,1,0,0:0:0:0:
256,192,168531,1,0,0:0:0:0:
256,192,168587,1,8,0:0:0:0:
256,192,168642,1,8,0:0:0:0:
256,192,168753,1,0,0:0:0:0:
256,192,168864,1,0,0:0:0:0:
256,192,168920,1,8,0:0:0:0:
256,192,169031,1,8,0:0:0:0:
256,192,169087,1,0,0:0:0:0:
256,192,169198,1,8,0:0:0:0:
256,192,169309,1,0,0:0:0:0:
256,192,169420,1,8,0:0:0:0:
256,192,169476,1,8,0:0:0:0:
256,192,169531,1,0,0:0:0:0:
256,192,169642,1,0,0:0:0:0:
256,192,169753,1,8,0:0:0:0:
256,192,169809,1,8,0:0:0:0:
256,192,169864,1,0,0:0:0:0:
256,192,169976,1,8,0:0:0:0:
256,192,170087,1,0,0:0:0:0:
256,192,170198,1,0,0:0:0:0:
256,192,170253,1,8,0:0:0:0:
256,192,170309,1,8,0:0:0:0:
256,192,170420,1,0,0:0:0:0:
256,192,170531,1,8,0:0:0:0:
256,192,170587,1,8,0:0:0:0:
256,192,170642,1,0,0:0:0:0:
256,192,170753,1,8,0:0:0:0:
256,192,170809,1,8,0:0:0:0:
256,192,170864,1,0,0:0:0:0:
256,192,170976,1,8,0:0:0:0:
256,192,171031,1,8,0:0:0:0:
256,192,171087,1,0,0:0:0:0:
256,192,171198,1,8,0:0:0:0:
256,192,171309,1,0,0:0:0:0:
256,192,171420,1,0,0:0:0:0:
256,192,171476,1,8,0:0:0:0:
256,192,171531,1,8,0:0:0:0:
256,192,171642,1,0,0:0:0:0:
256,192,171753,1,0,0:0:0:0:
256,192,171809,1,8,0:0:0:0:
256,192,171920,1,8,0:0:0:0:
256,192,171976,1,0,0:0:0:0:
256,192,172087,1,8,0:0:0:0:
256,192,172198,1,0,0:0:0:0:
256,192,172309,1,8,0:0:0:0:
256,192,172364,1,8,0:0:0:0:
256,192,172420,1,0,0:0:0:0:
256,192,172531,1,0,0:0:0:0:
256,192,172642,1,8,0:0:0:0:
256,192,172698,1,8,0:0:0:0:
256,192,172753,1,0,0:0:0:0:
256,192,172864,1,0,0:0:0:0:
256,192,172920,1,8,0:0:0:0:
256,192,173031,1,8,0:0:0:0:
256,192,173087,1,0,0:0:0:0:
256,192,173253,1,0,0:0:0:0:
256,192,173420,1,0,0:0:0:0:
256,192,173476,1,0,0:0:0:0:
256,192,173531,1,0,0:0:0:0:
256,192,173642,1,0,0:0:0:0:
256,192,173698,1,0,0:0:0:0:
256,192,173753,1,0,0:0:0:0:
256,192,173864,1,8,0:0:0:0:
256,192,173975,1,0,0:0:0:0:
256,192,174086,1,8,0:0:0:0:
256,192,174197,1,0,0:0:0:0:
256,192,174308,1,0,0:0:0:0:
256,192,174364,1,8,0:0:0:0:
256,192,174419,1,8,0:0:0:0:
256,192,174530,1,0,0:0:0:0:
256,192,174641,1,0,0:0:0:0:
256,192,174697,1,8,0:0:0:0:
256,192,174808,1,8,0:0:0:0:
256,192,174864,1,0,0:0:0:0:
256,192,174975,1,8,0:0:0:0:
256,192,175086,1,0,0:0:0:0:
256,192,175197,1,8,0:0:0:0:
256,192,175253,1,8,0:0:0:0:
256,192,175308,1,0,0:0:0:0:
256,192,175419,1,0,0:0:0:0:
256,192,175530,1,8,0:0:0:0:
256,192,175586,1,8,0:0:0:0:
256,192,175641,1,0,0:0:0:0:
256,192,175753,1,8,0:0:0:0:
256,192,175864,1,0,0:0:0:0:
256,192,175975,1,0,0:0:0:0:
256,192,176030,1,8,0:0:0:0:
256,192,176086,1,8,0:0:0:0:
256,192,176197,1,0,0:0:0:0:
256,192,176308,1,8,0:0:0:0:
256,192,176364,1,8,0:0:0:0:
256,192,176419,1,0,0:0:0:0:
256,192,176531,1,8,0:0:0:0:
256,192,176642,1,0,0:0:0:0:
256,192,176754,1,8,0:0:0:0:
256,192,176865,1,0,0:0:0:0:
256,192,176976,1,0,0:0:0:0:
256,192,177032,1,8,0:0:0:0:
256,192,177087,1,8,0:0:0:0:
256,192,177198,1,0,0:0:0:0:
256,192,177309,1,0,0:0:0:0:
256,192,177365,1,8,0:0:0:0:
256,192,177476,1,8,0:0:0:0:
256,192,177532,1,0,0:0:0:0:
256,192,177643,1,8,0:0:0:0:
256,192,177754,1,0,0:0:0:0:
256,192,177865,1,8,0:0:0:0:
256,192,177920,1,8,0:0:0:0:
256,192,177976,1,0,0:0:0:0:
256,192,178087,1,0,0:0:0:0:
256,192,178197,1,8,0:0:0:0:
256,192,178253,1,8,0:0:0:0:
256,192,178308,1,0,0:0:0:0:
256,192,178419,1,0,0:0:0:0:
256,192,178475,1,8,0:0:0:0:
256,192,178586,1,8,0:0:0:0:
256,192,178642,1,0,0:0:0:0:
256,192,178809,1,0,0:0:0:0:
256,192,178976,1,0,0:0:0:0:
256,192,179031,1,0,0:0:0:0:
256,192,179087,1,0,0:0:0:0:
256,192,179198,1,0,0:0:0:0:
256,192,179253,1,0,0:0:0:0:
256,192,179309,1,0,0:0:0:0:
256,192,179420,1,0,0:0:0:0:
256,192,179476,1,0,0:0:0:0:
256,192,179531,1,0,0:0:0:0:
256,192,179642,1,8,0:0:0:0:
256,192,179753,1,8,0:0:0:0:
256,192,179809,1,8,0:0:0:0:
256,192,179864,1,8,0:0:0:0:
256,192,179976,1,0,0:0:0:0:
256,192,180087,1,8,0:0:0:0:
256,192,180198,1,8,0:0:0:0:
256,192,180253,1,8,0:0:0:0:
256,192,180309,1,8,0:0:0:0:
256,192,180420,1,0,0:0:0:0:
256,192,180531,1,0,0:0:0:0:
256,192,180587,1,0,0:0:0:0:
256,192,180642,1,0,0:0:0:0:
256,192,180698,1,0,0:0:0:0:
256,192,180753,1,0,0:0:0:0:
256,192,180864,1,8,0:0:0:0:
256,192,180920,1,8,0:0:0:0:
256,192,180975,1,8,0:0:0:0:
256,192,181031,1,8,0:0:0:0:
256,192,181086,1,8,0:0:0:0:
256,192,181197,1,8,0:0:0:0:
256,192,181309,1,0,0:0:0:0:
256,192,181365,1,0,0:0:0:0:
256,192,181420,1,0,0:0:0:0:
256,192,181476,1,0,0:0:0:0:
256,192,181531,1,8,0:0:0:0:
256,192,181587,1,8,0:0:0:0:
256,192,181642,1,8,0:0:0:0:
256,192,181698,1,8,0:0:0:0:
256,192,181753,1,0,0:0:0:0:
256,192,181809,1,0,0:0:0:0:
256,192,181864,1,0,0:0:0:0:
256,192,181920,1,0,0:0:0:0:
256,192,181976,1,8,0:0:0:0:
256,192,182198,1,4,0:0:0:0:
256,192,182642,1,8,0:0:0:0:
256,192,182864,1,0,0:0:0:0:
256,192,183309,1,0,0:0:0:0:
256,192,183531,1,8,0:0:0:0:
256,192,183753,1,0,0:0:0:0:
256,192,183976,1,0,0:0:0:0:
256,192,184309,1,0,0:0:0:0:
256,192,184420,1,8,0:0:0:0:
256,192,184642,1,0,0:0:0:0:
256,192,184976,1,0,0:0:0:0:
256,192,185087,1,0,0:0:0:0:
256,192,185309,1,8,0:0:0:0:
256,192,185531,1,0,0:0:0:0:
256,192,185642,1,0,0:0:0:0:
256,192,185753,1,0,0:0:0:0:
256,192,186087,1,0,0:0:0:0:
256,192,186198,1,8,0:0:0:0:
256,192,186309,1,0,0:0:0:0:
256,192,186531,1,0,0:0:0:0:
256,192,186753,1,0,0:0:0:0:
256,192,186864,1,0,0:0:0:0:
256,192,187087,1,8,0:0:0:0:
256,192,187198,1,0,0:0:0:0:
256,192,187309,1,0,0:0:0:0:
256,192,187531,1,0,0:0:0:0:
256,192,187864,1,0,0:0:0:0:
256,192,187976,1,8,0:0:0:0:
256,192,188087,1,0,0:0:0:0:
256,192,188198,1,0,0:0:0:0:
256,192,188420,1,0,0:0:0:0:
256,192,188642,1,0,0:0:0:0:
256,192,188753,1,0,0:0:0:0:
256,192,188864,1,8,0:0:0:0:
256,192,189087,1,8,0:0:0:0:
256,192,189309,1,0,0:0:0:0:
256,192,189753,1,8,0:0:0:0:
256,192,189976,1,8,0:0:0:0:
256,192,190420,1,0,0:0:0:0:
256,192,190642,1,8,0:0:0:0:
256,192,190864,1,0,0:0:0:0:
256,192,191087,1,0,0:0:0:0:
256,192,191531,1,8,0:0:0:0:
256,192,191753,1,0,0:0:0:0:
256,192,192087,1,0,0:0:0:0:
256,192,192198,1,0,0:0:0:0:
256,192,192420,1,8,0:0:0:0:
256,192,192531,1,0,0:0:0:0:
256,192,192753,1,0,0:0:0:0:
256,192,192864,1,0,0:0:0:0:
256,192,193309,1,8,0:0:0:0:
256,192,193420,1,8,0:0:0:0:
256,192,193531,1,8,0:0:0:0:
256,192,193642,1,8,0:0:0:0:
256,192,193753,1,0,0:0:0:0:
256,192,193976,1,0,0:0:0:0:
256,192,194198,1,8,0:0:0:0:
256,192,194309,1,0,0:0:0:0:
256,192,194531,1,0,0:0:0:0:
256,192,194642,1,0,0:0:0:0:
256,192,195087,1,8,0:0:0:0:
256,192,195309,1,0,0:0:0:0:
256,192,195420,1,0,0:0:0:0:
256,192,195531,1,0,0:0:0:0:
256,192,195753,1,0,0:0:0:0:
256,192,195976,1,8,0:0:0:0:
256,192,196087,1,8,0:0:0:0:
256,192,196198,1,8,0:0:0:0:
256,192,196420,1,0,0:0:0:0:
256,192,196642,1,8,0:0:0:0:
256,192,196753,1,8,0:0:0:0:
256,192,196809,1,8,0:0:0:0:
256,192,196864,1,0,0:0:0:0:
256,192,196976,1,0,0:0:0:0:
256,192,197087,1,8,0:0:0:0:
256,192,197309,1,0,0:0:0:0:
256,192,197531,1,8,0:0:0:0:
256,192,197753,1,0,0:0:0:0:
256,192,197864,1,0,0:0:0:0:
256,192,197976,1,8,0:0:0:0:
256,192,198198,1,0,0:0:0:0:
256,192,198309,1,0,0:0:0:0:
256,192,198420,1,8,0:0:0:0:
256,192,198476,1,8,0:0:0:0:
256,192,198531,1,8,0:0:0:0:
256,192,198587,1,8,0:0:0:0:
256,192,198642,1,0,0:0:0:0:
256,192,198753,1,0,0:0:0:0:
256,192,198864,1,8,0:0:0:0:
256,192,199087,1,0,0:0:0:0:
256,192,199198,1,0,0:0:0:0:
256,192,199309,1,8,0:0:0:0:
256,192,199531,1,0,0:0:0:0:
256,192,199642,1,0,0:0:0:0:
256,192,199753,1,8,0:0:0:0:
256,192,199976,1,0,0:0:0:0:
256,192,200031,1,8,0:0:0:0:
256,192,200087,1,0,0:0:0:0:
256,192,200198,1,8,0:0:0:0:
256,192,200309,1,8,0:0:0:0:
256,192,200364,1,8,0:0:0:0:
256,192,200420,1,0,0:0:0:0:
256,192,200531,1,0,0:0:0:0:
256,192,200642,1,8,0:0:0:0:
256,192,200753,1,0,0:0:0:0:
256,192,200864,1,0,0:0:0:0:
256,192,200976,1,0,0:0:0:0:
256,192,201087,1,8,0:0:0:0:
256,192,201309,1,0,0:0:0:0:
256,192,201364,1,0,0:0:0:0:
256,192,201420,1,0,0:0:0:0:
256,192,201531,1,8,0:0:0:0:
256,192,201753,1,0,0:0:0:0:
256,192,201809,1,0,0:0:0:0:
256,192,201864,1,0,0:0:0:0:
256,192,201920,1,0,0:0:0:0:
256,192,201976,1,8,0:0:0:0:
256,192,202087,1,0,0:0:0:0:
256,192,202198,1,8,0:0:0:0:
256,192,202253,1,8,0:0:0:0:
256,192,202309,1,8,0:0:0:0:
256,192,202364,1,8,0:0:0:0:
256,192,202420,1,0,0:0:0:0:
256,192,202531,1,8,0:0:0:0:
256,192,202642,1,0,0:0:0:0:
256,192,202698,1,8,0:0:0:0:
256,192,202753,1,0,0:0:0:0:
256,192,202864,1,0,0:0:0:0:
256,192,202920,1,0,0:0:0:0:
256,192,202976,1,8,0:0:0:0:
256,192,203087,1,0,0:0:0:0:
256,192,203142,1,8,0:0:0:0:
256,192,203198,1,0,0:0:0:0:
256,192,203235,1,8,0:0:0:0:
256,192,203272,1,0,0:0:0:0:
256,192,203309,1,0,0:0:0:0:
256,192,203531,1,0,0:0:0:0:
256,192,203976,1,8,0:0:0:0:
256,192,204198,1,8,0:0:0:0:
256,192,204420,1,0,0:0:0:0:
256,192,204864,1,8,0:0:0:0:
256,192,205087,1,0,0:0:0:0:
256,192,205309,1,0,0:0:0:0:
256,192,205753,1,8,0:0:0:0:
256,192,205976,1,0,0:0:0:0:
256,192,206198,1,0,0:0:0:0:
256,192,206420,1,8,0:0:0:0:
256,192,206642,1,0,0:0:0:0:
256,192,206864,1,8,0:0:0:0:
256,192,207087,1,0,0:0:0:0:
256,192,207531,1,8,0:0:0:0:
256,192,207753,1,8,0:0:0:0:
256,192,207976,1,0,0:0:0:0:
256,192,208198,1,8,0:0:0:0:
256,192,208309,1,8,0:0:0:0:
256,192,208420,1,8,0:0:0:0:
256,192,208642,1,8,0:0:0:0:
256,192,208864,1,0,0:0:0:0:
256,192,209309,1,8,0:0:0:0:
256,192,209531,1,0,0:0:0:0:
256,192,209753,1,8,0:0:0:0:
256,192,209976,1,0,0:0:0:0:
256,192,210087,1,0,0:0:0:0:
256,192,210198,1,0,0:0:0:0:
256,192,210642,1,0,0:0:0:0:
256,192,210864,1,0,0:0:0:0:
256,192,210976,1,0,0:0:0:0:
256,192,211087,1,8,0:0:0:0:
256,192,211142,1,8,0:0:0:0:
256,192,211198,1,0,0:0:0:0:
256,192,211309,1,8,0:0:0:0:
256,192,211420,1,8,0:0:0:0:
256,192,211531,1,0,0:0:0:0:
256,192,211587,1,0,0:0:0:0:
256,192,211642,1,0,0:0:0:0:
256,192,211753,1,8,0:0:0:0:
256,192,211864,1,8,0:0:0:0:
256,192,211976,1,0,0:0:0:0:
256,192,212031,1,0,0:0:0:0:
256,192,212087,1,8,0:0:0:0:
256,192,212142,1,8,0:0:0:0:
256,192,212198,1,8,0:0:0:0:
256,192,212253,1,0,0:0:0:0:
256,192,212309,1,8,0:0:0:0:
256,192,212420,1,0,0:0:0:0:
256,192,212531,1,8,0:0:0:0:
256,192,212642,1,0,0:0:0:0:
256,192,212698,1,8,0:0:0:0:
256,192,212753,1,8,0:0:0:0:
256,192,212864,1,8,0:0:0:0:
256,192,212976,1,8,0:0:0:0:
256,192,213031,1,0,0:0:0:0:
256,192,213142,1,0,0:0:0:0:
256,192,213198,1,8,0:0:0:0:
256,192,213309,1,0,0:0:0:0:
256,192,213420,1,0,0:0:0:0:
256,192,213476,1,0,0:0:0:0:
256,192,213531,1,8,0:0:0:0:
256,192,213587,1,8,0:0:0:0:
256,192,213642,1,0,0:0:0:0:
256,192,213753,1,0,0:0:0:0:
256,192,213809,1,8,0:0:0:0:
256,192,213864,1,8,0:0:0:0:
256,192,213976,1,8,0:0:0:0:
256,192,214087,1,0,0:0:0:0:
256,192,214198,1,0,0:0:0:0:
256,192,214309,1,0,0:0:0:0:
256,192,214420,1,8,0:0:0:0:
256,192,214531,1,8,0:0:0:0:
256,192,214642,1,0,0:0:0:0:
256,192,214753,1,8,0:0:0:0:
256,192,214864,1,0,0:0:0:0:
256,192,214976,1,8,0:0:0:0:
256,192,215087,1,0,0:0:0:0:
256,192,215142,1,8,0:0:0:0:
256,192,215198,1,8,0:0:0:0:
256,192,215253,1,0,0:0:0:0:
256,192,215309,1,8,0:0:0:0:
256,192,215420,1,8,0:0:0:0:
256,192,215531,1,12,0:0:0:0:
256,192,215976,1,4,0:0:0:0:
256,192,216198,1,8,0:0:0:0:
256,192,216309,1,0,0:0:0:0:
256,192,216364,1,0,0:0:0:0:
256,192,216420,1,8,0:0:0:0:
256,192,216531,1,0,0:0:0:0:
256,192,216642,1,8,0:0:0:0:
256,192,216698,1,8,0:0:0:0:
256,192,216753,1,8,0:0:0:0:
256,192,216809,1,8,0:0:0:0:
256,192,216864,1,0,0:0:0:0:
256,192,216976,1,8,0:0:0:0:
256,192,217031,1,0,0:0:0:0:
256,192,217087,1,8,0:0:0:0:
256,192,217198,1,0,0:0:0:0:
256,192,217309,1,8,0:0:0:0:
256,192,217364,1,8,0:0:0:0:
256,192,217420,1,0,0:0:0:0:
256,192,217476,1,0,0:0:0:0:
256,192,217531,1,8,0:0:0:0:
256,192,217642,1,8,0:0:0:0:
256,192,217753,1,0,0:0:0:0:
256,192,217864,1,0,0:0:0:0:
256,192,217920,1,0,0:0:0:0:
256,192,217976,1,8,0:0:0:0:
256,192,218087,1,0,0:0:0:0:
256,192,218198,1,8,0:0:0:0:
256,192,218253,1,8,0:0:0:0:
256,192,218309,1,0,0:0:0:0:
256,192,218364,1,8,0:0:0:0:
256,192,218420,1,8,0:0:0:0:
256,192,218531,1,8,0:0:0:0:
256,192,218642,1,0,0:0:0:0:
256,192,218753,1,8,0:0:0:0:
256,192,218809,1,8,0:0:0:0:
256,192,218864,1,8,0:0:0:0:
256,192,218976,1,8,0:0:0:0:
256,192,219087,1,0,0:0:0:0:
256,192,219142,1,8,0:0:0:0:
256,192,219253,1,8,0:0:0:0:
256,192,219309,1,0,0:0:0:0:
256,192,219364,1,0,0:0:0:0:
256,192,219420,1,8,0:0:0:0:
256,192,219531,1,0,0:0:0:0:
256,192,219753,1,8,0:0:0:0:
256,192,219864,1,0,0:0:0:0:
256,192,219976,1,8,0:0:0:0:
256,192,220031,1,8,0:0:0:0:
256,192,220087,1,0,0:0:0:0:
256,192,220198,1,8,0:0:0:0:
256,192,220253,1,8,0:0:0:0:
256,192,220309,1,8,0:0:0:0:
256,192,220364,1,0,0:0:0:0:
256,192,220420,1,0,0:0:0:0:
256,192,220531,1,0,0:0:0:0:
256,192,220642,1,8,0:0:0:0:
256,192,220698,1,0,0:0:0:0:
256,192,220753,1,0,0:0:0:0:
256,192,220864,1,8,0:0:0:0:
256,192,220920,1,8,0:0:0:0:
256,192,220976,1,0,0:0:0:0:
256,192,221087,1,8,0:0:0:0:
256,192,221142,1,8,0:0:0:0:
256,192,221198,1,8,0:0:0:0:
256,192,221309,1,0,0:0:0:0:
256,192,221420,1,0,0:0:0:0:
256,192,221476,1,0,0:0:0:0:
256,192,221531,1,8,0:0:0:0:
256,192,221587,1,8,0:0:0:0:
256,192,221642,1,0,0:0:0:0:
256,192,221753,1,8,0:0:0:0:
256,192,221864,1,0,0:0:0:0:
256,192,221976,1,8,0:0:0:0:
256,192,222087,1,8,0:0:0:0:
256,192,222198,1,0,0:0:0:0:
256,192,222309,1,0,0:0:0:0:
256,192,222364,1,0,0:0:0:0:
256,192,222420,1,8,0:0:0:0:
256,192,222476,1,0,0:0:0:0:
256,192,222531,1,0,0:0:0:0:
256,192,222642,1,0,0:0:0:0:
256,192,222698,1,8,0:0:0:0:
256,192,222753,1,0,0:0:0:0:
256,192,222809,1,8,0:0:0:0:
256,192,222864,1,0,0:0:0:0:
256,192,223087,1,0,0:0:0:0:
256,192,223309,1,4,0:0:0:0:
256,192,223531,1,8,0:0:0:0:
256,192,223642,1,8,0:0:0:0:
256,192,223698,1,8,0:0:0:0:
256,192,223753,1,8,0:0:0:0:
256,192,223864,1,8,0:0:0:0:
256,192,223976,1,0,0:0:0:0:
256,192,224087,1,8,0:0:0:0:
256,192,224198,1,0,0:0:0:0:
256,192,224253,1,0,0:0:0:0:
256,192,224309,1,8,0:0:0:0:
256,192,224420,1,8,0:0:0:0:
256,192,224531,1,0,0:0:0:0:
256,192,224642,1,8,0:0:0:0:
256,192,224698,1,8,0:0:0:0:
256,192,224753,1,0,0:0:0:0:
256,192,224864,1,0,0:0:0:0:
256,192,224920,1,0,0:0:0:0:
256,192,224976,1,8,0:0:0:0:
256,192,225031,1,0,0:0:0:0:
256,192,225087,1,0,0:0:0:0:
256,192,225142,1,0,0:0:0:0:
256,192,225198,1,8,0:0:0:0:
256,192,225309,1,8,0:0:0:0:
256,192,225364,1,8,0:0:0:0:
256,192,225420,1,0,0:0:0:0:
256,192,225476,1,8,0:0:0:0:
256,192,225531,1,8,0:0:0:0:
256,192,225587,1,8,0:0:0:0:
256,192,225642,1,0,0:0:0:0:
256,192,225753,1,0,0:0:0:0:
256,192,225809,1,8,0:0:0:0:
256,192,225864,1,0,0:0:0:0:
256,192,225976,1,0,0:0:0:0:
256,192,226031,1,8,0:0:0:0:
256,192,226087,1,0,0:0:0:0:
256,192,226198,1,8,0:0:0:0:
256,192,226253,1,0,0:0:0:0:
256,192,226309,1,8,0:0:0:0:
256,192,226364,1,0,0:0:0:0:
256,192,226420,1,8,0:0:0:0:
256,192,226531,1,0,0:0:0:0:
256,192,226642,1,0,0:0:0:0:
256,192,226698,1,0,0:0:0:0:
256,192,226753,1,0,0:0:0:0:
256,192,226864,1,8,0:0:0:0:
256,192,226976,1,8,0:0:0:0:
256,192,227031,1,8,0:0:0:0:
256,192,227087,1,0,0:0:0:0:
256,192,227198,1,0,0:0:0:0:
256,192,227309,1,8,0:0:0:0:
256,192,227364,1,8,0:0:0:0:
256,192,227421,1,8,0:0:0:0:
256,192,227531,1,0,0:0:0:0:
256,192,227642,1,0,0:0:0:0:
256,192,227698,1,0,0:0:0:0:
256,192,227753,1,8,0:0:0:0:
256,192,227865,1,8,0:0:0:0:
256,192,227976,1,0,0:0:0:0:
256,192,228032,1,0,0:0:0:0:
256,192,228142,1,0,0:0:0:0:
256,192,228198,1,8,0:0:0:0:
256,192,228310,1,8,0:0:0:0:
256,192,228420,1,0,0:0:0:0:
256,192,228642,1,0,0:0:0:0:
256,192,228864,1,0,0:0:0:0:
256,192,229087,1,0,0:0:0:0:
256,192,229309,1,0,0:0:0:0:
256,192,229420,1,0,0:0:0:0:
256,192,229531,1,0,0:0:0:0:
256,192,229642,1,0,0:0:0:0:
256,192,229753,1,0,0:0:0:0:
256,192,229809,1,0,0:0:0:0:
256,192,229864,1,0,0:0:0:0:
256,192,229920,1,0,0:0:0:0:
256,192,229976,1,0,0:0:0:0:
256,192,230031,1,0,0:0:0:0:
256,192,230087,1,0,0:0:0:0:
256,192,230124,1,0,0:0:0:0:
256,192,230161,1,0,0:0:0:0:
256,192,230198,1,8,0:0:0:0:
256,192,231087,2,0,L|416:192,2,140
256,192,231976,1,0,0:0:0:0:
256,192,232087,1,8,0:0:0:0:
256,192,232198,1,0,0:0:0:0:
256,192,232253,1,0,0:0:0:0:
256,192,232309,1,8,0:0:0:0:
256,192,232420,1,0,0:0:0:0:
256,192,232531,1,8,0:0:0:0:
256,192,232587,1,8,0:0:0:0:
256,192,232642,1,0,0:0:0:0:
256,192,232753,1,8,0:0:0:0:
256,192,232790,1,8,0:0:0:0:
256,192,232827,1,8,0:0:0:0:
256,192,232864,1,0,0:0:0:0:
256,192,232976,1,8,0:0:0:0:
256,192,233087,1,0,0:0:0:0:
256,192,233142,1,8,0:0:0:0:
256,192,233198,1,0,0:0:0:0:
256,192,233309,1,0,0:0:0:0:
256,192,233364,1,8,0:0:0:0:
256,192,233420,1,0,0:0:0:0:
256,192,233531,1,8,0:0:0:0:
256,192,233642,1,0,0:0:0:0:
256,192,233753,1,0,0:0:0:0:
256,192,233864,1,8,0:0:0:0:
256,192,233920,1,8,0:0:0:0:
256,192,233975,1,0,0:0:0:0:
256,192,234030,1,0,0:0:0:0:
256,192,234086,1,8,0:0:0:0:
256,192,234197,1,0,0:0:0:0:
256,192,234308,1,8,0:0:0:0:
256,192,234364,1,8,0:0:0:0:
256,192,234419,1,0,0:0:0:0:
256,192,234530,1,8,0:0:0:0:
256,192,234567,1,8,0:0:0:0:
256,192,234604,1,8,0:0:0:0:
256,192,234641,1,0,0:0:0:0:
256,192,234753,1,8,0:0:0:0:
256,192,234864,1,0,0:0:0:0:
256,192,234919,1,8,0:0:0:0:
256,192,234975,1,0,0:0:0:0:
256,192,235031,1,8,0:0:0:0:
256,192,235086,1,0,0:0:0:0:
256,192,235197,1,0,0:0:0:0:
256,192,235308,1,8,0:0:0:0:
256,192,235364,1,8,0:0:0:0:
256,192,235419,1,0,0:0:0:0:
256,192,235531,1,0,0:0:0:0:
256,192,235642,1,8,0:0:0:0:
256,192,235753,1,0,0:0:0:0:
256,192,235809,1,0,0:0:0:0:
256,192,235864,1,8,0:0:0:0:
256,192,235920,1,8,0:0:0:0:
256,192,235976,1,0,0:0:0:0:
256,192,236087,1,8,0:0:0:0:
256,192,236198,1,0,0:0:0:0:
256,192,236235,1,0,0:0:0:0:
256,192,236272,1,0,0:0:0:0:
256,192,236309,1,8,0:0:0:0:
256,192,236420,1,8,0:0:0:0:
256,192,236531,1,0,0:0:0:0:
256,192,236642,1,8,0:0:0:0:
256,192,236753,1,0,0:0:0:0:
256,192,236790,1,0,0:0:0:0:
256,192,236827,1,0,0:0:0:0:
256,192,236864,1,0,0:0:0:0:
256,192,236976,1,0,0:0:0:0:
256,192,237013,1,0,0:0:0:0:
256,192,237050,1,0,0:0:0:0:
256,192,237087,1,0,0:0:0:0:
256,192,237198,1,0,0:0:0:0:
256,192,237309,1,4,0:0:0:0:
256,192,237753,1,4,0:0:0:0:
256,192,238198,1,0,0:0:0:0:
256,192,238309,1,8,0:0:0:0:
256,192,238420,1,0,0:0:0:0:
256,192,238531,1,8,0:0:0:0:
256,192,238642,1,0,0:0:0:0:
256,192,238753,1,8,0:0:0:0:
256,192,238864,1,8,0:0:0:0:
256,192,239087,1,0,0:0:0:0:
256,192,239198,1,0,0:0:0:0:
256,192,239309,1,8,0:0:0:0:
256,192,239364,1,8,0:0:0:0:
256,192,239420,1,8,0:0:0:0:
256,192,239531,1,0,0:0:0:0:
256,192,239642,1,0,0:0:0:0:
256,192,239753,1,8,0:0:0:0:
256,192,239809,1,8,0:0:0:0:
256,192,239864,1,8,0:0:0:0:
256,192,239976,1,0,0:0:0:0:
256,192,240087,1,8,0:0:0:0:
256,192,240198,1,8,0:0:0:0:
256,192,240309,1,0,0:0:0:0:
256,192,240364,1,0,0:0:0:0:
256,192,240420,1,0,0:0:0:0:
256,192,240531,1,8,0:0:0:0:
256,192,240642,1,0,0:0:0:0:
256,192,240698,1,0,0:0:0:0:
256,192,240753,1,0,0:0:0:0:
256,192,240864,1,0,0:0:0:0:
256,192,240976,1,8,0:0:0:0:
256,192,241031,1,0,0:0:0:0:
256,192,241087,1,8,0:0:0:0:
256,192,241142,1,8,0:0:0:0:
256,192,241198,1,0,0:0:0:0:
256,192,241309,1,0,0:0:0:0:
256,192,241364,1,0,0:0:0:0:
256,192,241420,1,8,0:0:0:0:
256,192,241476,1,0,0:0:0:0:
256,192,241531,1,8,0:0:0:0:
256,192,241587,1,0,0:0:0:0:
256,192,241642,1,8,0:0:0:0:
256,192,241753,1,0,0:0:0:0:
256,192,241864,1,8,0:0:0:0:
256,192,241920,1,8,0:0:0:0:
256,192,241976,1,0,0:0:0:0:
256,192,242031,1,8,0:0:0:0:
256,192,242087,1,8,0:0:0:0:
256,192,242198,1,8,0:0:0:0:
256,192,242253,1,0,0:0:0:0:
256,192,242309,1,8,0:0:0:0:
256,192,242420,1,0,0:0:0:0:
256,192,242531,1,0,0:0:0:0:
256,192,242642,1,0,0:0:0:0:
256,192,242753,1,0,0:0:0:0:
256,192,242864,1,8,0:0:0:0:
256,192,242902,1,8,0:0:0:0:
256,192,242939,1,8,0:0:0:0:
256,192,242975,1,8,0:0:0:0:
256,192,243086,1,0,0:0:0:0:
256,192,243197,1,0,0:0:0:0:
256,192,243309,1,8,0:0:0:0:
256,192,243346,1,8,0:0:0:0:
256,192,243383,1,8,0:0:0:0:
256,192,243419,1,8,0:0:0:0:
256,192,243531,1,0,0:0:0:0:
256,192,243642,1,8,0:0:0:0:
256,192,243753,1,8,0:0:0:0:
256,192,243864,1,0,0:0:0:0:
256,192,243902,1,0,0:0:0:0:
256,192,243939,1,0,0:0:0:0:
256,192,243975,1,0,0:0:0:0:
256,192,244086,1,8,0:0:0:0:
256,192,244197,1,0,0:0:0:0:
256,192,244235,1,0,0:0:0:0:
256,192,244272,1,0,0:0:0:0:
256,192,244308,1,0,0:0:0:0:
256,192,244419,1,0,0:0:0:0:
256,192,244531,1,8,0:0:0:0:
256,192,244587,1,0,0:0:0:0:
256,192,244642,1,8,0:0:0:0:
256,192,244679,1,8,0:0:0:0:
256,192,244716,1,8,0:0:0:0:
256,192,244753,1,0,0:0:0:0:
256,192,244864,1,0,0:0:0:0:
256,192,244902,1,0,0:0:0:0:
256,192,244939,1,0,0:0:0:0:
256,192,244975,1,8,0:0:0:0:
256,192,245031,1,0,0:0:0:0:
256,192,245086,1,8,0:0:0:0:
256,192,245124,1,0,0:0:0:0:
256,192,245161,1,0,0:0:0:0:
256,192,245197,1,8,0:0:0:0:
256,192,245308,1,0,0:0:0:0:
256,192,246198,1,0,0:0:0:0:
256,192,246642,1,0,0:0:0:0:
256,192,247087,1,0,0:0:0:0:
256,192,247531,1,0,0:0:0:0:
256,192,247753,1,0,0:0:0:0:
256,192,247976,1,0,0:0:0:0:
256,192,248420,1,0,0:0:0:0:
256,192,248864,1,0,0:0:0:0:
256,192,249087,1,0,0:0:0:0:
256,192,249309,1,0,0:0:0:0:
256,192,249420,1,8,0:0:0:0:
256,192,249642,1,8,0:0:0:0:
256,192,249753,1,0,0:0:0:0:
256,192,250198,1,0,0:0:0:0:
256,192,250642,1,0,0:0:0:0:
256,192,251087,1,0,0:0:0:0:
256,192,251309,1,0,0:0:0:0:
256,192,251531,1,0,0:0:0:0:
256,192,251753,1,8,0:0:0:0:
256,192,251976,1,0,0:0:0:0:
256,192,252198,1,8,0:0:0:0:
256,192,252420,1,0,0:0:0:0:
256,192,252642,1,0,0:0:0:0:
256,192,252864,1,0,0:0:0:0:
256,192,252976,1,0,0:0:0:0:
256,192,253031,1,0,0:0:0:0:
256,192,253087,1,0,0:0:0:0:
256,192,253309,1,0,0:0:0:0:
256,192,253420,1,0,0:0:0:0:
256,192,253531,1,8,0:0:0:0:
256,192,253587,1,8,0:0:0:0:
256,192,253642,1,8,0:0:0:0:
256,192,253753,1,0,0:0:0:0:
256,192,253864,1,8,0:0:0:0:
256,192,253976,1,0,0:0:0:0:
256,192,254031,1,0,0:0:0:0:
256,192,254087,1,8,0:0:0:0:
256,192,254198,1,0,0:0:0:0:
256,192,254309,1,8,0:0:0:0:
256,192,254420,1,8,0:0:0:0:
256,192,254476,1,8,0:0:0:0:
256,192,254531,1,0,0:0:0:0:
256,192,254642,1,0,0:0:0:0:
256,192,254698,1,0,0:0:0:0:
256,192,254753,1,8,0:0:0:0:
256,192,254809,1,8,0:0:0:0:
256,192,254865,1,0,0:0:0:0:
256,192,254920,1,0,0:0:0:0:
256,192,254976,1,8,0:0:0:0:
256,192,255087,1,0,0:0:0:0:
256,192,255198,1,8,0:0:0:0:
256,192,255309,1,8,0:0:0:0:
256,192,255364,1,0,0:0:0:0:
256,192,255420,1,8,0:0:0:0:
256,192,255531,1,0,0:0:0:0:
256,192,255587,1,8,0:0:0:0:
256,192,255642,1,8,0:0:0:0:
256,192,255698,1,8,0:0:0:0:
256,192,255754,1,0,0:0:0:0:
256,192,255865,1,8,0:0:0:0:
256,192,255976,1,0,0:0:0:0:
256,192,256087,1,8,0:0:0:0:
256,192,256142,1,8,0:0:0:0:
256,192,256198,1,8,0:0:0:0:
256,192,256309,1,0,0:0:0:0:
256,192,256364,1,8,0:0:0:0:
256,192,256420,1,0,0:0:0:0:
256,192,256476,1,0,0:0:0:0:
256,192,256531,1,8,0:0:0:0:
256,192,256587,1,8,0:0:0:0:
256,192,256643,1,0,0:0:0:0:
256,192,256754,1,8,0:0:0:0:
256,192,256864,1,8,0:0:0:0:
256,192,256976,1,0,0:0:0:0:
256,192,257087,1,8,0:0:0:0:
256,192,257142,1,0,0:0:0:0:
256,192,257198,1,8,0:0:0:0:
256,192,257309,1,0,0:0:0:0:
256,192,257420,1,8,0:0:0:0:
256,192,257531,1,0,0:0:0:0:
256,192,257587,1,8,0:0:0:0:
256,192,257642,1,0,0:0:0:0:
256,192,257753,1,8,0:0:0:0:
256,192,257864,1,0,0:0:0:0:
256,192,257976,1,0,0:0:0:0:
256,192,258031,1,8,0:0:0:0:
256,192,258087,1,8,0:0:0:0:
256,192,258198,1,0,0:0:0:0:
256,192,258309,1,8,0:0:0:0:
256,192,258420,1,8,0:0:0:0:
256,192,258476,1,0,0:0:0:0:
256,192,258531,1,0,0:0:0:0:
256,192,258642,1,0,0:0:0:0:
256,192,258753,1,0,0:0:0:0:
256,192,258809,1,0,0:0:0:0:
256,192,258864,1,8,0:0:0:0:
256,192,258976,1,8,0:0:0:0:
256,192,259086,1,0,0:0:0:0:
256,192,259198,1,0,0:0:0:0:
256,192,259253,1,0,0:0:0:0:
256,192,259309,1,8,0:0:0:0:
256,192,259420,1,8,0:0:0:0:
256,192,259531,1,0,0:0:0:0:
256,192,259642,1,8,0:0:0:0:
256,192,259753,1,0,0:0:0:0:
256,192,259864,1,8,0:0:0:0:
256,192,259975,1,8,0:0:0:0:
256,192,260031,1,0,0:0:0:0:
256,192,260087,1,0,0:0:0:0:
256,192,260142,1,0,0:0:0:0:
256,192,260198,1,8,0:0:0:0:
256,192,260420,1,8,0:0:0:0:
256,192,260531,1,8,0:0:0:0:
256,192,260642,1,0,0:0:0:0:
256,192,260698,1,8,0:0:0:0:
256,192,260754,1,8,0:0:0:0:
256,192,260809,1,0,0:0:0:0:
256,192,260865,1,0,0:0:0:0:
256,192,260921,1,8,0:0:0:0:
256,192,260976,1,0,0:0:0:0:
256,192,261087,1,8,0:0:0:0:
256,192,261143,1,8,0:0:0:0:
256,192,261198,1,8,0:0:0:0:
256,192,261309,1,0,0:0:0:0:
256,192,261420,1,8,0:0:0:0:
256,192,261531,1,0,0:0:0:0:
256,192,261587,1,8,0:0:0:0:
256,192,261643,1,8,0:0:0:0:
256,192,261698,1,8,0:0:0:0:
256,192,261754,1,0,0:0:0:0:
256,192,261865,1,8,0:0:0:0:
256,192,261921,1,0,0:0:0:0:
256,192,261976,1,8,0:0:0:0:
256,192,262087,1,8,0:0:0:0:
256,192,262198,1,0,0:0:0:0:
256,192,262309,1,8,0:0:0:0:
256,192,262365,1,0,0:0:0:0:
256,192,262420,1,0,0:0:0:0:
256,192,262476,1,8,0:0:0:0:
256,192,262532,1,8,0:0:0:0:
256,192,262587,1,0,0:0:0:0:
256,192,262643,1,0,0:0:0:0:
256,192,262754,1,0,0:0:0:0:
256,192,262809,1,8,0:0:0:0:
256,192,262865,1,8,0:0:0:0:
256,192,262976,1,8,0:0:0:0:
256,192,263087,1,0,0:0:0:0:
256,192,263198,1,8,0:0:0:0:
256,192,263254,1,0,0:0:0:0:
256,192,263309,1,0,0:0:0:0:
256,192,263421,1,8,0:0:0:0:
256,192,263532,1,0,0:0:0:0:
256,192,263643,1,8,0:0:0:0:
256,192,263698,1,8,0:0:0:0:
256,192,263754,1,8,0:0:0:0:
256,192,263865,1,0,0:0:0:0:
256,192,263976,1,0,0:0:0:0:
256,192,264198,1,8,0:0:0:0:
256,192,264420,1,0,0:0:0:0:
256,192,264531,1,0,0:0:0:0:
256,192,264642,1,8,0:0:0:0:
256,192,264864,1,0,0:0:0:0:
256,192,264976,1,0,0:0:0:0:
256,192,265031,1,0,0:0:0:0:
256,192,265087,1,8,0:0:0:0:
256,192,265198,1,0,0:0:0:0:
256,192,265309,1,8,0:0:0:0:
256,192,265420,1,0,0:0:0:0:
256,192,265531,1,0,0:0:0:0:
256,192,265587,1,0,0:0:0:0:
256,192,265642,1,8,0:0:0:0:
256,192,265753,1,8,0:0:0:0:
256,192,265976,1,0,0:0:0:0:
256,192,266198,1,8,0:0:0:0:
256,192,266309,1,8,0:0:0:0:
256,192,266420,1,0,0:0:0:0:
256,192,266531,1,8,0:0:0:0:
256,192,266642,1,0,0:0:0:0:
256,192,266753,1,8,0:0:0:0:
256,192,266864,1,0,0:0:0:0:
256,192,266920,1,0,0:0:0:0:
256,192,266976,1,8,0:0:0:0:
256,192,267031,1,0,0:0:0:0:
256,192,267087,1,0,0:0:0:0:
256,192,267198,1,0,0:0:0:0:
256,192,267309,1,8,0:0:0:0:
256,192,267531,1,0,0:0:0:0:
256,192,267753,1,8,0:0:0:0:
256,192,267976,1,0,0:0:0:0:
256,192,268087,1,0,0:0:0:0:
256,192,268198,1,8,0:0:0:0:
256,192,268309,1,0,0:0:0:0:
256,192,268420,1,8,0:0:0:0:
256,192,268531,1,0,0:0:0:0:
256,192,268642,1,8,0:0:0:0:
256,192,268753,1,0,0:0:0:0:
256,192,268864,1,0,0:0:0:0:
256,192,268920,1,0,0:0:0:0:
256,192,268975,1,0,0:0:0:0:
256,192,269086,1,8,0:0:0:0:
256,192,269198,1,0,0:0:0:0:
256,192,269309,1,8,0:0:0:0:
256,192,269420,1,8,0:0:0:0:
256,192,269475,1,8,0:0:0:0:
256,192,269531,1,0,0:0:0:0:
256,192,269642,1,8,0:0:0:0:
256,192,269753,1,8,0:0:0:0:
256,192,269864,1,0,0:0:0:0:
256,192,269975,1,8,0:0:0:0:
256,192,270086,1,0,0:0:0:0:
256,192,270198,1,0,0:0:0:0:
256,192,270309,1,0,0:0:0:0:
256,192,270364,1,8,0:0:0:0:
256,192,270420,1,8,0:0:0:0:
256,192,270476,1,8,0:0:0:0:
256,192,270531,1,0,0:0:0:0:
256,192,270587,1,8,0:0:0:0:
256,192,270642,1,0,0:0:0:0:
256,192,270753,1,8,0:0:0:0:
256,192,270864,1,0,0:0:0:0:
256,192,270976,1,8,0:0:0:0:
256,192,271087,1,0,0:0:0:0:
256,192,271531,1,4,0:0:0:0:
