osu file format v14

[General]
AudioFilename: audio.mp3
AudioLeadIn: 0
PreviewTime: 248524
Countdown: 0
SampleSet: Normal
StackLeniency: 0.7
Mode: 1
LetterboxInBreaks: 0
WidescreenStoryboard: 0

[Editor]
DistanceSpacing: 0.6
BeatDivisor: 6
GridSize: 16
TimelineZoom: 3.099999

[Metadata]
Title:CounterMeasure
TitleUnicode:CounterMeasure
Artist:cexiria & A?
ArtistUnicode:cexiria & あ?
Creator:Boaz
Version:Antithetical
Source:
Tags:aquestion and electronic instrumental featured artist fa mappers' guild mg mpg j-core jcore japanese hardcore
BeatmapID:3632568
BeatmapSetID:1774120

[Difficulty]
HPDrainRate:5
CircleSize:5
OverallDifficulty:7
ApproachRate:5
SliderMultiplier:1.4
SliderTickRate:1

[Events]
//Background and Video events
0,0,"FTsajj7WAAECP7m.jpg",0,0
//Break Periods
//Storyboard Layer 0 (Background)
//Storyboard Layer 1 (Fail)
//Storyboard Layer 2 (Pass)
//Storyboard Layer 3 (Foreground)
//Storyboard Layer 4 (Overlay)
//Storyboard Sound Samples

[TimingPoints]
525,333.333333333333,4,1,0,100,1,0
525,-125,4,1,0,75,0,0
11181,-125,4,1,0,75,0,0
11514,-124.44451081485,4,1,0,75,0,0
11681,-124.168536437878,4,1,0,75,0,0
11764,-124.031007751938,4,1,0,75,0,0
12014,-123.620243556604,4,1,0,75,0,0
12348,-123.076923076923,4,1,0,75,0,0
12681,-122.538357569378,4,1,0,75,0,0
12848,-122.270763715417,4,1,0,75,0,0
13014,-122.004336034103,4,1,0,75,0,0
13098,-121.871557128511,4,1,0,75,0,0
13348,-121.475096390489,4,1,0,75,0,0
13514,-121.212121212121,4,1,0,75,0,0
13681,-120.950282177008,4,1,0,75,0,0
14014,-120.430128246044,4,1,0,75,0,0
14181,-120.171653189416,4,1,0,75,0,0
14348,-119.91428526889,4,1,0,75,0,0
14431,-119.786157751183,4,1,0,75,0,0
14681,-119.402985074627,4,1,0,75,0,0
15014,-118.896026613687,4,1,0,75,0,0
15181,-118.644087905778,4,1,0,75,0,0
15348,-118.393214648082,4,1,0,75,0,0
15514,-118.143400096169,4,1,0,75,0,0
15681,-117.89477655403,4,1,0,75,0,0
16014,-117.400379907629,4,1,0,75,0,0
16181,-117.15487053801,4,1,0,75,0,0
16348,-116.910249170814,4,1,0,75,0,0
16681,-116.42405833311,4,1,0,75,0,0
16848,-116.18261118095,4,1,0,75,0,0
17014,-115.942028985507,4,1,0,75,0,0
17098,-115.822111135949,4,1,0,75,0,0
17348,-115.463974662585,4,1,0,75,0,0
17681,-114.989714170067,4,1,0,75,0,0
18014,-114.519464873445,4,1,0,75,0,0
18181,-114.285714285714,4,1,0,75,0,0
18348,-114.052915990903,4,1,0,75,0,0
18431,-113.936872136624,4,1,0,75,0,0
18681,-113.590282124184,4,1,0,75,0,0
18848,-113.360305528695,4,1,0,75,0,0
19014,-113.131258279794,4,1,0,75,0,0
19181,-112.903262226859,4,1,0,75,0,0
19514,-112.449763068349,4,1,0,75,0,0
19681,-112.224502873508,4,1,0,75,0,0
19764,-112.112148023911,4,1,0,75,0,0
20014,-111.776429257257,4,1,0,75,0,0
20181,-111.553731528096,4,1,0,75,0,0
20348,-111.332043366058,4,1,0,75,0,0
20514,-111.111111111111,4,1,0,75,0,0
21816,-100,4,1,0,80,0,0
37848,-99.79633401222,4,1,0,80,0,0
37931,-99.5934959349593,4,1,0,80,0,0
38014,-99.3914807302231,4,1,0,80,0,0
38098,-99.1902834008097,4,1,0,80,0,0
38181,-98.989898989899,4,1,0,80,0,0
38264,-98.7903225806452,4,1,0,80,0,0
38348,-98.5915492957747,4,1,0,80,0,0
38431,-98.3935742971888,4,1,0,80,0,0
38514,-98.1963927855711,4,1,0,80,0,0
38598,-98,4,1,0,80,0,0
38681,-97.8043912175649,4,1,0,80,0,0
38764,-97.609561752988,4,1,0,80,0,0
38848,-97.4155069582505,4,1,0,80,0,0
38931,-97.2222222222222,4,1,0,80,0,0
39014,-97.029702970297,4,1,0,80,0,0
39098,-96.8379446640316,4,1,0,80,0,0
39181,-96.646942800789,4,1,0,80,0,0
39264,-96.4566929133858,4,1,0,80,0,0
39348,-96.2671905697446,4,1,0,80,0,0
39431,-96.078431372549,4,1,0,80,0,0
39514,-95.8904109589041,4,1,0,80,0,0
39598,-95.703125,4,1,0,80,0,0
39681,-95.5165692007797,4,1,0,80,0,0
39764,-95.3307392996109,4,1,0,80,0,0
39848,-95.1456310679612,4,1,0,80,0,0
39931,-94.9612403100775,4,1,0,80,0,0
40014,-94.7775628626693,4,1,0,80,0,0
40098,-94.5945945945946,4,1,0,80,0,0
40181,-94.412331406551,4,1,0,80,0,0
40264,-94.2307692307692,4,1,0,80,0,0
40348,-94.0499040307102,4,1,0,80,0,0
40431,-93.8697318007663,4,1,0,80,0,0
40514,-93.6902485659656,4,1,0,80,0,0
40598,-93.5114503816794,4,1,0,80,0,0
40681,-93.3333333333333,4,1,0,80,0,0
40764,-93.1558935361217,4,1,0,80,0,0
40848,-92.9791271347249,4,1,0,80,0,0
40931,-92.8030303030303,4,1,0,80,0,0
41014,-92.6275992438563,4,1,0,80,0,0
41098,-92.4528301886792,4,1,0,80,0,0
41181,-92.2787193973634,4,1,0,80,0,0
41264,-92.1052631578947,4,1,0,80,0,0
41348,-91.9324577861163,4,1,0,80,0,0
41431,-91.7602996254682,4,1,0,80,0,0
41514,-91.588785046729,4,1,0,80,0,0
41598,-91.4179104477612,4,1,0,80,0,0
41681,-91.2476722532588,4,1,0,80,0,0
41764,-91.0780669144981,4,1,0,80,0,0
41848,-90.9090909090909,4,1,0,80,0,0
43181,-111.111111111111,4,1,0,80,0,0
43348,-111.014774956399,4,1,0,80,0,0
43514,-110.918605708759,4,1,0,80,0,0
43681,-110.822480118447,4,1,0,80,0,0
43848,-110.726643598616,4,1,0,80,0,0
44014,-110.630972689638,4,1,0,80,0,0
44348,-110.440004020016,4,1,0,80,0,0
44514,-110.344827586207,4,1,0,80,0,0
44681,-110.249815055935,4,1,0,80,0,0
44848,-110.154966006178,4,1,0,80,0,0
45014,-110.060158882845,4,1,0,80,0,0
45348,-109.871274814427,4,1,0,80,0,0
45681,-109.682917653356,4,1,0,80,0,0
45848,-109.58904109589,4,1,0,80,0,0
46014,-109.495325097095,4,1,0,80,0,0
46181,-109.401769245412,4,1,0,80,0,0
46348,-109.308253647616,4,1,0,80,0,0
46514,-109.215017064846,4,1,0,80,0,0
46681,-109.121939402405,4,1,0,80,0,0
47014,-108.936140545051,4,1,0,80,0,0
47181,-108.843537414966,4,1,0,80,0,0
47348,-108.751091589082,4,1,0,80,0,0
47514,-108.658684599696,4,1,0,80,0,0
47681,-108.566552382276,4,1,0,80,0,0
48014,-108.38275587001,4,1,0,80,0,0
48348,-108.19946354706,4,1,0,80,0,0
48514,-108.108108108108,4,1,0,80,0,0
48681,-108.016906806253,4,1,0,80,0,0
48848,-107.925742771943,4,1,0,80,0,0
49014,-107.834848772408,4,1,0,80,0,0
49181,-107.744107744108,4,1,0,80,0,0
49348,-107.653519301199,4,1,0,80,0,0
49681,-107.472683130765,4,1,0,80,0,0
49848,-107.38255033557,4,1,0,80,0,0
50014,-107.292568594821,4,1,0,80,0,0
50181,-107.202737529106,4,1,0,80,0,0
50348,-107.112942028334,4,1,0,80,0,0
50681,-106.934030258053,4,1,0,80,0,0
51014,-106.755601199506,4,1,0,80,0,0
51181,-106.666666666667,4,1,0,80,0,0
51348,-106.577880187279,4,1,0,80,0,0
51514,-106.489241391942,4,1,0,80,0,0
51681,-106.40063670141,4,1,0,80,0,0
51848,-106.312292358804,4,1,0,80,0,0
52014,-106.22409459893,4,1,0,80,0,0
52348,-106.04802490856,4,1,0,80,0,0
52514,-105.960264900662,4,1,0,80,0,0
52681,-105.872650024192,4,1,0,80,0,0
52848,-105.785179919434,4,1,0,80,0,0
53014,-105.697742507616,4,1,0,80,0,0
53348,-105.523523303815,4,1,0,80,0,0
53681,-105.349766492243,4,1,0,80,0,0
53848,-105.263157894737,4,1,0,80,0,0
54014,-105.176691583025,4,1,0,80,0,0
54181,-105.090256767024,4,1,0,80,0,0
54348,-105.004074158077,4,1,0,80,0,0
54514,-104.918032786885,4,1,0,80,0,0
54681,-104.832132306538,4,1,0,80,0,0
54848,-104.746262653349,4,1,0,80,0,0
55014,-104.660643097788,4,1,0,80,0,0
55181,-104.575163398693,4,1,0,80,0,0
55348,-104.489823213668,4,1,0,80,0,0
55514,-104.404513198297,4,1,0,80,0,0
55681,-104.319451196231,4,1,0,80,0,0
56014,-104.149742333537,4,1,0,80,0,0
56181,-104.064986502771,4,1,0,80,0,0
56348,-103.980476625709,4,1,0,80,0,0
56514,-103.896103896104,4,1,0,80,0,0
56681,-103.811867980371,4,1,0,80,0,0
56848,-103.727768546006,4,1,0,80,0,0
57014,-103.643697841309,4,1,0,80,0,0
57181,-103.559870550162,4,1,0,80,0,0
57348,-103.47617874889,4,1,0,80,0,0
57514,-103.392515209039,4,1,0,80,0,0
57681,-103.309093576344,4,1,0,80,0,0
57848,-103.225806451613,4,1,0,80,0,0
58014,-103.14265350979,4,1,0,80,0,0
58181,-103.059634426865,4,1,0,80,0,0
58348,-102.976642837872,4,1,0,80,0,0
58681,-102.811271405307,4,1,0,80,0,0
58848,-102.72867917628,4,1,0,80,0,0
59014,-102.646324902306,4,1,0,80,0,0
59181,-102.564102564103,4,1,0,80,0,0
59348,-102.482011844871,4,1,0,80,0,0
59514,-102.399947571227,4,1,0,80,0,0
59681,-102.318119311113,4,1,0,80,0,0
59848,-102.23642172524,4,1,0,80,0,0
60014,-102.154854500841,4,1,0,80,0,0
60181,-102.073313136427,4,1,0,80,0,0
60348,-101.99200586658,4,1,0,80,0,0
60514,-101.910828025478,4,1,0,80,0,0
60681,-101.829779304319,4,1,0,80,0,0
60848,-101.748755867088,4,1,0,80,0,0
61014,-101.667964627682,4,1,0,80,0,0
61348,-101.506766441051,4,1,0,80,0,0
61681,-101.345975906008,4,1,0,80,0,0
61848,-101.26582278481,4,1,0,80,0,0
62014,-101.185796347395,4,1,0,80,0,0
62181,-101.105794069741,4,1,0,80,0,0
62348,-101.026020261779,4,1,0,80,0,0
62514,-100.946372239748,4,1,0,80,0,0
62681,-100.866849706377,4,1,0,80,0,0
62848,-100.787350784327,4,1,0,80,0,0
63014,-100.708078499933,4,1,0,80,0,0
63181,-100.62893081761,4,1,0,80,0,0
63348,-100.54990744381,4,1,0,80,0,0
63514,-100.471008085907,4,1,0,80,0,0
63681,-100.392131666289,4,1,0,80,0,0
64014,-100.234950724498,4,1,0,80,0,0
64348,-100.078161043775,4,1,0,80,0,0
64514,-100,4,1,0,80,0,0
75181,-100,4,1,0,80,0,0
75348,-99.6884735202492,4,1,0,80,0,0
75514,-99.3788819875776,4,1,0,80,0,0
75681,-99.0712074303406,4,1,0,80,0,0
75848,-98.7654320987654,4,1,0,80,0,0
76014,-98.4615384615385,4,1,0,80,0,0
76181,-98.159509202454,4,1,0,80,0,0
76348,-97.8593272171254,4,1,0,80,0,0
76514,-97.5609756097561,4,1,0,80,0,0
76681,-97.2644376899696,4,1,0,80,0,0
76848,-96.969696969697,4,1,0,80,0,0
77014,-96.6767371601208,4,1,0,80,0,0
77181,-96.3855421686747,4,1,0,80,0,0
77348,-96.0960960960961,4,1,0,80,0,0
77514,-95.8083832335329,4,1,0,80,0,0
77681,-95.5223880597015,4,1,0,80,0,0
77848,-95.2380952380952,4,1,0,80,0,0
78014,-94.9554896142433,4,1,0,80,0,0
78181,-94.6745562130178,4,1,0,80,0,0
78348,-94.3952802359882,4,1,0,80,0,0
78431,-94.2562147835218,4,1,0,80,0,0
78514,-94.1176470588235,4,1,0,80,0,0
78681,-93.841642228739,4,1,0,80,0,0
78848,-93.5672514619883,4,1,0,80,0,0
79014,-93.2944606413994,4,1,0,80,0,0
79181,-93.0232558139535,4,1,0,80,0,0
79348,-92.7536231884058,4,1,0,80,0,0
79431,-92.6193492934996,4,1,0,80,0,0
79514,-92.485549132948,4,1,0,80,0,0
79681,-92.2190201729107,4,1,0,80,0,0
79848,-91.9540229885058,4,1,0,80,0,0
80014,-91.6905444126075,4,1,0,80,0,0
80181,-91.4285714285714,4,1,0,80,0,0
80348,-91.1680911680912,4,1,0,80,0,0
80514,-90.9090909090909,4,1,0,80,0,0
80598,-90.8232216813195,4,1,0,80,0,0
80681,-90.7375145180023,4,1,0,80,0,0
80764,-90.6519689607658,4,1,0,80,0,0
80848,-90.5666665761,4,1,0,80,0,0
80931,-90.4814427085077,4,1,0,80,0,0
81014,-90.3963790826395,4,1,0,80,0,0
81098,-90.3114752469793,4,1,0,80,0,0
81181,-90.226730751706,4,1,0,80,0,0
81264,-90.142145148685,4,1,0,80,0,0
81348,-90.0577179914607,4,1,0,80,0,0
81431,-89.9735297875365,4,1,0,80,0,0
81514,-89.8894180379297,4,1,0,80,0,0
81598,-89.8054634051717,4,1,0,80,0,0
81681,-89.7216654494427,4,1,0,80,0,0
81764,-89.6380237325632,4,1,0,80,0,0
81848,-89.5545378179858,4,1,0,80,0,0
81931,-89.4712072707882,4,1,0,80,0,0
82014,-89.3880316576653,4,1,0,80,0,0
82098,-89.3050903008421,4,1,0,80,0,0
82181,-89.2222231144444,4,1,0,80,0,0
82264,-89.1395095722462,4,1,0,80,0,0
82348,-89.0569492473352,4,1,0,80,0,0
82431,-88.9745417143793,4,1,0,80,0,0
82514,-88.8922865496192,4,1,0,80,0,0
82598,-88.8101833308615,4,1,0,80,0,0
82681,-88.7283103645314,4,1,0,80,0,0
82764,-88.6465096323297,4,1,0,80,0,0
82848,-88.5648595892716,4,1,0,80,0,0
82931,-88.4833598193524,4,1,0,80,0,0
83014,-88.4020099080973,4,1,0,80,0,0
83098,-88.3208094425544,4,1,0,80,0,0
83181,-88.2397580112876,4,1,0,80,0,0
83264,-88.1589329242759,4,1,0,80,0,0
83348,-88.0781781909623,4,1,0,80,0,0
83431,-87.997571267033,4,1,0,80,0,0
83514,-87.9171117470449,4,1,0,80,0,0
83598,-87.8367992270362,4,1,0,80,0,0
83681,-87.7566333045199,4,1,0,80,0,0
83764,-87.6766135784771,4,1,0,80,0,0
83848,-87.5968163813054,4,1,0,80,0,0
83931,-87.5170877113757,4,1,0,80,0,0
84014,-87.4375040439846,4,1,0,80,0,0
84098,-87.3580649839174,4,1,0,80,0,0
84181,-87.2787701373942,4,1,0,80,0,0
84264,-87.1996191120637,4,1,0,80,0,0
84348,-87.1206115169964,4,1,0,80,0,0
84431,-87.0418227254013,4,1,0,80,0,0
84514,-86.9631006867476,4,1,0,80,0,0
85816,-80,4,1,0,85,0,0
86181,-90.9090909090909,4,1,0,85,0,0
88514,-80,4,1,0,85,0,0
88848,-90.9090909090909,4,1,0,85,0,0
90514,-80,4,1,0,85,0,0
90848,-76.9230769230769,4,1,0,85,0,0
91181,-74.0740740740741,4,1,0,85,0,0
91514,-90.9090909090909,4,1,0,85,0,0
93848,-80,4,1,0,85,0,0
94514,-100,4,1,0,85,0,0
96514,-80,4,1,0,85,0,0
96848,-90.9090909090909,4,1,0,85,0,0
99181,-80,4,1,0,85,0,0
99514,-90.9090909090909,4,1,0,85,0,0
101181,-80,4,1,0,85,0,0
101514,-76.9230769230769,4,1,0,85,0,0
101848,-74.0740740740741,4,1,0,85,0,0
102181,-90.9090909090909,4,1,0,85,0,0
104514,-80,4,1,0,85,0,0
105181,-100,4,1,0,85,0,0
107181,-80,4,1,0,85,0,0
108181,-90.9090909090909,4,1,0,85,0,0
112514,-80,4,1,0,85,0,0
112848,-100,4,1,0,85,0,0
113514,-90.9090909090909,4,1,0,85,0,0
116014,-90.9090909090909,4,1,0,85,0,0
116181,-96.6887020218575,4,1,0,85,0,0
116264,-99.8631874332165,4,1,0,85,0,0
116348,-103.253198525957,4,1,0,85,0,0
116431,-106.881455639921,4,1,0,85,0,0
116514,-80,4,1,0,85,0,0
116764,-76.2155039102364,4,1,0,85,0,0
117014,-72.7728947165423,4,1,0,85,0,0
117264,-69.6278461252452,4,1,0,85,0,0
117514,-66.7433770546949,4,1,0,85,0,0
117848,-100,4,1,0,85,0,0
118514,-100,4,1,0,85,0,0
118598,-99.2586372384659,4,1,0,85,0,0
118681,-98.5281859581571,4,1,0,85,0,0
118764,-97.8084070238173,4,1,0,85,0,0
118848,-97.0990682373412,4,1,0,85,0,0
118931,-96.4000370176142,4,1,0,85,0,0
119014,-95.7109071192644,4,1,0,85,0,0
119098,-95.0315599810697,4,1,0,85,0,0
119181,-94.3617887598124,4,1,0,85,0,0
119264,-93.7013924026911,4,1,0,85,0,0
119348,-93.0501754461058,4,1,0,85,0,0
119431,-92.4079478227764,4,1,0,85,0,0
119514,-91.7745246767931,4,1,0,85,0,0
119598,-91.1498092690241,4,1,0,85,0,0
119681,-90.5334593559087,4,1,0,85,0,0
119764,-89.9253889048257,4,1,0,85,0,0
119848,-89.3254322011037,4,1,0,85,0,0
119903,-88.9299152231118,4,1,0,85,0,0
119959,-88.537806971644,4,1,0,85,0,0
120014,-88.1492189979197,4,1,0,85,0,0
120070,-87.7640271050421,4,1,0,85,0,0
120126,-87.3821869664225,4,1,0,85,0,0
120181,-87.0035793272535,4,1,0,85,0,0
120274,-90.0900900900901,4,1,0,85,0,0
120348,-93.4579439252336,4,1,0,85,0,0
120441,-97.0873786407767,4,1,0,85,0,0
120514,-100,4,1,0,85,0,0
121181,-100,4,1,0,85,0,0
121264,-99.2586372384659,4,1,0,85,0,0
121348,-98.5281859581571,4,1,0,85,0,0
121431,-97.8084070238173,4,1,0,85,0,0
121514,-97.0990682373412,4,1,0,85,0,0
121598,-96.4000370176142,4,1,0,85,0,0
121681,-95.7109071192644,4,1,0,85,0,0
121764,-95.0315599810697,4,1,0,85,0,0
121848,-94.3617887598124,4,1,0,85,0,0
121931,-93.7013924026911,4,1,0,85,0,0
122014,-93.0501754461058,4,1,0,85,0,0
122098,-92.4079478227764,4,1,0,85,0,0
122181,-91.7745246767931,4,1,0,85,0,0
122264,-91.1498092690241,4,1,0,85,0,0
122348,-90.5334593559087,4,1,0,85,0,0
122431,-89.9253889048257,4,1,0,85,0,0
122514,-89.3254322011037,4,1,0,85,0,0
122570,-88.9299152231118,4,1,0,85,0,0
122626,-88.537806971644,4,1,0,85,0,0
122681,-88.1492189979197,4,1,0,85,0,0
122737,-87.7640271050421,4,1,0,85,0,0
122792,-87.3821869664225,4,1,0,85,0,0
122848,-87.0035793272535,4,1,0,85,0,0
122941,-90.0900900900901,4,1,0,85,0,0
123014,-93.4579439252336,4,1,0,85,0,0
123108,-97.0873786407767,4,1,0,85,0,0
123181,-100,4,1,0,85,0,0
123848,-100,4,1,0,85,0,0
123931,-99.2555831265509,4,1,0,85,0,0
124014,-98.5221674876847,4,1,0,85,0,0
124098,-97.799511002445,4,1,0,85,0,0
124181,-97.0873786407767,4,1,0,85,0,0
124264,-96.3855421686747,4,1,0,85,0,0
124348,-95.6937799043062,4,1,0,85,0,0
124431,-95.0118764845606,4,1,0,85,0,0
124514,-94.3396226415094,4,1,0,85,0,0
124598,-93.6768149882904,4,1,0,85,0,0
124681,-93.0232558139535,4,1,0,85,0,0
124764,-92.378752886836,4,1,0,85,0,0
124848,-91.743119266055,4,1,0,85,0,0
124931,-91.1161731207289,4,1,0,85,0,0
125014,-90.4977375565611,4,1,0,85,0,0
125098,-89.8876404494382,4,1,0,85,0,0
125181,-89.2857142857143,4,1,0,85,0,0
125237,-88.8888888888889,4,1,0,85,0,0
125292,-88.495575221239,4,1,0,85,0,0
125348,-88.1057268722467,4,1,0,85,0,0
125403,-87.719298245614,4,1,0,85,0,0
125459,-87.3362445414847,4,1,0,85,0,0
125514,-86.9565217391304,4,1,0,85,0,0
125608,-90.0900900900901,4,1,0,85,0,0
125681,-93.4579439252336,4,1,0,85,0,0
125774,-97.0873786407767,4,1,0,85,0,0
125848,-100,4,1,0,85,0,0
126514,-100,4,1,0,85,0,0
126598,-99.2586372384659,4,1,0,85,0,0
126681,-98.5281859581571,4,1,0,85,0,0
126764,-97.8084070238173,4,1,0,85,0,0
126848,-97.0990682373412,4,1,0,85,0,0
126931,-96.4000370176142,4,1,0,85,0,0
127014,-95.7109071192644,4,1,0,85,0,0
127098,-95.0315599810697,4,1,0,85,0,0
127181,-94.3617887598124,4,1,0,85,0,0
127264,-93.7013924026911,4,1,0,85,0,0
127348,-93.0501754461058,4,1,0,85,0,0
127431,-92.4079478227764,4,1,0,85,0,0
127514,-91.7745246767931,4,1,0,85,0,0
127598,-91.1498092690241,4,1,0,85,0,0
127681,-90.5334593559087,4,1,0,85,0,0
127764,-89.9253889048257,4,1,0,85,0,0
127848,-89.3254322011037,4,1,0,85,0,0
127903,-88.9299152231118,4,1,0,85,0,0
127959,-88.537806971644,4,1,0,85,0,0
128014,-88.1492189979197,4,1,0,85,0,0
128070,-87.7640271050421,4,1,0,85,0,0
128126,-87.3821869664225,4,1,0,85,0,0
128181,-87.0035793272535,4,1,0,85,0,0
128274,-89.2857142857143,4,1,0,85,0,0
128348,-90.9090909090909,4,1,0,85,0,0
128441,-93.4579439252336,4,1,0,85,0,0
128514,-95.2380952380952,4,1,0,85,0,0
128570,-94.8636098449454,4,1,0,85,0,0
128626,-94.4920579425299,4,1,0,85,0,0
128681,-94.1234051965532,4,1,0,85,0,0
128764,-93.5757444184408,4,1,0,85,0,0
128848,-93.0345064984603,4,1,0,85,0,0
128903,-92.6770316658882,4,1,0,85,0,0
128959,-92.3223786676219,4,1,0,85,0,0
129014,-91.9704296674533,4,1,0,85,0,0
129070,-91.6211538584875,4,1,0,85,0,0
129126,-91.2745209000398,4,1,0,85,0,0
129181,-90.9305009088503,4,1,0,85,0,0
129264,-90.4192650902972,4,1,0,85,0,0
129348,-89.9138265885975,4,1,0,85,0,0
129431,-89.4139274709986,4,1,0,85,0,0
129514,-88.9196353227916,4,1,0,85,0,0
129570,-88.5931060388605,4,1,0,85,0,0
129626,-88.2688882180453,4,1,0,85,0,0
129681,-87.9471121246527,4,1,0,85,0,0
129737,-87.6276735203191,4,1,0,85,0,0
129792,-87.3105470267703,4,1,0,85,0,0
129848,-80,4,1,0,85,0,0
130098,-76.2155039102364,4,1,0,85,0,0
130348,-72.7728947165423,4,1,0,85,0,0
130598,-69.6278461252452,4,1,0,85,0,0
130848,-66.7433770546949,4,1,0,85,0,0
131181,-95.2380952380952,4,1,0,85,0,0
131237,-94.861630083279,4,1,0,85,0,0
131292,-94.4882187364469,4,1,0,85,0,0
131348,-94.1176470588235,4,1,0,85,0,0
131431,-93.5672514619883,4,1,0,85,0,0
131514,-93.0232558139535,4,1,0,85,0,0
131570,-92.6640640419879,4,1,0,85,0,0
131626,-92.3077207100679,4,1,0,85,0,0
131681,-91.9540229885058,4,1,0,85,0,0
131737,-91.6030254647251,4,1,0,85,0,0
131792,-91.2547806098192,4,1,0,85,0,0
131848,-90.9090909090909,4,1,0,85,0,0
131931,-90.3954802259887,4,1,0,85,0,0
132014,-89.8876404494382,4,1,0,85,0,0
132098,-89.3854748603352,4,1,0,85,0,0
132181,-88.8888888888889,4,1,0,85,0,0
132237,-88.5608594654289,4,1,0,85,0,0
132292,-88.2353200692118,4,1,0,85,0,0
132348,-87.9120879120879,4,1,0,85,0,0
132403,-87.591215301835,4,1,0,85,0,0
132459,-87.2727526611644,4,1,0,85,0,0
132514,-80,4,1,0,85,0,0
132764,-72.8179376794962,4,1,0,85,0,0
133014,-66.8192372584067,4,1,0,85,0,0
133348,-100,4,1,0,85,0,0
133848,-80,4,1,0,85,0,0
134098,-78.4356173000735,4,1,0,85,0,0
134348,-76.9313026546685,4,1,0,85,0,0
134514,-75.9600207218937,4,1,0,85,0,0
134764,-74.548256204465,4,1,0,85,0,0
135014,-73.1880647831474,4,1,0,85,0,0
135181,-72.3084621147044,4,1,0,85,0,0
135431,-71.0280241069114,4,1,0,85,0,0
135681,-69.7921937431298,4,1,0,85,0,0
135848,-68.9918768964142,4,1,0,85,0,0
136098,-67.825257719023,4,1,0,85,0,0
136348,-66.6666666666667,4,1,0,85,0,0
136514,-80,4,1,0,85,0,0
136598,-81.0073425055247,4,1,0,85,0,0
136681,-82.0403769919403,4,1,0,85,0,0
136764,-83.1000990553181,4,1,0,85,0,0
136848,-84.1875564056628,4,1,0,85,0,0
136931,-85.3038523219709,4,1,0,85,0,0
137014,-86.4501493858581,4,1,0,85,0,0
137098,-87.6276735203191,4,1,0,85,0,0
137181,-88.8377183631117,4,1,0,85,0,0
137264,-90.0816500075669,4,1,0,85,0,0
137348,-91.3609121473469,4,1,0,85,0,0
137431,-92.6770316658882,4,1,0,85,0,0
137514,-94.0316247160245,4,1,0,85,0,0
137598,-95.426494402759,4,1,0,85,0,0
137681,-96.8632765165641,4,1,0,85,0,0
137764,-98.3439856260431,4,1,0,85,0,0
137848,-99.8706674856061,4,1,0,85,0,0
139181,-100,4,1,0,85,0,0
139191,-100,4,1,0,85,0,1
160524,-100,4,1,0,85,0,0
161191,-100,4,1,0,85,0,1
176514,-100,4,1,0,85,0,1
176598,-99.7924317419767,4,1,0,85,0,1
176681,-99.5858225639565,4,1,0,85,0,1
176764,-99.379968377294,4,1,0,85,0,1
176848,-99.1749634788197,4,1,0,85,0,1
176931,-98.970802623518,4,1,0,85,0,1
177014,-98.767578159723,4,1,0,85,0,1
177098,-98.5650894281056,4,1,0,85,0,1
177181,-98.3634292639071,4,1,0,85,0,1
177264,-98.1625925918655,4,1,0,85,0,1
177348,-97.9626703448384,4,1,0,85,0,1
177431,-97.7634652064716,4,1,0,85,0,1
177514,-97.565068583365,4,1,0,85,0,1
177570,-97.433314203926,4,1,0,85,0,1
177626,-97.3018205170619,4,1,0,85,0,1
177681,-97.1707756948682,4,1,0,85,0,1
177737,-97.0399892091532,4,1,0,85,0,1
177792,-96.9096482276679,4,1,0,85,0,1
177848,-96.779563253187,4,1,0,85,0,1
177931,-96.5852292208952,4,1,0,85,0,1
178014,-96.3915811593015,4,1,0,85,0,1
178098,-96.1987080513509,4,1,0,85,0,1
178181,-96.0066974272125,4,1,0,85,0,1
178264,-95.8153599687259,4,1,0,85,0,1
178348,-95.624783648927,4,1,0,85,0,1
178431,-95.4349639351271,4,1,0,85,0,1
178514,-95.2459870484507,4,1,0,85,0,1
178598,-95.0576667335239,4,1,0,85,0,1
178681,-94.8700896427477,4,1,0,85,0,1
178764,-94.6832513849793,4,1,0,85,0,1
178848,-94.497236900793,4,1,0,85,0,1
178903,-94.3735436982538,4,1,0,85,0,1
178959,-94.2502627226073,4,1,0,85,0,1
179014,-94.1272148133646,4,1,0,85,0,1
179070,-94.0045761427666,4,1,0,85,0,1
179126,-93.8821684903278,4,1,0,85,0,1
179181,-93.7601671181219,4,1,0,85,0,1
179264,-93.5776708704876,4,1,0,85,0,1
179348,-93.3958836698231,4,1,0,85,0,1
179431,-93.2148882819564,4,1,0,85,0,1
179514,-93.0345064984603,4,1,0,85,0,1
179598,-92.8548214866057,4,1,0,85,0,1
179681,-92.6759151051547,4,1,0,85,0,1
179764,-92.4976112491895,4,1,0,85,0,1
179848,-92.3199921712647,4,1,0,85,0,1
179931,-92.1430539340938,4,1,0,85,0,1
180014,-91.9668772095042,4,1,0,85,0,1
180098,-91.7912886395429,4,1,0,85,0,1
180181,-91.616369279932,4,1,0,85,0,1
180237,-91.5001820853624,4,1,0,85,0,1
180292,-91.3842057021917,4,1,0,85,0,1
180348,-91.2686062462409,4,1,0,85,0,1
180403,-91.1532157943,4,1,0,85,0,1
180459,-91.0381996285641,4,1,0,85,0,1
180514,-80,4,1,0,85,0,1
180764,-76.2155039102364,4,1,0,85,0,1
181014,-72.7728947165423,4,1,0,85,0,1
181264,-69.6278461252452,4,1,0,85,0,1
181514,-66.7433770546949,4,1,0,85,0,1
181816,-100,4,1,0,80,0,1
181858,-100,4,1,0,80,0,0
202514,-111.111111111111,4,1,0,80,0,0
202691,-114.285714285714,4,1,0,80,0,0
202848,-117.647058823529,4,1,0,80,0,0
203149,-125,4,1,0,75,0,0
213848,-117.647058823529,4,1,0,75,0,0
224483,-111.111111111111,4,1,0,80,0,0
235181,-111.111111111111,4,1,0,80,0,0
235514,-110.344827586207,4,1,0,80,0,0
235848,-109.58904109589,4,1,0,80,0,0
236181,-108.843537414966,4,1,0,80,0,0
236514,-108.108108108108,4,1,0,80,0,0
236848,-107.38255033557,4,1,0,80,0,0
237181,-106.666666666667,4,1,0,80,0,0
237514,-105.960264900662,4,1,0,80,0,0
237848,-105.263157894737,4,1,0,80,0,0
238181,-104.575163398693,4,1,0,80,0,0
238514,-103.896103896104,4,1,0,80,0,0
238848,-103.225806451613,4,1,0,80,0,0
239181,-102.564102564103,4,1,0,80,0,0
239514,-101.910828025478,4,1,0,80,0,0
239848,-101.26582278481,4,1,0,80,0,0
240181,-100.62893081761,4,1,0,80,0,0
240514,-100,4,1,0,80,0,0
240681,-99.6892685499299,4,1,0,80,0,0
240848,-99.3804621986536,4,1,0,80,0,0
241014,-99.0735631113458,4,1,0,80,0,0
241181,-98.7685536728074,4,1,0,80,0,0
241348,-98.4655134385733,4,1,0,80,0,0
241514,-98.1642307212813,4,1,0,80,0,0
241681,-97.864786096937,4,1,0,80,0,0
241848,-97.5671627956895,4,1,0,80,0,0
242014,-97.271344251069,4,1,0,80,0,0
242181,-96.9773140969133,4,1,0,80,0,0
242348,-96.6850561643491,4,1,0,80,0,0
242514,-96.3945544788284,4,1,0,80,0,0
242681,-96.1058856205413,4,1,0,80,0,0
242848,-95.8188487173689,4,1,0,80,0,0
243014,-95.5335212796142,4,1,0,80,0,0
243181,-95.2380952380952,4,1,0,80,0,0
243264,-94.9562109433235,4,1,0,80,0,0
243348,-94.6759903581972,4,1,0,80,0,0
243431,-94.3974187969804,4,1,0,80,0,0
243514,-94.1204817462738,4,1,0,80,0,0
243598,-93.8452529317257,4,1,0,80,0,0
243681,-93.5715415256466,4,1,0,80,0,0
243764,-93.2994221033795,4,1,0,80,0,0
243848,-93.0288808160494,4,1,0,80,0,0
243931,-92.7599039749474,4,1,0,80,0,0
244014,-92.4924780492226,4,1,0,80,0,0
244098,-92.2265896636127,4,1,0,80,0,0
244181,-91.9622255962141,4,1,0,80,0,0
244264,-91.699456864117,4,1,0,80,0,0
244348,-91.4381018913057,4,1,0,80,0,0
244431,-91.1782324734922,4,1,0,80,0,0
244514,-90.9198359806159,4,1,0,80,0,0
244570,-90.748383771285,4,1,0,80,0,0
244626,-90.5775769773538,4,1,0,80,0,0
244681,-90.4074119612622,4,1,0,80,0,0
244764,-90.1533598804927,4,1,0,80,0,0
244848,-89.9007316121539,4,1,0,80,0,0
244903,-89.7330978736845,4,1,0,80,0,0
244959,-89.5660881294481,4,1,0,80,0,0
245014,-89.3997788249472,4,1,0,80,0,0
245098,-89.1513504646568,4,1,0,80,0,0
245181,-88.9042989673766,4,1,0,80,0,0
245237,-88.7403572509302,4,1,0,80,0,0
245292,-88.5770190467164,4,1,0,80,0,0
245348,-88.4142810283288,4,1,0,80,0,0
245431,-88.171292132652,4,1,0,80,0,0
245514,-87.9296351887366,4,1,0,80,0,0
245570,-87.7692651342738,4,1,0,80,0,0
245626,-87.6094789951894,4,1,0,80,0,0
245681,-87.4503500637513,4,1,0,80,0,0
245764,-87.2126235039765,4,1,0,80,0,0
245848,-86.976185920295,4,1,0,80,0,0
247181,-90.9090909090909,4,1,0,80,0,0
248483,-125,4,1,0,75,0,0
259181,-125,4,1,0,75,0,0
259514,-123.968427720828,4,1,0,75,0,0
259681,-123.458923981402,4,1,0,75,0,0
259764,-123.205815314483,4,1,0,75,0,0
259848,-122.953591167014,4,1,0,75,0,0
260014,-122.452378270091,4,1,0,75,0,0
260181,-121.955383842375,4,1,0,75,0,0
260264,-121.708248289695,4,1,0,75,0,0
260348,-121.462259853929,4,1,0,75,0,0
260431,-121.217263762705,4,1,0,75,0,0
260514,-120.973107678163,4,1,0,75,0,0
260681,-120.488024695226,4,1,0,75,0,0
260764,-120.246794521075,4,1,0,75,0,0
260848,-120.006672370984,4,1,0,75,0,0
261014,-119.52915076929,4,1,0,75,0,0
261181,-119.055414342606,4,1,0,75,0,0
261264,-118.820022124288,4,1,0,75,0,0
261431,-118.351879072784,4,1,0,75,0,0
261514,-118.119257927574,4,1,0,75,0,0
261598,-117.887549424355,4,1,0,75,0,0
261681,-117.656609771852,4,1,0,75,0,0
261764,-117.426711053963,4,1,0,75,0,0
261848,-117.197709019184,4,1,0,75,0,0
262014,-116.742237808608,4,1,0,75,0,0
262098,-116.515895098409,4,1,0,75,0,0
262181,-116.290293132942,4,1,0,75,0,0
262348,-115.841968386727,4,1,0,75,0,0
262514,-115.396953982003,4,1,0,75,0,0
262598,-115.17566015809,4,1,0,75,0,0
262764,-114.735872285206,4,1,0,75,0,0
262848,-114.517104274694,4,1,0,75,0,0
262931,-114.299299573892,4,1,0,75,0,0
263014,-114.082321803413,4,1,0,75,0,0
263098,-113.866036607931,4,1,0,75,0,0
263181,-113.650699122276,4,1,0,75,0,0
263348,-113.222330160844,4,1,0,75,0,0
263431,-113.009418204913,4,1,0,75,0,0
263598,-112.585860792087,4,1,0,75,0,0
263681,-112.375333614272,4,1,0,75,0,0
263848,-111.956507136108,4,1,0,75,0,0
263931,-111.74832489261,4,1,0,75,0,0
264098,-111.334150525998,4,1,0,75,0,0
264181,-111.128274255691,4,1,0,75,0,0
264514,-111.111111111111,4,1,0,75,0,0
264598,-110.098692467928,4,1,0,75,0,0
264681,-109.10455707914,4,1,0,75,0,0
264764,-108.128214111164,4,1,0,75,0,0
264848,-107.16930499634,4,1,0,75,0,0
264931,-106.227141247043,4,1,0,75,0,0
265014,-105.301398929085,4,1,0,75,0,0
265098,-104.391652425905,4,1,0,75,0,0
265181,-103.497490703338,4,1,0,75,0,0
265264,-102.618516690389,4,1,0,75,0,0
265348,-101.754346691305,4,1,0,75,0,0
265431,-100.904711644606,4,1,0,75,0,0
265514,-100.069047642874,4,1,0,75,0,0
265848,-100,4,1,0,75,0,0
265931,-99.1791929987424,4,1,0,75,0,0
266014,-98.3717507810717,4,1,0,75,0,0
266098,-97.5773495650002,4,1,0,75,0,0
266181,-96.7957696376837,4,1,0,75,0,0
266264,-96.0265186833996,4,1,0,75,0,0
266348,-95.2693980403085,4,1,0,75,0,0
266431,-94.5241230288176,4,1,0,75,0,0
266514,-93.7904178081742,4,1,0,75,0,0
266598,-93.0680150360685,4,1,0,75,0,0
266681,-92.3566555438468,4,1,0,75,0,0
266764,-91.6561720349687,4,1,0,75,0,0
266848,-90.9661514950287,4,1,0,75,0,0
267181,-90.9090909090909,4,1,0,75,0,0
267264,-90.3954802259887,4,1,0,75,0,0
267348,-89.8876404494382,4,1,0,75,0,0
267431,-89.3854748603352,4,1,0,75,0,0
267514,-88.8888888888889,4,1,0,75,0,0
267598,-88.3977900552486,4,1,0,75,0,0
267681,-87.9120879120879,4,1,0,75,0,0
267764,-87.431693989071,4,1,0,75,0,0
267848,-86.9565217391304,4,1,0,75,0,0
267931,-86.4864864864865,4,1,0,75,0,0
268014,-86.0215053763441,4,1,0,75,0,0
268098,-85.5614973262032,4,1,0,75,0,0
268181,-85.1063829787234,4,1,0,75,0,0
268264,-84.6560846560847,4,1,0,75,0,0
268348,-84.2105263157895,4,1,0,75,0,0
268431,-83.7696335078534,4,1,0,75,0,0
268514,-80,4,1,0,75,0,0
268764,-76.2155039102364,4,1,0,75,0,0
269014,-72.7728947165423,4,1,0,75,0,0
269264,-69.6278461252452,4,1,0,75,0,0
269514,-66.7433770546949,4,1,0,75,0,0
269848,-100,4,1,0,75,0,0
270149,-100,4,1,0,85,0,0
270191,-100,4,1,0,85,0,1
289764,-100,4,1,0,85,0,1
289848,-100.770186535692,4,1,0,85,0,1
289931,-101.552432028418,4,1,0,85,0,1
290024,-102.564102564103,4,1,0,85,0,1
290098,-103.15371863998,4,1,0,85,0,1
290181,-103.973557444871,4,1,0,85,0,1
290348,-105.652738466155,4,1,0,85,0,1
290431,-106.512833731336,4,1,0,85,0,1
290514,-107.387162938542,4,1,0,85,0,1
290598,-108.275847881096,4,1,0,85,0,1
290681,-109.179364226726,4,1,0,85,0,1
290764,-110.09820760118,4,1,0,85,0,1
290848,-111.032524757477,4,1,0,85,0,1
291191,-80,4,1,0,85,0,0
291514,-90.9090909090909,4,1,0,85,0,0
293848,-80,4,1,0,85,0,0
294181,-90.9090909090909,4,1,0,85,0,0
295848,-80,4,1,0,85,0,0
296181,-76.9230769230769,4,1,0,85,0,0
296514,-74.0740740740741,4,1,0,85,0,0
296848,-90.9090909090909,4,1,0,85,0,0
299181,-80,4,1,0,85,0,0
299848,-100,4,1,0,85,0,0
301848,-80,4,1,0,85,0,0
302181,-90.9090909090909,4,1,0,85,0,0
304514,-80,4,1,0,85,0,0
304848,-90.9090909090909,4,1,0,85,0,0
306514,-80,4,1,0,85,0,0
306848,-76.9230769230769,4,1,0,85,0,0
307181,-74.0740740740741,4,1,0,85,0,0
307514,-90.9090909090909,4,1,0,85,0,0
309848,-80,4,1,0,85,0,0
310514,-100,4,1,0,85,0,0
312514,-80,4,1,0,85,0,0
313181,-100,4,1,0,85,0,0
313264,-99.5865167823198,4,1,0,85,0,0
313348,-99.1764388517748,4,1,0,85,0,0
313431,-98.7696267594574,4,1,0,85,0,0
313514,-98.3662351995703,4,1,0,85,0,0
313598,-97.966125273203,4,1,0,85,0,0
313681,-97.5692570979195,4,1,0,85,0,0
313764,-97.1754970040794,4,1,0,85,0,0
313848,-96.7849960027797,4,1,0,85,0,0
313931,-96.397620906716,4,1,0,85,0,0
314014,-96.013334331872,4,1,0,85,0,0
314098,-95.6320080330887,4,1,0,85,0,0
314181,-95.2537894338782,4,1,0,85,0,0
314264,-94.8785507111622,4,1,0,85,0,0
314348,-94.5062567867306,4,1,0,85,0,0
314431,-94.1367845133693,4,1,0,85,0,0
314514,-93.7702778225791,4,1,0,85,0,0
314598,-93.4066139355195,4,1,0,85,0,0
314681,-93.0457599047211,4,1,0,85,0,0
314764,-92.687597379907,4,1,0,85,0,0
314848,-92.3322668956507,4,1,0,85,0,0
314931,-91.9796504221406,4,1,0,85,0,0
315014,-91.6297169832932,4,1,0,85,0,0
315098,-91.2823527478727,4,1,0,85,0,0
315181,-80,4,1,0,85,0,0
315848,-100,4,1,0,85,0,0
315931,-99.5865167823198,4,1,0,85,0,0
316014,-99.1764388517748,4,1,0,85,0,0
316098,-98.7696267594574,4,1,0,85,0,0
316181,-98.3662351995703,4,1,0,85,0,0
316264,-97.966125273203,4,1,0,85,0,0
316348,-97.5692570979195,4,1,0,85,0,0
316431,-97.1754970040794,4,1,0,85,0,0
316514,-96.7849960027797,4,1,0,85,0,0
316598,-96.397620906716,4,1,0,85,0,0
316681,-96.013334331872,4,1,0,85,0,0
316764,-95.6320080330887,4,1,0,85,0,0
316848,-95.2537894338782,4,1,0,85,0,0
316931,-94.8785507111622,4,1,0,85,0,0
317014,-94.5062567867306,4,1,0,85,0,0
317098,-94.1367845133693,4,1,0,85,0,0
317181,-93.7702778225791,4,1,0,85,0,0
317264,-93.4066139355195,4,1,0,85,0,0
317348,-93.0457599047211,4,1,0,85,0,0
317431,-92.687597379907,4,1,0,85,0,0
317514,-92.3322668956507,4,1,0,85,0,0
317598,-91.9796504221406,4,1,0,85,0,0
317681,-91.6297169832932,4,1,0,85,0,0
317764,-91.2823527478727,4,1,0,85,0,0
317848,-80,4,1,0,85,0,0
318514,-100,4,1,0,85,0,0
318598,-99.5865167823198,4,1,0,85,0,0
318681,-99.1764388517748,4,1,0,85,0,0
318764,-98.7696267594574,4,1,0,85,0,0
318848,-98.3662351995703,4,1,0,85,0,0
318931,-97.966125273203,4,1,0,85,0,0
319014,-97.5692570979195,4,1,0,85,0,0
319098,-97.1754970040794,4,1,0,85,0,0
319181,-96.7849960027797,4,1,0,85,0,0
319264,-96.397620906716,4,1,0,85,0,0
319348,-96.013334331872,4,1,0,85,0,0
319431,-95.6320080330887,4,1,0,85,0,0
319514,-95.2537894338782,4,1,0,85,0,0
319598,-94.8785507111622,4,1,0,85,0,0
319681,-94.5062567867306,4,1,0,85,0,0
319764,-94.1367845133693,4,1,0,85,0,0
319848,-93.7702778225791,4,1,0,85,0,0
319931,-93.4066139355195,4,1,0,85,0,0
320014,-93.0457599047211,4,1,0,85,0,0
320098,-92.687597379907,4,1,0,85,0,0
320181,-92.3322668956507,4,1,0,85,0,0
320264,-91.9796504221406,4,1,0,85,0,0
320348,-91.6297169832932,4,1,0,85,0,0
320431,-91.2823527478727,4,1,0,85,0,0
320514,-80,4,1,0,85,0,0
321181,-100,4,1,0,85,0,0
321264,-99.5045667620915,4,1,0,85,0,0
321348,-99.0139203670644,4,1,0,85,0,0
321431,-98.5281859581571,4,1,0,85,0,0
321514,-98.0471940363775,4,1,0,85,0,0
321598,-97.5708754839515,4,1,0,85,0,0
321681,-97.0990682373412,4,1,0,85,0,0
321764,-96.6318952896783,4,1,0,85,0,0
321848,-96.1691962370917,4,1,0,85,0,0
321931,-95.7109071192644,4,1,0,85,0,0
322014,-95.2568744504869,4,1,0,85,0,0
322098,-94.8072190008836,4,1,0,85,0,0
322181,-94.3617887598124,4,1,0,85,0,0
322264,-93.9205244522085,4,1,0,85,0,0
322348,-93.4832805152798,4,1,0,85,0,0
322431,-93.0501754461058,4,1,0,85,0,0
322514,-92.6210649940537,4,1,0,85,0,0
322598,-92.19589414805,4,1,0,85,0,0
322681,-91.7745246767931,4,1,0,85,0,0
322764,-91.357072773217,4,1,0,85,0,0
322848,-90.9434013741548,4,1,0,85,0,0
323181,-80,4,1,0,85,0,0
323848,-100,4,1,0,85,0,0
323931,-99.5865167823198,4,1,0,85,0,0
324014,-99.1764388517748,4,1,0,85,0,0
324098,-98.7696267594574,4,1,0,85,0,0
324181,-98.3662351995703,4,1,0,85,0,0
324264,-97.966125273203,4,1,0,85,0,0
324348,-97.5692570979195,4,1,0,85,0,0
324431,-97.1754970040794,4,1,0,85,0,0
324514,-96.7849960027797,4,1,0,85,0,0
324598,-96.397620906716,4,1,0,85,0,0
324681,-96.013334331872,4,1,0,85,0,0
324764,-95.6320080330887,4,1,0,85,0,0
324848,-95.2537894338782,4,1,0,85,0,0
324931,-94.8785507111622,4,1,0,85,0,0
325014,-94.5062567867306,4,1,0,85,0,0
325098,-94.1367845133693,4,1,0,85,0,0
325181,-93.7702778225791,4,1,0,85,0,0
325264,-93.4066139355195,4,1,0,85,0,0
325348,-93.0457599047211,4,1,0,85,0,0
325431,-92.687597379907,4,1,0,85,0,0
325514,-92.3322668956507,4,1,0,85,0,0
325598,-91.9796504221406,4,1,0,85,0,0
325681,-91.6297169832932,4,1,0,85,0,0
325764,-91.2823527478727,4,1,0,85,0,0
325848,-80,4,1,0,85,0,0
326514,-100,4,1,0,85,0,0
326598,-99.5865167823198,4,1,0,85,0,0
326681,-99.1764388517748,4,1,0,85,0,0
326764,-98.7696267594574,4,1,0,85,0,0
326848,-98.3662351995703,4,1,0,85,0,0
326931,-97.966125273203,4,1,0,85,0,0
327014,-97.5692570979195,4,1,0,85,0,0
327098,-97.1754970040794,4,1,0,85,0,0
327181,-96.7849960027797,4,1,0,85,0,0
327264,-96.397620906716,4,1,0,85,0,0
327348,-96.013334331872,4,1,0,85,0,0
327431,-95.6320080330887,4,1,0,85,0,0
327514,-95.2537894338782,4,1,0,85,0,0
327598,-94.8785507111622,4,1,0,85,0,0
327681,-94.5062567867306,4,1,0,85,0,0
327764,-94.1367845133693,4,1,0,85,0,0
327848,-93.7702778225791,4,1,0,85,0,0
327931,-93.4066139355195,4,1,0,85,0,0
328014,-93.0457599047211,4,1,0,85,0,0
328098,-92.687597379907,4,1,0,85,0,0
328181,-92.3322668956507,4,1,0,85,0,0
328264,-91.9796504221406,4,1,0,85,0,0
328348,-91.6297169832932,4,1,0,85,0,0
328431,-91.2823527478727,4,1,0,85,0,0
328514,-80,4,1,0,85,0,0
331181,-80,4,1,0,85,0,0
331292,-81.6154638451657,4,1,0,85,0,0
331403,-83.2975847865291,4,1,0,85,0,0
331514,-85.0504306528556,4,1,0,85,0,0
331626,-86.8786331558403,4,1,0,85,0,0
331737,-88.7871585356867,4,1,0,85,0,0
331848,-90.7815016349748,4,1,0,85,0,0
331941,-91.9540229885058,4,1,0,85,0,0
332024,-93.0232558139535,4,1,0,85,0,0
332108,-94.1176470588235,4,1,0,85,0,0
332191,-95.2380952380952,4,1,0,85,0,0
332274,-96.3855421686747,4,1,0,85,0,0
332358,-97.5609756097561,4,1,0,85,0,0
332441,-98.8142292490118,4,1,0,85,0,0
332514,-80,4,1,0,85,0,0
333816,-125,4,1,0,75,0,0

[HitObjects]
352,96,525,5,8,0:0:0:0:
352,96,858,1,8,0:0:0:0:
352,96,1024,1,8,0:0:0:0:
160,96,1108,1,0,0:0:0:0:
352,96,1358,1,8,0:0:0:0:
352,96,1691,1,8,0:0:0:0:
352,96,2024,1,8,0:0:0:0:
160,96,2191,1,0,0:0:0:0:
352,96,2358,1,8,0:0:0:0:
160,96,2441,1,0,0:0:0:0:
352,96,2691,1,8,0:0:0:0:
160,96,2858,1,0,0:0:0:0:
352,96,3024,1,8,0:0:0:0:
352,96,3358,1,8,0:0:0:0:
352,96,3524,1,8,0:0:0:0:
352,96,3691,1,8,0:0:0:0:
160,96,3774,1,0,0:0:0:0:
352,96,4024,1,8,0:0:0:0:
352,96,4358,1,8,0:0:0:0:
352,96,4524,1,8,0:0:0:0:
160,96,4691,1,0,0:0:0:0:
352,96,4858,1,8,0:0:0:0:
160,96,5024,1,0,0:0:0:0:
160,96,5358,1,0,0:0:0:0:
352,96,5524,1,8,0:0:0:0:
160,96,5691,1,0,0:0:0:0:
352,96,6024,1,8,0:0:0:0:
352,96,6191,1,8,0:0:0:0:
352,96,6358,1,8,0:0:0:0:
160,96,6441,1,0,0:0:0:0:
352,96,6691,1,8,0:0:0:0:
352,96,7024,1,8,0:0:0:0:
352,96,7358,1,8,0:0:0:0:
160,96,7524,1,0,0:0:0:0:
352,96,7691,1,8,0:0:0:0:
160,96,7774,1,0,0:0:0:0:
352,96,8024,1,8,0:0:0:0:
352,96,8191,1,8,0:0:0:0:
160,96,8358,1,0,0:0:0:0:
352,96,8524,1,8,0:0:0:0:
352,96,8858,1,8,0:0:0:0:
352,96,9024,1,8,0:0:0:0:
160,96,9108,1,0,0:0:0:0:
352,96,9358,1,8,0:0:0:0:
352,96,9691,1,8,0:0:0:0:
352,96,9858,1,8,0:0:0:0:
160,96,10024,1,0,0:0:0:0:
352,96,10191,1,8,0:0:0:0:
160,96,10358,1,0,0:0:0:0:
160,96,10441,1,0,0:0:0:0:
352,96,10524,1,8,0:0:0:0:
352,96,10691,1,8,0:0:0:0:
160,96,10858,1,0,0:0:0:0:
352,96,11191,5,8,0:0:0:0:
352,96,11524,1,8,0:0:0:0:
352,96,11691,1,8,0:0:0:0:
160,96,11774,1,0,0:0:0:0:
352,96,12024,1,8,0:0:0:0:
352,96,12358,1,8,0:0:0:0:
352,96,12691,1,8,0:0:0:0:
160,96,12858,1,0,0:0:0:0:
352,96,13024,1,8,0:0:0:0:
160,96,13108,1,0,0:0:0:0:
352,96,13358,1,8,0:0:0:0:
160,96,13524,1,0,0:0:0:0:
352,96,13691,1,8,0:0:0:0:
352,96,14024,1,8,0:0:0:0:
352,96,14191,1,8,0:0:0:0:
352,96,14358,1,8,0:0:0:0:
160,96,14441,1,0,0:0:0:0:
352,96,14691,1,8,0:0:0:0:
352,96,15024,1,8,0:0:0:0:
352,96,15191,1,8,0:0:0:0:
160,96,15358,1,0,0:0:0:0:
352,96,15524,1,8,0:0:0:0:
160,96,15691,1,0,0:0:0:0:
160,96,16024,1,0,0:0:0:0:
352,96,16191,1,8,0:0:0:0:
160,96,16358,1,0,0:0:0:0:
352,96,16691,1,8,0:0:0:0:
352,96,16858,1,8,0:0:0:0:
352,96,17024,1,8,0:0:0:0:
160,96,17108,1,0,0:0:0:0:
352,96,17358,1,8,0:0:0:0:
352,96,17691,1,8,0:0:0:0:
352,96,18024,1,8,0:0:0:0:
160,96,18191,1,0,0:0:0:0:
352,96,18358,1,8,0:0:0:0:
160,96,18441,1,0,0:0:0:0:
352,96,18691,1,8,0:0:0:0:
352,96,18858,1,8,0:0:0:0:
160,96,19024,1,0,0:0:0:0:
352,96,19191,1,8,0:0:0:0:
352,96,19524,1,8,0:0:0:0:
352,96,19691,1,8,0:0:0:0:
160,96,19774,1,0,0:0:0:0:
160,96,20024,1,0,0:0:0:0:
352,96,20191,1,8,0:0:0:0:
160,96,20358,1,0,0:0:0:0:
352,96,20524,1,8,0:0:0:0:
212,123,20774,1,0,0:0:0:0:
197,142,20858,1,8,0:0:0:0:
198,108,21024,1,0,0:0:0:0:
197,142,21191,1,8,0:0:0:0:
217,126,21358,1,0,0:0:0:0:
197,142,21524,1,8,0:0:0:0:
160,96,21858,1,0,0:0:0:0:
352,288,22191,5,12,0:0:0:0:
352,96,22358,1,8,0:0:0:0:
160,96,22441,1,0,0:0:0:0:
240,161,22524,1,8,0:0:0:0:
352,96,22691,1,8,0:0:0:0:
240,161,22858,1,0,0:0:0:0:
352,96,23024,1,8,0:0:0:0:
240,161,23191,1,0,0:0:0:0:
352,96,23358,1,8,0:0:0:0:
160,96,23524,1,0,0:0:0:0:
352,96,23691,1,8,0:0:0:0:
160,96,23774,1,0,0:0:0:0:
240,161,23858,1,0,0:0:0:0:
352,96,24024,1,8,0:0:0:0:
160,96,24191,1,0,0:0:0:0:
352,96,24358,1,8,0:0:0:0:
240,161,24524,1,0,0:0:0:0:
352,96,24691,1,8,0:0:0:0:
352,96,24858,1,8,0:0:0:0:
352,96,25024,1,8,0:0:0:0:
160,96,25108,1,0,0:0:0:0:
240,161,25191,1,8,0:0:0:0:
352,96,25358,1,8,0:0:0:0:
243,142,25524,1,0,0:0:0:0:
352,96,25691,1,8,0:0:0:0:
160,96,25858,1,0,0:0:0:0:
352,96,26024,1,8,0:0:0:0:
352,96,26191,1,8,0:0:0:0:
160,96,26358,1,0,0:0:0:0:
243,142,26524,1,0,0:0:0:0:
352,96,26691,1,8,0:0:0:0:
160,96,26858,1,0,0:0:0:0:
352,96,27024,1,8,0:0:0:0:
243,142,27191,1,0,0:0:0:0:
352,96,27358,1,8,0:0:0:0:
160,96,27524,1,0,0:0:0:0:
352,96,27691,1,8,0:0:0:0:
160,96,27774,1,0,0:0:0:0:
243,142,27858,1,0,0:0:0:0:
352,96,28024,1,8,0:0:0:0:
243,142,28191,1,0,0:0:0:0:
352,96,28358,1,8,0:0:0:0:
243,142,28524,1,0,0:0:0:0:
352,96,28691,1,8,0:0:0:0:
160,96,28858,1,8,0:0:0:0:
352,96,29024,1,8,0:0:0:0:
160,96,29108,1,0,0:0:0:0:
243,142,29191,1,8,0:0:0:0:
352,96,29358,1,8,0:0:0:0:
160,96,29524,1,0,0:0:0:0:
352,96,29691,1,8,0:0:0:0:
352,96,29858,1,8,0:0:0:0:
289,146,30024,1,0,0:0:0:0:
352,96,30191,1,8,0:0:0:0:
352,96,30358,1,8,0:0:0:0:
160,96,30441,1,0,0:0:0:0:
289,146,30524,1,0,0:0:0:0:
352,96,30691,1,8,0:0:0:0:
241,101,30858,1,0,0:0:0:0:
352,96,31024,1,8,0:0:0:0:
352,96,31191,1,8,0:0:0:0:
160,96,31358,1,0,0:0:0:0:
352,96,31524,1,8,0:0:0:0:
160,96,31691,1,0,0:0:0:0:
160,96,31774,1,0,0:0:0:0:
352,96,31858,1,8,0:0:0:0:
241,101,31941,1,0,0:0:0:0:
352,96,32024,1,8,0:0:0:0:
160,96,32191,1,0,0:0:0:0:
241,101,32358,1,0,0:0:0:0:
241,101,32441,1,0,0:0:0:0:
352,96,32524,1,8,0:0:0:0:
241,101,32691,1,0,0:0:0:0:
352,96,32858,1,8,0:0:0:0:
352,96,33024,1,8,0:0:0:0:
241,101,33191,1,8,0:0:0:0:
352,96,33358,1,8,0:0:0:0:
271,117,33524,1,0,0:0:0:0:
352,96,33691,1,8,0:0:0:0:
271,117,33858,1,0,0:0:0:0:
352,96,34024,1,8,0:0:0:0:
352,96,34191,1,8,0:0:0:0:
352,96,34358,1,8,0:0:0:0:
271,117,34524,1,0,0:0:0:0:
352,96,34691,1,8,0:0:0:0:
160,96,34858,1,0,0:0:0:0:
352,96,35024,1,8,0:0:0:0:
271,117,35191,1,0,0:0:0:0:
352,96,35358,1,8,0:0:0:0:
352,96,35524,1,0,0:0:0:0:
271,117,35691,5,8,0:0:0:0:
160,96,35858,1,8,0:0:0:0:
352,96,36024,1,8,0:0:0:0:
288,134,36191,1,0,0:0:0:0:
352,96,36358,1,8,0:0:0:0:
160,96,36524,5,0,0:0:0:0:
160,96,36691,1,0,0:0:0:0:
352,96,36774,1,8,0:0:0:0:
160,96,36858,1,0,0:0:0:0:
352,96,37024,1,8,0:0:0:0:
352,96,37191,1,8,0:0:0:0:
160,96,37358,5,0,0:0:0:0:
160,96,37441,1,0,0:0:0:0:
352,96,37524,1,8,0:0:0:0:
160,96,37691,1,0,0:0:0:0:
160,96,37858,5,0,0:0:0:0:
160,96,37941,1,0,0:0:0:0:
352,96,38024,1,8,0:0:0:0:
160,96,38108,1,0,0:0:0:0:
352,96,38191,1,8,0:0:0:0:
160,96,38274,1,0,0:0:0:0:
352,96,38358,1,8,0:0:0:0:
352,96,38441,1,8,0:0:0:0:
160,96,38524,1,0,0:0:0:0:
160,96,38608,1,0,0:0:0:0:
352,96,38691,1,8,0:0:0:0:
160,96,38774,1,0,0:0:0:0:
160,96,38858,1,0,0:0:0:0:
160,96,38941,1,0,0:0:0:0:
352,96,39024,1,8,0:0:0:0:
160,96,39108,1,0,0:0:0:0:
160,96,39191,1,0,0:0:0:0:
160,96,39274,1,0,0:0:0:0:
352,96,39358,1,8,0:0:0:0:
160,96,39441,1,0,0:0:0:0:
352,96,39524,1,8,0:0:0:0:
160,96,39608,1,0,0:0:0:0:
352,96,39691,1,8,0:0:0:0:
352,96,39774,1,8,0:0:0:0:
160,96,39858,1,0,0:0:0:0:
160,96,39941,1,0,0:0:0:0:
352,96,40024,1,8,0:0:0:0:
160,96,40108,1,0,0:0:0:0:
352,96,40191,1,8,0:0:0:0:
160,96,40274,1,0,0:0:0:0:
352,96,40358,1,8,0:0:0:0:
160,96,40441,1,0,0:0:0:0:
352,96,40524,1,8,0:0:0:0:
160,96,40608,1,0,0:0:0:0:
160,96,40691,1,0,0:0:0:0:
160,96,40774,1,0,0:0:0:0:
352,96,40858,1,8,0:0:0:0:
160,96,40941,1,0,0:0:0:0:
352,96,41024,1,8,0:0:0:0:
352,96,41108,1,8,0:0:0:0:
160,96,41191,1,0,0:0:0:0:
160,96,41274,1,0,0:0:0:0:
352,96,41358,1,8,0:0:0:0:
160,96,41441,1,0,0:0:0:0:
160,96,41524,1,0,0:0:0:0:
160,96,41608,1,0,0:0:0:0:
352,96,41691,1,8,0:0:0:0:
160,96,41774,1,0,0:0:0:0:
352,96,41858,1,8,0:0:0:0:
160,96,43191,5,0,0:0:0:0:
352,96,43358,1,8,0:0:0:0:
352,96,43524,1,8,0:0:0:0:
160,96,43691,1,0,0:0:0:0:
352,96,43858,1,8,0:0:0:0:
160,96,44024,1,0,0:0:0:0:
160,96,44358,1,0,0:0:0:0:
352,96,44524,1,8,0:0:0:0:
160,96,44691,1,0,0:0:0:0:
160,96,44858,1,0,0:0:0:0:
352,96,45024,1,8,0:0:0:0:
352,96,45358,1,8,0:0:0:0:
352,96,45691,1,8,0:0:0:0:
160,96,45858,1,0,0:0:0:0:
352,96,46024,1,8,0:0:0:0:
352,96,46191,1,8,0:0:0:0:
160,96,46358,1,0,0:0:0:0:
352,96,46524,1,8,0:0:0:0:
160,96,46691,1,0,0:0:0:0:
160,96,47024,1,0,0:0:0:0:
352,96,47191,1,8,0:0:0:0:
352,96,47358,1,8,0:0:0:0:
160,96,47524,1,0,0:0:0:0:
160,96,47691,1,0,0:0:0:0:
352,96,48024,1,8,0:0:0:0:
352,96,48358,1,8,0:0:0:0:
160,96,48524,1,0,0:0:0:0:
352,96,48691,1,8,0:0:0:0:
352,96,48858,1,8,0:0:0:0:
160,96,49024,1,0,0:0:0:0:
352,96,49191,1,8,0:0:0:0:
160,96,49358,1,0,0:0:0:0:
160,96,49691,1,0,0:0:0:0:
352,96,49858,1,8,0:0:0:0:
160,96,50024,1,0,0:0:0:0:
352,96,50191,1,8,0:0:0:0:
160,96,50358,1,0,0:0:0:0:
352,96,50691,1,8,0:0:0:0:
352,96,51024,1,8,0:0:0:0:
160,96,51191,1,0,0:0:0:0:
352,96,51358,1,8,0:0:0:0:
352,96,51524,1,8,0:0:0:0:
160,96,51691,1,0,0:0:0:0:
352,96,51858,1,8,0:0:0:0:
160,96,52024,1,0,0:0:0:0:
160,96,52358,1,0,0:0:0:0:
352,96,52524,1,8,0:0:0:0:
352,96,52691,1,8,0:0:0:0:
352,96,52858,1,8,0:0:0:0:
160,96,53024,1,0,0:0:0:0:
352,96,53358,1,8,0:0:0:0:
352,96,53691,1,8,0:0:0:0:
160,96,53858,1,0,0:0:0:0:
352,96,54024,1,8,0:0:0:0:
352,96,54191,1,8,0:0:0:0:
160,96,54358,1,0,0:0:0:0:
352,96,54524,1,8,0:0:0:0:
160,96,54691,1,0,0:0:0:0:
352,96,54858,1,8,0:0:0:0:
352,96,55024,1,8,0:0:0:0:
160,96,55191,1,0,0:0:0:0:
160,96,55358,1,0,0:0:0:0:
352,96,55524,1,8,0:0:0:0:
160,96,55691,1,0,0:0:0:0:
160,96,56024,1,0,0:0:0:0:
352,96,56191,1,8,0:0:0:0:
160,96,56358,1,0,0:0:0:0:
160,96,56524,1,0,0:0:0:0:
352,96,56691,1,8,0:0:0:0:
352,96,56858,1,8,0:0:0:0:
160,96,57024,1,0,0:0:0:0:
352,96,57191,1,8,0:0:0:0:
160,96,57358,1,0,0:0:0:0:
352,96,57524,1,8,0:0:0:0:
352,96,57691,1,8,0:0:0:0:
160,96,57858,1,0,0:0:0:0:
160,96,58024,1,0,0:0:0:0:
352,96,58191,1,8,0:0:0:0:
160,96,58358,1,0,0:0:0:0:
160,96,58691,1,0,0:0:0:0:
352,96,58858,1,8,0:0:0:0:
160,96,59024,1,0,0:0:0:0:
160,96,59191,1,0,0:0:0:0:
352,96,59358,1,8,0:0:0:0:
352,96,59524,1,8,0:0:0:0:
160,96,59691,1,0,0:0:0:0:
160,96,59858,1,0,0:0:0:0:
352,96,60024,1,8,0:0:0:0:
352,96,60191,1,8,0:0:0:0:
160,96,60358,1,0,0:0:0:0:
352,96,60524,1,8,0:0:0:0:
160,96,60691,1,0,0:0:0:0:
352,96,60858,1,8,0:0:0:0:
160,96,61024,1,0,0:0:0:0:
352,96,61358,1,8,0:0:0:0:
352,96,61691,1,8,0:0:0:0:
160,96,61858,1,0,0:0:0:0:
352,96,62024,1,8,0:0:0:0:
352,96,62191,1,8,0:0:0:0:
160,96,62358,1,0,0:0:0:0:
352,96,62524,1,8,0:0:0:0:
160,96,62691,1,0,0:0:0:0:
352,96,62858,1,8,0:0:0:0:
352,96,63024,1,8,0:0:0:0:
160,96,63191,1,0,0:0:0:0:
352,96,63358,5,8,0:0:0:0:
352,96,63524,1,8,0:0:0:0:
160,96,63691,1,0,0:0:0:0:
352,96,64024,1,8,0:0:0:0:
160,96,64358,1,0,0:0:0:0:
352,288,64524,5,12,0:0:0:0:
160,96,64858,1,0,0:0:0:0:
399,186,65024,1,0,0:0:0:0:
352,96,65191,1,8,0:0:0:0:
352,96,65524,1,8,0:0:0:0:
268,154,65691,1,0,0:0:0:0:
160,96,65858,1,0,0:0:0:0:
160,96,66191,1,0,0:0:0:0:
352,96,66524,1,8,0:0:0:0:
160,96,66858,1,0,0:0:0:0:
217,135,67024,1,0,0:0:0:0:
352,96,67191,1,8,0:0:0:0:
352,96,67524,1,8,0:0:0:0:
160,96,67858,1,0,0:0:0:0:
160,96,68191,1,8,0:0:0:0:
217,135,68358,1,0,0:0:0:0:
352,96,68524,1,8,0:0:0:0:
352,96,68858,1,8,0:0:0:0:
160,96,69191,1,0,0:0:0:0:
160,96,69524,1,0,0:0:0:0:
352,96,69858,1,8,0:0:0:0:
160,96,70191,1,0,0:0:0:0:
218,135,70358,1,0,0:0:0:0:
352,96,70524,1,8,0:0:0:0:
352,96,70858,1,8,0:0:0:0:
203,135,71024,1,0,0:0:0:0:
160,96,71191,1,0,0:0:0:0:
160,96,71524,1,0,0:0:0:0:
352,96,71858,1,8,0:0:0:0:
352,96,72191,1,8,0:0:0:0:
203,135,72358,1,0,0:0:0:0:
160,96,72524,1,0,0:0:0:0:
160,96,72858,1,0,0:0:0:0:
352,96,73191,1,8,0:0:0:0:
160,96,73524,1,8,0:0:0:0:
203,135,73691,1,0,0:0:0:0:
352,96,73858,1,8,0:0:0:0:
352,96,74191,1,8,0:0:0:0:
160,96,74524,1,0,0:0:0:0:
352,96,74858,1,8,0:0:0:0:
352,288,75191,5,12,0:0:0:0:
160,96,75358,1,0,0:0:0:0:
352,96,75524,1,8,0:0:0:0:
352,96,75691,1,8,0:0:0:0:
160,96,75858,1,0,0:0:0:0:
160,96,76024,1,0,0:0:0:0:
352,96,76191,1,8,0:0:0:0:
160,96,76358,1,0,0:0:0:0:
352,96,76524,1,8,0:0:0:0:
352,96,76691,1,8,0:0:0:0:
160,96,76858,1,0,0:0:0:0:
160,96,77024,1,0,0:0:0:0:
352,96,77191,1,8,0:0:0:0:
352,96,77358,1,8,0:0:0:0:
160,96,77524,1,0,0:0:0:0:
160,96,77691,1,0,0:0:0:0:
352,288,77858,1,12,0:0:0:0:
160,96,78024,1,0,0:0:0:0:
352,96,78191,1,8,0:0:0:0:
160,96,78358,1,0,0:0:0:0:
160,96,78441,1,0,0:0:0:0:
352,96,78524,1,8,0:0:0:0:
352,96,78691,1,8,0:0:0:0:
160,96,78858,1,0,0:0:0:0:
160,96,79024,1,0,0:0:0:0:
352,96,79191,1,8,0:0:0:0:
160,96,79358,1,0,0:0:0:0:
160,96,79441,1,0,0:0:0:0:
352,96,79524,1,8,0:0:0:0:
352,96,79691,1,8,0:0:0:0:
160,96,79858,1,0,0:0:0:0:
160,96,80024,1,0,0:0:0:0:
352,96,80191,1,8,0:0:0:0:
160,96,80358,1,0,0:0:0:0:
352,96,80524,5,8,0:0:0:0:
352,96,80608,1,8,0:0:0:0:
160,96,80691,1,0,0:0:0:0:
160,96,80774,1,0,0:0:0:0:
352,96,80858,1,8,0:0:0:0:
352,96,80941,1,8,0:0:0:0:
352,96,81024,1,8,0:0:0:0:
160,96,81108,1,0,0:0:0:0:
352,96,81191,1,8,0:0:0:0:
352,96,81274,1,8,0:0:0:0:
160,96,81358,1,0,0:0:0:0:
352,96,81441,1,0,0:0:0:0:
352,96,81524,1,8,0:0:0:0:
160,96,81608,1,0,0:0:0:0:
160,96,81691,1,0,0:0:0:0:
160,96,81774,1,0,0:0:0:0:
352,96,81858,1,8,0:0:0:0:
160,96,81941,1,0,0:0:0:0:
352,96,82024,1,8,0:0:0:0:
352,96,82108,1,8,0:0:0:0:
160,96,82191,1,0,0:0:0:0:
160,96,82274,1,0,0:0:0:0:
352,96,82358,1,8,0:0:0:0:
160,96,82441,1,0,0:0:0:0:
352,96,82524,1,8,0:0:0:0:
352,96,82608,1,8,0:0:0:0:
160,96,82691,1,0,0:0:0:0:
160,96,82774,1,0,0:0:0:0:
352,96,82858,1,8,0:0:0:0:
160,96,82941,1,0,0:0:0:0:
160,96,83024,1,0,0:0:0:0:
160,96,83108,1,0,0:0:0:0:
352,96,83191,1,8,0:0:0:0:
352,96,83274,1,8,0:0:0:0:
160,96,83358,1,0,0:0:0:0:
160,96,83441,1,0,0:0:0:0:
352,96,83524,1,8,0:0:0:0:
160,96,83608,1,0,0:0:0:0:
352,96,83691,1,8,0:0:0:0:
352,96,83774,1,8,0:0:0:0:
160,96,83858,1,0,0:0:0:0:
160,96,83941,1,0,0:0:0:0:
352,96,84024,1,8,0:0:0:0:
160,96,84108,1,0,0:0:0:0:
352,96,84191,1,8,0:0:0:0:
352,96,84274,1,8,0:0:0:0:
352,96,84358,1,8,0:0:0:0:
352,96,84441,1,8,0:0:0:0:
160,96,84524,1,0,0:0:0:0:
270,201,84691,1,8,0:0:0:0:
270,201,84774,1,0,0:0:0:0:
270,201,84941,1,0,0:0:0:0:
270,201,85024,1,8,0:0:0:0:
270,201,85191,1,0,0:0:0:0:
270,201,85274,1,0,0:0:0:0:
270,201,85358,1,8,0:0:0:0:
270,201,85441,1,0,0:0:0:0:
270,201,85524,1,8,0:0:0:0:
352,288,85858,1,12,0:0:0:0:
352,96,86191,5,8,0:0:0:0:
352,96,86247,1,8,0:0:0:0:
352,96,86302,1,8,0:0:0:0:
160,96,86358,1,0,0:0:0:0:
160,96,86441,1,0,0:0:0:0:
352,96,86524,1,8,0:0:0:0:
160,96,86580,1,0,0:0:0:0:
160,96,86636,5,0,0:0:0:0:
352,96,86691,1,8,0:0:0:0:
160,96,86774,1,0,0:0:0:0:
352,96,86858,1,8,0:0:0:0:
160,96,86913,1,0,0:0:0:0:
160,96,86969,1,0,0:0:0:0:
352,96,87024,5,8,0:0:0:0:
160,96,87108,1,0,0:0:0:0:
352,96,87191,1,8,0:0:0:0:
352,96,87247,1,8,0:0:0:0:
352,96,87302,1,8,0:0:0:0:
160,96,87358,1,0,0:0:0:0:
160,96,87441,5,0,0:0:0:0:
352,96,87524,1,8,0:0:0:0:
160,96,87580,1,0,0:0:0:0:
160,96,87636,1,0,0:0:0:0:
352,96,87691,1,8,0:0:0:0:
160,96,87774,1,0,0:0:0:0:
352,96,87858,5,8,0:0:0:0:
160,96,87913,1,0,0:0:0:0:
160,96,87969,1,0,0:0:0:0:
352,96,88024,1,8,0:0:0:0:
160,96,88108,1,0,0:0:0:0:
352,96,88191,1,8,0:0:0:0:
352,96,88247,1,8,0:0:0:0:
352,96,88302,1,8,0:0:0:0:
160,96,88358,1,0,0:0:0:0:
160,96,88441,1,0,0:0:0:0:
352,288,88524,1,12,0:0:0:0:
160,96,88858,5,0,0:0:0:0:
160,96,88913,1,0,0:0:0:0:
160,96,88969,1,0,0:0:0:0:
352,96,89024,1,8,0:0:0:0:
352,96,89108,1,8,0:0:0:0:
160,96,89191,1,0,0:0:0:0:
352,96,89247,1,8,0:0:0:0:
352,96,89302,5,8,0:0:0:0:
160,96,89358,1,0,0:0:0:0:
352,96,89441,1,8,0:0:0:0:
160,96,89524,1,0,0:0:0:0:
352,96,89580,1,8,0:0:0:0:
352,96,89636,1,8,0:0:0:0:
160,96,89691,5,0,0:0:0:0:
352,96,89774,1,8,0:0:0:0:
160,96,89858,1,0,0:0:0:0:
160,96,89913,1,0,0:0:0:0:
160,96,89969,1,0,0:0:0:0:
352,96,90024,1,8,0:0:0:0:
352,96,90108,5,8,0:0:0:0:
160,96,90191,1,0,0:0:0:0:
160,96,90247,1,0,0:0:0:0:
160,96,90302,1,0,0:0:0:0:
352,96,90358,1,8,0:0:0:0:
160,96,90441,1,0,0:0:0:0:
352,288,90524,5,12,0:0:0:0:
160,288,90858,1,4,0:0:0:0:
352,288,91191,1,12,0:0:0:0:
352,96,91524,5,8,0:0:0:0:
352,96,91580,1,8,0:0:0:0:
352,96,91636,1,8,0:0:0:0:
160,96,91691,1,0,0:0:0:0:
160,96,91774,1,0,0:0:0:0:
352,96,91858,1,8,0:0:0:0:
352,96,91913,1,8,0:0:0:0:
160,96,91969,5,0,0:0:0:0:
160,96,92024,1,0,0:0:0:0:
160,96,92108,1,0,0:0:0:0:
352,96,92191,1,8,0:0:0:0:
352,96,92247,1,8,0:0:0:0:
160,96,92302,1,0,0:0:0:0:
160,96,92358,5,0,0:0:0:0:
160,96,92441,1,0,0:0:0:0:
352,96,92524,1,8,0:0:0:0:
352,96,92580,1,8,0:0:0:0:
352,96,92636,1,8,0:0:0:0:
160,96,92691,1,0,0:0:0:0:
160,96,92774,5,0,0:0:0:0:
352,96,92858,1,8,0:0:0:0:
352,96,92913,1,8,0:0:0:0:
160,96,92969,1,0,0:0:0:0:
160,96,93024,1,0,0:0:0:0:
160,96,93108,1,0,0:0:0:0:
352,96,93191,5,8,0:0:0:0:
160,96,93274,1,8,0:0:0:0:
160,96,93358,1,0,0:0:0:0:
160,96,93441,1,0,0:0:0:0:
352,96,93524,1,8,0:0:0:0:
352,96,93608,1,8,0:0:0:0:
160,96,93691,1,0,0:0:0:0:
160,96,93747,1,0,0:0:0:0:
160,96,93802,1,0,0:0:0:0:
352,288,93858,1,12,0:0:0:0:
352,96,94524,1,8,0:0:0:0:
160,96,94608,1,0,0:0:0:0:
160,96,94691,1,0,0:0:0:0:
352,96,94774,1,8,0:0:0:0:
160,96,94858,1,0,0:0:0:0:
160,96,94941,1,0,0:0:0:0:
352,96,95024,1,8,0:0:0:0:
160,96,95108,1,0,0:0:0:0:
352,96,95191,1,8,0:0:0:0:
160,96,95274,1,0,0:0:0:0:
160,96,95358,1,0,0:0:0:0:
352,96,95441,1,8,0:0:0:0:
160,96,95524,1,0,0:0:0:0:
160,96,95608,1,0,0:0:0:0:
352,96,95691,1,8,0:0:0:0:
160,96,95774,1,0,0:0:0:0:
352,96,95858,1,8,0:0:0:0:
160,96,95941,1,0,0:0:0:0:
160,96,96024,1,0,0:0:0:0:
352,96,96108,1,8,0:0:0:0:
160,96,96191,1,0,0:0:0:0:
160,96,96274,1,0,0:0:0:0:
352,96,96358,1,8,0:0:0:0:
160,96,96441,1,0,0:0:0:0:
352,96,96524,1,12,0:0:0:0:
352,96,96858,5,8,0:0:0:0:
352,96,96913,1,8,0:0:0:0:
157,163,96969,1,8,0:0:0:0:
160,96,97024,1,0,0:0:0:0:
160,96,97108,1,0,0:0:0:0:
352,96,97191,1,8,0:0:0:0:
352,96,97247,5,8,0:0:0:0:
179,164,97302,1,0,0:0:0:0:
160,96,97358,1,0,0:0:0:0:
194,144,97441,1,0,0:0:0:0:
352,96,97524,1,8,0:0:0:0:
352,96,97580,1,8,0:0:0:0:
352,96,97636,1,8,0:0:0:0:
160,96,97691,5,0,0:0:0:0:
160,96,97774,1,0,0:0:0:0:
352,96,97858,1,8,0:0:0:0:
160,96,97913,1,0,0:0:0:0:
160,96,97969,1,0,0:0:0:0:
352,96,98024,1,8,0:0:0:0:
160,96,98108,5,0,0:0:0:0:
352,96,98191,1,8,0:0:0:0:
160,96,98247,1,0,0:0:0:0:
160,96,98302,1,0,0:0:0:0:
352,96,98358,1,8,0:0:0:0:
160,96,98441,1,0,0:0:0:0:
352,96,98524,5,8,0:0:0:0:
352,96,98580,1,8,0:0:0:0:
352,96,98636,1,8,0:0:0:0:
160,96,98691,1,0,0:0:0:0:
160,96,98774,1,0,0:0:0:0:
352,96,98858,1,8,0:0:0:0:
160,96,98913,1,0,0:0:0:0:
160,96,98969,1,0,0:0:0:0:
352,96,99024,1,8,0:0:0:0:
160,96,99108,1,0,0:0:0:0:
352,288,99191,1,12,0:0:0:0:
160,96,99524,5,0,0:0:0:0:
160,96,99580,1,0,0:0:0:0:
160,96,99636,1,0,0:0:0:0:
352,96,99691,1,8,0:0:0:0:
160,96,99774,1,0,0:0:0:0:
352,96,99858,1,8,0:0:0:0:
160,96,99913,1,0,0:0:0:0:
160,96,99969,5,0,0:0:0:0:
352,96,100024,1,8,0:0:0:0:
160,96,100108,1,0,0:0:0:0:
352,96,100191,1,8,0:0:0:0:
160,96,100247,1,0,0:0:0:0:
160,96,100302,1,0,0:0:0:0:
352,96,100358,5,8,0:0:0:0:
352,96,100441,1,8,0:0:0:0:
160,96,100524,1,0,0:0:0:0:
160,96,100580,1,0,0:0:0:0:
160,96,100636,1,0,0:0:0:0:
352,96,100691,1,8,0:0:0:0:
160,96,100774,5,0,0:0:0:0:
352,96,100858,1,8,0:0:0:0:
160,96,100913,1,0,0:0:0:0:
160,96,100969,1,0,0:0:0:0:
352,96,101024,1,8,0:0:0:0:
160,96,101108,1,0,0:0:0:0:
352,288,101191,5,12,0:0:0:0:
160,288,101524,1,4,0:0:0:0:
352,288,101858,1,12,0:0:0:0:
352,96,102191,5,8,0:0:0:0:
352,96,102247,1,8,0:0:0:0:
352,96,102302,1,8,0:0:0:0:
160,96,102358,1,0,0:0:0:0:
160,96,102441,1,0,0:0:0:0:
352,96,102524,1,8,0:0:0:0:
160,96,102580,1,0,0:0:0:0:
160,96,102636,5,0,0:0:0:0:
352,96,102691,1,8,0:0:0:0:
160,96,102774,1,0,0:0:0:0:
352,96,102858,1,8,0:0:0:0:
160,96,102913,1,0,0:0:0:0:
160,96,102969,1,0,0:0:0:0:
352,96,103024,5,8,0:0:0:0:
160,96,103108,1,0,0:0:0:0:
352,96,103191,1,8,0:0:0:0:
352,96,103247,1,8,0:0:0:0:
352,96,103302,1,8,0:0:0:0:
160,96,103358,1,0,0:0:0:0:
160,96,103441,5,0,0:0:0:0:
352,96,103524,1,8,0:0:0:0:
160,96,103580,1,0,0:0:0:0:
160,96,103636,1,0,0:0:0:0:
352,96,103691,1,8,0:0:0:0:
160,96,103774,1,0,0:0:0:0:
352,96,103858,5,8,0:0:0:0:
160,96,103913,1,0,0:0:0:0:
160,96,103969,1,0,0:0:0:0:
352,96,104024,1,8,0:0:0:0:
160,96,104108,1,0,0:0:0:0:
352,96,104191,1,8,0:0:0:0:
352,96,104247,1,8,0:0:0:0:
352,96,104302,1,8,0:0:0:0:
160,96,104358,1,0,0:0:0:0:
160,96,104441,1,0,0:0:0:0:
352,288,104524,1,12,0:0:0:0:
160,96,105191,1,0,0:0:0:0:
352,96,105274,1,8,0:0:0:0:
352,96,105358,1,8,0:0:0:0:
160,96,105441,1,0,0:0:0:0:
352,96,105524,1,8,0:0:0:0:
352,96,105608,1,8,0:0:0:0:
160,96,105691,1,0,0:0:0:0:
352,96,105774,1,8,0:0:0:0:
160,96,105858,1,0,0:0:0:0:
352,96,105941,1,8,0:0:0:0:
352,96,106024,1,8,0:0:0:0:
160,96,106108,1,0,0:0:0:0:
352,96,106191,1,8,0:0:0:0:
352,96,106274,1,8,0:0:0:0:
160,96,106358,1,0,0:0:0:0:
352,96,106441,1,8,0:0:0:0:
160,96,106524,1,0,0:0:0:0:
352,96,106608,1,8,0:0:0:0:
352,96,106691,1,8,0:0:0:0:
160,96,106774,1,0,0:0:0:0:
352,96,106858,1,8,0:0:0:0:
352,96,106941,1,8,0:0:0:0:
160,96,107024,1,0,0:0:0:0:
352,96,107108,1,8,0:0:0:0:
160,96,107191,1,4,0:0:0:0:
352,96,107524,1,8,0:0:0:0:
160,96,107608,1,0,0:0:0:0:
160,96,107774,1,0,0:0:0:0:
352,96,107858,1,8,0:0:0:0:
352,96,108191,1,8,0:0:0:0:
160,96,108247,1,0,0:0:0:0:
160,96,108302,1,0,0:0:0:0:
352,96,108358,1,8,0:0:0:0:
160,96,108441,1,0,0:0:0:0:
352,96,108524,1,8,0:0:0:0:
352,96,108580,1,8,0:0:0:0:
352,96,108636,1,8,0:0:0:0:
160,96,108691,1,0,0:0:0:0:
352,96,108774,1,8,0:0:0:0:
160,96,108858,1,0,0:0:0:0:
352,96,108913,1,8,0:0:0:0:
352,96,108969,1,8,0:0:0:0:
160,96,109024,1,0,0:0:0:0:
352,96,109108,1,8,0:0:0:0:
160,96,109191,1,0,0:0:0:0:
160,96,109247,1,0,0:0:0:0:
160,96,109302,1,0,0:0:0:0:
352,96,109358,1,8,0:0:0:0:
160,96,109441,1,0,0:0:0:0:
352,96,109524,1,8,0:0:0:0:
160,96,109580,1,0,0:0:0:0:
160,96,109636,1,0,0:0:0:0:
352,96,109691,1,8,0:0:0:0:
160,96,109774,1,0,0:0:0:0:
352,96,109858,1,8,0:0:0:0:
352,96,109913,1,8,0:0:0:0:
352,96,109969,1,8,0:0:0:0:
160,96,110024,1,0,0:0:0:0:
160,96,110108,1,0,0:0:0:0:
352,96,110191,1,8,0:0:0:0:
352,96,110247,1,8,0:0:0:0:
352,96,110302,1,8,0:0:0:0:
160,96,110358,1,0,0:0:0:0:
160,96,110413,1,0,0:0:0:0:
160,96,110469,1,0,0:0:0:0:
352,96,110524,1,8,0:0:0:0:
352,96,110858,1,8,0:0:0:0:
160,96,110913,1,0,0:0:0:0:
160,96,110969,1,0,0:0:0:0:
352,96,111024,1,8,0:0:0:0:
352,96,111108,1,8,0:0:0:0:
160,96,111191,1,0,0:0:0:0:
160,96,111247,1,0,0:0:0:0:
160,96,111302,1,0,0:0:0:0:
352,96,111358,1,8,0:0:0:0:
160,96,111441,1,0,0:0:0:0:
352,96,111524,1,8,0:0:0:0:
352,96,111580,1,8,0:0:0:0:
160,96,111636,1,0,0:0:0:0:
160,96,111691,1,0,0:0:0:0:
352,96,111774,1,8,0:0:0:0:
160,96,111858,1,0,0:0:0:0:
352,96,111913,1,8,0:0:0:0:
352,96,111969,1,8,0:0:0:0:
160,96,112024,1,0,0:0:0:0:
160,96,112108,1,0,0:0:0:0:
352,96,112191,1,8,0:0:0:0:
352,96,112247,1,8,0:0:0:0:
352,96,112302,1,8,0:0:0:0:
160,96,112358,1,0,0:0:0:0:
160,96,112441,1,0,0:0:0:0:
352,288,112524,1,12,0:0:0:0:
352,96,112858,1,8,0:0:0:0:
352,96,113024,1,0,0:0:0:0:
352,96,113108,1,0,0:0:0:0:
160,288,113191,1,8,0:0:0:0:
160,96,113524,1,0,0:0:0:0:
160,96,113580,1,0,0:0:0:0:
160,96,113636,1,0,0:0:0:0:
352,96,113691,1,8,0:0:0:0:
352,96,113774,1,8,0:0:0:0:
160,96,113858,1,0,0:0:0:0:
352,96,113913,1,8,0:0:0:0:
352,96,113969,1,8,0:0:0:0:
160,96,114024,1,0,0:0:0:0:
352,96,114108,1,8,0:0:0:0:
160,96,114191,1,0,0:0:0:0:
160,96,114247,1,0,0:0:0:0:
160,96,114302,1,0,0:0:0:0:
352,96,114358,1,8,0:0:0:0:
160,96,114441,1,0,0:0:0:0:
352,96,114524,1,8,0:0:0:0:
160,96,114580,1,0,0:0:0:0:
160,96,114636,1,0,0:0:0:0:
352,96,114691,1,8,0:0:0:0:
160,96,114774,1,0,0:0:0:0:
352,96,114858,1,8,0:0:0:0:
352,96,114913,1,8,0:0:0:0:
352,96,114969,1,8,0:0:0:0:
160,96,115024,1,0,0:0:0:0:
160,96,115108,1,8,0:0:0:0:
352,96,115191,1,0,0:0:0:0:
352,96,115247,1,0,0:0:0:0:
352,96,115302,1,0,0:0:0:0:
352,96,115358,1,8,0:0:0:0:
160,96,115441,1,8,0:0:0:0:
160,96,115524,1,0,0:0:0:0:
235,161,115580,1,0,0:0:0:0:
352,96,115636,1,0,0:0:0:0:
352,96,115691,1,8,0:0:0:0:
352,96,115747,1,8,0:0:0:0:
352,96,115802,1,8,0:0:0:0:
160,96,115858,1,0,0:0:0:0:
160,96,116024,5,0,0:0:0:0:
160,96,116191,1,0,0:0:0:0:
160,96,116274,1,0,0:0:0:0:
160,96,116358,1,0,0:0:0:0:
160,96,116441,1,0,0:0:0:0:
352,288,116524,5,12,0:0:0:0:
160,288,116774,1,4,0:0:0:0:
352,288,117024,1,12,0:0:0:0:
160,288,117274,1,4,0:0:0:0:
352,288,117524,1,12,0:0:0:0:
352,96,117858,1,8,0:0:0:0:
160,96,117913,1,0,0:0:0:0:
160,96,117969,1,0,0:0:0:0:
160,96,118024,1,0,0:0:0:0:
352,96,118191,1,8,0:0:0:0:
352,96,118524,5,8,0:0:0:0:
160,96,118608,1,0,0:0:0:0:
352,96,118691,1,8,0:0:0:0:
352,96,118774,1,8,0:0:0:0:
160,96,118858,1,0,0:0:0:0:
160,96,118941,1,0,0:0:0:0:
352,96,119024,1,8,0:0:0:0:
160,96,119108,1,0,0:0:0:0:
352,96,119191,1,8,0:0:0:0:
160,96,119274,1,0,0:0:0:0:
352,96,119358,1,8,0:0:0:0:
352,96,119441,1,8,0:0:0:0:
160,96,119524,1,0,0:0:0:0:
160,96,119608,1,0,0:0:0:0:
352,96,119691,1,8,0:0:0:0:
160,96,119774,1,0,0:0:0:0:
352,96,119858,1,8,0:0:0:0:
352,96,119913,1,8,0:0:0:0:
352,96,119969,1,8,0:0:0:0:
160,96,120024,1,0,0:0:0:0:
160,96,120080,1,0,0:0:0:0:
160,96,120136,1,0,0:0:0:0:
352,96,120191,1,8,0:0:0:0:
156,166,120274,1,8,0:0:0:0:
160,96,120358,1,0,0:0:0:0:
174,151,120441,1,0,0:0:0:0:
352,96,120524,1,8,0:0:0:0:
160,96,120580,1,0,0:0:0:0:
160,96,120636,1,0,0:0:0:0:
160,96,120691,1,0,0:0:0:0:
352,96,120858,1,8,0:0:0:0:
352,96,121191,5,8,0:0:0:0:
352,96,121274,1,8,0:0:0:0:
160,96,121358,1,0,0:0:0:0:
160,96,121441,1,0,0:0:0:0:
352,96,121524,1,8,0:0:0:0:
160,96,121608,1,0,0:0:0:0:
352,96,121691,1,8,0:0:0:0:
352,96,121774,1,8,0:0:0:0:
160,96,121858,1,0,0:0:0:0:
160,96,121941,1,0,0:0:0:0:
352,96,122024,1,8,0:0:0:0:
352,96,122108,1,8,0:0:0:0:
160,96,122191,1,0,0:0:0:0:
160,96,122274,1,0,0:0:0:0:
352,96,122358,1,8,0:0:0:0:
160,96,122441,1,0,0:0:0:0:
352,96,122524,1,8,0:0:0:0:
352,96,122580,1,8,0:0:0:0:
352,96,122636,1,8,0:0:0:0:
160,96,122691,1,0,0:0:0:0:
160,96,122747,1,0,0:0:0:0:
160,96,122802,1,0,0:0:0:0:
352,96,122858,1,8,0:0:0:0:
230,186,122941,1,0,0:0:0:0:
160,96,123024,1,8,0:0:0:0:
230,186,123108,1,0,0:0:0:0:
352,96,123191,1,8,0:0:0:0:
160,96,123247,1,0,0:0:0:0:
160,96,123302,1,0,0:0:0:0:
160,96,123358,1,0,0:0:0:0:
352,96,123524,1,8,0:0:0:0:
160,96,123858,5,8,0:0:0:0:
160,96,123941,1,8,0:0:0:0:
160,96,124024,1,0,0:0:0:0:
160,96,124108,1,0,0:0:0:0:
352,96,124191,1,8,0:0:0:0:
352,96,124274,1,0,0:0:0:0:
352,96,124358,1,8,0:0:0:0:
352,96,124441,1,8,0:0:0:0:
160,96,124524,1,0,0:0:0:0:
160,96,124608,1,8,0:0:0:0:
160,96,124691,1,0,0:0:0:0:
160,96,124774,1,0,0:0:0:0:
352,96,124858,1,8,0:0:0:0:
352,96,124941,1,8,0:0:0:0:
352,96,125024,1,0,0:0:0:0:
352,96,125108,1,8,0:0:0:0:
160,96,125191,1,0,0:0:0:0:
160,96,125247,1,0,0:0:0:0:
160,96,125302,1,0,0:0:0:0:
352,96,125358,1,8,0:0:0:0:
352,96,125413,1,8,0:0:0:0:
352,96,125469,1,8,0:0:0:0:
160,96,125524,1,0,0:0:0:0:
203,176,125608,1,8,0:0:0:0:
160,96,125691,1,0,0:0:0:0:
203,176,125774,1,0,0:0:0:0:
352,96,125858,1,8,0:0:0:0:
160,96,125913,1,0,0:0:0:0:
160,96,125969,1,0,0:0:0:0:
160,96,126024,1,0,0:0:0:0:
352,96,126191,1,8,0:0:0:0:
160,96,126524,5,0,0:0:0:0:
160,96,126608,1,0,0:0:0:0:
352,96,126691,1,8,0:0:0:0:
160,96,126774,1,0,0:0:0:0:
352,96,126858,1,8,0:0:0:0:
352,96,126941,1,8,0:0:0:0:
160,96,127024,1,0,0:0:0:0:
160,96,127108,1,0,0:0:0:0:
352,96,127191,1,8,0:0:0:0:
160,96,127274,1,0,0:0:0:0:
352,96,127358,1,8,0:0:0:0:
352,96,127441,1,8,0:0:0:0:
160,96,127524,1,0,0:0:0:0:
160,96,127608,1,0,0:0:0:0:
352,96,127691,1,8,0:0:0:0:
160,96,127774,1,0,0:0:0:0:
352,96,127858,1,8,0:0:0:0:
352,96,127913,1,8,0:0:0:0:
352,96,127969,1,8,0:0:0:0:
160,96,128024,1,0,0:0:0:0:
160,96,128080,1,0,0:0:0:0:
160,96,128136,1,0,0:0:0:0:
352,96,128191,1,8,0:0:0:0:
175,176,128274,1,8,0:0:0:0:
160,96,128358,1,0,0:0:0:0:
175,176,128441,1,0,0:0:0:0:
352,96,128524,5,8,0:0:0:0:
160,96,128580,1,0,0:0:0:0:
160,96,128636,1,0,0:0:0:0:
160,96,128691,1,0,0:0:0:0:
352,96,128774,1,8,0:0:0:0:
160,96,128858,1,0,0:0:0:0:
160,96,128913,1,0,0:0:0:0:
160,96,128969,1,0,0:0:0:0:
352,96,129024,1,8,0:0:0:0:
352,96,129080,1,8,0:0:0:0:
352,96,129136,1,8,0:0:0:0:
160,96,129191,1,0,0:0:0:0:
352,96,129274,1,8,0:0:0:0:
352,96,129358,1,8,0:0:0:0:
160,96,129441,1,0,0:0:0:0:
352,96,129524,1,8,0:0:0:0:
352,96,129580,1,8,0:0:0:0:
352,96,129636,1,8,0:0:0:0:
160,96,129691,1,0,0:0:0:0:
160,96,129747,1,0,0:0:0:0:
160,96,129802,1,0,0:0:0:0:
352,288,129858,5,12,0:0:0:0:
352,288,130108,1,12,0:0:0:0:
352,288,130358,1,12,0:0:0:0:
352,288,130608,1,12,0:0:0:0:
352,288,130858,1,12,0:0:0:0:
160,96,131191,5,0,0:0:0:0:
160,96,131247,1,0,0:0:0:0:
160,96,131302,1,0,0:0:0:0:
352,96,131358,1,8,0:0:0:0:
160,96,131441,1,0,0:0:0:0:
352,96,131524,1,8,0:0:0:0:
352,96,131580,1,8,0:0:0:0:
352,96,131636,1,8,0:0:0:0:
160,96,131691,1,0,0:0:0:0:
160,96,131747,1,0,0:0:0:0:
160,96,131802,1,0,0:0:0:0:
352,96,131858,1,8,0:0:0:0:
160,96,131941,1,0,0:0:0:0:
352,96,132024,1,8,0:0:0:0:
160,96,132108,1,8,0:0:0:0:
352,96,132191,1,0,0:0:0:0:
352,96,132247,1,0,0:0:0:0:
160,96,132302,1,0,0:0:0:0:
160,96,132358,1,8,0:0:0:0:
352,96,132413,1,8,0:0:0:0:
160,96,132469,1,8,0:0:0:0:
352,288,132524,5,4,0:0:0:0:
352,288,132774,1,4,0:0:0:0:
352,288,133024,1,4,0:0:0:0:
352,96,133358,5,8,0:0:0:0:
160,96,133524,1,0,0:0:0:0:
352,288,133858,5,12,0:0:0:0:
352,288,134108,1,12,0:0:0:0:
352,288,134358,1,12,0:0:0:0:
160,288,134524,1,4,0:0:0:0:
352,288,134774,1,12,0:0:0:0:
352,288,135024,1,12,0:0:0:0:
160,288,135191,1,4,0:0:0:0:
352,288,135441,1,12,0:0:0:0:
352,288,135691,1,12,0:0:0:0:
160,288,135858,1,4,0:0:0:0:
352,288,136108,1,12,0:0:0:0:
160,288,136358,1,4,0:0:0:0:
352,96,136524,5,8,0:0:0:0:
352,96,136608,1,8,0:0:0:0:
160,96,136691,1,0,0:0:0:0:
160,96,136774,1,0,0:0:0:0:
352,96,136858,1,8,0:0:0:0:
352,96,136941,1,8,0:0:0:0:
160,96,137024,1,0,0:0:0:0:
160,96,137108,1,0,0:0:0:0:
352,96,137191,1,8,0:0:0:0:
160,96,137274,1,0,0:0:0:0:
352,96,137358,1,8,0:0:0:0:
352,96,137441,1,8,0:0:0:0:
160,96,137524,1,0,0:0:0:0:
160,96,137608,1,0,0:0:0:0:
352,96,137691,1,8,0:0:0:0:
352,96,137774,1,8,0:0:0:0:
160,96,137858,1,0,0:0:0:0:
256,192,138024,12,0,138524,0:0:0:0:
352,96,139191,5,12,0:0:0:0:
352,96,139358,1,8,0:0:0:0:
160,96,139441,1,0,0:0:0:0:
352,96,139524,1,8,0:0:0:0:
160,96,139691,1,0,0:0:0:0:
352,96,139858,1,8,0:0:0:0:
160,96,139941,1,0,0:0:0:0:
160,96,140108,1,0,0:0:0:0:
352,96,140191,1,8,0:0:0:0:
352,96,140274,1,8,0:0:0:0:
160,96,140358,1,0,0:0:0:0:
352,96,140441,1,8,0:0:0:0:
160,96,140524,1,0,0:0:0:0:
160,96,140691,1,0,0:0:0:0:
160,96,140774,1,0,0:0:0:0:
352,96,140858,1,8,0:0:0:0:
160,96,141024,1,0,0:0:0:0:
352,96,141191,1,8,0:0:0:0:
160,96,141274,1,0,0:0:0:0:
160,96,141441,1,0,0:0:0:0:
352,96,141524,1,8,0:0:0:0:
352,96,141608,1,8,0:0:0:0:
160,96,141691,1,0,0:0:0:0:
160,96,141774,1,0,0:0:0:0:
352,96,141858,1,8,0:0:0:0:
160,96,142024,1,0,0:0:0:0:
160,96,142108,1,0,0:0:0:0:
352,96,142191,1,8,0:0:0:0:
160,96,142358,1,0,0:0:0:0:
352,96,142524,1,8,0:0:0:0:
160,96,142608,1,0,0:0:0:0:
160,96,142774,1,0,0:0:0:0:
352,96,142858,1,8,0:0:0:0:
160,96,142941,1,0,0:0:0:0:
352,96,143024,1,8,0:0:0:0:
352,96,143108,1,8,0:0:0:0:
160,96,143191,1,0,0:0:0:0:
160,96,143358,1,0,0:0:0:0:
352,96,143441,1,8,0:0:0:0:
160,96,143524,1,0,0:0:0:0:
352,96,143691,1,8,0:0:0:0:
352,96,143858,1,8,0:0:0:0:
160,96,143941,1,0,0:0:0:0:
160,96,144108,1,0,0:0:0:0:
352,96,144191,1,8,0:0:0:0:
160,96,144524,1,0,0:0:0:0:
352,96,144691,1,8,0:0:0:0:
352,96,144774,1,8,0:0:0:0:
160,96,144858,1,0,0:0:0:0:
352,96,145024,1,8,0:0:0:0:
352,96,145191,1,8,0:0:0:0:
160,96,145274,1,0,0:0:0:0:
160,96,145441,1,0,0:0:0:0:
352,96,145524,1,8,0:0:0:0:
160,96,145608,1,0,0:0:0:0:
352,96,145691,1,8,0:0:0:0:
352,96,145774,1,8,0:0:0:0:
160,96,145858,1,0,0:0:0:0:
352,96,146024,1,8,0:0:0:0:
160,96,146108,1,0,0:0:0:0:
160,96,146191,1,0,0:0:0:0:
352,96,146358,1,8,0:0:0:0:
352,96,146524,1,8,0:0:0:0:
160,96,146608,1,0,0:0:0:0:
160,96,146774,1,0,0:0:0:0:
352,96,146858,1,8,0:0:0:0:
352,96,146941,1,8,0:0:0:0:
160,96,147024,1,0,0:0:0:0:
160,96,147108,1,0,0:0:0:0:
352,96,147191,1,8,0:0:0:0:
160,96,147358,1,0,0:0:0:0:
352,96,147441,1,8,0:0:0:0:
160,96,147524,1,0,0:0:0:0:
352,96,147691,1,8,0:0:0:0:
352,96,147858,1,8,0:0:0:0:
160,96,147941,1,0,0:0:0:0:
160,96,148108,1,0,0:0:0:0:
352,96,148191,1,8,0:0:0:0:
160,96,148274,1,0,0:0:0:0:
352,96,148358,1,8,0:0:0:0:
352,96,148441,1,8,0:0:0:0:
160,96,148524,1,0,0:0:0:0:
352,96,148691,1,8,0:0:0:0:
352,96,148774,1,8,0:0:0:0:
160,96,148858,1,0,0:0:0:0:
160,96,149024,1,0,0:0:0:0:
352,96,149191,1,8,0:0:0:0:
160,96,149274,1,0,0:0:0:0:
160,96,149441,1,0,0:0:0:0:
352,96,149524,1,8,0:0:0:0:
352,96,149858,1,8,0:0:0:0:
352,96,149913,1,8,0:0:0:0:
352,96,149969,1,8,0:0:0:0:
160,96,150024,1,0,0:0:0:0:
160,96,150108,1,0,0:0:0:0:
352,96,150191,1,8,0:0:0:0:
352,96,150358,1,8,0:0:0:0:
160,96,150441,1,0,0:0:0:0:
352,96,150524,1,8,0:0:0:0:
160,96,150691,1,0,0:0:0:0:
352,96,150858,1,8,0:0:0:0:
352,96,150941,1,8,0:0:0:0:
160,96,151024,1,0,0:0:0:0:
160,96,151108,1,0,0:0:0:0:
352,96,151191,1,8,0:0:0:0:
160,96,151358,1,0,0:0:0:0:
160,96,151441,1,0,0:0:0:0:
352,96,151524,1,8,0:0:0:0:
160,96,151691,1,0,0:0:0:0:
352,96,151858,1,8,0:0:0:0:
160,96,151941,1,0,0:0:0:0:
160,96,152108,1,0,0:0:0:0:
352,96,152191,1,8,0:0:0:0:
160,96,152274,1,0,0:0:0:0:
352,96,152358,1,8,0:0:0:0:
352,96,152441,1,8,0:0:0:0:
160,96,152524,1,0,0:0:0:0:
352,96,152691,1,8,0:0:0:0:
160,96,152774,1,0,0:0:0:0:
352,96,152858,1,8,0:0:0:0:
160,96,153024,1,0,0:0:0:0:
352,96,153191,1,8,0:0:0:0:
160,96,153274,1,0,0:0:0:0:
160,96,153441,1,0,0:0:0:0:
352,96,153524,1,8,0:0:0:0:
352,96,153608,1,8,0:0:0:0:
160,96,153691,1,0,0:0:0:0:
160,96,153774,1,0,0:0:0:0:
352,96,153858,1,8,0:0:0:0:
352,96,154024,1,8,0:0:0:0:
160,96,154108,1,0,0:0:0:0:
160,96,154274,1,0,0:0:0:0:
352,96,154358,1,8,0:0:0:0:
160,96,154524,1,0,0:0:0:0:
352,96,154608,1,8,0:0:0:0:
160,96,154774,1,0,0:0:0:0:
352,96,154858,1,8,0:0:0:0:
160,96,155191,1,0,0:0:0:0:
352,96,155358,1,8,0:0:0:0:
352,96,155441,1,8,0:0:0:0:
160,96,155524,1,0,0:0:0:0:
352,96,155691,1,8,0:0:0:0:
352,96,155858,1,8,0:0:0:0:
160,96,155941,1,0,0:0:0:0:
160,96,156108,1,0,0:0:0:0:
352,96,156191,1,8,0:0:0:0:
160,96,156274,1,0,0:0:0:0:
352,96,156358,1,8,0:0:0:0:
352,96,156441,1,8,0:0:0:0:
160,96,156524,1,0,0:0:0:0:
160,96,156691,1,0,0:0:0:0:
352,96,156774,1,8,0:0:0:0:
160,96,156858,1,0,0:0:0:0:
160,96,157024,1,0,0:0:0:0:
352,96,157191,1,8,0:0:0:0:
160,96,157274,1,0,0:0:0:0:
160,96,157441,1,0,0:0:0:0:
352,96,157524,1,8,0:0:0:0:
352,96,157608,1,8,0:0:0:0:
160,96,157691,1,0,0:0:0:0:
160,96,157774,1,0,0:0:0:0:
352,96,157858,1,8,0:0:0:0:
352,96,158024,1,8,0:0:0:0:
352,96,158108,1,8,0:0:0:0:
160,96,158191,1,0,0:0:0:0:
160,96,158358,1,0,0:0:0:0:
352,96,158524,1,8,0:0:0:0:
160,96,158608,1,0,0:0:0:0:
160,96,158774,1,0,0:0:0:0:
352,96,158858,1,8,0:0:0:0:
160,96,158941,1,0,0:0:0:0:
352,96,159024,1,8,0:0:0:0:
352,96,159108,1,8,0:0:0:0:
160,96,159191,1,0,0:0:0:0:
160,96,159358,1,0,0:0:0:0:
352,96,159441,1,8,0:0:0:0:
160,96,159524,1,0,0:0:0:0:
160,96,159691,1,0,0:0:0:0:
352,96,159858,1,8,0:0:0:0:
160,96,159941,1,0,0:0:0:0:
160,96,160108,1,0,0:0:0:0:
352,96,160191,1,8,0:0:0:0:
352,96,160524,1,8,0:0:0:0:
160,96,160580,1,0,0:0:0:0:
160,96,160636,1,0,0:0:0:0:
352,96,160691,1,8,0:0:0:0:
160,96,160774,1,0,0:0:0:0:
352,96,160858,1,8,0:0:0:0:
160,96,161024,1,0,0:0:0:0:
352,96,161191,1,8,0:0:0:0:
160,96,161274,1,0,0:0:0:0:
160,96,161441,1,0,0:0:0:0:
352,96,161524,1,8,0:0:0:0:
160,96,161608,1,0,0:0:0:0:
352,96,161691,1,8,0:0:0:0:
352,96,161774,1,8,0:0:0:0:
160,96,161858,1,0,0:0:0:0:
160,96,162024,1,0,0:0:0:0:
160,96,162108,1,0,0:0:0:0:
352,96,162191,1,8,0:0:0:0:
160,96,162358,1,0,0:0:0:0:
352,96,162524,1,8,0:0:0:0:
160,96,162608,1,0,0:0:0:0:
160,96,162774,1,0,0:0:0:0:
352,96,162858,1,8,0:0:0:0:
160,96,162941,1,0,0:0:0:0:
352,96,163024,1,8,0:0:0:0:
352,96,163108,1,8,0:0:0:0:
160,96,163191,1,0,0:0:0:0:
352,96,163358,1,8,0:0:0:0:
160,96,163441,1,0,0:0:0:0:
352,96,163524,1,8,0:0:0:0:
160,96,163691,1,0,0:0:0:0:
352,96,163858,1,8,0:0:0:0:
160,96,163941,1,0,0:0:0:0:
160,96,164108,1,0,0:0:0:0:
352,96,164191,1,8,0:0:0:0:
352,96,164274,1,8,0:0:0:0:
160,96,164358,1,0,0:0:0:0:
160,96,164441,1,0,0:0:0:0:
352,96,164524,1,8,0:0:0:0:
160,96,164691,1,0,0:0:0:0:
160,96,164774,1,0,0:0:0:0:
352,96,164858,1,8,0:0:0:0:
160,96,165024,1,0,0:0:0:0:
352,96,165191,1,8,0:0:0:0:
160,96,165274,1,0,0:0:0:0:
160,96,165441,1,0,0:0:0:0:
352,96,165524,1,8,0:0:0:0:
160,96,165858,1,0,0:0:0:0:
352,96,166024,1,8,0:0:0:0:
352,96,166108,1,8,0:0:0:0:
160,96,166191,1,0,0:0:0:0:
160,96,166358,1,0,0:0:0:0:
352,96,166524,1,8,0:0:0:0:
160,96,166608,1,0,0:0:0:0:
160,96,166774,1,0,0:0:0:0:
352,96,166858,1,8,0:0:0:0:
160,96,166941,1,0,0:0:0:0:
352,96,167024,1,8,0:0:0:0:
352,96,167108,1,8,0:0:0:0:
160,96,167191,1,0,0:0:0:0:
160,96,167358,1,0,0:0:0:0:
352,96,167441,1,8,0:0:0:0:
160,96,167524,1,0,0:0:0:0:
160,96,167691,1,0,0:0:0:0:
352,96,167858,1,8,0:0:0:0:
160,96,167941,1,0,0:0:0:0:
160,96,168108,1,0,0:0:0:0:
352,96,168191,1,8,0:0:0:0:
352,96,168274,1,8,0:0:0:0:
160,96,168358,1,0,0:0:0:0:
160,96,168441,1,0,0:0:0:0:
352,96,168524,1,8,0:0:0:0:
352,96,168691,1,8,0:0:0:0:
352,96,168774,1,8,0:0:0:0:
160,96,168858,1,0,0:0:0:0:
160,96,169024,1,0,0:0:0:0:
352,96,169191,1,8,0:0:0:0:
160,96,169274,1,0,0:0:0:0:
160,96,169441,1,0,0:0:0:0:
352,96,169524,1,8,0:0:0:0:
160,96,169608,1,0,0:0:0:0:
352,96,169691,1,8,0:0:0:0:
352,96,169774,1,8,0:0:0:0:
160,96,169858,1,0,0:0:0:0:
160,96,170024,1,0,0:0:0:0:
352,96,170108,1,8,0:0:0:0:
160,96,170191,1,0,0:0:0:0:
160,96,170358,1,0,0:0:0:0:
352,96,170524,1,8,0:0:0:0:
160,96,170608,1,0,0:0:0:0:
160,96,170774,1,0,0:0:0:0:
352,96,170858,1,8,0:0:0:0:
352,96,171191,1,8,0:0:0:0:
352,96,171247,1,8,0:0:0:0:
352,96,171302,1,8,0:0:0:0:
160,96,171358,1,0,0:0:0:0:
352,96,171524,1,8,0:0:0:0:
160,96,171691,1,0,0:0:0:0:
160,96,171774,1,0,0:0:0:0:
352,96,171858,1,8,0:0:0:0:
160,96,172024,1,0,0:0:0:0:
352,96,172191,1,8,0:0:0:0:
352,96,172274,1,8,0:0:0:0:
160,96,172358,1,0,0:0:0:0:
160,96,172441,1,0,0:0:0:0:
352,96,172524,1,8,0:0:0:0:
352,96,172691,1,8,0:0:0:0:
160,96,172774,1,0,0:0:0:0:
352,96,172858,1,8,0:0:0:0:
160,96,173024,1,0,0:0:0:0:
352,96,173191,1,8,0:0:0:0:
160,96,173274,1,0,0:0:0:0:
160,96,173441,1,0,0:0:0:0:
352,96,173524,1,8,0:0:0:0:
160,96,173608,1,0,0:0:0:0:
352,96,173691,1,8,0:0:0:0:
352,96,173774,1,8,0:0:0:0:
160,96,173858,1,0,0:0:0:0:
160,96,174024,1,0,0:0:0:0:
160,96,174108,1,0,0:0:0:0:
352,96,174191,1,8,0:0:0:0:
160,96,174358,1,0,0:0:0:0:
352,96,174524,1,8,0:0:0:0:
160,96,174608,1,0,0:0:0:0:
160,96,174774,1,0,0:0:0:0:
352,96,174858,1,8,0:0:0:0:
352,96,174941,1,8,0:0:0:0:
160,96,175024,1,0,0:0:0:0:
160,96,175108,1,0,0:0:0:0:
352,96,175191,1,8,0:0:0:0:
352,96,175358,1,8,0:0:0:0:
160,96,175441,1,0,0:0:0:0:
160,96,175608,1,0,0:0:0:0:
352,96,175691,1,8,0:0:0:0:
160,96,175858,1,0,0:0:0:0:
352,96,175941,1,8,0:0:0:0:
160,96,176108,1,0,0:0:0:0:
352,96,176191,1,8,0:0:0:0:
352,96,176524,5,8,0:0:0:0:
160,96,176608,1,0,0:0:0:0:
352,96,176691,1,8,0:0:0:0:
352,96,176774,1,8,0:0:0:0:
160,96,176858,1,0,0:0:0:0:
160,96,176941,1,0,0:0:0:0:
352,96,177024,1,8,0:0:0:0:
160,96,177108,1,0,0:0:0:0:
352,96,177191,1,8,0:0:0:0:
352,96,177274,1,8,0:0:0:0:
160,96,177358,1,0,0:0:0:0:
352,96,177441,1,8,0:0:0:0:
160,96,177524,1,0,0:0:0:0:
352,96,177580,1,8,0:0:0:0:
352,96,177636,1,8,0:0:0:0:
160,96,177691,1,0,0:0:0:0:
352,96,177747,1,8,0:0:0:0:
352,96,177802,1,8,0:0:0:0:
160,96,177858,1,0,0:0:0:0:
352,96,177941,1,8,0:0:0:0:
160,96,178024,1,0,0:0:0:0:
352,96,178108,1,8,0:0:0:0:
352,96,178191,1,8,0:0:0:0:
160,96,178274,1,0,0:0:0:0:
160,96,178358,1,0,0:0:0:0:
352,96,178441,1,8,0:0:0:0:
352,96,178524,1,8,0:0:0:0:
160,96,178608,1,0,0:0:0:0:
352,96,178691,1,8,0:0:0:0:
160,96,178774,1,0,0:0:0:0:
352,96,178858,1,8,0:0:0:0:
352,96,178913,1,8,0:0:0:0:
352,96,178969,1,8,0:0:0:0:
160,96,179024,1,0,0:0:0:0:
160,96,179080,1,0,0:0:0:0:
160,96,179136,1,0,0:0:0:0:
352,96,179191,1,8,0:0:0:0:
160,96,179274,1,0,0:0:0:0:
352,96,179358,1,8,0:0:0:0:
352,96,179441,1,8,0:0:0:0:
160,96,179524,1,0,0:0:0:0:
160,96,179608,1,0,0:0:0:0:
352,96,179691,1,8,0:0:0:0:
160,96,179774,1,0,0:0:0:0:
352,96,179858,1,8,0:0:0:0:
352,96,179941,1,8,0:0:0:0:
160,96,180024,1,0,0:0:0:0:
352,96,180108,1,8,0:0:0:0:
160,96,180191,1,0,0:0:0:0:
160,96,180247,1,0,0:0:0:0:
160,96,180302,1,0,0:0:0:0:
352,96,180358,1,8,0:0:0:0:
352,96,180413,1,8,0:0:0:0:
352,96,180469,1,8,0:0:0:0:
160,288,180524,5,4,0:0:0:0:
160,288,180774,1,4,0:0:0:0:
160,288,181024,1,4,0:0:0:0:
160,288,181274,1,4,0:0:0:0:
352,288,181524,1,12,0:0:0:0:
352,96,181858,5,8,0:0:0:0:
274,137,182024,1,0,0:0:0:0:
352,96,182191,1,8,0:0:0:0:
352,96,182358,1,8,0:0:0:0:
160,96,182441,1,0,0:0:0:0:
274,137,182524,1,0,0:0:0:0:
352,96,182691,1,8,0:0:0:0:
274,137,182858,1,0,0:0:0:0:
352,96,183024,1,8,0:0:0:0:
274,137,183191,1,0,0:0:0:0:
352,96,183358,1,8,0:0:0:0:
160,96,183524,1,8,0:0:0:0:
352,96,183691,1,8,0:0:0:0:
160,96,183774,1,0,0:0:0:0:
274,137,183858,1,8,0:0:0:0:
352,96,184024,1,8,0:0:0:0:
160,96,184191,1,0,0:0:0:0:
352,96,184358,1,8,0:0:0:0:
245,126,184524,1,0,0:0:0:0:
352,96,184691,1,8,0:0:0:0:
352,96,184858,1,8,0:0:0:0:
352,96,185024,1,8,0:0:0:0:
160,96,185108,1,0,0:0:0:0:
245,126,185191,1,0,0:0:0:0:
352,96,185358,1,8,0:0:0:0:
263,96,185524,1,0,0:0:0:0:
352,96,185691,1,8,0:0:0:0:
352,96,185858,1,8,0:0:0:0:
160,96,186024,1,0,0:0:0:0:
352,96,186191,1,8,0:0:0:0:
160,96,186358,1,0,0:0:0:0:
263,96,186524,1,0,0:0:0:0:
160,96,186691,1,8,0:0:0:0:
352,96,186858,1,8,0:0:0:0:
160,96,187024,1,0,0:0:0:0:
231,118,187191,1,0,0:0:0:0:
352,96,187358,1,8,0:0:0:0:
352,96,187524,1,8,0:0:0:0:
352,96,187691,1,8,0:0:0:0:
160,96,187774,1,0,0:0:0:0:
231,118,187858,1,8,0:0:0:0:
352,96,188024,1,8,0:0:0:0:
231,118,188191,1,0,0:0:0:0:
352,96,188358,1,8,0:0:0:0:
231,118,188524,1,0,0:0:0:0:
352,96,188691,1,8,0:0:0:0:
160,96,188858,1,0,0:0:0:0:
352,96,189024,1,8,0:0:0:0:
160,96,189108,1,0,0:0:0:0:
231,118,189191,1,0,0:0:0:0:
352,96,189358,1,8,0:0:0:0:
352,96,189524,1,8,0:0:0:0:
160,96,189691,1,0,0:0:0:0:
352,96,189858,1,8,0:0:0:0:
222,54,190024,1,0,0:0:0:0:
352,96,190191,1,8,0:0:0:0:
352,96,190358,1,8,0:0:0:0:
160,96,190441,1,0,0:0:0:0:
222,54,190524,1,8,0:0:0:0:
352,96,190691,1,8,0:0:0:0:
224,110,190858,1,0,0:0:0:0:
352,96,191024,1,8,0:0:0:0:
352,96,191191,1,8,0:0:0:0:
160,96,191358,1,0,0:0:0:0:
352,96,191524,1,8,0:0:0:0:
160,96,191691,1,0,0:0:0:0:
160,96,191774,1,0,0:0:0:0:
352,96,191858,1,8,0:0:0:0:
224,110,191941,1,0,0:0:0:0:
352,96,192024,1,8,0:0:0:0:
160,96,192191,1,0,0:0:0:0:
224,110,192358,1,0,0:0:0:0:
224,110,192441,1,0,0:0:0:0:
352,96,192524,1,8,0:0:0:0:
224,110,192691,1,0,0:0:0:0:
352,96,192858,1,8,0:0:0:0:
352,96,193024,1,8,0:0:0:0:
160,96,193108,1,0,0:0:0:0:
224,110,193191,1,8,0:0:0:0:
352,96,193358,1,8,0:0:0:0:
224,110,193524,1,0,0:0:0:0:
352,96,193691,1,8,0:0:0:0:
224,110,193858,1,0,0:0:0:0:
352,96,194024,1,8,0:0:0:0:
160,96,194191,1,0,0:0:0:0:
352,96,194358,1,8,0:0:0:0:
160,96,194441,1,0,0:0:0:0:
224,110,194524,1,0,0:0:0:0:
352,96,194691,1,8,0:0:0:0:
160,96,194858,1,0,0:0:0:0:
352,96,195024,1,8,0:0:0:0:
224,110,195191,1,0,0:0:0:0:
352,96,195358,1,8,0:0:0:0:
352,96,195524,1,8,0:0:0:0:
352,96,195691,1,8,0:0:0:0:
160,96,195774,1,0,0:0:0:0:
224,110,195858,1,8,0:0:0:0:
352,96,196024,1,8,0:0:0:0:
249,138,196191,1,0,0:0:0:0:
352,96,196358,1,8,0:0:0:0:
352,96,196524,1,8,0:0:0:0:
160,96,196691,1,0,0:0:0:0:
352,96,196858,1,8,0:0:0:0:
160,96,197024,1,0,0:0:0:0:
236,111,197191,1,0,0:0:0:0:
160,96,197358,1,8,0:0:0:0:
352,96,197524,1,8,0:0:0:0:
160,96,197691,1,0,0:0:0:0:
252,127,197858,1,0,0:0:0:0:
352,96,198024,1,8,0:0:0:0:
352,96,198191,1,8,0:0:0:0:
352,96,198358,1,8,0:0:0:0:
160,96,198441,1,0,0:0:0:0:
252,127,198524,1,0,0:0:0:0:
352,96,198691,1,8,0:0:0:0:
252,127,198858,1,0,0:0:0:0:
352,96,199024,1,8,0:0:0:0:
252,127,199191,1,0,0:0:0:0:
352,96,199358,1,8,0:0:0:0:
160,96,199524,1,8,0:0:0:0:
352,96,199691,1,8,0:0:0:0:
160,96,199774,1,0,0:0:0:0:
252,127,199858,1,8,0:0:0:0:
352,96,200024,1,8,0:0:0:0:
160,96,200191,1,0,0:0:0:0:
352,96,200358,1,8,0:0:0:0:
352,96,200524,1,8,0:0:0:0:
221,119,200691,1,0,0:0:0:0:
352,96,200858,1,8,0:0:0:0:
352,96,201024,1,8,0:0:0:0:
160,96,201108,1,0,0:0:0:0:
221,119,201191,1,0,0:0:0:0:
160,96,201358,1,8,0:0:0:0:
352,96,201524,1,0,0:0:0:0:
160,96,201691,1,8,0:0:0:0:
352,96,201858,1,0,0:0:0:0:
160,96,202524,1,0,0:0:0:0:
213,153,202691,1,0,0:0:0:0:
352,96,202858,1,8,0:0:0:0:
160,96,203191,1,0,0:0:0:0:
352,96,203858,1,8,0:0:0:0:
160,96,204524,1,0,0:0:0:0:
352,96,205191,1,8,0:0:0:0:
160,96,205858,1,0,0:0:0:0:
352,96,206524,1,8,0:0:0:0:
160,96,207191,1,0,0:0:0:0:
352,96,207858,1,8,0:0:0:0:
160,96,208524,1,0,0:0:0:0:
352,96,209191,1,8,0:0:0:0:
160,96,209858,1,0,0:0:0:0:
352,96,210524,1,8,0:0:0:0:
160,96,211191,1,0,0:0:0:0:
352,96,211858,1,8,0:0:0:0:
160,96,212524,1,0,0:0:0:0:
352,96,213191,1,8,0:0:0:0:
160,96,213858,1,0,0:0:0:0:
160,96,214024,1,0,0:0:0:0:
352,96,214191,1,8,0:0:0:0:
160,96,214691,1,0,0:0:0:0:
352,96,214858,1,8,0:0:0:0:
160,96,215191,1,0,0:0:0:0:
160,96,215358,1,0,0:0:0:0:
352,96,215524,1,8,0:0:0:0:
160,96,216024,1,0,0:0:0:0:
352,96,216191,1,8,0:0:0:0:
352,96,216524,1,8,0:0:0:0:
160,96,216691,1,0,0:0:0:0:
352,96,216858,1,8,0:0:0:0:
160,96,217358,1,0,0:0:0:0:
352,96,217524,1,8,0:0:0:0:
160,96,217858,1,0,0:0:0:0:
160,96,218024,1,0,0:0:0:0:
352,96,218191,1,8,0:0:0:0:
160,96,218691,1,0,0:0:0:0:
352,96,218858,1,8,0:0:0:0:
160,96,219191,1,0,0:0:0:0:
160,96,219358,1,0,0:0:0:0:
352,96,219524,1,8,0:0:0:0:
160,96,220024,1,0,0:0:0:0:
352,96,220191,1,8,0:0:0:0:
352,96,220524,1,8,0:0:0:0:
160,96,220691,1,0,0:0:0:0:
352,96,220858,1,8,0:0:0:0:
160,96,221358,1,0,0:0:0:0:
352,96,221524,1,8,0:0:0:0:
160,96,221858,1,0,0:0:0:0:
160,96,222024,1,0,0:0:0:0:
352,96,222191,1,8,0:0:0:0:
160,96,222691,1,0,0:0:0:0:
352,96,222858,1,8,0:0:0:0:
352,96,223191,1,8,0:0:0:0:
352,96,223358,1,8,0:0:0:0:
160,96,223524,1,0,0:0:0:0:
160,96,223691,1,0,0:0:0:0:
352,96,224024,1,8,0:0:0:0:
352,96,224358,1,8,0:0:0:0:
160,288,224524,5,4,0:0:0:0:
352,96,224858,1,8,0:0:0:0:
352,96,224941,1,8,0:0:0:0:
260,177,225024,1,0,0:0:0:0:
352,96,225108,1,8,0:0:0:0:
352,96,225358,1,8,0:0:0:0:
352,96,225524,1,8,0:0:0:0:
160,96,225691,1,0,0:0:0:0:
352,288,225858,1,12,0:0:0:0:
160,96,226108,1,0,0:0:0:0:
352,96,226358,1,8,0:0:0:0:
160,288,226524,1,4,0:0:0:0:
352,96,226858,1,8,0:0:0:0:
160,96,227024,1,0,0:0:0:0:
160,288,227191,1,4,0:0:0:0:
352,96,227524,1,8,0:0:0:0:
352,96,227608,1,8,0:0:0:0:
344,146,227691,1,0,0:0:0:0:
352,96,227774,1,8,0:0:0:0:
352,288,228024,1,12,0:0:0:0:
160,96,228191,1,0,0:0:0:0:
352,96,228358,1,8,0:0:0:0:
160,288,228524,1,4,0:0:0:0:
160,96,228774,1,0,0:0:0:0:
160,96,229024,1,0,0:0:0:0:
352,288,229191,1,12,0:0:0:0:
352,96,229524,1,8,0:0:0:0:
160,96,229691,1,0,0:0:0:0:
160,288,229858,1,4,0:0:0:0:
352,96,230191,1,8,0:0:0:0:
352,96,230274,1,8,0:0:0:0:
341,146,230358,1,0,0:0:0:0:
352,96,230441,1,8,0:0:0:0:
352,288,230691,1,12,0:0:0:0:
160,96,230858,1,0,0:0:0:0:
160,96,231024,1,0,0:0:0:0:
352,288,231191,1,12,0:0:0:0:
160,96,231441,1,0,0:0:0:0:
160,96,231691,1,0,0:0:0:0:
352,288,231858,1,12,0:0:0:0:
352,96,232191,1,8,0:0:0:0:
352,96,232358,1,8,0:0:0:0:
160,288,232524,1,4,0:0:0:0:
352,96,232858,1,8,0:0:0:0:
352,96,232941,1,8,0:0:0:0:
245,154,233024,1,0,0:0:0:0:
352,96,233108,1,8,0:0:0:0:
352,288,233358,1,12,0:0:0:0:
160,96,233524,1,0,0:0:0:0:
352,96,233691,1,8,0:0:0:0:
160,288,233858,1,4,0:0:0:0:
352,96,234108,1,8,0:0:0:0:
160,96,234358,1,8,0:0:0:0:
160,288,234524,1,4,0:0:0:0:
160,96,234858,1,0,0:0:0:0:
352,288,235191,5,12,0:0:0:0:
352,96,235524,1,8,0:0:0:0:
225,123,235608,1,0,0:0:0:0:
225,123,235774,1,0,0:0:0:0:
160,96,235858,1,8,0:0:0:0:
215,126,236024,1,0,0:0:0:0:
160,96,236191,1,0,0:0:0:0:
215,125,236358,1,0,0:0:0:0:
352,96,236524,1,8,0:0:0:0:
160,96,236858,1,8,0:0:0:0:
215,126,236941,1,0,0:0:0:0:
215,125,237108,1,0,0:0:0:0:
352,96,237191,1,8,0:0:0:0:
214,101,237358,1,0,0:0:0:0:
352,96,237524,1,8,0:0:0:0:
214,101,237691,1,0,0:0:0:0:
160,96,237858,1,0,0:0:0:0:
160,96,238191,1,8,0:0:0:0:
214,101,238274,1,0,0:0:0:0:
214,101,238441,1,0,0:0:0:0:
352,96,238524,1,8,0:0:0:0:
190,115,238691,1,0,0:0:0:0:
160,96,238858,1,0,0:0:0:0:
190,115,239024,1,0,0:0:0:0:
352,96,239191,1,8,0:0:0:0:
352,96,239524,1,8,0:0:0:0:
190,115,239608,1,0,0:0:0:0:
190,115,239774,1,0,0:0:0:0:
160,96,239858,1,8,0:0:0:0:
244,104,240024,1,0,0:0:0:0:
160,96,240191,1,0,0:0:0:0:
244,104,240358,1,0,0:0:0:0:
352,96,240524,5,8,0:0:0:0:
160,96,240691,1,0,0:0:0:0:
244,104,240774,1,8,0:0:0:0:
160,96,240941,1,0,0:0:0:0:
160,96,241024,1,0,0:0:0:0:
352,96,241191,1,8,0:0:0:0:
160,96,241358,1,8,0:0:0:0:
244,104,241441,1,0,0:0:0:0:
160,96,241608,1,0,0:0:0:0:
160,96,241691,1,0,0:0:0:0:
352,96,241858,1,8,0:0:0:0:
160,96,242024,5,0,0:0:0:0:
244,104,242108,1,8,0:0:0:0:
160,96,242274,1,0,0:0:0:0:
160,96,242358,1,0,0:0:0:0:
352,96,242524,1,8,0:0:0:0:
160,96,242691,1,8,0:0:0:0:
244,104,242774,1,0,0:0:0:0:
160,96,242941,1,0,0:0:0:0:
160,96,243024,1,0,0:0:0:0:
352,96,243191,5,8,0:0:0:0:
160,96,243274,1,0,0:0:0:0:
352,96,243358,1,8,0:0:0:0:
352,96,243441,1,8,0:0:0:0:
160,96,243524,1,0,0:0:0:0:
160,96,243608,1,0,0:0:0:0:
352,96,243691,1,8,0:0:0:0:
160,96,243774,1,0,0:0:0:0:
352,96,243858,1,8,0:0:0:0:
352,96,243941,1,8,0:0:0:0:
160,96,244024,1,0,0:0:0:0:
160,96,244108,1,0,0:0:0:0:
352,96,244191,1,8,0:0:0:0:
352,96,244274,1,8,0:0:0:0:
160,96,244358,1,0,0:0:0:0:
160,96,244441,1,0,0:0:0:0:
352,96,244524,1,8,0:0:0:0:
352,96,244608,1,8,0:0:0:0:
160,96,244691,1,0,0:0:0:0:
160,96,244747,1,0,0:0:0:0:
177,144,244802,1,0,0:0:0:0:
352,96,244858,1,8,0:0:0:0:
160,96,244941,1,0,0:0:0:0:
352,96,245024,1,8,0:0:0:0:
160,96,245080,1,0,0:0:0:0:
144,153,245136,1,0,0:0:0:0:
352,96,245191,1,8,0:0:0:0:
352,96,245274,1,8,0:0:0:0:
160,96,245358,1,0,0:0:0:0:
160,96,245413,1,0,0:0:0:0:
161,136,245469,1,0,0:0:0:0:
352,96,245524,1,8,0:0:0:0:
160,96,245608,1,0,0:0:0:0:
352,96,245691,1,8,0:0:0:0:
160,96,245774,1,0,0:0:0:0:
352,96,247191,1,8,0:0:0:0:
352,96,247358,1,8,0:0:0:0:
160,96,247524,1,0,0:0:0:0:
160,96,247691,1,0,0:0:0:0:
160,96,247774,1,0,0:0:0:0:
352,96,247858,1,8,0:0:0:0:
160,96,248024,1,0,0:0:0:0:
352,96,248191,1,8,0:0:0:0:
352,96,248524,1,8,0:0:0:0:
352,96,248691,1,8,0:0:0:0:
160,96,248774,1,0,0:0:0:0:
352,96,249024,1,8,0:0:0:0:
160,96,249191,1,0,0:0:0:0:
352,96,249274,1,8,0:0:0:0:
352,96,249524,1,8,0:0:0:0:
160,96,249608,1,0,0:0:0:0:
352,96,249691,1,8,0:0:0:0:
352,96,249774,1,8,0:0:0:0:
160,96,249858,1,0,0:0:0:0:
352,96,250024,1,8,0:0:0:0:
160,96,250108,1,0,0:0:0:0:
352,96,250358,1,8,0:0:0:0:
160,96,250608,1,0,0:0:0:0:
352,96,250858,1,8,0:0:0:0:
160,96,250941,1,0,0:0:0:0:
160,96,251024,1,0,0:0:0:0:
160,96,251108,1,0,0:0:0:0:
352,96,251191,1,8,0:0:0:0:
352,96,251358,1,8,0:0:0:0:
160,96,251441,1,0,0:0:0:0:
352,96,251691,1,8,0:0:0:0:
160,96,251858,1,0,0:0:0:0:
352,96,251941,1,8,0:0:0:0:
352,96,252191,1,8,0:0:0:0:
352,96,252274,1,8,0:0:0:0:
160,96,252358,1,0,0:0:0:0:
160,96,252441,1,0,0:0:0:0:
352,96,252524,1,8,0:0:0:0:
352,96,252691,1,8,0:0:0:0:
160,96,252774,1,0,0:0:0:0:
160,96,252941,1,0,0:0:0:0:
352,96,253024,1,8,0:0:0:0:
160,96,253191,1,0,0:0:0:0:
352,96,253274,1,8,0:0:0:0:
160,96,253441,1,0,0:0:0:0:
352,96,253524,1,8,0:0:0:0:
352,96,253858,1,8,0:0:0:0:
352,96,254024,1,8,0:0:0:0:
160,96,254108,1,0,0:0:0:0:
352,96,254358,1,8,0:0:0:0:
160,96,254524,1,0,0:0:0:0:
352,96,254608,1,8,0:0:0:0:
160,96,254858,1,0,0:0:0:0:
352,96,254941,1,8,0:0:0:0:
160,96,255024,1,0,0:0:0:0:
352,96,255108,1,8,0:0:0:0:
352,96,255191,1,8,0:0:0:0:
352,96,255358,1,8,0:0:0:0:
160,96,255441,1,0,0:0:0:0:
352,96,255691,1,8,0:0:0:0:
160,96,255941,1,0,0:0:0:0:
160,96,256191,1,0,0:0:0:0:
160,96,256274,1,0,0:0:0:0:
352,96,256358,1,8,0:0:0:0:
352,96,256441,1,8,0:0:0:0:
160,96,256524,1,0,0:0:0:0:
352,96,256691,1,8,0:0:0:0:
160,96,256774,1,0,0:0:0:0:
352,96,257024,1,8,0:0:0:0:
160,96,257191,1,0,0:0:0:0:
352,96,257274,1,8,0:0:0:0:
352,96,257524,1,8,0:0:0:0:
352,96,257608,1,8,0:0:0:0:
160,96,257691,1,0,0:0:0:0:
160,96,257774,1,0,0:0:0:0:
352,96,257858,1,8,0:0:0:0:
352,96,258024,1,8,0:0:0:0:
160,96,258108,1,0,0:0:0:0:
160,96,258274,1,0,0:0:0:0:
352,96,258358,1,8,0:0:0:0:
160,96,258441,1,0,0:0:0:0:
352,96,258524,1,8,0:0:0:0:
352,96,258608,1,8,0:0:0:0:
160,96,258691,1,0,0:0:0:0:
160,96,258774,1,0,0:0:0:0:
352,96,258858,1,8,0:0:0:0:
160,96,259191,5,0,0:0:0:0:
352,96,259524,1,8,0:0:0:0:
352,96,259691,1,8,0:0:0:0:
160,96,259774,1,0,0:0:0:0:
352,96,259858,1,8,0:0:0:0:
160,96,260024,1,0,0:0:0:0:
352,96,260191,1,8,0:0:0:0:
352,96,260274,1,8,0:0:0:0:
160,96,260358,1,0,0:0:0:0:
160,96,260441,1,0,0:0:0:0:
352,96,260524,1,8,0:0:0:0:
352,96,260691,1,8,0:0:0:0:
160,96,260774,1,0,0:0:0:0:
160,96,260858,1,0,0:0:0:0:
352,96,261024,1,8,0:0:0:0:
352,96,261191,1,8,0:0:0:0:
160,96,261274,1,0,0:0:0:0:
160,96,261441,1,0,0:0:0:0:
352,96,261524,1,8,0:0:0:0:
160,96,261608,1,0,0:0:0:0:
352,96,261691,1,8,0:0:0:0:
352,96,261774,1,8,0:0:0:0:
160,96,261858,1,0,0:0:0:0:
160,96,262024,1,0,0:0:0:0:
160,96,262108,1,0,0:0:0:0:
352,96,262191,1,8,0:0:0:0:
160,96,262358,1,0,0:0:0:0:
352,96,262524,1,8,0:0:0:0:
160,96,262608,1,0,0:0:0:0:
160,96,262774,1,0,0:0:0:0:
352,96,262858,1,8,0:0:0:0:
352,96,262941,1,8,0:0:0:0:
160,96,263024,1,0,0:0:0:0:
160,96,263108,1,0,0:0:0:0:
352,96,263191,1,8,0:0:0:0:
352,96,263358,5,8,0:0:0:0:
160,96,263441,1,0,0:0:0:0:
160,96,263608,1,0,0:0:0:0:
352,96,263691,1,8,0:0:0:0:
160,96,263858,1,0,0:0:0:0:
352,96,263941,1,8,0:0:0:0:
160,96,264108,1,0,0:0:0:0:
352,96,264191,1,8,0:0:0:0:
352,96,264524,5,8,0:0:0:0:
352,96,264608,1,8,0:0:0:0:
160,96,264691,1,0,0:0:0:0:
160,96,264774,1,0,0:0:0:0:
352,96,264858,1,8,0:0:0:0:
160,96,264941,1,0,0:0:0:0:
352,96,265024,1,8,0:0:0:0:
352,96,265108,1,8,0:0:0:0:
160,96,265191,1,0,0:0:0:0:
160,96,265274,1,0,0:0:0:0:
352,96,265358,1,8,0:0:0:0:
160,96,265441,1,0,0:0:0:0:
352,96,265524,1,8,0:0:0:0:
352,96,265858,5,8,0:0:0:0:
352,96,265941,1,8,0:0:0:0:
160,96,266024,1,0,0:0:0:0:
352,96,266108,1,8,0:0:0:0:
352,96,266191,1,8,0:0:0:0:
160,96,266274,1,0,0:0:0:0:
352,96,266358,1,8,0:0:0:0:
352,96,266441,1,8,0:0:0:0:
160,96,266524,1,0,0:0:0:0:
352,96,266608,1,8,0:0:0:0:
352,96,266691,1,8,0:0:0:0:
160,96,266774,1,0,0:0:0:0:
352,96,266858,1,8,0:0:0:0:
352,96,267191,5,8,0:0:0:0:
160,96,267274,1,0,0:0:0:0:
160,96,267358,1,0,0:0:0:0:
352,96,267441,1,8,0:0:0:0:
160,96,267524,1,0,0:0:0:0:
160,96,267608,1,0,0:0:0:0:
352,96,267691,1,8,0:0:0:0:
160,96,267774,1,0,0:0:0:0:
160,96,267858,1,0,0:0:0:0:
352,96,267941,1,8,0:0:0:0:
160,96,268024,1,0,0:0:0:0:
160,96,268108,1,0,0:0:0:0:
352,96,268191,1,8,0:0:0:0:
352,96,268274,1,8,0:0:0:0:
160,96,268358,1,0,0:0:0:0:
160,96,268441,1,0,0:0:0:0:
352,288,268524,5,12,0:0:0:0:
160,288,268774,1,4,0:0:0:0:
352,288,269024,1,12,0:0:0:0:
352,288,269274,1,12,0:0:0:0:
160,288,269524,1,4,0:0:0:0:
352,96,269858,1,8,0:0:0:0:
352,96,269913,1,8,0:0:0:0:
352,96,269969,1,8,0:0:0:0:
160,96,270024,1,0,0:0:0:0:
160,96,270108,1,0,0:0:0:0:
352,96,270191,1,8,0:0:0:0:
352,96,270358,1,8,0:0:0:0:
160,96,270441,1,0,0:0:0:0:
352,96,270524,1,8,0:0:0:0:
160,96,270691,1,0,0:0:0:0:
352,96,270858,1,8,0:0:0:0:
352,96,270941,1,8,0:0:0:0:
160,96,271024,1,0,0:0:0:0:
160,96,271108,1,0,0:0:0:0:
352,96,271191,1,8,0:0:0:0:
160,96,271358,1,0,0:0:0:0:
160,96,271441,1,0,0:0:0:0:
352,96,271524,1,8,0:0:0:0:
160,96,271691,1,0,0:0:0:0:
352,96,271858,1,8,0:0:0:0:
160,96,271941,1,0,0:0:0:0:
160,96,272108,1,0,0:0:0:0:
352,96,272191,1,8,0:0:0:0:
160,96,272274,1,0,0:0:0:0:
352,96,272358,1,8,0:0:0:0:
352,96,272441,1,8,0:0:0:0:
160,96,272524,1,0,0:0:0:0:
352,96,272691,1,8,0:0:0:0:
160,96,272774,1,0,0:0:0:0:
352,96,272858,1,8,0:0:0:0:
160,96,273024,1,0,0:0:0:0:
352,96,273191,1,8,0:0:0:0:
160,96,273274,1,0,0:0:0:0:
160,96,273441,1,0,0:0:0:0:
352,96,273524,1,8,0:0:0:0:
352,96,273608,1,8,0:0:0:0:
160,96,273691,1,0,0:0:0:0:
160,96,273774,1,0,0:0:0:0:
352,96,273858,1,8,0:0:0:0:
352,96,274024,1,8,0:0:0:0:
160,96,274108,1,0,0:0:0:0:
160,96,274274,1,0,0:0:0:0:
352,96,274358,1,8,0:0:0:0:
160,96,274524,1,0,0:0:0:0:
352,96,274608,1,8,0:0:0:0:
160,96,274774,1,0,0:0:0:0:
352,96,274858,1,8,0:0:0:0:
160,96,275191,1,0,0:0:0:0:
352,96,275358,1,8,0:0:0:0:
352,96,275441,1,8,0:0:0:0:
160,96,275524,1,0,0:0:0:0:
352,96,275691,1,8,0:0:0:0:
352,96,275858,1,8,0:0:0:0:
160,96,275941,1,0,0:0:0:0:
160,96,276108,1,0,0:0:0:0:
352,96,276191,1,8,0:0:0:0:
160,96,276274,1,0,0:0:0:0:
352,96,276358,1,8,0:0:0:0:
352,96,276441,1,8,0:0:0:0:
160,96,276524,1,0,0:0:0:0:
160,96,276691,1,0,0:0:0:0:
352,96,276774,1,8,0:0:0:0:
160,96,276858,1,0,0:0:0:0:
160,96,277024,1,0,0:0:0:0:
352,96,277191,1,8,0:0:0:0:
160,96,277274,1,0,0:0:0:0:
160,96,277441,1,0,0:0:0:0:
352,96,277524,1,8,0:0:0:0:
352,96,277608,1,8,0:0:0:0:
160,96,277691,1,0,0:0:0:0:
160,96,277774,1,0,0:0:0:0:
352,96,277858,1,8,0:0:0:0:
352,96,278024,1,8,0:0:0:0:
352,96,278108,1,8,0:0:0:0:
160,96,278191,1,0,0:0:0:0:
160,96,278358,1,0,0:0:0:0:
352,96,278524,1,8,0:0:0:0:
160,96,278608,1,0,0:0:0:0:
160,96,278774,1,0,0:0:0:0:
352,96,278858,1,8,0:0:0:0:
160,96,278941,1,0,0:0:0:0:
352,96,279024,1,8,0:0:0:0:
352,96,279108,1,8,0:0:0:0:
160,96,279191,1,0,0:0:0:0:
160,96,279358,1,0,0:0:0:0:
352,96,279441,1,8,0:0:0:0:
160,96,279524,1,0,0:0:0:0:
160,96,279691,1,0,0:0:0:0:
352,96,279858,1,8,0:0:0:0:
160,96,279941,1,0,0:0:0:0:
160,96,280108,1,0,0:0:0:0:
352,96,280191,1,8,0:0:0:0:
352,96,280524,1,8,0:0:0:0:
160,96,280580,1,8,0:0:0:0:
160,96,280636,1,8,0:0:0:0:
352,96,280691,1,0,0:0:0:0:
352,96,280858,1,8,0:0:0:0:
160,96,281024,1,0,0:0:0:0:
160,96,281108,1,0,0:0:0:0:
352,96,281191,1,8,0:0:0:0:
160,96,281358,1,0,0:0:0:0:
352,96,281524,1,8,0:0:0:0:
352,96,281608,1,8,0:0:0:0:
160,96,281691,1,0,0:0:0:0:
160,96,281774,1,0,0:0:0:0:
352,96,281858,1,8,0:0:0:0:
352,96,282024,1,8,0:0:0:0:
160,96,282108,1,0,0:0:0:0:
352,96,282191,1,8,0:0:0:0:
160,96,282358,1,0,0:0:0:0:
352,96,282524,1,8,0:0:0:0:
160,96,282608,1,0,0:0:0:0:
160,96,282774,1,0,0:0:0:0:
352,96,282858,1,8,0:0:0:0:
160,96,282941,1,0,0:0:0:0:
352,96,283024,1,8,0:0:0:0:
352,96,283108,1,8,0:0:0:0:
160,96,283191,1,0,0:0:0:0:
160,96,283358,1,0,0:0:0:0:
160,96,283441,1,0,0:0:0:0:
352,96,283524,1,8,0:0:0:0:
160,96,283691,1,0,0:0:0:0:
352,96,283858,1,8,0:0:0:0:
160,96,283941,1,0,0:0:0:0:
160,96,284108,1,0,0:0:0:0:
352,96,284191,1,8,0:0:0:0:
352,96,284274,1,8,0:0:0:0:
160,96,284358,1,0,0:0:0:0:
160,96,284441,1,0,0:0:0:0:
352,96,284524,1,8,0:0:0:0:
352,96,284691,1,8,0:0:0:0:
160,96,284774,1,0,0:0:0:0:
160,96,284941,1,0,0:0:0:0:
352,96,285024,1,8,0:0:0:0:
160,96,285191,1,0,0:0:0:0:
352,96,285274,1,8,0:0:0:0:
160,96,285441,1,0,0:0:0:0:
352,96,285524,1,8,0:0:0:0:
160,96,285858,1,0,0:0:0:0:
352,96,286024,1,8,0:0:0:0:
352,96,286108,1,8,0:0:0:0:
160,96,286191,1,0,0:0:0:0:
160,96,286358,1,0,0:0:0:0:
352,96,286524,1,8,0:0:0:0:
160,96,286608,1,0,0:0:0:0:
160,96,286774,1,0,0:0:0:0:
352,96,286858,1,8,0:0:0:0:
160,96,286941,1,0,0:0:0:0:
352,96,287024,1,8,0:0:0:0:
352,96,287108,1,8,0:0:0:0:
160,96,287191,1,0,0:0:0:0:
160,96,287358,1,0,0:0:0:0:
352,96,287441,1,8,0:0:0:0:
160,96,287524,1,0,0:0:0:0:
160,96,287691,1,0,0:0:0:0:
352,96,287858,1,8,0:0:0:0:
160,96,287941,1,0,0:0:0:0:
160,96,288108,1,0,0:0:0:0:
352,96,288191,1,8,0:0:0:0:
352,96,288274,1,8,0:0:0:0:
160,96,288358,1,0,0:0:0:0:
160,96,288441,1,0,0:0:0:0:
352,96,288524,1,8,0:0:0:0:
352,96,288691,1,8,0:0:0:0:
352,96,288774,1,8,0:0:0:0:
160,96,288858,1,0,0:0:0:0:
160,96,289024,1,0,0:0:0:0:
352,96,289191,1,8,0:0:0:0:
160,96,289274,1,0,0:0:0:0:
160,96,289441,1,0,0:0:0:0:
352,96,289524,1,8,0:0:0:0:
160,96,289608,1,0,0:0:0:0:
352,96,289691,1,8,0:0:0:0:
352,96,289774,5,8,0:0:0:0:
160,96,289858,1,0,0:0:0:0:
160,96,289941,1,0,0:0:0:0:
140,159,290024,1,0,0:0:0:0:
352,96,290108,1,8,0:0:0:0:
352,96,290191,1,8,0:0:0:0:
160,96,290358,1,0,0:0:0:0:
352,96,290441,1,8,0:0:0:0:
160,96,290524,1,0,0:0:0:0:
352,96,290608,1,0,0:0:0:0:
223,165,290691,1,8,0:0:0:0:
352,96,290774,1,8,0:0:0:0:
160,96,290858,1,0,0:0:0:0:
352,288,291191,5,12,0:0:0:0:
352,96,291524,5,8,0:0:0:0:
352,96,291580,1,8,0:0:0:0:
352,96,291636,1,8,0:0:0:0:
160,96,291691,1,0,0:0:0:0:
160,96,291774,1,0,0:0:0:0:
352,96,291858,1,8,0:0:0:0:
160,96,291913,1,0,0:0:0:0:
160,96,291969,5,0,0:0:0:0:
352,96,292024,1,8,0:0:0:0:
160,96,292108,1,0,0:0:0:0:
352,96,292191,1,8,0:0:0:0:
160,96,292247,1,0,0:0:0:0:
160,96,292302,1,0,0:0:0:0:
352,96,292358,5,8,0:0:0:0:
160,96,292441,1,0,0:0:0:0:
352,96,292524,1,8,0:0:0:0:
352,96,292580,1,8,0:0:0:0:
352,96,292636,1,8,0:0:0:0:
160,96,292691,1,0,0:0:0:0:
160,96,292774,5,0,0:0:0:0:
352,96,292858,1,8,0:0:0:0:
160,96,292913,1,0,0:0:0:0:
160,96,292969,1,0,0:0:0:0:
352,96,293024,1,8,0:0:0:0:
160,96,293108,1,0,0:0:0:0:
352,96,293191,5,8,0:0:0:0:
160,96,293247,1,0,0:0:0:0:
160,96,293302,1,0,0:0:0:0:
352,96,293358,1,8,0:0:0:0:
160,96,293441,1,0,0:0:0:0:
352,96,293524,1,8,0:0:0:0:
352,96,293580,1,8,0:0:0:0:
352,96,293636,1,8,0:0:0:0:
160,96,293691,1,0,0:0:0:0:
160,96,293774,1,0,0:0:0:0:
352,288,293858,1,12,0:0:0:0:
160,96,294191,5,0,0:0:0:0:
160,96,294247,1,0,0:0:0:0:
160,96,294302,1,0,0:0:0:0:
352,96,294358,1,8,0:0:0:0:
352,96,294441,1,8,0:0:0:0:
160,96,294524,1,0,0:0:0:0:
352,96,294580,1,8,0:0:0:0:
352,96,294636,5,8,0:0:0:0:
160,96,294691,1,0,0:0:0:0:
352,96,294774,1,8,0:0:0:0:
160,96,294858,1,0,0:0:0:0:
352,96,294913,1,8,0:0:0:0:
352,96,294969,1,8,0:0:0:0:
160,96,295024,5,0,0:0:0:0:
352,96,295108,1,8,0:0:0:0:
160,96,295191,1,0,0:0:0:0:
160,96,295247,1,0,0:0:0:0:
160,96,295302,1,0,0:0:0:0:
352,96,295358,1,8,0:0:0:0:
352,96,295441,5,8,0:0:0:0:
160,96,295524,1,0,0:0:0:0:
160,96,295580,1,0,0:0:0:0:
160,96,295636,1,0,0:0:0:0:
352,96,295691,1,8,0:0:0:0:
160,96,295774,1,0,0:0:0:0:
352,288,295858,5,12,0:0:0:0:
160,288,296191,1,4,0:0:0:0:
352,288,296524,1,12,0:0:0:0:
352,96,296858,5,8,0:0:0:0:
352,96,296913,1,8,0:0:0:0:
352,96,296969,1,8,0:0:0:0:
160,96,297024,1,0,0:0:0:0:
160,96,297108,1,0,0:0:0:0:
352,96,297191,1,8,0:0:0:0:
352,96,297247,1,0,0:0:0:0:
160,96,297302,5,0,0:0:0:0:
160,96,297358,1,8,0:0:0:0:
160,96,297441,1,0,0:0:0:0:
352,96,297524,1,8,0:0:0:0:
352,96,297580,1,8,0:0:0:0:
160,96,297636,1,0,0:0:0:0:
160,96,297691,5,0,0:0:0:0:
160,96,297774,1,0,0:0:0:0:
352,96,297858,1,8,0:0:0:0:
352,96,297913,1,8,0:0:0:0:
352,96,297969,1,8,0:0:0:0:
160,96,298024,1,0,0:0:0:0:
160,96,298108,5,0,0:0:0:0:
352,96,298191,1,8,0:0:0:0:
352,96,298247,1,8,0:0:0:0:
160,96,298302,1,0,0:0:0:0:
160,96,298358,1,0,0:0:0:0:
160,96,298441,1,0,0:0:0:0:
352,96,298524,5,8,0:0:0:0:
352,96,298608,1,8,0:0:0:0:
160,96,298691,1,0,0:0:0:0:
160,96,298774,1,0,0:0:0:0:
352,96,298858,1,8,0:0:0:0:
352,96,298941,1,8,0:0:0:0:
160,96,299024,1,0,0:0:0:0:
160,96,299080,1,0,0:0:0:0:
160,96,299136,1,0,0:0:0:0:
352,288,299191,1,12,0:0:0:0:
352,96,299858,1,8,0:0:0:0:
160,96,299941,1,0,0:0:0:0:
160,96,300024,1,0,0:0:0:0:
352,96,300108,1,8,0:0:0:0:
160,96,300191,1,0,0:0:0:0:
160,96,300274,1,0,0:0:0:0:
352,96,300358,1,8,0:0:0:0:
160,96,300441,1,0,0:0:0:0:
352,96,300524,1,8,0:0:0:0:
160,96,300608,1,0,0:0:0:0:
160,96,300691,1,0,0:0:0:0:
352,96,300774,1,8,0:0:0:0:
160,96,300858,1,0,0:0:0:0:
160,96,300941,1,0,0:0:0:0:
352,96,301024,1,8,0:0:0:0:
160,96,301108,1,0,0:0:0:0:
352,96,301191,1,8,0:0:0:0:
160,96,301274,1,0,0:0:0:0:
160,96,301358,1,0,0:0:0:0:
352,96,301441,1,8,0:0:0:0:
160,96,301524,1,0,0:0:0:0:
160,96,301608,1,0,0:0:0:0:
352,96,301691,1,8,0:0:0:0:
160,96,301774,1,0,0:0:0:0:
352,96,301858,1,12,0:0:0:0:
352,96,302191,5,8,0:0:0:0:
352,96,302247,1,8,0:0:0:0:
352,96,302302,1,8,0:0:0:0:
160,96,302358,1,0,0:0:0:0:
160,96,302441,1,0,0:0:0:0:
352,96,302524,1,8,0:0:0:0:
352,96,302580,1,8,0:0:0:0:
226,165,302636,1,0,0:0:0:0:
160,96,302691,1,0,0:0:0:0:
160,96,302774,1,0,0:0:0:0:
352,96,302858,1,8,0:0:0:0:
352,96,302913,1,8,0:0:0:0:
352,96,302969,1,8,0:0:0:0:
160,96,303024,5,0,0:0:0:0:
160,96,303108,1,0,0:0:0:0:
352,96,303191,1,8,0:0:0:0:
160,96,303247,1,0,0:0:0:0:
160,96,303302,1,0,0:0:0:0:
352,96,303358,1,8,0:0:0:0:
160,96,303441,5,0,0:0:0:0:
352,96,303524,1,8,0:0:0:0:
160,96,303580,1,0,0:0:0:0:
160,96,303636,1,0,0:0:0:0:
352,96,303691,1,8,0:0:0:0:
160,96,303774,1,0,0:0:0:0:
352,96,303858,5,8,0:0:0:0:
352,96,303913,1,8,0:0:0:0:
352,96,303969,1,8,0:0:0:0:
160,96,304024,1,0,0:0:0:0:
160,96,304108,1,0,0:0:0:0:
352,96,304191,1,8,0:0:0:0:
160,96,304247,1,0,0:0:0:0:
160,96,304302,1,0,0:0:0:0:
352,96,304358,1,8,0:0:0:0:
160,96,304441,1,0,0:0:0:0:
352,288,304524,1,12,0:0:0:0:
160,96,304858,5,0,0:0:0:0:
160,96,304913,1,0,0:0:0:0:
160,96,304969,1,0,0:0:0:0:
352,96,305024,1,8,0:0:0:0:
160,96,305108,1,0,0:0:0:0:
352,96,305191,1,8,0:0:0:0:
160,96,305247,1,0,0:0:0:0:
160,96,305302,5,0,0:0:0:0:
352,96,305358,1,8,0:0:0:0:
160,96,305441,1,0,0:0:0:0:
352,96,305524,1,8,0:0:0:0:
160,96,305580,1,0,0:0:0:0:
160,96,305636,1,0,0:0:0:0:
352,96,305691,5,8,0:0:0:0:
352,96,305774,1,8,0:0:0:0:
160,96,305858,1,0,0:0:0:0:
160,96,305913,1,0,0:0:0:0:
160,96,305969,1,0,0:0:0:0:
352,96,306024,1,8,0:0:0:0:
160,96,306108,5,0,0:0:0:0:
352,96,306191,1,8,0:0:0:0:
160,96,306247,1,0,0:0:0:0:
160,96,306302,1,0,0:0:0:0:
352,96,306358,1,8,0:0:0:0:
160,96,306441,1,0,0:0:0:0:
352,288,306524,5,12,0:0:0:0:
160,288,306858,1,4,0:0:0:0:
352,288,307191,1,12,0:0:0:0:
352,96,307524,5,8,0:0:0:0:
352,96,307580,1,8,0:0:0:0:
352,96,307636,1,8,0:0:0:0:
160,96,307691,1,0,0:0:0:0:
160,96,307774,1,0,0:0:0:0:
352,96,307858,1,8,0:0:0:0:
160,96,307913,1,0,0:0:0:0:
160,96,307969,5,0,0:0:0:0:
352,96,308024,1,8,0:0:0:0:
160,96,308108,1,0,0:0:0:0:
352,96,308191,1,8,0:0:0:0:
160,96,308247,1,0,0:0:0:0:
160,96,308302,1,0,0:0:0:0:
352,96,308358,5,8,0:0:0:0:
160,96,308441,1,0,0:0:0:0:
352,96,308524,1,8,0:0:0:0:
352,96,308580,1,8,0:0:0:0:
352,96,308636,1,8,0:0:0:0:
160,96,308691,1,0,0:0:0:0:
160,96,308774,5,0,0:0:0:0:
352,96,308858,1,8,0:0:0:0:
160,96,308913,1,0,0:0:0:0:
160,96,308969,1,0,0:0:0:0:
352,96,309024,1,8,0:0:0:0:
160,96,309108,1,0,0:0:0:0:
352,96,309191,5,8,0:0:0:0:
160,96,309247,1,0,0:0:0:0:
160,96,309302,1,0,0:0:0:0:
352,96,309358,1,8,0:0:0:0:
160,96,309441,1,0,0:0:0:0:
352,96,309524,1,8,0:0:0:0:
352,96,309580,1,8,0:0:0:0:
352,96,309636,1,8,0:0:0:0:
160,96,309691,1,0,0:0:0:0:
160,96,309774,1,0,0:0:0:0:
352,288,309858,1,12,0:0:0:0:
160,96,310524,1,0,0:0:0:0:
352,96,310608,1,8,0:0:0:0:
352,96,310691,1,8,0:0:0:0:
160,96,310774,1,0,0:0:0:0:
352,96,310858,1,8,0:0:0:0:
352,96,310941,1,8,0:0:0:0:
160,96,311024,1,0,0:0:0:0:
352,96,311108,1,8,0:0:0:0:
160,96,311191,1,0,0:0:0:0:
352,96,311274,1,8,0:0:0:0:
352,96,311358,1,8,0:0:0:0:
160,96,311441,1,0,0:0:0:0:
352,96,311524,1,8,0:0:0:0:
352,96,311608,1,8,0:0:0:0:
160,96,311691,1,0,0:0:0:0:
352,96,311774,1,8,0:0:0:0:
160,96,311858,1,0,0:0:0:0:
352,96,311941,1,8,0:0:0:0:
352,96,312024,1,8,0:0:0:0:
160,96,312108,1,0,0:0:0:0:
352,96,312191,1,8,0:0:0:0:
352,96,312274,1,8,0:0:0:0:
160,96,312358,1,0,0:0:0:0:
352,96,312441,1,8,0:0:0:0:
160,96,312524,1,4,0:0:0:0:
160,288,312774,1,4,0:0:0:0:
160,288,313024,1,4,0:0:0:0:
254,156,313191,5,8,0:0:0:0:
160,288,313274,1,0,0:0:0:0:
254,156,313358,1,8,0:0:0:0:
254,156,313441,1,8,0:0:0:0:
352,288,313524,1,0,0:0:0:0:
449,291,313691,1,8,0:0:0:0:
160,288,313858,1,0,0:0:0:0:
449,291,313941,1,8,0:0:0:0:
449,291,314024,1,8,0:0:0:0:
160,288,314108,1,0,0:0:0:0:
449,291,314191,1,8,0:0:0:0:
449,291,314274,1,8,0:0:0:0:
160,288,314358,1,0,0:0:0:0:
449,291,314441,1,8,0:0:0:0:
449,291,314524,1,8,0:0:0:0:
160,288,314608,1,0,0:0:0:0:
449,291,314691,1,8,0:0:0:0:
449,291,314774,1,0,0:0:0:0:
352,288,314858,1,8,0:0:0:0:
230,200,315024,1,8,0:0:0:0:
230,200,315108,1,8,0:0:0:0:
160,288,315191,1,4,0:0:0:0:
160,288,315441,1,4,0:0:0:0:
160,288,315691,1,4,0:0:0:0:
448,291,315858,5,8,0:0:0:0:
160,288,315941,1,0,0:0:0:0:
448,291,316024,1,8,0:0:0:0:
448,291,316108,1,8,0:0:0:0:
352,288,316191,1,0,0:0:0:0:
352,96,316358,1,8,0:0:0:0:
160,288,316524,1,0,0:0:0:0:
448,291,316608,1,8,0:0:0:0:
448,291,316691,1,8,0:0:0:0:
160,288,316774,1,0,0:0:0:0:
448,291,316858,1,8,0:0:0:0:
448,291,316941,1,8,0:0:0:0:
160,288,317024,1,0,0:0:0:0:
448,291,317108,1,8,0:0:0:0:
448,291,317191,1,8,0:0:0:0:
160,288,317274,1,0,0:0:0:0:
448,291,317358,1,8,0:0:0:0:
448,291,317441,1,0,0:0:0:0:
352,288,317524,1,8,0:0:0:0:
213,149,317691,1,0,0:0:0:0:
213,149,317774,1,0,0:0:0:0:
352,288,317858,1,12,0:0:0:0:
160,288,318108,1,4,0:0:0:0:
160,288,318358,1,4,0:0:0:0:
448,291,318524,5,8,0:0:0:0:
160,288,318608,1,0,0:0:0:0:
448,291,318691,1,8,0:0:0:0:
448,291,318774,1,8,0:0:0:0:
352,288,318858,1,0,0:0:0:0:
448,291,319024,1,8,0:0:0:0:
160,288,319191,1,0,0:0:0:0:
448,291,319274,1,0,0:0:0:0:
448,291,319358,1,8,0:0:0:0:
160,288,319441,1,0,0:0:0:0:
448,291,319524,1,8,0:0:0:0:
448,291,319608,1,8,0:0:0:0:
160,288,319691,1,0,0:0:0:0:
448,291,319774,1,8,0:0:0:0:
448,291,319858,1,8,0:0:0:0:
160,288,319941,1,0,0:0:0:0:
448,291,320024,1,8,0:0:0:0:
448,291,320108,1,8,0:0:0:0:
352,288,320191,1,0,0:0:0:0:
230,200,320358,1,0,0:0:0:0:
230,200,320441,1,0,0:0:0:0:
352,288,320524,1,12,0:0:0:0:
160,288,320774,1,4,0:0:0:0:
160,288,321024,1,4,0:0:0:0:
448,291,321191,5,8,0:0:0:0:
160,288,321274,1,0,0:0:0:0:
448,291,321358,1,8,0:0:0:0:
448,291,321441,1,8,0:0:0:0:
352,288,321524,1,0,0:0:0:0:
160,288,321691,1,8,0:0:0:0:
352,96,321858,5,8,0:0:0:0:
448,291,321941,1,0,0:0:0:0:
448,291,322024,1,0,0:0:0:0:
160,96,322108,1,8,0:0:0:0:
448,291,322191,1,0,0:0:0:0:
448,291,322274,1,0,0:0:0:0:
352,96,322358,1,8,0:0:0:0:
448,291,322441,1,0,0:0:0:0:
448,291,322524,1,0,0:0:0:0:
448,291,322608,1,0,0:0:0:0:
352,96,322691,1,8,0:0:0:0:
448,291,322774,1,0,0:0:0:0:
160,96,322858,1,8,0:0:0:0:
160,96,323191,5,4,0:0:0:0:
160,96,323441,1,4,0:0:0:0:
160,96,323691,1,4,0:0:0:0:
253,144,323858,5,8,0:0:0:0:
160,96,323941,1,0,0:0:0:0:
253,144,324024,1,8,0:0:0:0:
253,144,324108,1,8,0:0:0:0:
352,96,324191,1,0,0:0:0:0:
253,144,324358,1,8,0:0:0:0:
160,96,324524,1,0,0:0:0:0:
253,144,324608,1,8,0:0:0:0:
253,144,324691,1,8,0:0:0:0:
160,96,324774,1,0,0:0:0:0:
253,144,324858,1,8,0:0:0:0:
253,144,324941,1,0,0:0:0:0:
160,96,325024,1,8,0:0:0:0:
253,144,325108,1,8,0:0:0:0:
253,144,325191,1,0,0:0:0:0:
253,144,325274,1,8,0:0:0:0:
160,96,325358,1,0,0:0:0:0:
253,144,325441,1,0,0:0:0:0:
352,96,325524,1,8,0:0:0:0:
213,149,325691,1,8,0:0:0:0:
213,149,325774,1,8,0:0:0:0:
160,96,325858,1,4,0:0:0:0:
160,96,326108,5,4,0:0:0:0:
160,96,326358,1,4,0:0:0:0:
253,144,326524,5,8,0:0:0:0:
160,96,326608,1,0,0:0:0:0:
253,144,326691,1,8,0:0:0:0:
253,144,326774,1,8,0:0:0:0:
352,96,326858,1,0,0:0:0:0:
352,96,327024,1,8,0:0:0:0:
160,288,327191,1,0,0:0:0:0:
253,144,327274,1,8,0:0:0:0:
253,144,327358,1,8,0:0:0:0:
160,288,327441,1,0,0:0:0:0:
253,144,327524,1,8,0:0:0:0:
253,144,327608,1,8,0:0:0:0:
160,288,327691,1,0,0:0:0:0:
253,144,327774,1,8,0:0:0:0:
253,144,327858,1,8,0:0:0:0:
160,288,327941,1,0,0:0:0:0:
253,144,328024,1,0,0:0:0:0:
253,144,328108,1,0,0:0:0:0:
352,288,328191,1,8,0:0:0:0:
247,115,328358,1,0,0:0:0:0:
247,115,328441,1,0,0:0:0:0:
160,288,328524,1,12,0:0:0:0:
160,288,328774,1,4,0:0:0:0:
352,288,329024,1,12,0:0:0:0:
160,288,329191,1,4,0:0:0:0:
160,288,329441,1,4,0:0:0:0:
352,288,329691,1,12,0:0:0:0:
160,288,329858,1,4,0:0:0:0:
160,288,330108,1,4,0:0:0:0:
352,288,330358,1,12,0:0:0:0:
160,288,330524,1,4,0:0:0:0:
160,288,330774,1,4,0:0:0:0:
352,288,331024,1,12,0:0:0:0:
160,96,331191,5,0,0:0:0:0:
160,96,331302,1,0,0:0:0:0:
352,96,331413,1,8,0:0:0:0:
160,96,331524,1,0,0:0:0:0:
160,96,331636,1,0,0:0:0:0:
352,96,331747,1,8,0:0:0:0:
160,96,331858,5,0,0:0:0:0:
352,96,331941,1,8,0:0:0:0:
352,96,332024,1,8,0:0:0:0:
160,96,332108,1,0,0:0:0:0:
352,96,332191,1,8,0:0:0:0:
160,96,332274,1,0,0:0:0:0:
160,96,332358,1,0,0:0:0:0:
352,96,332441,1,8,0:0:0:0:
160,288,332524,1,4,0:0:0:0:
352,96,333858,1,8,0:0:0:0:
352,96,334024,1,8,0:0:0:0:
160,96,334108,1,0,0:0:0:0:
160,96,334358,1,0,0:0:0:0:
160,96,334524,1,0,0:0:0:0:
352,96,334608,1,8,0:0:0:0:
352,96,334858,1,8,0:0:0:0:
352,96,334941,1,8,0:0:0:0:
160,96,335024,1,0,0:0:0:0:
160,96,335108,1,0,0:0:0:0:
352,96,335191,1,8,0:0:0:0:
352,96,335358,1,8,0:0:0:0:
160,96,335441,1,0,0:0:0:0:
160,96,335691,1,0,0:0:0:0:
160,96,335858,1,0,0:0:0:0:
352,96,335941,1,8,0:0:0:0:
160,96,336191,1,0,0:0:0:0:
352,96,336274,1,8,0:0:0:0:
160,96,336358,1,0,0:0:0:0:
160,96,336441,1,0,0:0:0:0:
352,96,336524,1,8,0:0:0:0:
352,96,336691,1,8,0:0:0:0:
160,96,336774,1,0,0:0:0:0:
160,96,337024,1,0,0:0:0:0:
160,96,337191,1,0,0:0:0:0:
352,96,337274,1,8,0:0:0:0:
352,96,337524,1,8,0:0:0:0:
160,96,337608,1,0,0:0:0:0:
352,96,337691,1,8,0:0:0:0:
352,96,337774,1,8,0:0:0:0:
160,96,337858,1,0,0:0:0:0:
352,96,338024,1,8,0:0:0:0:
160,96,338108,1,0,0:0:0:0:
160,96,338274,1,0,0:0:0:0:
352,96,338358,1,8,0:0:0:0:
160,96,338524,1,0,0:0:0:0:
352,96,338608,1,8,0:0:0:0:
160,96,338774,1,0,0:0:0:0:
352,96,338858,1,8,0:0:0:0:
352,96,339191,1,8,0:0:0:0:
352,96,339358,1,8,0:0:0:0:
160,96,339441,1,0,0:0:0:0:
160,96,339691,1,0,0:0:0:0:
160,96,339858,1,0,0:0:0:0:
352,96,339941,1,8,0:0:0:0:
352,96,340191,1,8,0:0:0:0:
352,96,340274,1,8,0:0:0:0:
160,96,340358,1,0,0:0:0:0:
160,96,340441,1,0,0:0:0:0:
352,96,340524,1,8,0:0:0:0:
352,96,340691,1,8,0:0:0:0:
160,96,340774,1,0,0:0:0:0:
352,96,341024,1,8,0:0:0:0:
160,96,341191,1,0,0:0:0:0:
189,170,341274,1,8,0:0:0:0:
160,96,341524,1,0,0:0:0:0:
160,96,341608,1,0,0:0:0:0:
352,96,341691,1,8,0:0:0:0:
352,96,341774,1,8,0:0:0:0:
160,96,341858,1,0,0:0:0:0:
352,96,342024,1,8,0:0:0:0:
160,96,342108,1,0,0:0:0:0:
352,96,342358,1,8,0:0:0:0:
160,96,342524,1,0,0:0:0:0:
352,96,342858,1,8,0:0:0:0:
352,96,342941,1,8,0:0:0:0:
352,96,343024,1,8,0:0:0:0:
352,96,343108,1,8,0:0:0:0:
160,96,343191,1,0,0:0:0:0:
160,96,343441,1,0,0:0:0:0:
160,96,343691,1,0,0:0:0:0:
352,96,343858,1,8,0:0:0:0:
160,96,343941,1,0,0:0:0:0:
160,96,344191,1,0,0:0:0:0:
