osu file format v14

[General]
AudioFilename: audio.mp3
AudioLeadIn: 0
PreviewTime: 43
Countdown: 0
SampleSet: Normal
StackLeniency: 0.7
Mode: 1
LetterboxInBreaks: 0
WidescreenStoryboard: 1

[Editor]
DistanceSpacing: 0.2
BeatDivisor: 4
GridSize: 32
TimelineZoom: 1.8

[Metadata]
Title:thanks pat
TitleUnicode:thanks pat
Artist:cewer
ArtistUnicode:cewer
Creator:Kinpo
Version:futsuu
Source:
Tags:indie rock pop instrumental dinee's dinees place vvvincenttt
BeatmapID:4401436
BeatmapSetID:2098333

[Difficulty]
HPDrainRate:9
CircleSize:7
OverallDifficulty:4
ApproachRate:10
SliderMultiplier:1.4
SliderTickRate:1

[Events]
//Background and Video events
0,0,"FvimY6XX0AACp15.jpg",0,-130
//Break Periods
//Storyboard Layer 0 (Background)
//Storyboard Layer 1 (Fail)
//Storyboard Layer 2 (Pass)
//Storyboard Layer 3 (Foreground)
//Storyboard Layer 4 (Overlay)
//Storyboard Sound Samples

[TimingPoints]
2486,305.306222140807,4,1,0,70,1,0
2486,-99.7583756345178,4,1,0,70,0,0
22025,310.842175066313,4,1,0,70,1,0
22025,-97.98173,4,1,0,70,0,0
22330,-97.98173,4,1,0,69,0,0
22486,-97.98173,4,1,0,69,0,0
22641,-97.98173,4,1,0,68,0,0
22952,-97.98173,4,1,0,67,0,0
23107,-97.98173,4,1,0,67,0,0
23269,290.556900726392,4,1,0,66,1,8
23269,-104.822334,4,1,0,66,0,0
23554,-104.822334,4,1,0,65,0,0
23845,-104.822334,4,1,0,64,0,0
24135,-104.822334,4,1,0,63,0,0
24280,-104.822334,4,1,0,63,0,0
24430,305.498981670061,4,1,0,62,1,0
24430,-99.695435,4,1,0,62,0,0
24730,-99.695435,4,1,0,61,0,0
24883,-99.695435,4,1,0,61,0,0
25035,-99.695435,4,1,0,60,0,0
25341,-99.695435,4,1,0,59,0,0
25494,-99.695435,4,1,0,59,0,0
25646,-99.695435,4,1,0,59,0,0
25952,-99.695435,4,1,0,58,0,0
26105,-99.695435,4,1,0,57,0,0
26257,-99.695435,4,1,0,57,0,0
26563,-99.695435,4,1,0,56,0,0
26716,-99.695435,4,1,0,55,0,0
26868,-99.695435,4,1,0,55,0,0
27174,-99.695435,4,1,0,54,0,0
27486,299.25187032419,4,1,0,53,1,8
27486,-101.77665,4,1,0,53,0,0
27780,-101.77665,4,1,0,52,0,0
27929,-101.77665,4,1,0,51,0,0
28079,-101.77665,4,1,0,51,0,0
28084,299.25187032419,4,1,0,70,1,0
28385,303.413400758534,4,1,0,50,1,8
28385,-100.380714,4,1,0,50,0,0
28531,-100.380714,4,1,0,49,0,0
28683,-100.380714,4,1,0,49,0,0
28986,-100.380714,4,1,0,48,0,0
29294,317.208564631245,4,1,0,47,1,0
29294,-96.01523,4,1,0,47,0,0
29606,-96.01523,4,1,0,46,0,0
29764,-96.01523,4,1,0,45,0,0
29928,311.706123466795,4,1,0,45,1,8
29928,-97.71015,4,1,0,45,0,0
30234,-97.71015,4,1,0,44,0,0
30546,-97.71015,4,1,0,43,0,0
30551,311.706123466795,4,1,0,70,1,0
30864,314.96062992126,4,1,0,42,1,8
30864,-96.70051,4,1,0,42,0,0
31016,-96.70051,4,1,0,41,0,0
31173,-96.70051,4,1,0,41,0,0
31488,-96.70051,4,1,0,40,0,0
31809,304.145503208735,4,1,0,70,1,0
31809,-100.139086294416,4,1,0,70,0,0
33025,305.362159521192,4,1,0,70,1,0
33025,-99.7401015228427,4,1,0,70,0,0
46460,305.362159521192,4,1,0,70,1,8
46472,305.615688271998,4,1,0,70,1,0
46472,-99.657364,4,1,0,70,0,0
46772,-99.657364,4,1,0,69,0,0
46925,-99.657364,4,1,0,69,0,0
47078,-99.657364,4,1,0,68,0,0
47383,-99.657364,4,1,0,67,0,0
47536,-99.657364,4,1,0,67,0,0
47689,-99.657364,4,1,0,66,0,0
47995,-99.657364,4,1,0,65,0,0
48147,-99.657364,4,1,0,65,0,0
48300,-99.657364,4,1,0,64,0,0
48606,-99.657364,4,1,0,63,0,0
48911,-99.657364,4,1,0,63,0,0
49217,-99.657364,4,1,0,62,0,0
49370,-99.657364,4,1,0,61,0,0
49523,-99.657364,4,1,0,61,0,0
49828,-99.657364,4,1,0,60,0,0
49981,-99.657364,4,1,0,59,0,0
50134,-99.657364,4,1,0,59,0,0
50440,-99.657364,4,1,0,58,0,0
50592,-99.657364,4,1,0,57,0,0
50745,-99.657364,4,1,0,57,0,0
51051,-99.657364,4,1,0,56,0,0
51356,-99.657364,4,1,0,55,0,0
51509,-99.657364,4,1,0,50,0,0

[HitObjects]
256,192,2486,5,4,0:0:0:0:
256,192,2791,1,8,0:0:0:0:
256,192,3249,1,0,0:0:0:0:
256,192,3401,1,8,0:0:0:0:
256,192,3707,1,0,0:0:0:0:
256,192,3859,1,0,0:0:0:0:
256,192,4012,1,8,0:0:0:0:
256,192,4165,1,8,0:0:0:0:
256,192,4470,1,0,0:0:0:0:
256,192,4623,1,8,0:0:0:0:
256,192,4928,1,0,0:0:0:0:
256,192,5233,1,8,0:0:0:0:
256,192,5691,1,8,0:0:0:0:
256,192,5844,1,0,0:0:0:0:
256,192,6149,1,8,0:0:0:0:
256,192,6302,1,8,0:0:0:0:
256,192,6454,1,0,0:0:0:0:
256,192,6607,1,0,0:0:0:0:
256,192,6912,1,8,0:0:0:0:
256,192,7065,1,0,0:0:0:0:
256,192,7370,1,8,0:0:0:0:
256,192,7676,1,0,0:0:0:0:
256,192,8134,1,0,0:0:0:0:
256,192,8286,1,8,0:0:0:0:
256,192,8592,1,8,0:0:0:0:
256,192,8744,1,0,0:0:0:0:
256,192,8897,1,8,0:0:0:0:
256,192,9050,1,8,0:0:0:0:
256,192,9355,1,0,0:0:0:0:
256,192,9508,1,8,0:0:0:0:
256,192,9813,1,0,0:0:0:0:
256,192,10118,1,8,0:0:0:0:
256,192,10576,1,8,0:0:0:0:
256,192,10729,1,8,0:0:0:0:
256,192,11034,1,0,0:0:0:0:
256,192,11187,1,8,0:0:0:0:
256,192,11339,1,8,0:0:0:0:
256,192,11492,1,0,0:0:0:0:
256,192,11797,1,0,0:0:0:0:
256,192,11950,1,8,0:0:0:0:
256,192,12255,1,0,0:0:0:0:
256,192,13019,1,0,0:0:0:0:
256,192,13171,1,8,0:0:0:0:
256,192,13477,1,0,0:0:0:0:
256,192,13629,1,8,0:0:0:0:
256,192,13782,1,8,0:0:0:0:
256,192,13934,1,8,0:0:0:0:
256,192,14240,1,0,0:0:0:0:
256,192,14392,1,8,0:0:0:0:
256,192,14698,1,0,0:0:0:0:
256,192,15003,1,8,0:0:0:0:
256,192,15461,1,0,0:0:0:0:
256,192,15614,1,8,0:0:0:0:
256,192,15919,1,8,0:0:0:0:
256,192,16072,1,0,0:0:0:0:
256,192,16224,1,0,0:0:0:0:
256,192,16377,1,8,0:0:0:0:
256,192,16682,1,8,0:0:0:0:
256,192,16835,1,8,0:0:0:0:
256,192,17140,1,0,0:0:0:0:
256,192,17446,1,8,0:0:0:0:
256,192,17903,1,0,0:0:0:0:
256,192,18056,1,8,0:0:0:0:
256,192,18361,1,8,0:0:0:0:
256,192,18514,1,0,0:0:0:0:
256,192,18667,1,8,0:0:0:0:
256,192,18819,1,8,0:0:0:0:
256,192,19125,1,0,0:0:0:0:
256,192,19277,1,8,0:0:0:0:
256,192,19583,1,0,0:0:0:0:
256,192,19888,1,8,0:0:0:0:
256,192,20346,1,0,0:0:0:0:
256,192,20499,1,8,0:0:0:0:
256,192,20804,1,0,0:0:0:0:
256,192,20957,1,0,0:0:0:0:
256,192,21109,1,8,0:0:0:0:
256,192,21262,1,8,0:0:0:0:
256,192,21567,1,0,0:0:0:0:
256,192,21720,1,8,0:0:0:0:
256,192,22025,1,0,0:0:0:0:
256,192,22335,1,8,0:0:0:0:
256,192,22491,1,8,0:0:0:0:
256,192,22646,1,0,0:0:0:0:
256,192,23269,1,8,0:0:0:0:
256,192,23559,1,0,0:0:0:0:
256,192,23850,1,8,0:0:0:0:
256,192,24430,1,8,0:0:0:0:
256,192,24735,1,0,0:0:0:0:
256,192,24888,1,8,0:0:0:0:
256,192,25040,1,8,0:0:0:0:
256,192,25346,1,0,0:0:0:0:
256,192,25499,1,0,0:0:0:0:
256,192,25651,1,8,0:0:0:0:
256,192,25957,1,8,0:0:0:0:
256,192,26110,1,8,0:0:0:0:
256,192,26262,1,0,0:0:0:0:
256,192,26568,1,8,0:0:0:0:
256,192,26873,1,8,0:0:0:0:
256,192,27486,1,8,0:0:0:0:
256,192,27785,1,0,0:0:0:0:
256,192,27934,1,0,0:0:0:0:
256,192,28084,1,8,0:0:0:0:
256,192,28385,1,0,0:0:0:0:
256,192,28536,1,8,0:0:0:0:
256,192,28688,1,8,0:0:0:0:
256,192,29294,1,8,0:0:0:0:
256,192,29611,1,0,0:0:0:0:
256,192,29769,1,0,0:0:0:0:
256,192,29928,1,8,0:0:0:0:
256,192,30239,1,0,0:0:0:0:
256,192,30551,1,8,0:0:0:0:
256,192,30864,1,8,0:0:0:0:
256,192,31021,1,0,0:0:0:0:
256,192,31178,1,8,0:0:0:0:
256,192,31809,1,4,0:0:0:0:
256,192,32113,1,8,0:0:0:0:
256,192,32569,1,0,0:0:0:0:
256,192,32721,1,8,0:0:0:0:
256,192,33025,1,8,0:0:0:0:
256,192,33177,1,0,0:0:0:0:
256,192,33330,1,8,0:0:0:0:
256,192,33483,1,8,0:0:0:0:
256,192,33788,1,0,0:0:0:0:
256,192,33941,1,8,0:0:0:0:
256,192,34246,1,0,0:0:0:0:
256,192,34551,1,8,0:0:0:0:
256,192,35009,1,8,0:0:0:0:
256,192,35162,1,0,0:0:0:0:
256,192,35467,1,8,0:0:0:0:
256,192,35620,1,8,0:0:0:0:
256,192,35773,1,0,0:0:0:0:
256,192,35925,1,0,0:0:0:0:
256,192,36231,1,8,0:0:0:0:
256,192,36383,1,8,0:0:0:0:
256,192,36689,1,0,0:0:0:0:
256,192,36994,1,8,0:0:0:0:
256,192,37452,1,0,0:0:0:0:
256,192,37605,1,8,0:0:0:0:
256,192,37910,1,0,0:0:0:0:
256,192,38063,1,0,0:0:0:0:
256,192,38216,1,8,0:0:0:0:
256,192,38368,1,8,0:0:0:0:
256,192,38674,1,0,0:0:0:0:
256,192,38826,1,8,0:0:0:0:
256,192,39132,1,0,0:0:0:0:
256,192,39437,1,8,0:0:0:0:
256,192,39895,1,8,0:0:0:0:
256,192,40048,1,0,0:0:0:0:
256,192,40353,1,0,0:0:0:0:
256,192,40506,1,8,0:0:0:0:
256,192,40659,1,8,0:0:0:0:
256,192,40811,1,0,0:0:0:0:
256,192,41117,1,0,0:0:0:0:
256,192,41269,1,8,0:0:0:0:
256,192,41575,1,0,0:0:0:0:
256,192,42338,1,8,0:0:0:0:
256,192,42491,1,0,0:0:0:0:
256,192,42796,1,0,0:0:0:0:
256,192,42949,1,0,0:0:0:0:
256,192,43101,1,8,0:0:0:0:
256,192,43254,1,8,0:0:0:0:
256,192,43559,1,8,0:0:0:0:
256,192,43712,1,0,0:0:0:0:
256,192,44018,1,0,0:0:0:0:
256,192,44323,1,8,0:0:0:0:
256,192,44781,1,0,0:0:0:0:
256,192,44934,1,8,0:0:0:0:
256,192,45239,1,8,0:0:0:0:
256,192,45392,1,0,0:0:0:0:
256,192,45544,1,8,0:0:0:0:
256,192,45697,1,8,0:0:0:0:
256,192,46002,1,0,0:0:0:0:
256,192,46155,1,8,0:0:0:0:
256,192,46472,1,8,0:0:0:0:
256,192,47083,1,0,0:0:0:0:
256,192,47694,1,8,0:0:0:0:
256,192,48305,1,0,0:0:0:0:
256,192,48611,1,0,0:0:0:0:
256,192,48916,1,8,0:0:0:0:
256,192,49528,1,8,0:0:0:0:
256,192,50139,1,0,0:0:0:0:
256,192,50750,1,8,0:0:0:0:
256,192,51056,1,0,0:0:0:0:
256,192,51361,1,0,0:0:0:0:
