osu file format v14

[General]
AudioFilename: audio.mp3
AudioLeadIn: 0
PreviewTime: 48184
Countdown: 0
SampleSet: Soft
StackLeniency: 0.5
Mode: 0
LetterboxInBreaks: 0
WidescreenStoryboard: 1

[Editor]
Bookmarks: 8905,17835,22300,40161,49091,58021,61370,62486,63602,66951,84812
DistanceSpacing: 1.5
BeatDivisor: 4
GridSize: 32
TimelineZoom: 4.099998

[Metadata]
Title:jetset
TitleUnicode:jetset
Artist:cewer
ArtistUnicode:cewer
Creator:Shime
Version:mokobe's end
Source:
Tags:sewer deskrat hyperpop hyper pop hip hip-hop electronic breakcore glitch glitchcore core english azinlen ryxliee mokobe log on now log_on_now
BeatmapID:3373642
BeatmapSetID:1639936

[Difficulty]
HPDrainRate:5
CircleSize:4
OverallDifficulty:9
ApproachRate:9.6
SliderMultiplier:1.88
SliderTickRate:1

[Events]
//Background and Video events
0,0,"ddd.jpg",0,0
//Break Periods
2,40361,48341
//Storyboard Layer 0 (Background)
//Storyboard Layer 1 (Fail)
//Storyboard Layer 2 (Pass)
//Storyboard Layer 3 (Foreground)
//Storyboard Layer 4 (Overlay)
//Storyboard Sound Samples

[TimingPoints]
-25,279.06976744186,4,2,27,40,1,0
7788,-100,4,2,27,60,0,0
8068,-100,4,2,27,50,0,0
8626,-100,4,2,27,60,0,0
8905,-100,4,2,27,60,0,0
11974,-200,4,2,27,40,0,0
12812,-200,4,2,27,60,0,0
13370,-100,4,2,27,60,0,0
16998,-200,4,2,27,40,0,0
17835,-200,4,2,27,50,0,0
20068,-200,4,2,27,55,0,0
20905,-200,4,2,27,70,0,0
21184,-133.333333333333,4,2,27,65,0,0
22021,-133.333333333333,4,2,27,55,0,0
22230,-133.333333333333,4,2,27,55,0,0
22300,-50,4,2,27,80,0,0
22579,-66.6666666666667,4,2,27,80,0,0
22858,-50,4,2,27,80,0,0
23695,-66.6666666666667,4,2,27,80,0,0
24254,-50,4,2,27,80,0,0
24533,-66.6666666666667,4,2,27,80,0,0
24812,-40,4,2,27,80,0,0
25091,-100,4,2,27,80,0,0
25370,-25,4,2,27,80,0,0
25649,-35.7142857142857,4,2,27,80,0,0
25928,-66.6666666666667,4,2,27,80,0,0
26207,-40,4,2,27,80,0,0
26765,-50,4,2,27,80,0,0
27044,-66.6666666666667,4,2,27,80,0,0
27323,-50,4,2,27,80,0,0
28160,-66.6666666666667,4,2,27,80,0,0
28719,-50,4,2,27,80,0,0
28998,-66.6666666666667,4,2,27,80,0,0
29277,-40,4,2,27,80,0,0
29556,-100,4,2,27,80,0,0
29835,-25,4,2,27,80,0,0
30114,-35.7142857142857,4,2,27,80,0,0
30393,-66.6666666666667,4,2,27,80,0,0
30672,-40,4,2,27,80,0,0
31230,-50,4,2,27,80,0,1
31509,-66.6666666666667,4,2,27,80,0,1
31788,-50,4,2,27,80,0,1
32625,-66.6666666666667,4,2,27,80,0,1
33184,-50,4,2,27,80,0,1
33463,-66.6666666666667,4,2,27,80,0,1
33742,-40,4,2,27,80,0,1
34021,-100,4,2,27,80,0,1
34300,-25,4,2,27,80,0,1
34579,-35.7142857142857,4,2,27,80,0,1
34858,-66.6666666666667,4,2,27,80,0,1
35137,-40,4,2,27,80,0,1
35695,-50,4,2,27,80,0,1
35974,-66.6666666666667,4,2,27,80,0,1
36253,-50,4,2,27,80,0,1
37090,-66.6666666666667,4,2,27,80,0,1
37649,-50,4,2,27,80,0,1
37928,-66.6666666666667,4,2,27,80,0,1
38207,-40,4,2,27,80,0,1
38486,-100,4,2,27,80,0,1
38765,-25,4,2,27,80,0,1
39044,-35.7142857142857,4,2,27,80,0,1
39323,-66.6666666666667,4,2,27,80,0,1
39602,-40,4,2,27,80,0,1
40161,-40,4,2,27,40,0,0
48254,-40,4,2,27,45,0,0
48533,-40,4,2,27,50,0,0
48812,-40,4,2,27,55,0,0
49091,-100,4,2,27,60,0,0
56068,-100,4,2,27,45,0,0
56905,-100,4,2,27,60,0,0
58021,-100,4,2,27,70,0,0
61649,-100,4,2,27,40,0,0
61928,-50,4,2,27,40,0,0
63602,-50,4,2,27,65,0,0
64858,-100,4,2,27,65,0,0
66114,-100,4,2,27,45,0,0
66393,-100,4,2,27,35,0,0
66951,-50,4,2,27,80,0,0
67230,-66.6666666666667,4,2,27,80,0,0
67509,-50,4,2,27,80,0,0
68346,-66.6666666666667,4,2,27,80,0,0
68905,-50,4,2,27,80,0,0
69184,-66.6666666666667,4,2,27,80,0,0
69463,-40,4,2,27,80,0,0
69742,-100,4,2,27,80,0,0
70021,-25,4,2,27,80,0,0
70161,-50,4,2,27,80,0,0
70300,-35.7142857142857,4,2,27,80,0,0
70579,-66.6666666666667,4,2,27,80,0,0
70858,-40,4,2,27,80,0,0
71416,-50,4,2,27,80,0,0
71695,-66.6666666666667,4,2,27,80,0,0
71974,-50,4,2,27,80,0,0
72811,-66.6666666666667,4,2,27,80,0,0
73370,-50,4,2,27,80,0,0
73649,-66.6666666666667,4,2,27,80,0,0
73928,-40,4,2,27,80,0,0
74207,-100,4,2,27,80,0,0
74486,-50,4,2,27,80,0,0
74765,-35.7142857142857,4,2,27,80,0,0
75044,-66.6666666666667,4,2,27,80,0,0
75323,-40,4,2,27,80,0,0
75881,-50,4,2,27,80,0,1
76160,-66.6666666666667,4,2,27,80,0,1
76439,-50,4,2,27,80,0,1
77276,-66.6666666666667,4,2,27,80,0,1
77835,-50,4,2,27,80,0,1
78114,-66.6666666666667,4,2,27,80,0,1
78393,-40,4,2,27,80,0,1
78672,-100,4,2,27,80,0,1
78951,-25,4,2,27,80,0,1
79230,-35.7142857142857,4,2,27,80,0,1
79509,-66.6666666666667,4,2,27,80,0,1
79788,-40,4,2,27,80,0,1
80346,-50,4,2,27,80,0,1
80625,-66.6666666666667,4,2,27,80,0,1
80904,-50,4,2,27,80,0,1
81741,-66.6666666666667,4,2,27,80,0,1
82300,-50,4,2,27,80,0,1
82579,-66.6666666666667,4,2,27,80,0,1
82858,-40,4,2,27,80,0,1
83137,-100,4,2,27,80,0,1
83416,-25,4,2,27,80,0,1
83695,-35.7142857142857,4,2,27,80,0,1
83974,-66.6666666666667,4,2,27,80,0,1
84253,-40,4,2,27,80,0,1
84812,-1000,4,2,27,80,0,0
84847,-1000,4,2,27,80,0,0
84881,-1000,4,2,27,50,0,0
89242,-1000,4,2,27,5,0,0
89277,-1000,4,2,27,5,0,0

[Colours]
Combo1 : 141,54,54
Combo2 : 173,173,173
Combo3 : 135,136,143
Combo4 : 146,133,182
Combo5 : 180,120,190
Combo6 : 173,206,209
Combo7 : 115,139,168
SliderBorder : 230,230,250
SliderTrackOverride : 1,5,11

[HitObjects]
59,71,8486,5,2,0:0:0:0:
59,71,8626,1,2,1:2:0:0:
220,45,8765,1,2,1:2:0:0:
126,0,8905,6,0,P|138:71|144:128,1,94,2|8,1:2|0:0,0:0:0:0:
218,274,9184,2,0,P|224:227|232:181,1,94,2|0,0:0|1:2,0:0:0:0:
102,272,9463,1,8,0:0:0:0:
102,272,9602,1,2,0:0:0:0:
207,365,9742,1,2,1:2:0:0:
207,365,9881,1,10,0:0:0:0:
336,322,10021,86,0,P|409:298|421:257,1,94,2|8,0:0|0:0,0:0:0:0:
232,181,10300,2,0,L|109:207,1,94,2|0,1:2|0:0,0:0:0:0:
270,259,10579,1,8,0:0:0:0:
140,200,10719,1,0,1:2:0:0:
357,0,10858,2,0,B|348:91|293:36|287:153,1,141,2|0,1:2|0:0,0:0:0:0:
232,181,11137,6,0,L|109:207,1,94,2|8,1:2|0:0,0:0:0:0:
0,55,11416,2,0,B|8:52|8:52|118:85,1,94,2|0,0:0|1:2,0:0:0:0:
232,181,11695,1,10,0:0:0:0:
12,381,11974,86,0,L|5:340,1,23.5,2|0,0:0|0:0,0:0:0:0:
83,339,12114,2,0,L|86:362,1,23.5,2|0,0:0|0:0,0:0:0:0:
254,354,12254,6,0,P|277:317|266:281,1,70.5,2|0,0:0|0:0,0:0:0:0:
199,269,12533,2,0,P|176:306|187:342,1,70.5,2|0,0:0|0:0,0:0:0:0:
256,216,12812,85,0,1:2:0:0:
256,216,12881,1,0,1:2:0:0:
256,216,12951,1,2,1:2:0:0:
212,23,13091,1,2,1:2:0:0:
70,122,13230,1,2,1:2:0:0:
306,116,13370,6,0,P|255:121|189:124,1,94,2|8,1:2|0:0,0:0:0:0:
343,42,13649,1,0,0:0:0:0:
399,117,13788,1,0,1:2:0:0:
331,255,13928,86,0,P|190:240|107:233,1,188,8|2,0:0|1:2,0:0:0:0:
71,38,14347,1,10,0:0:0:0:
155,0,14486,2,0,P|166:65|130:90,1,94,2|8,0:0|0:0,0:0:0:0:
70,295,14765,2,0,B|77:350|36:355|23:365|23:365|14:352|-41:321|30:251,1,188,2|10,1:2|0:0,0:0:0:0:
202,185,15184,1,0,1:2:0:0:
202,185,15323,1,2,1:2:0:0:
70,295,15463,1,2,0:0:0:0:
164,337,15602,6,0,P|229:316|278:313,1,94,2|8,1:2|0:0,0:0:0:0:
339,106,15881,2,0,P|404:127|453:130,1,94,2|0,0:0|1:2,0:0:0:0:
512,263,16161,86,0,B|455:251|435:304|435:304|437:306|437:306|424:359|344:354,1,188,10|0,0:0|1:2,0:0:0:0:
202,194,16579,1,0,0:0:0:0:
254,313,16719,1,0,3:2:0:0:
84,0,16998,6,0,L|88:50,1,47,2|2,0:0|0:0,0:0:0:0:
155,109,17277,2,0,P|176:56|161:28,1,70.5,2|0,0:0|0:0,0:0:0:0:
9,59,17556,2,0,P|8:93|28:122,1,70.5,2|0,0:0|0:0,0:0:0:0:
104,185,17835,5,2,1:2:0:0:
106,204,17928,1,0,0:0:0:0:
108,223,18021,1,0,0:0:0:0:
23,199,18114,5,2,0:0:0:0:
25,218,18207,1,0,0:0:0:0:
27,237,18300,1,0,0:0:0:0:
60,307,18393,1,2,0:0:0:0:
60,307,18486,2,0,L|115:301,1,31.3333333333333
62,384,18672,1,2,1:2:0:0:
62,384,18765,2,0,L|116:378,1,47
219,226,18951,85,2,1:2:0:0:
248,230,19044,1,0,0:0:0:0:
278,233,19137,1,0,0:0:0:0:
209,303,19230,5,2,0:0:0:0:
238,306,19323,1,0,0:0:0:0:
267,310,19416,1,0,0:0:0:0:
323,384,19509,86,0,P|345:349|335:313,1,70.5,2|0,0:0|0:0,0:0:0:0:
267,307,19788,2,0,P|245:342|255:378,1,70.5,2|0,0:0|0:0,0:0:0:0:
497,151,20068,5,10,1:2:0:0:
480,113,20137,1,10,0:0:0:0:
446,91,20207,1,10,0:0:0:0:
406,89,20277,1,10,0:0:0:0:
370,108,20347,1,10,0:0:0:0:
154,99,20486,85,10,1:2:0:0:
186,123,20556,1,10,0:0:0:0:
226,127,20626,1,10,0:0:0:0:
260,28,20765,5,0,1:2:0:0:
228,4,20835,1,0,0:0:0:0:
188,0,20905,1,10,1:2:0:0:
182,2,20974,1,10,0:0:0:0:
176,4,21044,1,10,0:0:0:0:
85,271,21184,86,0,B|36:294|36:294|103:320,1,105.750004034043,2|0,1:2|0:0,0:0:0:0:
427,313,21463,6,0,B|475:294|475:294|426:271,1,105.750004034043,2|0,1:2|0:0,0:0:0:0:
256,192,21742,2,0,L|256:320,1,105.750004034043,2|0,1:2|0:0,0:0:0:0:
333,309,22021,86,0,L|333:360,1,35.2500013446808,2|0,0:0|0:0,0:0:0:0:
179,344,22161,6,0,L|179:309,1,35.2500013446808,2|0,0:0|0:0,0:0:0:0:
437,66,22300,6,0,B|494:47|485:-1|442:-35|398:-30|362:-12|293:72|397:137,1,282,2|0,1:2|0:0,0:0:0:0:
477,230,22579,6,0,P|506:181|496:153,1,70.5000026893617,2|0,0:0|0:0,0:0:0:0:
437,142,22719,2,0,P|407:190|417:218,1,70.5000026893617,2|0,0:0|0:0,0:0:0:0:
403,285,22858,86,0,B|389:344|437:360|488:340|506:299|508:259|469:157|360:215,1,282,10|0,0:0|0:0,0:0:0:0:
230,146,23137,2,0,B|185:104|147:137|138:191|165:227|198:250|307:267|311:143,1,282,2|0,1:2|0:0,0:0:0:0:
437,66,23416,2,0,B|494:47|485:-1|442:-35|398:-30|362:-12|293:72|397:137,1,282,2|0,0:0|0:0,0:0:0:0:
332,336,23695,6,0,B|324:342|324:342|259:331,1,70.5000026893617,2|0,1:2|0:0,0:0:0:0:
256,330,23835,1,2,0:0:0:0:
207,120,23974,1,10,0:0:0:0:
207,120,24114,1,2,1:2:0:0:
26,193,24254,86,0,B|-25:198|-61:258|-1:324|59:292|59:292|156:228,1,282,2|0,0:0|0:0,0:0:0:0:
179,34,24533,6,0,B|205:-3|266:-5|293:71|240:102|240:102|163:147,1,211.500008068085,2|0,1:2|0:0,0:0:0:0:
317,234,24812,86,0,B|307:222|307:222|181:195,1,117.5,2|0,0:0|0:0,0:0:0:0:
92,49,24951,2,0,L|131:159,1,117.5,2|0,0:0|0:0,0:0:0:0:
23,116,25091,2,0,L|29:76,2,23.5,10|0|2,0:0|0:0|0:0,0:0:0:0:
130,245,25230,1,2,0:0:0:0:
374,183,25370,6,0,P|471:184|513:105,1,188,2|0,1:2|0:0,0:0:0:0:
475,39,25509,2,0,P|377:37|335:116,1,188,2|0,0:0|0:0,0:0:0:0:
256,371,25649,86,0,B|267:365|267:365|234:-40,1,394.79998795166,2|0,0:0|0:0,0:0:0:0:
124,111,25928,6,0,L|31:90,1,70.5000026893617,2|0,1:2|0:0,0:0:0:0:
74,23,26068,2,0,B|111:17|111:17|138:37,1,70.5000026893617,2|0,0:0|0:0,0:0:0:0:
127,274,26207,86,0,B|149:241|117:209|117:209|46:195|46:195|5:197|-6:239|-6:239|23:305|23:305|40:360|-91:393,1,352.5,10|0,0:0|0:0,0:0:0:0:
114,384,26486,6,0,L|52:77,1,293.75,2|0,0:0|0:0,0:0:0:0:
256,371,26765,1,2,1:2:0:0:
256,371,26835,1,2,0:0:0:0:
256,371,26905,1,2,0:0:0:0:
55,96,27044,1,2,0:0:0:0:
114,384,27184,1,2,0:0:0:0:
354,142,27323,86,0,B|325:117|325:117|319:21|432:11|432:11|411:52|453:135,1,282,10|0,0:0|0:0,0:0:0:0:
152,110,27602,1,2,1:2:0:0:
152,110,27881,6,0,L|482:79,1,282,2|0,1:2|0:0,0:0:0:0:
473,157,28161,86,0,B|502:131|502:131|528:112|491:50,1,70.5000026893617,2|0,1:2|0:0,0:0:0:0:
360,119,28301,2,0,B|349:81|349:81|338:51|403:19,1,70.5000026893617,2|0,0:0|0:0,0:0:0:0:
491,22,28440,2,0,L|383:-12,1,70.5000026893617,10|0,0:0|0:0,0:0:0:0:
432,83,28579,1,2,1:2:0:0:
397,199,28719,6,0,B|408:271|304:287|258:220|283:161|283:161|294:126|267:92,1,282,2|0,0:0|0:0,0:0:0:0:
13,203,28998,86,0,B|43:208|43:208|223:135,1,211.500008068085,2|0,1:2|0:0,0:0:0:0:
211,58,29277,2,0,B|162:37|162:37|107:40|116:124,1,117.5,2|0,0:0|0:0,0:0:0:0:
281,24,29416,2,0,B|329:44|329:44|384:41|375:-42,1,117.5,2|0,0:0|0:0,0:0:0:0:
117,76,29556,2,0,L|124:106,2,23.5,10|0|2,0:0|0:0|0:0,0:0:0:0:
276,105,29695,1,2,0:0:0:0:
209,231,29835,6,0,B|180:230|156:242|156:242|133:139|236:136,1,188,2|0,1:2|0:0,0:0:0:0:
216,234,29974,2,0,L|-14:200,1,188,2|0,0:0|0:0,0:0:0:0:
23,354,30114,86,0,B|95:289|95:289|71:251|78:187|78:187|-35:252|26:373,1,394.79998795166,2|0,0:0|0:0,0:0:0:0:
13,59,30393,2,0,B|5:78|5:78|46:151,1,70.5000026893617,2|0,1:2|0:0,0:0:0:0:
271,321,30533,2,0,L|181:302,1,70.5000026893617,2|0,0:0|0:0,0:0:0:0:
23,354,30672,5,10,0:0:0:0:
19,359,30812,1,0,1:2:0:0:
512,56,31230,86,0,B|486:18|443:26|443:26|309:52|309:52|350:70|361:124,1,282,2|0,1:2|0:0,0:0:0:0:
500,205,31509,2,0,L|516:118,1,70.5000026893617,2|0,0:0|0:0,0:0:0:0:
423,192,31649,2,0,L|439:105,1,70.5000026893617,2|0,0:0|0:0,0:0:0:0:
278,122,31788,6,0,B|298:168|332:172|337:166|342:160|405:174|388:250|388:250|318:257|321:339,1,282,10|0,0:0|0:0,0:0:0:0:
398,366,32068,2,0,B|425:351|424:329|424:329|232:305|232:305|230:330|261:379,1,282,2|0,1:2|0:0,0:0:0:0:
50,121,32347,86,0,B|38:88|15:67|15:67|5:45|13:0|13:0|7:4|-1:6|-1:6|35:32|42:55|42:55|38:88|52:126,1,282,2|0,0:0|0:0,0:0:0:0:
167,39,32626,6,0,B|142:40|142:40|103:116,1,70.5000026893617,2|0,1:2|0:0,0:0:0:0:
164,216,32765,2,0,L|115:136,1,70.5000026893617,2|0,0:0|0:0,0:0:0:0:
50,121,32905,1,10,0:0:0:0:
192,113,33044,1,2,1:2:0:0:
52,201,33184,86,0,B|0:222|0:222|-24:309|-24:309|62:279|62:279|79:235,1,282,2|0,0:0|0:0,0:0:0:0:
192,113,33463,6,0,B|256:106|273:168|273:168|268:171|268:171|305:235|378:206,1,211.500008068085,2|0,1:2|0:0,0:0:0:0:
416,138,33742,2,0,B|418:159|466:187|466:187|417:161|377:181,1,117.5,2|0,0:0|0:0,0:0:0:0:
192,113,33881,2,0,B|194:95|194:95|260:74|260:74|283:93,1,117.5,2|0,0:0|0:0,0:0:0:0:
358,36,34021,2,0,L|365:3,2,23.5,10|0|2,0:0|0:0|0:0,0:0:0:0:
343,136,34161,1,2,0:0:0:0:
467,65,34300,86,0,B|456:61|456:61|264:96,1,188,2|0,1:2|0:0,0:0:0:0:
467,65,34440,6,0,B|456:61|456:61|264:96,1,188,2|0,0:0|0:0,0:0:0:0:
11,15,34579,86,0,B|52:-16|52:-16|122:-12|134:48|134:48|130:53|130:53|149:120|201:112|201:112|190:33|273:7,1,394.79998795166,2|0,0:0|0:0,0:0:0:0:
262,14,34858,2,0,L|360:-5,1,70.5000026893617,2|0,1:2|0:0,0:0:0:0:
282,92,34998,2,0,L|351:78,1,70.5000026893617,2|0,0:0|0:0,0:0:0:0:
435,235,35137,6,0,B|438:207|488:171|570:203|592:271|517:471|425:212|350:417,1,352.5,10|0,0:0|0:0,0:0:0:0:
358,209,35416,86,0,B|374:185|360:125|278:95|216:130|138:329|379:198|298:401,1,352.5,2|0,0:0|0:0,0:0:0:0:
431,134,35695,5,2,1:2:0:0:
431,134,35765,1,2,0:0:0:0:
431,134,35835,1,2,0:0:0:0:
237,370,35974,2,0,L|127:347,1,70.5000026893617,2|0,0:0|0:0,0:0:0:0:
92,141,36114,2,0,B|98:144|98:144|109:233,1,70.5000026893617,2|0,0:0|0:0,0:0:0:0:
23,384,36254,2,0,B|37:379|37:379|44:288,1,94,10|0,0:0|0:0,0:0:0:0:
122,284,36393,1,0,0:0:0:0:
0,0,36533,85,2,1:2:0:0:
380,140,36812,6,0,B|330:83|410:35|410:35|521:71|521:71|522:101|495:128|495:128,1,282,2|0,1:2|0:0,0:0:0:0:
456,165,37091,2,0,B|460:172|460:172|429:262,1,70.5000026893617,2|0,1:2|0:0,0:0:0:0:
363,206,37230,2,0,B|359:199|359:199|390:109,1,70.5000026893617,2|0,0:0|0:0,0:0:0:0:
274,63,37370,2,0,P|297:44|298:-6,1,70.5000026893617,10|0,0:0|0:0,0:0:0:0:
138,85,37509,2,0,B|116:100|116:100|15:72,1,70.5000026893617,2|0,1:2|0:0,0:0:0:0:
0,0,37649,86,0,L|314:72,1,282,2|0,0:0|0:0,0:0:0:0:
208,135,37928,2,0,B|200:119|200:119|37:81|37:81|7:94,1,211.500008068085,2|0,1:2|0:0,0:0:0:0:
190,208,38207,2,0,P|270:189|256:94,1,117.5,2|0,0:0|0:0,0:0:0:0:
274,63,38347,2,0,L|129:30,1,117.5,2|0,0:0|0:0,0:0:0:0:
70,184,38486,2,0,L|106:167,2,23.5,10|0|2,0:0|0:0|0:0,0:0:0:0:
110,258,38626,1,2,0:0:0:0:
21,309,38765,6,0,L|240:285,1,188,2|0,1:2|0:0,0:0:0:0:
218,362,38905,2,0,L|31:382,1,188,2|0,0:0|0:0,0:0:0:0:
247,225,39044,86,0,B|287:241|294:274|294:274|323:300|323:300|336:366|336:366|330:376|330:387|330:387|324:378|313:371|313:371|299:305|299:305|316:269|316:269|311:239|339:210,1,394.79998795166,2|0,0:0|0:0,0:0:0:0:
397,280,39323,2,0,L|419:383,1,70.5000026893617,2|0,1:2|0:0,0:0:0:0:
471,266,39463,2,0,L|493:369,1,70.5000026893617,2|0,0:0|0:0,0:0:0:0:
420,196,39602,6,0,B|500:178|500:178|516:105|435:45|426:153|336:105|314:29|379:-25|379:-25,1,352.5,10|0,0:0|0:0,0:0:0:0:
498,15,39881,2,0,P|496:48|402:77,1,117.5,2|0,1:2|0:0,0:0:0:0:
201,122,40021,2,0,B|200:121|200:121|213:117|213:117|318:145,1,117.5,0|0,1:2|0:0,0:0:0:0:
420,196,40161,1,6,1:2:0:0:
18,12,49091,54,0,L|88:28,1,47,2|0,1:2|0:0,0:0:0:0:
139,108,49230,2,0,L|209:92,1,47,2|0,3:0|0:0,0:0:0:0:
283,0,49370,1,8,0:0:0:0:
299,1,49440,1,0,0:0:0:0:
326,17,49509,1,2,3:0:0:0:
340,59,49579,1,2,3:0:0:0:
328,96,49649,2,0,L|311:114,6,23.5,2|0|2|0|2|0|2,1:2|1:2|1:2|1:2|1:2|1:2|1:2,0:0:0:0:
182,14,49928,1,8,0:0:0:0:
182,14,50068,1,8,0:0:0:0:
423,89,50207,6,0,L|549:128,1,94,0|2,1:2|3:0,0:0:0:0:
457,303,50486,1,10,0:0:0:0:
378,282,50626,2,0,B|361:323|361:323|411:368,1,94,2|2,1:2|0:0,0:0:0:0:
457,303,51044,1,2,1:2:0:0:
139,304,51184,1,4,1:3:0:0:
139,304,51254,1,4,1:3:0:0:
139,304,51323,86,0,L|-35:331,1,141,0|0,1:2|0:0,0:0:0:0:
182,370,51602,1,10,0:0:0:0:
61,229,51742,1,2,3:0:0:0:
72,228,51812,1,2,3:0:0:0:
95,196,51881,1,8,3:0:0:0:
89,140,51951,1,4,3:0:0:0:
45,115,52021,2,0,L|-21:130,1,47,2|0,1:2|0:0,0:0:0:0:
138,0,52161,1,8,0:0:0:0:
138,0,52300,1,2,3:2:0:0:
235,82,52440,6,0,L|335:102,1,94,2|2,1:2|0:0,0:0:0:0:
481,237,52719,1,10,0:0:0:0:
481,237,52858,1,2,3:0:0:0:
509,16,52998,2,0,P|499:69|451:89,1,94,10|0,3:0|1:2,0:0:0:0:
366,187,53277,2,0,L|382:343,1,141,10|2,0:0|3:0,0:0:0:0:
382,339,53556,85,0,1:2:0:0:
465,268,53695,5,10,0:0:0:0:
465,268,53730,1,0,0:0:0:0:
279,273,53835,85,10,0:0:0:0:
279,273,53870,1,0,0:0:0:0:
98,260,54114,5,10,3:0:0:0:
172,204,54393,1,2,1:2:0:0:
118,149,54533,1,2,1:2:0:0:
118,149,54602,1,2,1:2:0:0:
118,149,54672,86,0,L|111:34,1,94,2|2,1:2|3:0,0:0:0:0:
40,15,54951,1,10,0:0:0:0:
214,119,55091,2,0,B|308:117|265:25|387:40,1,188,2|0,3:0|1:2,0:0:0:0:
372,38,55440,1,0,0:0:0:0:
372,38,55509,1,10,0:0:0:0:
437,102,55649,1,2,3:2:0:0:
371,300,55788,2,0,P|349:269|358:233,1,47,2|0,1:2|0:0,0:0:0:0:
393,200,55928,2,0,L|458:215,1,47,2|0,3:0|0:0,0:0:0:0:
500,159,56068,1,10,0:0:0:0:
12,52,57184,6,0,L|130:32,1,94,10|2,0:0|3:0,0:0:0:0:
104,36,57393,1,2,3:0:0:0:
104,36,57463,1,10,3:0:0:0:
251,106,57602,1,2,1:2:0:0:
100,313,57742,1,8,0:0:0:0:
87,315,57812,1,0,0:0:0:0:
58,295,57881,1,0,3:0:0:0:
41,241,57951,1,2,3:0:0:0:
70,192,58021,86,0,B|113:164|113:164|164:178,1,94,2|2,1:2|3:0,0:0:0:0:
399,228,58300,2,0,B|356:256|356:256|314:244,1,94,10|2,0:0|3:0,0:0:0:0:
314,244,58509,1,2,3:0:0:0:
314,244,58579,1,8,3:0:0:0:
229,0,58719,1,2,1:2:0:0:
292,64,58858,1,8,0:0:0:0:
70,192,58998,1,2,3:2:0:0:
70,192,59068,1,2,3:0:0:0:
70,192,59137,6,0,L|186:177,1,94,0|2,1:2|3:0,0:0:0:0:
366,0,59416,2,0,P|396:61|366:99,1,94,10|2,0:0|3:0,0:0:0:0:
387,79,59626,1,2,3:0:0:0:
387,79,59695,1,10,3:0:0:0:
197,285,59835,1,2,1:2:0:0:
134,32,59974,1,10,0:0:0:0:
349,195,60114,1,0,3:2:0:0:
349,195,60184,1,2,3:0:0:0:
349,195,60254,86,0,L|477:178,1,94,2|2,1:2|3:0,0:0:0:0:
442,182,60463,1,0,0:0:0:0:
442,182,60533,1,10,0:0:0:0:
228,110,60672,1,2,3:0:0:0:
370,283,60812,1,8,3:0:0:0:
370,283,60881,1,4,3:0:0:0:
370,283,60951,1,2,1:2:0:0:
450,88,61091,1,8,0:0:0:0:
263,368,61230,5,2,3:2:0:0:
263,368,61300,1,2,3:0:0:0:
263,368,61370,1,2,1:2:0:0:
231,14,61509,1,2,1:2:0:0:
263,211,61928,86,0,L|257:236,14,23.5,2|0|0|0|0|0|0|0|0|0|0|0|0|0|0,1:2|1:2|1:2|1:2|1:2|1:2|1:2|1:2|1:2|1:2|1:2|1:2|1:2|1:2|1:2,0:0:0:0:
238,199,62207,6,0,L|227:141,7,47,2|0|0|0|0|0|0|0,1:2|1:2|1:2|1:2|1:2|1:2|1:2|1:2,0:0:0:0:
245,130,62486,85,2,0:0:0:0:
330,23,63602,5,2,1:2:0:0:
330,23,63742,1,2,3:0:0:0:
124,100,63881,1,8,0:0:0:0:
346,116,64021,1,2,3:0:0:0:
346,116,64091,1,2,3:0:0:0:
346,116,64161,1,8,3:0:0:0:
229,2,64300,1,0,1:2:0:0:
229,2,64440,1,8,0:0:0:0:
203,225,64580,1,0,3:2:0:0:
203,225,64649,1,2,3:0:0:0:
203,225,64719,1,2,1:2:0:0:
346,116,64858,86,0,L|323:-23,1,94,2|8,3:0|0:0,0:0:0:0:
203,225,65137,1,2,3:0:0:0:
203,225,65207,1,2,3:0:0:0:
203,225,65277,1,10,3:0:0:0:
452,141,65416,1,0,1:2:0:0:
231,81,65556,1,10,0:0:0:0:
231,81,65695,1,0,3:2:0:0:
341,207,65835,1,0,1:2:0:0:
434,134,66951,22,0,B|517:66|517:66|371:35|371:35|348:72,1,282,2|0,1:2|0:0,0:0:0:0:
373,133,67230,2,0,B|385:149|385:149|481:119,1,70.5000026893617,2|0,0:0|0:0,0:0:0:0:
417,57,67370,2,0,B|405:41|405:41|309:71,1,70.5000026893617,2|0,0:0|0:0,0:0:0:0:
434,134,67509,6,0,B|517:66|517:66|371:35|371:35|348:72,1,282,10|0,0:0|0:0,0:0:0:0:
275,226,67788,86,0,B|292:331|292:331|392:220|392:220|371:182,1,282,2|0,1:2|0:0,0:0:0:0:
274,42,68068,6,0,B|173:4|173:4|219:146|219:146|263:147,1,282,2|0,0:0|0:0,0:0:0:0:
422,311,68347,86,0,L|529:294,1,70.5000026893617,2|0,1:2|0:0,0:0:0:0:
499,290,68486,1,2,0:0:0:0:
327,134,68626,1,10,0:0:0:0:
327,134,68765,1,2,1:2:0:0:
52,276,68905,6,0,B|18:284|18:284|-18:291|-34:329|-12:364|22:363|22:363|174:329,1,282,2|0,0:0|0:0,0:0:0:0:
52,276,69184,86,0,B|82:268|82:268|115:262|129:228|109:196|79:197|79:197|-57:228,1,211.500008068085,2|0,1:2|0:0,0:0:0:0:
145,335,69463,6,0,B|159:378|159:378|249:355,1,117.5,2|0,0:0|0:0,0:0:0:0:
271,293,69602,86,0,B|257:250|257:250|167:273,1,117.5,2|0,0:0|0:0,0:0:0:0:
316,360,69742,1,10,0:0:0:0:
316,360,69812,1,2,0:0:0:0:
316,360,69881,1,2,0:0:0:0:
1,3,70021,6,0,P|21:84|133:58,1,188,2|0,1:2|0:0,0:0:0:0:
112,86,70161,86,0,P|99:34|27:50,1,94,2|0,0:0|0:0,0:0:0:0:
1,163,70300,2,0,B|26:207|26:207|174:115|361:176,1,394.79998795166,2|0,0:0|0:0,0:0:0:0:
357,174,70579,2,0,L|373:102,1,70.5000026893617,2|0,1:2|0:0,0:0:0:0:
436,192,70719,2,0,L|452:120,1,70.5000026893617,2|0,0:0|0:0,0:0:0:0:
199,30,70858,6,0,B|201:15|154:-9|154:-9|267:-15|267:-15|297:50|256:104|215:82|194:146,1,352.5,10|0,0:0|0:0,0:0:0:0:
276,271,71137,86,0,B|274:286|321:310|321:310|208:316|208:316|178:251|219:197|260:219|281:155,1,352.5,2|0,0:0|0:0,0:0:0:0:
275,170,71416,1,2,1:2:0:0:
275,170,71486,1,2,0:0:0:0:
275,170,71556,1,2,0:0:0:0:
407,25,71695,1,2,0:0:0:0:
131,65,71835,1,2,0:0:0:0:
440,275,71974,6,0,B|488:267|488:267|518:264|550:298|525:340|497:342|497:342|380:358,1,282,10|0,0:0|0:0,0:0:0:0:
95,319,72254,1,2,1:2:0:0:
95,319,72533,86,0,B|73:357|121:409|186:384|192:362|208:235|83:236,1,282,2|0,1:2|0:0,0:0:0:0:
31,257,72812,2,0,P|32:203|47:183,1,70.5000026893617,2|0,1:2|0:0,0:0:0:0:
184,216,72952,2,0,P|183:270|168:290,1,70.5000026893617,2|0,0:0|0:0,0:0:0:0:
103,237,73091,1,10,0:0:0:0:
269,65,73230,1,2,1:2:0:0:
452,95,73370,6,0,B|462:174|382:198|321:160|311:78|353:111|384:40|297:-7,1,282,2|0,0:0|0:0,0:0:0:0:
60,97,73649,86,0,L|277:64,1,211.500008068085,2|0,1:2|0:0,0:0:0:0:
452,95,73928,6,0,B|457:57|457:57|348:37,1,117.5,2|0,0:0|0:0,0:0:0:0:
340,107,74068,2,0,B|335:145|335:145|444:165,1,117.5,2|0,0:0|0:0,0:0:0:0:
269,65,74207,2,0,L|228:45,2,23.5,10|0|2,0:0|0:0|0:0,0:0:0:0:
488,165,74347,1,2,0:0:0:0:
488,277,74486,86,0,B|452:265|452:265|419:269|411:302|405:347,1,94,2|0,1:2|0:0,0:0:0:0:
439,371,74591,2,0,B|475:383|475:383|508:379|516:346|522:301,1,94
349,365,74765,6,0,B|291:393|238:349|272:337|206:286|134:317|126:366|126:366|156:326|206:333,1,328.999989959717,2|0,0:0|0:0,0:0:0:0:
318,293,75044,2,0,B|325:286|325:286|311:202,1,70.5000026893617,2|0,1:2|0:0,0:0:0:0:
232,227,75184,2,0,B|225:234|225:234|239:318,1,70.5000026893617,2|0,0:0|0:0,0:0:0:0:
0,383,75323,1,10,0:0:0:0:
1,0,75602,6,0,B|-13:37|35:21|0:0,4,58.75
512,85,75881,70,0,B|488:109|488:109|400:61|273:86|273:86|258:39,1,282,2|0,1:2|0:0,0:0:0:0:
264,59,76161,2,0,P|253:37|260:59,1,70.5000026893617,2|0,0:0|0:0,0:0:0:0:
353,11,76300,2,0,P|363:32|356:10,1,70.5000026893617,2|0,0:0|0:0,0:0:0:0:
512,85,76440,6,0,B|524:148|467:175|460:133|404:177|419:232|419:232|471:222|502:272,1,282,10|0,0:0|0:0,0:0:0:0:
499,271,76719,86,0,B|537:363|537:363|352:319,1,282,2|0,1:2|0:0,0:0:0:0:
351,316,76998,2,0,B|303:293|288:252|288:252|247:268|253:325|253:325|300:300|360:323,1,282,2|0,0:0|0:0,0:0:0:0:
88,359,77277,6,0,B|96:355|96:355|105:287,1,70.5000026893617,2|0,1:2|0:0,0:0:0:0:
176,370,77416,2,0,B|169:364|169:364|176:296,1,70.5000026893617,2|0,0:0|0:0,0:0:0:0:
366,231,77556,1,10,0:0:0:0:
0,79,77695,86,0,B|33:71|33:71|37:67|37:67|85:56,1,70.5000026893617,2|0,1:2|0:0,0:0:0:0:
418,156,77835,6,0,B|468:168|468:168|518:180|533:110|482:99|482:99|356:68,1,282,2|0,0:0|0:0,0:0:0:0:
224,0,78114,86,0,B|250:17|250:17|267:222,1,211.500008068085,2|0,1:2|0:0,0:0:0:0:
324,246,78393,6,0,B|308:269|283:273|283:273|293:287|311:280|311:280|326:244,1,117.5,2|0,0:0|0:0,0:0:0:0:
187,145,78533,2,0,B|203:122|228:118|228:118|218:104|200:111|200:111|185:147,1,117.5,2|0,0:0|0:0,0:0:0:0:
264,196,78672,1,10,0:0:0:0:
264,196,78742,1,2,0:0:0:0:
264,196,78812,1,2,0:0:0:0:
6,350,78951,86,0,B|30:379|30:379|94:332|178:348,1,188,2|0,1:2|0:0,0:0:0:0:
6,350,79091,6,0,B|30:379|30:379|94:332|178:348,1,188,2|0,0:0|0:0,0:0:0:0:
406,273,79230,86,0,B|500:271|500:271|501:376|501:376|334:344|334:344|327:308|316:289|285:274|293:293,1,394.79998795166,2|0,0:0|0:0,0:0:0:0:
258,335,79509,2,0,B|244:291|244:291|234:278|223:280,1,70.5000026893617,2|0,1:2|0:0,0:0:0:0:
325,310,79649,2,0,B|311:267|311:267|312:250|322:245,1,70.5000026893617,2|0,0:0|0:0,0:0:0:0:
413,57,79788,6,0,B|413:28|459:-12|543:11|572:76|519:283|400:35|347:246,1,352.5,10|0,0:0|0:0,0:0:0:0:
333,39,80067,86,0,B|346:13|326:-44|241:-66|183:-24|126:181|352:25|293:236,1,352.5,2|0,0:0|0:0,0:0:0:0:
157,340,80347,5,2,1:2:0:0:
157,340,80416,1,2,0:0:0:0:
157,340,80486,2,0,L|260:322,1,94,2|0,0:0|0:0,0:0:0:0:
221,249,80626,2,0,L|151:260,1,70.5000026893617,2|0,0:0|0:0,0:0:0:0:
310,376,80765,1,2,0:0:0:0:
18,334,80905,86,0,B|57:320|69:289|60:261|60:261|50:220|50:220|44:191|61:145|131:153|131:153|84:160|79:221,1,329,10|0,0:0|0:0,0:0:0:0:
83,195,81184,1,2,1:2:0:0:
501,98,81463,6,0,B|530:118|535:161|535:161|453:91|337:101,1,282,2|0,1:2|0:0,0:0:0:0:
342,101,81742,2,0,P|385:82|395:41,1,70.5000026893617,2|0,1:2|0:0,0:0:0:0:
348,1,81881,2,0,P|304:19|294:60,1,70.5000026893617,2|0,0:0|0:0,0:0:0:0:
501,99,82021,1,10,0:0:0:0:
501,98,82161,1,2,1:2:0:0:
70,82,82300,86,0,B|57:57|12:53|-48:95|3:167|47:185|146:173|150:86,1,282,2|0,0:0|0:0,0:0:0:0:
4,245,82579,6,0,P|51:156|159:105,1,211.500008068085,2|0,1:2|0:0,0:0:0:0:
146,106,82858,2,0,B|216:134|216:134|240:93,1,117.5,2|0,0:0|0:0,0:0:0:0:
222,21,82998,2,0,B|152:-7|152:-7|128:34,1,117.5,2|0,0:0|0:0,0:0:0:0:
303,41,83137,1,10,0:0:0:0:
303,41,83207,1,2,0:0:0:0:
303,41,83277,1,2,0:0:0:0:
247,384,83416,86,0,B|259:289|259:289|257:283|257:283|268:192|268:192,1,188,2|0,1:2|0:0,0:0:0:0:
247,384,83556,6,0,B|259:289|259:289|257:283|257:283|268:192|268:192,1,188,2|0,0:0|0:0,0:0:0:0:
478,221,83695,86,0,B|465:190|489:159|489:159|517:109|467:83|467:83|294:118|294:118|340:128|351:173,1,394.79998795166,2|0,0:0|0:0,0:0:0:0:
267,197,83974,2,0,L|169:222,1,70.5000026893617,2|0,1:2|0:0,0:0:0:0:
289,273,84114,2,0,L|191:298,1,70.5000026893617,2|0,0:0|0:0,0:0:0:0:
365,254,84254,6,0,B|372:281|364:305|364:305|390:290|387:267|387:267|356:246,1,117.5,10|0,0:0|0:0,0:0:0:0:
26,98,84393,85,0,1:2:0:0:
246,51,84533,1,2,1:2:0:0:
289,273,84672,1,0,1:2:0:0:
69,317,84812,22,0,B|75:317|75:317|74:322|82:322|82:322|80:327|80:327|81:327|91:324|93:319|93:319|99:325|100:327|99:329|102:336|106:336|109:332|109:332|113:324|115:323|115:323|118:333|118:333|119:341|120:342|121:342|127:339|129:338|129:338|131:335|131:334|131:334|133:332|135:332|139:336|139:336|138:341|141:343|143:344|143:344|146:337|147:336|147:336|149:338|149:343|149:343|151:343|153:342|153:340|156:339|158:339|158:339|159:348|159:348|166:343|168:341|168:344|168:349|169:351|169:351|171:352|176:350|179:348|179:348|180:345|180:345|180:344|184:345|184:345|184:346|184:348|184:348|184:350|185:351|185:351|186:354|188:354|187:355|188:357|189:359|189:359|192:359|195:355|195:355|195:354|196:354|196:354|197:353|198:352|198:352|199:353|201:351|203:352|204:353|205:357|205:357|204:358|204:360|203:361|206:363|212:361|214:361|214:361|213:360|213:360|215:356|215:355|216:355|217:356|218:358|219:358|219:362|218:365|218:367|218:368|220:369|221:367|223:366|223:365|224:362|225:359|225:359|225:363|225:364|227:363|232:363|230:369|230:369|231:366|235:364|235:364|236:370|236:370,1,298.45,6|0,1:2|0:0,0:0:0:0:
