osu file format v14

[General]
AudioFilename: audio.mp3
AudioLeadIn: 0
PreviewTime: 48184
Countdown: 0
SampleSet: Soft
StackLeniency: 0.5
Mode: 0
LetterboxInBreaks: 0
WidescreenStoryboard: 0

[Editor]
Bookmarks: 8905,17835,22300,40161,49091,58021,61370,62486,63602,66951,84812
DistanceSpacing: 1.5
BeatDivisor: 4
GridSize: 32
TimelineZoom: 4.099998

[Metadata]
Title:jetset
TitleUnicode:jetset
Artist:cewer
ArtistUnicode:cewer
Creator:Shime
Version:extra
Source:
Tags:sewer deskrat hyperpop hyper pop hip hip-hop electronic breakcore glitch glitchcore core english azinlen ryxliee mokobe log on now log_on_now
BeatmapID:3347203
BeatmapSetID:1639936

[Difficulty]
HPDrainRate:5.5
CircleSize:4.2
OverallDifficulty:8.8
ApproachRate:9.5
SliderMultiplier:1.85
SliderTickRate:1

[Events]
//Background and Video events
0,0,"ddd.jpg",0,0
//Break Periods
2,40361,46258
//Storyboard Layer 0 (Background)
//Storyboard Layer 1 (Fail)
//Storyboard Layer 2 (Pass)
//Storyboard Layer 3 (Foreground)
//Storyboard Layer 4 (Overlay)
//Storyboard Sound Samples

[TimingPoints]
-25,279.06976744186,4,2,27,40,1,0
7788,-166.666666666667,4,2,27,60,0,0
8068,-166.666666666667,4,2,27,50,0,0
8626,-166.666666666667,4,2,27,60,0,0
8905,-111.111111111111,4,2,27,60,0,0
11974,-111.111111111111,4,2,27,40,0,0
12812,-111.111111111111,4,2,27,60,0,0
14137,-111.111111111111,4,2,27,5,0,0
14207,-111.111111111111,4,2,27,60,0,0
14974,-111.111111111111,4,2,27,60,0,0
15044,-111.111111111111,4,2,27,60,0,0
16370,-111.111111111111,4,2,27,5,0,0
16440,-111.111111111111,4,2,27,60,0,0
16998,-111.111111111111,4,2,27,40,0,0
17835,-142.857142857143,4,2,27,50,0,0
20068,-142.857142857143,4,2,27,55,0,0
20486,-133.333333333333,4,2,27,55,0,0
20765,-125,4,2,27,55,0,0
20905,-125,4,2,27,70,0,0
21184,-117.647058823529,4,2,27,65,0,0
21393,-117.647058823529,4,2,27,5,0,0
21463,-111.111111111111,4,2,27,65,0,0
21672,-117.647058823529,4,2,27,5,0,0
21742,-105.263157894737,4,2,27,65,0,0
21951,-117.647058823529,4,2,27,5,0,0
22021,-250,4,2,27,55,0,0
22300,-90.9090909090909,4,2,27,80,0,0
22509,-90.9090909090909,4,2,27,5,0,0
22579,-90.9090909090909,4,2,27,80,0,0
22649,-90.9090909090909,4,2,27,5,0,0
22719,-90.9090909090909,4,2,27,80,0,0
22788,-90.9090909090909,4,2,27,5,0,0
22858,-90.9090909090909,4,2,27,80,0,0
23347,-90.9090909090909,4,2,27,5,0,0
23416,-90.9090909090909,4,2,27,80,0,0
24254,-166.666666666667,4,2,27,80,0,0
24463,-166.666666666667,4,2,27,5,0,0
24533,-90.9090909090909,4,2,27,80,0,0
24742,-90.9090909090909,4,2,27,5,0,0
24812,-90.9090909090909,4,2,27,80,0,0
24881,-90.9090909090909,4,2,27,5,0,0
24951,-90.9090909090909,4,2,27,80,0,0
25021,-90.9090909090909,4,2,27,5,0,0
25091,-90.9090909090909,4,2,27,80,0,0
26207,-125,4,2,27,80,0,0
26765,-90.9090909090909,4,2,27,80,0,0
26974,-90.9090909090909,4,2,27,5,0,0
27044,-90.9090909090909,4,2,27,80,0,0
27114,-90.9090909090909,4,2,27,5,0,0
27184,-90.9090909090909,4,2,27,80,0,0
27254,-90.9090909090909,4,2,27,5,0,0
27323,-90.9090909090909,4,2,27,80,0,0
27602,-250,4,2,27,80,0,0
27812,-250,4,2,27,5,0,0
27881,-90.9090909090909,4,2,27,80,0,0
28719,-166.666666666667,4,2,27,80,0,0
28928,-166.666666666667,4,2,27,5,0,0
28998,-90.9090909090909,4,2,27,80,0,0
29207,-90.9090909090909,4,2,27,5,0,0
29277,-90.9090909090909,4,2,27,80,0,0
29347,-90.9090909090909,4,2,27,5,0,0
29416,-90.9090909090909,4,2,27,80,0,0
29486,-90.9090909090909,4,2,27,5,0,0
29556,-90.9090909090909,4,2,27,80,0,0
30672,-125,4,2,27,80,0,0
31230,-83.3333333333333,4,2,27,80,0,0
31440,-83.3333333333333,4,2,27,5,0,0
31509,-83.3333333333333,4,2,27,80,0,0
31579,-83.3333333333333,4,2,27,5,0,0
31649,-83.3333333333333,4,2,27,80,0,0
31719,-83.3333333333333,4,2,27,5,0,0
31788,-83.3333333333333,4,2,27,80,0,0
32277,-83.3333333333333,4,2,27,5,0,0
32347,-83.3333333333333,4,2,27,80,0,0
33184,-142.857142857143,4,2,27,80,0,0
33393,-142.857142857143,4,2,27,5,0,0
33463,-83.3333333333333,4,2,27,80,0,0
33672,-83.3333333333333,4,2,27,5,0,0
33742,-83.3333333333333,4,2,27,80,0,0
33812,-83.3333333333333,4,2,27,5,0,0
33881,-83.3333333333333,4,2,27,80,0,0
33951,-83.3333333333333,4,2,27,5,0,0
34021,-83.3333333333333,4,2,27,80,0,0
35137,-111.111111111111,4,2,27,80,0,0
35695,-83.3333333333333,4,2,27,80,0,0
35905,-83.3333333333333,4,2,27,5,0,0
35974,-83.3333333333333,4,2,27,80,0,0
36044,-83.3333333333333,4,2,27,5,0,0
36114,-83.3333333333333,4,2,27,80,0,0
36184,-83.3333333333333,4,2,27,5,0,0
36254,-83.3333333333333,4,2,27,80,0,0
36533,-200,4,2,27,80,0,0
36742,-200,4,2,27,5,0,0
36812,-83.3333333333333,4,2,27,80,0,0
37649,-142.857142857143,4,2,27,80,0,0
37858,-142.857142857143,4,2,27,5,0,0
37928,-83.3333333333333,4,2,27,80,0,0
38137,-83.3333333333333,4,2,27,5,0,0
38207,-83.3333333333333,4,2,27,80,0,0
38277,-83.3333333333333,4,2,27,5,0,0
38347,-83.3333333333333,4,2,27,80,0,0
38416,-83.3333333333333,4,2,27,5,0,0
38486,-83.3333333333333,4,2,27,80,0,0
40161,-83.3333333333333,4,2,27,40,0,0
48254,-83.3333333333333,4,2,27,45,0,0
48533,-83.3333333333333,4,2,27,50,0,0
48812,-83.3333333333333,4,2,27,55,0,0
49091,-133.333333333333,4,2,27,60,0,0
51044,-166.666666666667,4,2,27,60,0,0
51323,-133.333333333333,4,2,27,60,0,0
53556,-166.666666666667,4,2,27,60,0,0
54672,-133.333333333333,4,2,27,60,0,0
56068,-133.333333333333,4,2,27,45,0,0
56905,-133.333333333333,4,2,27,60,0,0
58021,-117.647058823529,4,2,27,70,0,0
61649,-117.647058823529,4,2,27,40,0,0
63602,-142.857142857143,4,2,27,65,0,0
65835,-166.666666666667,4,2,27,65,0,0
66114,-166.666666666667,4,2,27,45,0,0
66393,-166.666666666667,4,2,27,35,0,0
66672,-333.333333333333,4,2,27,35,0,0
66951,-90.9090909090909,4,2,27,80,0,0
67160,-90.9090909090909,4,2,27,5,0,0
67230,-90.9090909090909,4,2,27,80,0,0
67300,-90.9090909090909,4,2,27,5,0,0
67370,-90.9090909090909,4,2,27,80,0,0
67439,-90.9090909090909,4,2,27,5,0,0
67509,-90.9090909090909,4,2,27,80,0,0
67998,-90.9090909090909,4,2,27,5,0,0
68067,-90.9090909090909,4,2,27,80,0,0
68905,-166.666666666667,4,2,27,80,0,0
69114,-166.666666666667,4,2,27,5,0,0
69184,-90.9090909090909,4,2,27,80,0,0
69393,-90.9090909090909,4,2,27,5,0,0
69463,-90.9090909090909,4,2,27,80,0,0
69532,-90.9090909090909,4,2,27,5,0,0
69602,-90.9090909090909,4,2,27,80,0,0
69672,-90.9090909090909,4,2,27,5,0,0
69742,-90.9090909090909,4,2,27,80,0,0
70858,-125,4,2,27,80,0,0
71416,-90.9090909090909,4,2,27,80,0,0
71625,-90.9090909090909,4,2,27,5,0,0
71695,-90.9090909090909,4,2,27,80,0,0
71765,-90.9090909090909,4,2,27,5,0,0
71835,-90.9090909090909,4,2,27,80,0,0
71905,-90.9090909090909,4,2,27,5,0,0
71974,-90.9090909090909,4,2,27,80,0,0
72253,-250,4,2,27,80,0,0
72463,-250,4,2,27,5,0,0
72532,-90.9090909090909,4,2,27,80,0,0
73370,-166.666666666667,4,2,27,80,0,0
73579,-166.666666666667,4,2,27,5,0,0
73649,-90.9090909090909,4,2,27,80,0,0
73858,-90.9090909090909,4,2,27,5,0,0
73928,-90.9090909090909,4,2,27,80,0,0
73998,-90.9090909090909,4,2,27,5,0,0
74067,-90.9090909090909,4,2,27,80,0,0
74137,-90.9090909090909,4,2,27,5,0,0
74207,-90.9090909090909,4,2,27,80,0,0
75323,-125,4,2,27,80,0,0
75881,-83.3333333333333,4,2,27,80,0,0
76091,-83.3333333333333,4,2,27,5,0,0
76160,-83.3333333333333,4,2,27,80,0,0
76230,-83.3333333333333,4,2,27,5,0,0
76300,-83.3333333333333,4,2,27,80,0,0
76370,-83.3333333333333,4,2,27,5,0,0
76439,-83.3333333333333,4,2,27,80,0,0
76928,-83.3333333333333,4,2,27,5,0,0
76998,-83.3333333333333,4,2,27,80,0,0
77835,-142.857142857143,4,2,27,80,0,0
78044,-142.857142857143,4,2,27,5,0,0
78114,-83.3333333333333,4,2,27,80,0,0
78323,-83.3333333333333,4,2,27,5,0,0
78393,-83.3333333333333,4,2,27,80,0,0
78463,-83.3333333333333,4,2,27,5,0,0
78532,-83.3333333333333,4,2,27,80,0,0
78602,-83.3333333333333,4,2,27,5,0,0
78672,-83.3333333333333,4,2,27,80,0,0
79788,-111.111111111111,4,2,27,80,0,0
80346,-83.3333333333333,4,2,27,80,0,0
80556,-83.3333333333333,4,2,27,5,0,0
80625,-83.3333333333333,4,2,27,80,0,0
80695,-83.3333333333333,4,2,27,5,0,0
80765,-83.3333333333333,4,2,27,80,0,0
80835,-83.3333333333333,4,2,27,5,0,0
80905,-83.3333333333333,4,2,27,80,0,0
81184,-200,4,2,27,80,0,0
81393,-200,4,2,27,5,0,0
81463,-83.3333333333333,4,2,27,80,0,0
82300,-142.857142857143,4,2,27,80,0,0
82509,-142.857142857143,4,2,27,5,0,0
82579,-83.3333333333333,4,2,27,80,0,0
82788,-83.3333333333333,4,2,27,80,0,0
82823,-83.3333333333333,4,2,27,5,0,0
82858,-83.3333333333333,4,2,27,80,0,0
82928,-83.3333333333333,4,2,27,5,0,0
82998,-83.3333333333333,4,2,27,80,0,0
83067,-83.3333333333333,4,2,27,5,0,0
83137,-83.3333333333333,4,2,27,80,0,0
84393,-250,4,2,27,80,0,0
84463,-250,4,2,27,5,0,0
84533,-250,4,2,27,80,0,0
84602,-250,4,2,27,5,0,0
84672,-250,4,2,27,80,0,0
84742,-250,4,2,27,5,0,0
84812,-250,4,2,27,80,0,0
84881,-250,4,2,27,50,0,0
89277,-250,4,2,27,5,0,0

[Colours]
Combo1 : 115,139,168
Combo2 : 173,173,173
Combo3 : 135,136,143
Combo4 : 146,133,182
Combo5 : 180,120,190
Combo6 : 173,206,209
SliderBorder : 230,230,250
SliderTrackOverride : 1,5,11

[HitObjects]
363,253,7788,6,0,P|373:306|376:328,1,55.4999983062745,2|2,0:0|0:0,0:0:0:0:
386,331,7998,1,0,0:0:0:0:
386,331,8068,1,0,3:2:0:0:
406,190,8207,1,0,3:2:0:0:
282,261,8347,1,0,3:2:0:0:
282,261,8626,5,2,1:2:0:0:
487,341,8765,1,2,1:2:0:0:
365,129,8905,70,0,P|306:144|279:151,1,83.2499974594117,2|8,1:2|0:0,0:0:0:0:
142,88,9184,1,2,0:0:0:0:
249,53,9323,1,0,1:2:0:0:
78,162,9463,2,0,P|47:86|79:11,1,166.499994918823,8|2,0:0|1:2,0:0:0:0:
178,194,9881,6,0,P|168:236|158:290,1,83.2499974594117,10|2,0:0|0:0,0:0:0:0:
324,224,10161,1,8,0:0:0:0:
261,330,10300,2,0,P|253:289|243:248,1,83.2499974594117,2|0,1:2|0:0,0:0:0:0:
346,128,10579,1,8,0:0:0:0:
442,147,10719,1,0,1:2:0:0:
420,244,10858,1,2,1:2:0:0:
324,224,10998,1,2,0:0:0:0:
438,41,11137,70,0,P|471:64|512:73,1,83.2499974594117,2|8,1:2|0:0,0:0:0:0:
321,0,11416,1,2,0:0:0:0:
346,128,11556,1,0,1:2:0:0:
178,194,11695,2,0,P|195:112|210:30,1,166.499994918823,10|2,0:0|0:0,0:0:0:0:
209,30,12812,5,0,1:2:0:0:
210,43,12881,1,0,1:2:0:0:
211,57,12951,1,2,1:2:0:0:
213,70,13021,1,0,1:2:0:0:
214,84,13091,1,2,1:2:0:0:
116,19,13230,1,2,1:2:0:0:
178,194,13370,70,0,P|210:169|251:164,1,83.2499974594117,2|8,1:2|0:0,0:0:0:0:
357,93,13649,1,0,0:0:0:0:
327,191,13788,1,0,1:2:0:0:
432,282,13928,2,0,P|414:205|403:151,1,124.874996189118,8|0,0:0|0:0,0:0:0:0:
404,160,14207,1,2,1:2:0:0:
500,206,14347,1,10,0:0:0:0:
310,272,14486,2,0,P|319:231|327:190,1,83.2499974594117,2|8,0:0|0:0,0:0:0:0:
348,356,14765,6,0,P|297:321|237:332,1,124.874996189118,2|2,1:2|0:0,0:0:0:0:
237,331,15044,1,10,0:0:0:0:
178,194,15184,1,0,1:2:0:0:
39,248,15323,1,2,1:2:0:0:
89,370,15463,1,2,0:0:0:0:
93,377,15533,1,2,0:0:0:0:
96,384,15602,70,0,P|104:344|113:304,1,83.2499974594117,2|8,1:2|0:0,0:0:0:0:
105,169,15881,1,2,0:0:0:0:
205,267,16021,1,0,1:2:0:0:
259,85,16161,6,0,P|208:120|148:109,1,124.874996189118,10|0,0:0|0:0,0:0:0:0:
141,103,16440,2,0,P|150:62|157:13,1,83.2499974594117,0|0,1:2|0:0,0:0:0:0:
39,139,16719,1,0,3:2:0:0:
455,72,17835,5,2,1:2:0:0:
210,226,18672,5,2,1:2:0:0:
455,72,18951,69,2,1:2:0:0:
210,226,19649,5,2,1:2:0:0:
455,72,20068,70,0,P|480:77|499:81,4,32.3749990119934,10|10|10|10|10,1:2|0:0|0:0|0:0|0:0,0:0:0:0:
331,102,20486,2,0,P|306:107|287:111,2,34.6875013232232,10|10|10,1:2|0:0|0:0,0:0:0:0:
382,20,20765,1,0,1:2:0:0:
468,147,20905,1,10,1:2:0:0:
471,153,20974,1,10,0:0:0:0:
474,159,21044,1,10,0:0:0:0:
314,218,21184,6,0,P|322:171|331:101,1,117.937502249479,2|0,1:2|0:0,0:0:0:0:
490,239,21463,2,0,P|497:279|513:365,1,124.874996189118,2|0,1:2|0:0,0:0:0:0:
229,384,21742,2,0,P|237:337|251:254,1,131.812496480227,2|0,1:2|0:0,0:0:0:0:
325,300,22021,1,2,0:0:0:0:
325,300,22161,1,2,0:0:0:0:
243,148,22300,6,0,P|168:146|118:201,1,152.625004657746,2|0,1:2|0:0,0:0:0:0:
149,264,22579,2,0,P|174:248|187:220,1,50.8750015525818,2|0,0:0|0:0,0:0:0:0:
176,127,22719,2,0,P|160:102|131:88,1,50.8750015525818,2|0,0:0|0:0,0:0:0:0:
32,53,22858,2,0,B|36:82|24:107|24:107|38:86|79:76,1,101.750003105164,10|0,0:0|0:0,0:0:0:0:
24,336,23137,6,0,P|10:253|-2:175,1,152.625004657746,2|0,1:2|0:0,0:0:0:0:
47,237,23416,2,0,P|29:305|22:343,1,101.750003105164,2|0,0:0|0:0,0:0:0:0:
155,384,23695,69,2,1:2:0:0:
267,343,23835,1,2,0:0:0:0:
230,226,23974,1,10,0:0:0:0:
114,265,24114,1,2,1:2:0:0:
334,228,24254,2,0,P|321:192|272:173,1,83.2499974594117,2|0,0:0|0:0,0:0:0:0:
235,117,24533,6,0,P|292:161|358:130,1,152.625004657746,2|0,1:2|0:0,0:0:0:0:
433,121,24812,2,0,P|451:81|466:60,1,50.8750015525818,2|0,0:0|0:0,0:0:0:0:
368,0,24951,2,0,P|380:22|389:45,1,50.8750015525818,2|0,0:0|0:0,0:0:0:0:
506,124,25091,1,10,0:0:0:0:
504,132,25161,1,2,0:0:0:0:
503,140,25230,1,2,0:0:0:0:
416,298,25370,69,2,1:2:0:0:
320,70,25509,1,2,0:0:0:0:
478,212,25649,2,0,P|485:262|494:329,1,101.750003105164,2|0,0:0|0:0,0:0:0:0:
324,361,25928,5,2,1:2:0:0:
378,166,26068,1,2,0:0:0:0:
196,263,26207,2,0,P|146:251|106:241,1,74,10|0,0:0|1:2,0:0:0:0:
271,292,26486,2,0,P|321:280|361:270,1,74,2|0,0:0|0:0,0:0:0:0:
141,216,26765,69,2,1:2:0:0:
139,206,26835,1,2,0:0:0:0:
138,196,26905,2,0,P|124:244|116:263,1,50.8750015525818,2|0,0:0|0:0,0:0:0:0:
0,318,27044,2,0,P|49:306|70:303,1,50.8750015525818,2|0,0:0|0:0,0:0:0:0:
178,372,27184,2,0,P|144:335|131:319,1,50.8750015525818,2|0,0:0|0:0,0:0:0:0:
50,205,27323,2,0,P|22:197|51:214,1,101.750003105164,10|0,0:0|0:0,0:0:0:0:
209,71,27602,6,0,P|212:44|218:17,1,55.5,2|0,1:2|0:0,0:0:0:0:
246,0,27881,2,0,P|235:49|228:100,1,101.750003105164,2|0,1:2|0:0,0:0:0:0:
391,296,28161,69,2,1:2:0:0:
272,252,28300,1,2,0:0:0:0:
310,130,28440,1,10,0:0:0:0:
433,171,28579,1,2,1:2:0:0:
494,10,28719,2,0,P|441:25|405:33,1,83.2499974594117,2|0,0:0|0:0,0:0:0:0:
340,1,28998,6,0,P|294:59|311:131,1,152.625004657746,2|0,1:2|0:0,0:0:0:0:
342,195,29277,2,0,P|360:153|373:139,1,50.8750015525818,2|0,0:0|0:0,0:0:0:0:
412,341,29416,2,0,P|394:299|381:285,1,50.8750015525818,2|0,0:0|0:0,0:0:0:0:
238,273,29556,1,10,0:0:0:0:
240,265,29626,1,2,0:0:0:0:
241,257,29695,1,2,0:0:0:0:
433,171,29835,69,2,1:2:0:0:
260,384,29974,1,2,0:0:0:0:
172,200,30114,2,0,P|165:157|156:97,1,101.750003105164,2|0,0:0|0:0,0:0:0:0:
241,14,30393,5,2,1:2:0:0:
74,114,30533,1,2,0:0:0:0:
309,194,30672,2,0,P|281:157|224:158,1,74,10|0,0:0|1:2,0:0:0:0:
25,378,31230,70,0,P|61:322|174:369,1,166.499994918823,2|0,1:2|0:0,0:0:0:0:
197,380,31509,2,0,P|159:357|155:323,1,55.4999983062745,2|0,0:0|0:0,0:0:0:0:
317,277,31649,2,0,P|278:298|246:284,1,55.4999983062745,2|0,0:0|0:0,0:0:0:0:
73,125,31788,2,0,P|82:179|91:234,1,110.999996612549,10|0,0:0|0:0,0:0:0:0:
261,32,32068,6,0,P|330:52|435:84,1,166.499994918823,2|0,1:2|0:0,0:0:0:0:
370,15,32347,2,0,P|292:27|238:34,1,110.999996612549,2|0,0:0|0:0,0:0:0:0:
460,199,32626,69,2,1:2:0:0:
503,67,32765,1,2,0:0:0:0:
370,15,32905,1,10,0:0:0:0:
322,148,33044,1,2,1:2:0:0:
477,294,33184,2,0,P|467:243|456:179,1,97.1249970359803,2|0,0:0|0:0,0:0:0:0:
364,238,33463,6,0,P|286:253|237:191,1,166.499994918823,2|0,1:2|0:0,0:0:0:0:
238,118,33742,2,0,P|263:85|285:66,1,55.4999983062745,2|0,0:0|0:0,0:0:0:0:
177,269,33881,2,0,P|160:230|155:202,1,55.4999983062745,2|0,0:0|0:0,0:0:0:0:
367,258,34021,1,10,0:0:0:0:
365,248,34091,1,2,0:0:0:0:
364,238,34161,1,2,0:0:0:0:
179,61,34300,69,2,1:2:0:0:
98,319,34440,1,2,0:0:0:0:
0,161,34579,2,0,P|14:104|26:49,1,110.999996612549,2|0,0:0|0:0,0:0:0:0:
177,269,34858,5,2,1:2:0:0:
0,320,34998,1,2,0:0:0:0:
159,160,35137,2,0,P|197:175|236:190,1,83.2499974594117,10|0,0:0|1:2,0:0:0:0:
198,0,35416,2,0,P|159:15|120:30,1,83.2499974594117,2|0,0:0|0:0,0:0:0:0:
371,80,35695,69,2,1:2:0:0:
373,70,35765,1,2,0:0:0:0:
374,60,35835,2,0,P|388:108|396:127,1,55.4999983062745,2|0,0:0|0:0,0:0:0:0:
512,182,35974,2,0,P|463:170|442:167,1,55.4999983062745,2|0,0:0|0:0,0:0:0:0:
334,236,36114,2,0,P|368:199|381:183,1,55.4999983062745,2|0,0:0|0:0,0:0:0:0:
489,67,36254,2,0,P|480:97|480:60,1,110.999996612549,10|0,0:0|0:0,0:0:0:0:
399,320,36533,6,0,P|411:283|422:245,1,69.375,2|0,1:2|0:0,0:0:0:0:
447,239,36812,2,0,P|426:306|407:358,1,110.999996612549,2|0,1:2|0:0,0:0:0:0:
85,228,37091,69,2,1:2:0:0:
234,179,37230,1,2,0:0:0:0:
294,330,37370,1,10,0:0:0:0:
142,384,37509,1,2,1:2:0:0:
47,127,37649,2,0,P|105:143|148:157,1,97.1249970359803,2|0,0:0|0:0,0:0:0:0:
228,98,37928,6,0,P|162:143|166:223,1,166.499994918823,2|0,1:2|0:0,0:0:0:0:
204,284,38207,2,0,P|230:266|272:259,1,55.4999983062745,2|0,0:0|0:0,0:0:0:0:
308,136,38347,2,0,P|336:149|363:182,1,55.4999983062745,2|0,0:0|0:0,0:0:0:0:
489,227,38486,1,10,0:0:0:0:
499,229,38556,1,2,0:0:0:0:
509,230,38626,1,2,0:0:0:0:
366,12,38765,69,2,1:2:0:0:
408,304,38905,1,2,0:0:0:0:
207,207,39044,2,0,P|221:137|229:91,1,110.999996612549,2|0,0:0|0:0,0:0:0:0:
367,198,39323,5,2,1:2:0:0:
124,288,39463,1,2,0:0:0:0:
165,17,39602,1,10,0:0:0:0:
173,39,39881,1,2,1:2:0:0:
138,269,40021,1,0,1:2:0:0:
344,193,40161,1,6,1:2:0:0:
256,192,46858,12,2,48533,3:2:0:0:
495,234,49091,37,2,1:2:0:0:
409,272,49230,1,2,3:0:0:0:
375,128,49370,2,0,P|414:149|422:190,1,69.3750026464463,8|2,0:0|3:0,0:0:0:0:
358,202,49579,1,2,3:0:0:0:
358,202,49649,2,0,P|349:224|346:232,6,17.3437506616116,2|0|2|0|2|0|2,1:2|1:2|1:2|1:2|1:2|1:2|1:2,0:0:0:0:
300,142,49928,1,8,0:0:0:0:
429,60,50068,1,8,0:0:0:0:
219,0,50207,6,0,P|233:45|245:84,1,69.3750026464463,0|2,1:2|3:0,0:0:0:0:
367,104,50486,2,0,P|341:72|311:67,1,69.3750026464463,10|2,0:0|1:2,0:0:0:0:
234,182,50765,1,2,0:0:0:0:
300,142,50905,1,10,0:0:0:0:
138,70,51044,2,0,P|105:86|80:97,1,55.4999983062745,2|4,1:2|1:3,0:0:0:0:
15,93,51254,1,4,1:3:0:0:
15,93,51323,70,0,P|61:110|71:197,1,138.750005292893,0|10,1:2|0:0,0:0:0:0:
112,296,51742,1,2,3:0:0:0:
118,281,51812,1,2,3:0:0:0:
128,269,51882,1,8,3:0:0:0:
140,259,51951,1,4,3:0:0:0:
155,252,52021,1,2,1:2:0:0:
211,375,52161,2,0,P|251:357|281:348,1,69.3750026464463,8|2,0:0|3:2,0:0:0:0:
367,322,52370,1,2,3:0:0:0:
367,322,52440,6,0,P|333:293|337:248,1,69.3750026464463,2|2,1:2|0:0,0:0:0:0:
453,213,52719,1,10,0:0:0:0:
333,171,52858,1,2,3:0:0:0:
317,173,52927,1,2,3:0:0:0:
303,180,52997,1,10,3:0:0:0:
291,189,53067,1,4,3:0:0:0:
280,202,53137,1,0,1:2:0:0:
428,71,53277,2,0,P|394:65|363:45,1,69.3750026464463,10|0,0:0|3:2,0:0:0:0:
301,10,53486,1,2,3:0:0:0:
301,10,53556,38,0,P|295:30|286:57,1,27.7499991531372,0|0,1:2|0:0,0:0:0:0:
203,152,53695,1,10,0:0:0:0:
197,117,53765,1,8,0:0:0:0:
191,83,53835,1,10,0:0:0:0:
117,22,53974,1,2,3:0:0:0:
114,30,54044,1,2,3:0:0:0:
111,40,54114,2,0,P|73:15|50:11,1,55.4999983062745,10|0,3:0|1:2,0:0:0:0:
0,160,54393,2,0,P|11:150|20:145,2,13.8749995765686,2|0|0,1:2|1:2|1:2,0:0:0:0:
94,236,54533,1,2,1:2:0:0:
107,238,54602,1,2,1:2:0:0:
119,241,54672,22,0,P|101:195|91:162,1,69.3750026464463,2|2,1:2|3:0,0:0:0:0:
219,255,54951,1,10,0:0:0:0:
184,373,55091,1,2,3:0:0:0:
196,351,55161,1,2,3:0:0:0:
216,336,55230,1,10,3:0:0:0:
241,333,55300,1,4,3:0:0:0:
265,341,55370,1,0,1:2:0:0:
407,279,55509,2,0,P|376:275|353:235,1,69.3750026464463,10|2,0:0|3:2,0:0:0:0:
337,249,55719,1,2,3:0:0:0:
319,252,55788,70,0,P|333:218|353:169,1,69.3750026464463,2|2,1:2|3:0,0:0:0:0:
480,80,56068,1,10,0:0:0:0:
402,29,56207,1,2,3:0:0:0:
404,34,56277,1,0,0:0:0:0:
406,40,56347,1,0,1:2:0:0:
285,114,56486,1,2,1:2:0:0:
432,211,56626,1,10,0:0:0:0:
411,112,56765,1,2,1:2:0:0:
408,121,56835,1,2,1:2:0:0:
405,130,56905,1,2,1:2:0:0:
249,226,57044,1,2,1:2:0:0:
403,357,57184,22,0,P|439:338|474:328,1,69.3750026464463,10|2,0:0|3:0,0:0:0:0:
346,308,57393,1,2,3:0:0:0:
331,322,57463,1,10,3:0:0:0:
323,341,57533,1,4,3:0:0:0:
323,361,57602,1,2,1:2:0:0:
494,228,57742,1,8,0:0:0:0:
463,219,57812,1,0,0:0:0:0:
432,211,57881,1,0,3:0:0:0:
402,203,57951,1,2,3:0:0:0:
372,194,58021,70,0,P|332:207|275:223,1,78.6250014996529,2|2,1:2|3:0,0:0:0:0:
159,88,58300,2,0,P|196:99|215:151,1,78.6250014996529,10|2,0:0|3:0,0:0:0:0:
228,202,58509,1,2,3:0:0:0:
216,211,58579,2,0,P|210:229|201:247,1,39.3125007498264,8|4,3:0|3:0,0:0:0:0:
89,153,58719,1,2,1:2:0:0:
260,47,58858,2,0,P|300:60|357:76,1,78.6250014996529,8|2,0:0|3:2,0:0:0:0:
428,47,59068,1,2,3:0:0:0:
439,60,59137,6,0,P|387:57|350:159,1,157.250002999306,0|10,1:2|0:0,0:0:0:0:
384,264,59556,1,2,3:0:0:0:
376,241,59626,1,2,3:0:0:0:
361,222,59695,1,10,3:0:0:0:
340,210,59765,1,4,3:0:0:0:
317,207,59835,1,2,1:2:0:0:
194,243,59974,2,0,P|207:285|220:340,1,78.6250014996529,10|0,0:0|3:2,0:0:0:0:
264,373,60184,1,2,3:0:0:0:
271,384,60254,69,2,1:2:0:0:
141,309,60393,1,2,3:0:0:0:
17,384,60533,2,0,P|61:374|82:339,1,78.6250014996529,10|2,0:0|3:0,0:0:0:0:
31,220,60812,1,8,3:0:0:0:
16,224,60881,1,4,3:0:0:0:
1,229,60951,1,2,1:2:0:0:
141,309,61091,1,8,0:0:0:0:
230,110,61230,1,2,3:2:0:0:
258,118,61300,1,2,3:0:0:0:
286,126,61370,5,2,1:2:0:0:
124,217,61509,1,2,1:2:0:0:
124,217,61928,2,0,P|122:210|123:205,12,9.82812518745661,2|0|0|0|0|0|0|0|0|0|0|0|0,1:2|1:2|1:2|1:2|1:2|1:2|1:2|1:2|1:2|1:2|1:2|1:2|1:2,0:0:0:0:
96,177,62207,2,0,P|100:162|103:154,6,19.6562503749132,2|0|0|0|0|0|0,1:2|1:2|1:2|1:2|1:2|1:2|1:2,0:0:0:0:
139,74,62486,37,2,0:0:0:0:
139,74,63602,6,0,P|181:87|224:98,1,64.7499980239869,2|2,1:2|3:0,0:0:0:0:
311,172,63881,2,0,P|281:147|279:113,1,64.7499980239869,8|2,0:0|3:0,0:0:0:0:
267,43,64091,1,2,3:0:0:0:
283,30,64161,2,0,P|295:-1|305:-20,1,32.3749990119934,8|4,3:0|3:0,0:0:0:0:
351,111,64300,1,0,1:2:0:0:
448,0,64440,2,0,P|453:31|468:91,1,64.7499980239869,8|0,0:0|3:2,0:0:0:0:
486,130,64649,1,2,3:0:0:0:
497,147,64719,70,0,P|482:188|466:232,1,64.7499980239869,2|2,1:2|3:0,0:0:0:0:
512,334,64998,2,0,P|490:298|465:287,1,64.7499980239869,8|2,0:0|3:0,0:0:0:0:
388,345,65207,1,2,3:0:0:0:
409,359,65277,2,0,P|424:354|440:349,1,32.3749990119934,10|4,3:0|3:0,0:0:0:0:
331,255,65416,1,0,1:2:0:0:
239,380,65556,2,0,P|227:348|214:318,1,64.7499980239869,10|0,0:0|3:2,0:0:0:0:
134,215,65765,1,2,3:0:0:0:
134,215,65835,5,0,1:2:0:0:
134,215,66114,2,0,P|168:218|189:203,1,55.4999983062745,10|2,0:0|0:0,0:0:0:0:
206,94,66393,1,10,3:0:0:0:
192,107,66463,1,4,3:0:0:0:
186,124,66533,1,0,1:2:0:0:
268,183,66672,2,0,P|260:166|247:160,1,27.7499991531372,2|2,0:0|0:0,0:0:0:0:
185,319,66951,38,0,B|265:308|232:256|320:245,1,152.625004657746,2|0,1:2|0:0,0:0:0:0:
388,208,67230,2,0,P|410:173|451:151,1,50.8750015525818,2|0,0:0|0:0,0:0:0:0:
312,321,67370,2,0,P|324:343|332:367,1,50.8750015525818,2|0,0:0|0:0,0:0:0:0:
487,325,67509,2,0,B|466:294|432:296|432:296|452:309|461:334,1,101.750003105164,10|0,0:0|0:0,0:0:0:0:
512,160,67788,6,0,P|453:150|385:222,1,152.625004657746,2|0,1:2|0:0,0:0:0:0:
388,208,68068,2,0,P|417:153|414:109,1,101.750003105164,2|0,0:0|0:0,0:0:0:0:
290,0,68347,69,2,1:2:0:0:
166,45,68486,1,2,0:0:0:0:
207,173,68626,1,10,0:0:0:0:
333,139,68765,1,2,1:2:0:0:
102,96,68905,2,0,P|111:133|119:188,1,83.2499974594117,2|0,0:0|0:0,0:0:0:0:
133,264,69184,6,0,B|151:276|192:244|144:168|69:230,1,152.625004657746,2|0,1:2|0:0,0:0:0:0:
13,272,69463,2,0,P|6:247|-1:223,1,50.8750015525818,2|0,0:0|0:0,0:0:0:0:
129,336,69602,2,0,P|122:360|115:384,1,50.8750015525818,2|0,0:0|0:0,0:0:0:0:
276,244,69742,1,10,0:0:0:0:
278,236,69812,1,2,0:0:0:0:
279,228,69881,1,2,0:0:0:0:
171,123,70021,69,2,1:2:0:0:
215,336,70161,1,2,0:0:0:0:
72,227,70300,2,0,P|64:176|113:130,1,101.750003105164,2|0,0:0|0:0,0:0:0:0:
209,8,70579,5,2,1:2:0:0:
139,197,70719,1,2,0:0:0:0:
342,63,70858,2,0,P|376:85|432:85,1,74,10|0,0:0|1:2,0:0:0:0:
171,123,71137,2,0,P|132:115|88:140,1,74,2|0,0:0|0:0,0:0:0:0:
371,169,71416,69,2,1:2:0:0:
373,179,71486,1,2,0:0:0:0:
374,189,71556,2,0,P|388:141|396:122,1,50.8750015525818,2|0,0:0|0:0,0:0:0:0:
512,67,71695,2,0,P|463:79|442:82,1,50.8750015525818,2|0,0:0|0:0,0:0:0:0:
334,13,71835,2,0,P|368:50|381:66,1,50.8750015525818,2|0,0:0|0:0,0:0:0:0:
462,180,71974,2,0,P|490:188|461:171,1,101.750003105164,10|0,0:0|0:0,0:0:0:0:
314,313,72254,6,0,P|311:340|305:367,1,55.5,2|0,1:2|0:0,0:0:0:0:
277,384,72533,2,0,P|288:335|295:284,1,101.750003105164,2|0,1:2|0:0,0:0:0:0:
112,71,72812,69,2,1:2:0:0:
242,119,72951,1,2,0:0:0:0:
201,253,73091,1,10,0:0:0:0:
65,208,73230,1,2,1:2:0:0:
8,365,73370,2,0,P|49:357|92:349,1,83.2499974594117,2|0,0:0|0:0,0:0:0:0:
172,383,73649,6,0,P|218:325|201:253,1,152.625004657746,2|0,1:2|0:0,0:0:0:0:
146,208,73928,2,0,P|130:240|137:271,1,50.8750015525818,2|0,0:0|0:0,0:0:0:0:
120,46,74068,2,0,P|118:20|104:0,1,50.8750015525818,2|0,0:0|0:0,0:0:0:0:
266,120,74207,1,10,0:0:0:0:
264,128,74277,1,2,0:0:0:0:
263,136,74347,1,2,0:0:0:0:
60,182,74486,69,2,1:2:0:0:
263,12,74626,1,2,0:0:0:0:
370,133,74765,2,0,P|377:176|386:236,1,101.750003105164,2|0,0:0|0:0,0:0:0:0:
267,384,75044,5,2,1:2:0:0:
424,335,75184,1,2,0:0:0:0:
238,210,75323,2,0,P|231:253|222:304,1,74,10|0,0:0|1:2,0:0:0:0:
355,384,75602,2,0,P|352:371|348:353,4,18.5
502,137,75881,70,0,B|421:116|459:64|369:42,1,166.499994918823,2|0,1:2|0:0,0:0:0:0:
310,86,76161,2,0,P|281:114|237:132,1,55.4999983062745,2|0,0:0|0:0,0:0:0:0:
503,0,76300,2,0,P|512:39|506:86,1,55.4999983062745,2|0,0:0|0:0,0:0:0:0:
384,191,76440,2,0,B|366:172|370:133|370:133|381:164|404:179,1,110.999996612549,10|0,0:0|0:0,0:0:0:0:
439,365,76719,6,0,P|395:304|277:295,1,166.499994918823,2|0,1:2|0:0,0:0:0:0:
263,341,76998,2,0,P|216:369|151:362,1,110.999996612549,2|0,0:0|0:0,0:0:0:0:
72,183,77277,69,2,1:2:0:0:
29,315,77416,1,2,0:0:0:0:
161,366,77556,1,10,0:0:0:0:
210,234,77695,1,2,1:2:0:0:
55,88,77835,2,0,P|65:139|76:203,1,97.1249970359803,2|0,0:0|0:0,0:0:0:0:
145,145,78114,6,0,B|186:109|236:132|236:132|248:176|303:187,1,166.499994918823,2|0,1:2|0:0,0:0:0:0:
324,244,78393,2,0,P|343:224|380:216,1,55.4999983062745,2|0,0:0|0:0,0:0:0:0:
451,158,78533,2,0,P|477:164|503:192,1,55.4999983062745,2|0,0:0|0:0,0:0:0:0:
315,90,78672,1,10,0:0:0:0:
317,100,78742,1,2,0:0:0:0:
318,110,78812,1,2,0:0:0:0:
459,341,78951,69,2,1:2:0:0:
190,236,79091,1,2,0:0:0:0:
369,215,79230,2,0,P|375:268|383:325,1,110.999996612549,2|0,0:0|0:0,0:0:0:0:
246,357,79509,5,2,1:2:0:0:
318,110,79649,1,2,0:0:0:0:
74,260,79788,2,0,P|44:231|-3:230,1,83.2499974594117,10|0,0:0|1:2,0:0:0:0:
187,320,80068,2,0,P|227:316|256:287,1,83.2499974594117,2|0,0:0|0:0,0:0:0:0:
28,50,80347,69,2,1:2:0:0:
26,60,80416,1,2,0:0:0:0:
25,69,80486,2,0,P|65:97|83:108,1,55.4999983062745,2|0,0:0|0:0,0:0:0:0:
131,200,80626,2,0,P|135:152|135:131,1,55.4999983062745,2|0,0:0|0:0,0:0:0:0:
189,41,80765,2,0,P|144:62|126:72,1,55.4999983062745,2|0,0:0|0:0,0:0:0:0:
4,227,80905,2,0,P|21:195|0:219,1,110.999996612549,10|0,0:0|0:0,0:0:0:0:
293,133,81184,6,0,P|305:96|316:58,1,69.375,2|0,1:2|0:0,0:0:0:0:
348,54,81463,2,0,P|327:121|308:173,1,110.999996612549,2|0,1:2|0:0,0:0:0:0:
457,181,81742,69,2,1:2:0:0:
294,234,81881,1,2,0:0:0:0:
230,60,82021,1,10,0:0:0:0:
397,0,82161,1,2,1:2:0:0:
464,264,82300,2,0,P|406:248|363:234,1,97.1249970359803,2|0,0:0|0:0,0:0:0:0:
276,172,82579,6,0,B|305:161|332:140|332:140|308:168|292:238,1,166.499994918823,2|0,1:2|0:0,0:0:0:0:
281,310,82858,2,0,P|254:300|233:283,1,55.4999983062745,2|0,0:0|0:0,0:0:0:0:
201,149,82998,2,0,P|174:194|138:214,1,55.4999983062745,2|0,0:0|0:0,0:0:0:0:
116,286,83137,1,10,0:0:0:0:
106,287,83207,1,2,0:0:0:0:
95,289,83277,1,2,0:0:0:0:
259,98,83416,69,2,1:2:0:0:
175,342,83556,1,2,0:0:0:0:
62,212,83695,2,0,P|124:203|178:194,1,110.999996612549,2|0,0:0|0:0,0:0:0:0:
426,110,83974,5,2,1:2:0:0:
277,171,84114,1,2,0:0:0:0:
386,0,84254,1,10,0:0:0:0:
319,252,84393,2,0,L|312:233,1,18.5,0|0,1:2|0:0,0:0:0:0:
268,58,84533,2,0,L|285:50,1,18.5,2|0,1:2|0:0,0:0:0:0:
460,7,84672,2,0,L|465:29,1,18.5,0|0,1:2|0:0,0:0:0:0:
512,208,84812,5,6,1:2:0:0:
256,192,84881,12,0,89277,0:0:0:0:
