osu file format v14

[General]
AudioFilename: audio.mp3
AudioLeadIn: 0
PreviewTime: 89395
Countdown: 0
SampleSet: Normal
StackLeniency: 0.7
Mode: 1
LetterboxInBreaks: 0
WidescreenStoryboard: 1

[Editor]
Bookmarks: 12983,25783,38583,51383,64183,76983,102595,115395,140983,153783,166583,179383,192183,204983,217783
DistanceSpacing: 1.7
BeatDivisor: 3
GridSize: 32
TimelineZoom: 3.199999

[Metadata]
Title:FALA MEMO feat. Febem, Fleezus & Jevon
TitleUnicode:FALA MEMO feat. Febem, Fleezus & Jevon
Artist:cesrv
ArtistUnicode:cesrv
Creator:vrnl
Version:Muzukashii
Source:
Tags:wagwan brime! brime grime rap hip-hop hip hop trap portuguese português english
BeatmapID:2791733
BeatmapSetID:1303659

[Difficulty]
HPDrainRate:6
CircleSize:5
OverallDifficulty:4.5
ApproachRate:5
SliderMultiplier:1.4
SliderTickRate:1

[Events]
//Background and Video events
0,0,"394e6895-82b8-45e5-990a-eee138a942d7.png",0,15
//Break Periods
//Storyboard Layer 0 (Background)
//Storyboard Layer 1 (Fail)
//Storyboard Layer 2 (Pass)
//Storyboard Layer 3 (Foreground)
//Storyboard Layer 4 (Overlay)
//Storyboard Sound Samples

[TimingPoints]
239,400,4,1,0,55,1,0
239,-133.333333333333,4,1,0,35,0,0
12939,-133.333333333333,4,1,0,70,0,0
25339,-100,4,1,0,85,0,0
25739,-100,4,1,0,85,0,0
39939,-100,4,1,0,55,0,0
40939,-100,4,1,0,85,0,0
58539,-100,4,1,0,55,0,0
59339,-100,4,1,0,85,0,0
60139,-100,4,1,0,55,0,0
60939,-100,4,1,0,85,0,0
63739,-100,4,1,0,85,0,0
64139,-133.333333333333,4,1,0,55,0,0
76139,-133.333333333333,4,1,0,70,0,0
76939,-133.333333333333,4,1,0,70,0,0
89339,-100,4,1,0,85,0,0
89739,-100,4,1,0,85,0,0
101739,-100,4,1,0,55,0,0
102339,-100,4,1,0,85,0,0
122539,-100,4,1,0,55,0,0
122939,-100,4,1,0,85,0,0
124139,-100,4,1,0,55,0,0
124539,-100,4,1,0,85,0,0
127739,-100,4,1,0,85,0,0
128139,-133.333333333333,4,1,0,55,0,0
140139,-133.333333333333,4,1,0,70,0,0
140939,-133.333333333333,4,1,0,70,0,0
153339,-100,4,1,0,85,0,0
153739,-100,4,1,0,85,0,0
164939,-100,4,1,0,55,0,0
166539,-100,4,1,0,85,0,0
167339,-100,4,1,0,55,0,0
167939,-100,4,1,0,85,0,0
168939,-100,4,1,0,55,0,0
169739,-100,4,1,0,85,0,0
173239,-100,4,1,0,55,0,0
173739,-100,4,1,0,85,0,0
190639,-100,4,1,0,55,0,0
192139,-100,4,1,0,70,0,0
204539,-100,4,1,0,85,0,0
204939,-100,4,1,0,85,0,0
211339,-100,4,1,0,70,0,0
211409,-100,4,1,0,70,0,0
211709,-102.400052428827,4,1,0,70,0,0
212009,-104.918032786885,4,1,0,70,0,0
212209,-106.666666666667,4,1,0,70,0,0
212309,-107.562967361093,4,1,0,70,0,0
212459,-108.936140545051,4,1,0,70,0,0
212609,-110.344827586207,4,1,0,70,0,0
213009,-114.285714285714,4,1,0,70,0,0
213309,-117.431261611016,4,1,0,70,0,0
213609,-120.754716981132,4,1,0,70,0,0
213809,-123.076923076923,4,1,0,70,0,0
214209,-128,4,1,0,70,0,0
214289,-129.729785829097,4,1,0,70,0,0
214409,-130.612244897959,4,1,0,70,0,0
214609,-133.333333333333,4,1,0,70,0,0
217789,-133.333333333333,4,1,0,55,0,0

[HitObjects]
240,143,239,5,0,0:0:0:0:
240,143,2639,1,2,0:0:0:0:
240,143,3439,1,2,0:0:0:0:
240,143,5839,1,2,0:0:0:0:
240,143,6639,1,0,0:0:0:0:
182,152,9039,1,2,0:0:0:0:
182,152,9839,1,2,0:0:0:0:
160,133,12239,5,0,0:0:0:0:
384,227,13039,5,0,0:0:0:0:
384,227,13305,1,2,0:0:0:0:
267,105,13639,1,2,0:0:0:0:
185,219,13839,1,0,0:0:0:0:
185,219,14039,1,2,0:0:0:0:
185,219,14239,1,2,0:0:0:0:
218,152,14639,1,0,0:0:0:0:
355,260,14905,1,2,0:0:0:0:
162,198,15239,1,2,0:0:0:0:
162,198,15439,1,0,0:0:0:0:
162,198,15639,1,2,0:0:0:0:
162,198,15839,1,2,0:0:0:0:
384,227,16239,1,2,0:0:0:0:
384,227,16505,1,2,0:0:0:0:
239,150,16839,1,2,0:0:0:0:
185,219,17039,1,0,0:0:0:0:
185,219,17239,1,2,0:0:0:0:
185,219,17439,1,2,0:0:0:0:
218,152,17839,1,0,0:0:0:0:
355,260,18105,1,2,0:0:0:0:
162,198,18439,1,2,0:0:0:0:
162,198,18639,1,0,0:0:0:0:
384,227,19439,1,0,0:0:0:0:
384,227,19705,1,2,0:0:0:0:
239,150,20039,1,2,0:0:0:0:
185,219,20239,1,0,0:0:0:0:
185,219,20439,1,2,0:0:0:0:
185,219,20639,1,2,0:0:0:0:
218,152,21039,1,0,0:0:0:0:
355,260,21305,1,2,0:0:0:0:
162,198,21639,1,2,0:0:0:0:
162,198,21839,1,0,0:0:0:0:
162,198,22039,1,2,0:0:0:0:
162,198,22239,1,2,0:0:0:0:
384,227,22639,1,2,0:0:0:0:
384,227,22905,1,2,0:0:0:0:
239,150,23239,1,2,0:0:0:0:
185,219,23439,1,0,0:0:0:0:
185,219,23639,1,2,0:0:0:0:
185,219,23839,1,2,0:0:0:0:
218,152,24239,1,0,0:0:0:0:
200,152,24539,1,2,0:0:0:0:
206,148,24839,1,0,0:0:0:0:
206,148,24939,1,0,0:0:0:0:
206,148,25039,1,0,0:0:0:0:
206,148,25439,1,6,0:0:0:0:
231,99,25839,1,0,0:0:0:0:
262,233,26139,1,0,0:0:0:0:
262,233,26439,1,0,0:0:0:0:
297,190,26639,1,2,0:0:0:0:
297,190,26739,1,2,0:0:0:0:
183,28,27039,1,0,0:0:0:0:
320,258,27439,1,0,0:0:0:0:
237,219,27739,1,2,0:0:0:0:
237,219,28039,1,0,0:0:0:0:
237,219,28239,1,2,0:0:0:0:
237,219,28639,1,2,0:0:0:0:
237,219,28739,1,2,0:0:0:0:
237,219,28839,1,2,0:0:0:0:
247,125,29039,1,0,0:0:0:0:
332,163,29339,1,0,0:0:0:0:
332,163,29639,1,0,0:0:0:0:
332,163,29839,1,2,0:0:0:0:
421,272,30239,1,2,0:0:0:0:
421,272,30339,1,2,0:0:0:0:
421,272,30639,1,0,0:0:0:0:
338,200,30939,1,0,0:0:0:0:
338,200,31239,1,0,0:0:0:0:
338,200,31439,1,2,0:0:0:0:
213,214,32039,1,2,0:0:0:0:
231,99,32239,1,0,0:0:0:0:
262,233,32539,1,0,0:0:0:0:
262,233,32839,1,0,0:0:0:0:
297,190,33039,1,2,0:0:0:0:
297,190,33139,1,2,0:0:0:0:
183,28,33439,1,0,0:0:0:0:
320,258,33839,1,0,0:0:0:0:
237,219,34139,1,2,0:0:0:0:
237,219,34439,1,0,0:0:0:0:
237,219,34639,1,2,0:0:0:0:
237,219,35039,1,2,0:0:0:0:
237,219,35139,1,2,0:0:0:0:
237,219,35239,1,2,0:0:0:0:
247,125,35439,1,0,0:0:0:0:
332,163,35739,1,0,0:0:0:0:
332,163,36039,1,0,0:0:0:0:
332,163,36239,1,2,0:0:0:0:
171,136,36439,1,2,0:0:0:0:
177,258,36639,1,0,0:0:0:0:
177,258,36839,1,2,0:0:0:0:
421,272,37039,1,0,0:0:0:0:
338,200,37339,5,0,0:0:0:0:
338,200,37639,1,0,0:0:0:0:
270,161,38439,1,0,0:0:0:0:
276,214,38639,1,2,0:0:0:0:
276,214,38839,1,2,0:0:0:0:
181,41,38939,1,2,0:0:0:0:
276,214,39039,1,2,0:0:0:0:
276,214,39239,1,0,0:0:0:0:
276,214,39439,1,2,0:0:0:0:
276,214,39639,1,2,0:0:0:0:
276,214,39839,1,0,0:0:0:0:
276,214,41039,1,2,0:0:0:0:
276,214,41239,1,0,0:0:0:0:
274,161,41439,1,2,0:0:0:0:
274,161,41539,1,2,0:0:0:0:
274,161,41639,1,2,0:0:0:0:
171,183,41839,1,0,0:0:0:0:
231,169,42039,1,2,0:0:0:0:
231,169,42239,1,0,0:0:0:0:
231,169,42439,1,0,0:0:0:0:
231,169,42639,1,2,0:0:0:0:
231,169,42839,1,0,0:0:0:0:
181,142,43239,1,2,0:0:0:0:
181,142,43439,1,2,0:0:0:0:
138,185,43639,1,0,0:0:0:0:
138,185,43839,1,0,0:0:0:0:
138,185,44039,1,0,0:0:0:0:
138,185,44239,1,2,0:0:0:0:
138,185,44439,1,2,0:0:0:0:
189,165,45039,1,0,0:0:0:0:
307,49,45239,1,0,0:0:0:0:
299,161,45439,1,2,0:0:0:0:
156,138,45639,1,0,0:0:0:0:
156,138,45839,1,2,0:0:0:0:
156,138,45939,1,2,0:0:0:0:
156,138,46039,1,2,0:0:0:0:
164,183,46439,1,2,0:0:0:0:
164,183,46639,1,2,0:0:0:0:
164,183,46839,1,0,0:0:0:0:
164,183,47039,1,0,0:0:0:0:
164,183,47239,1,2,0:0:0:0:
164,183,47439,1,2,0:0:0:0:
164,183,47639,1,0,0:0:0:0:
229,140,48239,1,0,0:0:0:0:
233,142,48439,1,0,0:0:0:0:
233,142,48639,1,0,0:0:0:0:
233,142,48839,1,0,0:0:0:0:
233,142,49039,1,2,0:0:0:0:
233,142,49239,1,2,0:0:0:0:
233,142,49439,1,2,0:0:0:0:
233,142,49539,1,2,0:0:0:0:
233,142,49639,1,2,0:0:0:0:
233,142,49839,1,0,0:0:0:0:
233,142,50239,1,2,0:0:0:0:
233,142,50439,1,0,0:0:0:0:
262,169,51039,1,0,0:0:0:0:
262,169,51139,1,0,0:0:0:0:
262,169,51239,1,0,0:0:0:0:
349,194,51439,1,0,0:0:0:0:
109,156,51639,1,2,0:0:0:0:
109,156,51739,1,2,0:0:0:0:
109,156,51839,1,2,0:0:0:0:
196,159,52039,1,0,0:0:0:0:
196,159,52239,1,2,0:0:0:0:
162,288,52539,1,2,0:0:0:0:
216,125,52839,1,2,0:0:0:0:
216,125,53039,1,0,0:0:0:0:
216,125,53239,1,0,0:0:0:0:
100,198,53439,1,2,0:0:0:0:
100,198,53639,1,0,0:0:0:0:
100,198,53839,1,2,0:0:0:0:
100,198,54139,1,2,0:0:0:0:
382,185,54439,1,2,0:0:0:0:
227,175,54639,1,0,0:0:0:0:
227,175,54839,1,0,0:0:0:0:
241,150,55039,1,2,0:0:0:0:
241,150,55139,1,2,0:0:0:0:
241,150,55239,1,2,0:0:0:0:
123,152,55439,1,2,0:0:0:0:
123,152,55739,1,2,0:0:0:0:
289,156,56039,1,2,0:0:0:0:
289,156,56239,1,0,0:0:0:0:
289,156,56439,1,0,0:0:0:0:
156,103,56539,1,0,0:0:0:0:
289,156,56639,1,0,0:0:0:0:
156,103,56839,1,0,0:0:0:0:
156,103,57039,1,2,0:0:0:0:
156,103,57139,1,2,0:0:0:0:
217,70,57339,1,2,0:0:0:0:
284,77,57639,1,2,0:0:0:0:
297,132,57839,1,0,0:0:0:0:
359,125,58239,1,2,0:0:0:0:
359,125,58439,1,0,0:0:0:0:
359,125,59439,1,2,0:0:0:0:
359,125,59639,1,0,0:0:0:0:
359,125,59839,1,2,0:0:0:0:
359,125,60039,1,0,0:0:0:0:
359,125,61039,1,0,0:0:0:0:
359,125,61439,1,2,0:0:0:0:
359,125,61639,1,0,0:0:0:0:
359,125,61839,1,2,0:0:0:0:
359,125,62039,1,2,0:0:0:0:
359,125,62239,1,0,0:0:0:0:
359,125,62439,1,2,0:0:0:0:
216,101,62639,1,0,0:0:0:0:
216,101,62939,1,2,0:0:0:0:
216,101,63239,1,0,0:0:0:0:
216,101,63339,1,0,0:0:0:0:
216,101,63439,1,0,0:0:0:0:
216,101,63839,1,6,0:0:0:0:
216,101,64239,1,0,0:0:0:0:
196,198,66639,1,2,0:0:0:0:
320,142,67439,1,2,0:0:0:0:
233,142,69839,1,2,0:0:0:0:
233,142,70639,1,0,0:0:0:0:
233,142,73039,1,2,0:0:0:0:
233,142,73839,1,2,0:0:0:0:
185,82,76239,6,2,L|283:122,1,105.000004005432
384,227,77039,5,0,0:0:0:0:
384,227,77305,1,2,0:0:0:0:
239,150,77639,1,0,0:0:0:0:
185,219,77839,1,2,0:0:0:0:
185,219,78039,1,2,0:0:0:0:
185,219,78239,1,2,0:0:0:0:
218,152,78639,1,0,0:0:0:0:
355,260,78905,1,2,0:0:0:0:
162,198,79239,1,0,0:0:0:0:
162,198,79439,1,2,0:0:0:0:
162,198,79639,1,2,0:0:0:0:
162,198,79839,1,0,0:0:0:0:
384,227,80239,1,0,0:0:0:0:
384,227,80505,1,2,0:0:0:0:
239,150,80839,1,0,0:0:0:0:
185,219,81039,1,2,0:0:0:0:
185,219,81239,1,2,0:0:0:0:
185,219,81439,1,2,0:0:0:0:
218,152,81839,1,0,0:0:0:0:
355,260,82105,1,2,0:0:0:0:
162,198,82439,1,0,0:0:0:0:
162,198,82639,1,2,0:0:0:0:
143,115,83239,1,2,0:0:0:0:
384,227,83439,5,0,0:0:0:0:
384,227,83705,1,2,0:0:0:0:
239,150,84039,1,0,0:0:0:0:
185,219,84239,1,2,0:0:0:0:
185,219,84439,1,2,0:0:0:0:
185,219,84639,1,2,0:0:0:0:
218,152,85039,1,0,0:0:0:0:
355,260,85305,1,2,0:0:0:0:
162,198,85639,1,0,0:0:0:0:
162,198,85839,1,2,0:0:0:0:
162,198,86039,1,2,0:0:0:0:
162,198,86239,1,0,0:0:0:0:
384,227,86639,1,0,0:0:0:0:
384,227,86905,1,2,0:0:0:0:
239,150,87239,5,0,0:0:0:0:
185,219,87439,1,2,0:0:0:0:
185,219,87639,1,2,0:0:0:0:
185,219,87839,1,0,0:0:0:0:
218,152,88239,5,0,0:0:0:0:
200,152,88539,1,2,0:0:0:0:
206,148,88839,1,0,0:0:0:0:
206,148,88939,1,0,0:0:0:0:
206,148,89039,1,0,0:0:0:0:
206,148,89439,1,6,0:0:0:0:
231,99,89839,1,0,0:0:0:0:
262,233,90139,1,0,0:0:0:0:
262,233,90439,1,0,0:0:0:0:
297,190,90639,1,2,0:0:0:0:
297,190,90739,1,2,0:0:0:0:
183,28,91039,1,0,0:0:0:0:
320,258,91439,1,0,0:0:0:0:
237,219,91739,1,2,0:0:0:0:
237,219,92039,1,0,0:0:0:0:
237,219,92239,1,2,0:0:0:0:
237,219,92639,1,2,0:0:0:0:
237,219,92739,1,2,0:0:0:0:
237,219,92839,1,2,0:0:0:0:
247,125,93039,1,0,0:0:0:0:
332,163,93339,1,0,0:0:0:0:
332,163,93639,1,0,0:0:0:0:
332,163,93839,1,2,0:0:0:0:
421,272,94239,1,2,0:0:0:0:
421,272,94339,1,2,0:0:0:0:
421,272,94639,1,0,0:0:0:0:
338,200,94939,1,0,0:0:0:0:
338,200,95239,1,0,0:0:0:0:
338,200,95439,1,2,0:0:0:0:
266,96,96039,1,2,0:0:0:0:
231,99,96239,1,0,0:0:0:0:
262,233,96539,1,0,0:0:0:0:
262,233,96839,1,0,0:0:0:0:
297,190,97039,1,2,0:0:0:0:
297,190,97139,1,2,0:0:0:0:
183,28,97439,1,0,0:0:0:0:
320,258,97839,1,0,0:0:0:0:
237,219,98139,1,2,0:0:0:0:
237,219,98439,1,0,0:0:0:0:
237,219,98639,1,2,0:0:0:0:
237,219,99039,1,2,0:0:0:0:
237,219,99139,1,2,0:0:0:0:
237,219,99239,1,2,0:0:0:0:
247,125,99439,1,0,0:0:0:0:
332,163,99739,1,0,0:0:0:0:
332,163,100039,1,0,0:0:0:0:
332,163,100239,1,2,0:0:0:0:
171,136,100439,1,2,0:0:0:0:
177,258,100639,1,0,0:0:0:0:
177,258,100839,1,2,0:0:0:0:
421,272,101039,1,0,0:0:0:0:
338,200,101339,5,0,0:0:0:0:
338,200,101639,1,0,0:0:0:0:
125,158,102439,5,0,0:0:0:0:
125,158,102639,1,2,0:0:0:0:
216,249,102839,1,2,0:0:0:0:
216,249,103039,1,0,0:0:0:0:
216,249,103239,1,0,0:0:0:0:
216,249,103439,1,2,0:0:0:0:
216,249,103539,1,2,0:0:0:0:
216,249,103639,1,2,0:0:0:0:
216,249,103839,1,0,0:0:0:0:
185,152,104039,1,0,0:0:0:0:
185,152,104239,1,2,0:0:0:0:
185,152,104639,1,2,0:0:0:0:
162,222,105039,1,2,0:0:0:0:
162,222,105239,1,0,0:0:0:0:
162,222,105439,1,2,0:0:0:0:
175,74,105539,1,2,0:0:0:0:
162,222,105639,1,2,0:0:0:0:
162,222,105839,1,0,0:0:0:0:
253,129,106039,1,0,0:0:0:0:
253,129,106239,1,2,0:0:0:0:
283,80,106439,1,0,0:0:0:0:
253,129,106639,1,2,0:0:0:0:
304,61,107039,1,2,0:0:0:0:
253,129,107239,1,0,0:0:0:0:
202,79,107439,1,2,0:0:0:0:
202,79,107839,1,2,0:0:0:0:
202,79,108239,1,2,0:0:0:0:
202,79,108439,1,2,0:0:0:0:
289,87,108639,1,2,0:0:0:0:
289,87,108739,1,2,0:0:0:0:
289,87,108839,1,2,0:0:0:0:
243,187,109039,1,0,0:0:0:0:
208,214,109339,1,2,0:0:0:0:
208,207,109639,1,0,0:0:0:0:
208,207,109839,1,2,0:0:0:0:
208,207,110039,1,2,0:0:0:0:
208,207,110239,1,2,0:0:0:0:
208,207,110439,1,0,0:0:0:0:
208,207,110639,1,2,0:0:0:0:
208,207,111039,1,0,0:0:0:0:
241,150,111439,1,2,0:0:0:0:
183,98,112239,1,0,0:0:0:0:
150,135,112439,1,0,0:0:0:0:
150,135,112639,1,2,0:0:0:0:
150,135,113039,1,2,0:0:0:0:
150,135,113139,1,2,0:0:0:0:
150,135,113239,1,2,0:0:0:0:
150,135,113439,1,0,0:0:0:0:
150,135,113639,1,2,0:0:0:0:
150,135,113839,1,0,0:0:0:0:
150,135,114039,1,0,0:0:0:0:
150,135,114239,1,2,0:0:0:0:
150,135,114439,1,0,0:0:0:0:
347,172,114639,1,0,0:0:0:0:
347,172,114772,1,0,0:0:0:0:
347,172,114905,1,0,0:0:0:0:
347,172,115039,1,0,0:0:0:0:
152,170,115439,1,0,0:0:0:0:
287,139,115839,1,0,0:0:0:0:
214,71,116039,1,0,0:0:0:0:
287,139,116239,1,2,0:0:0:0:
189,69,116839,1,0,0:0:0:0:
189,69,117039,1,2,0:0:0:0:
189,69,117239,1,0,0:0:0:0:
189,108,117439,1,0,0:0:0:0:
189,108,117639,1,0,0:0:0:0:
189,108,117839,1,2,0:0:0:0:
189,108,118039,1,0,0:0:0:0:
260,135,118239,1,2,0:0:0:0:
260,135,118339,1,2,0:0:0:0:
260,135,118439,1,2,0:0:0:0:
260,135,118639,1,0,0:0:0:0:
231,220,119039,1,0,0:0:0:0:
231,220,119239,1,0,0:0:0:0:
231,220,119439,1,2,0:0:0:0:
231,220,119639,1,0,0:0:0:0:
231,220,119839,1,2,0:0:0:0:
231,220,120039,1,0,0:0:0:0:
164,94,120239,1,2,0:0:0:0:
164,94,120639,1,2,0:0:0:0:
164,94,120839,1,0,0:0:0:0:
164,94,121039,1,2,0:0:0:0:
164,94,121239,1,2,0:0:0:0:
361,185,121439,1,2,0:0:0:0:
361,185,121539,1,2,0:0:0:0:
189,193,121639,1,2,0:0:0:0:
189,193,121839,1,0,0:0:0:0:
189,193,122439,1,2,0:0:0:0:
187,170,123039,1,2,0:0:0:0:
140,203,123239,1,0,0:0:0:0:
140,203,123439,1,2,0:0:0:0:
119,205,123839,1,2,0:0:0:0:
119,205,124039,1,0,0:0:0:0:
239,170,124639,1,2,0:0:0:0:
239,170,124739,1,2,0:0:0:0:
151,137,124839,1,2,0:0:0:0:
220,75,125039,1,0,0:0:0:0:
253,148,125239,1,0,0:0:0:0:
253,148,125439,1,2,0:0:0:0:
253,148,125639,1,0,0:0:0:0:
253,148,125839,1,2,0:0:0:0:
253,148,126039,1,2,0:0:0:0:
253,148,126239,1,2,0:0:0:0:
253,148,126339,1,2,0:0:0:0:
253,148,126439,1,2,0:0:0:0:
253,148,126639,1,0,0:0:0:0:
253,148,126939,1,2,0:0:0:0:
253,148,127239,1,0,0:0:0:0:
253,148,127339,1,0,0:0:0:0:
253,148,127439,1,0,0:0:0:0:
253,148,127839,1,6,0:0:0:0:
216,101,128239,5,0,0:0:0:0:
196,198,130639,1,2,0:0:0:0:
320,142,131439,1,2,0:0:0:0:
233,142,133839,1,2,0:0:0:0:
233,142,134639,1,0,0:0:0:0:
233,142,137039,1,2,0:0:0:0:
233,142,137839,1,2,0:0:0:0:
118,72,140239,6,2,L|226:108,1,105.000004005432
384,227,141039,5,0,0:0:0:0:
384,227,141305,1,2,0:0:0:0:
239,150,141639,1,0,0:0:0:0:
185,219,141839,1,2,0:0:0:0:
185,219,142039,1,2,0:0:0:0:
185,219,142239,1,2,0:0:0:0:
218,152,142639,1,0,0:0:0:0:
355,260,142905,1,2,0:0:0:0:
162,198,143239,1,0,0:0:0:0:
162,198,143439,1,2,0:0:0:0:
162,198,143639,1,2,0:0:0:0:
162,198,143839,1,0,0:0:0:0:
384,227,144239,1,0,0:0:0:0:
384,227,144505,1,2,0:0:0:0:
239,150,144839,1,0,0:0:0:0:
185,219,145039,1,2,0:0:0:0:
185,219,145239,1,2,0:0:0:0:
185,219,145439,1,2,0:0:0:0:
218,152,145839,1,0,0:0:0:0:
355,260,146105,1,2,0:0:0:0:
162,198,146439,1,0,0:0:0:0:
162,198,146639,1,2,0:0:0:0:
217,67,147239,1,2,0:0:0:0:
384,227,147439,5,0,0:0:0:0:
384,227,147705,1,2,0:0:0:0:
239,150,148039,1,0,0:0:0:0:
185,219,148239,1,2,0:0:0:0:
185,219,148439,1,2,0:0:0:0:
185,219,148639,1,2,0:0:0:0:
218,152,149039,1,0,0:0:0:0:
355,260,149305,1,2,0:0:0:0:
162,198,149639,1,0,0:0:0:0:
162,198,149839,1,2,0:0:0:0:
162,198,150039,1,2,0:0:0:0:
162,198,150239,1,0,0:0:0:0:
384,227,150639,1,0,0:0:0:0:
384,227,150905,1,2,0:0:0:0:
239,150,151239,5,0,0:0:0:0:
185,219,151439,1,2,0:0:0:0:
185,219,151639,1,2,0:0:0:0:
185,219,151839,1,0,0:0:0:0:
218,152,152239,5,0,0:0:0:0:
200,152,152539,1,2,0:0:0:0:
206,148,152839,1,0,0:0:0:0:
206,148,152939,1,0,0:0:0:0:
206,148,153039,1,0,0:0:0:0:
206,148,153439,1,6,0:0:0:0:
231,99,153839,1,0,0:0:0:0:
262,233,154139,1,0,0:0:0:0:
262,233,154439,1,0,0:0:0:0:
297,190,154639,1,2,0:0:0:0:
297,190,154739,1,2,0:0:0:0:
183,28,155039,1,0,0:0:0:0:
320,258,155439,1,0,0:0:0:0:
237,219,155739,1,2,0:0:0:0:
237,219,156039,1,0,0:0:0:0:
237,219,156239,1,2,0:0:0:0:
237,219,156639,1,2,0:0:0:0:
237,219,156739,1,2,0:0:0:0:
237,219,156839,1,2,0:0:0:0:
247,125,157039,1,0,0:0:0:0:
332,163,157339,1,0,0:0:0:0:
332,163,157639,1,0,0:0:0:0:
332,163,157839,1,2,0:0:0:0:
421,272,158239,1,2,0:0:0:0:
421,272,158339,1,2,0:0:0:0:
421,272,158639,1,0,0:0:0:0:
338,200,158939,1,0,0:0:0:0:
338,200,159239,1,0,0:0:0:0:
338,200,159439,1,2,0:0:0:0:
266,96,160039,1,2,0:0:0:0:
231,99,160239,1,0,0:0:0:0:
262,233,160539,1,0,0:0:0:0:
262,233,160839,1,0,0:0:0:0:
297,190,161039,1,2,0:0:0:0:
297,190,161139,1,2,0:0:0:0:
183,28,161439,1,0,0:0:0:0:
320,258,161839,1,0,0:0:0:0:
237,219,162139,1,2,0:0:0:0:
237,219,162439,1,0,0:0:0:0:
237,219,162639,1,2,0:0:0:0:
237,219,163039,1,2,0:0:0:0:
237,219,163139,1,2,0:0:0:0:
237,219,163239,1,2,0:0:0:0:
247,125,163439,1,0,0:0:0:0:
332,163,163739,1,0,0:0:0:0:
332,163,164039,1,0,0:0:0:0:
332,163,164239,1,2,0:0:0:0:
171,136,164439,1,2,0:0:0:0:
177,258,164639,1,0,0:0:0:0:
177,258,164839,1,2,0:0:0:0:
421,272,165039,1,0,0:0:0:0:
301,131,166639,5,0,0:0:0:0:
148,170,167039,1,2,0:0:0:0:
148,170,167239,1,0,0:0:0:0:
239,131,168039,1,2,0:0:0:0:
239,131,168239,1,0,0:0:0:0:
139,96,168339,1,0,0:0:0:0:
239,131,168639,1,2,0:0:0:0:
239,131,168839,1,0,0:0:0:0:
220,69,169839,1,0,0:0:0:0:
220,69,169939,1,0,0:0:0:0:
222,158,170239,1,2,0:0:0:0:
222,158,170439,1,0,0:0:0:0:
222,158,170639,1,2,0:0:0:0:
222,158,170839,1,0,0:0:0:0:
222,158,171239,1,2,0:0:0:0:
107,164,171439,1,0,0:0:0:0:
107,164,171539,1,0,0:0:0:0:
107,164,171839,1,2,0:0:0:0:
107,164,171939,1,2,0:0:0:0:
107,164,172039,1,2,0:0:0:0:
107,164,172239,1,0,0:0:0:0:
107,164,172439,1,0,0:0:0:0:
328,129,172639,1,2,0:0:0:0:
328,129,172739,1,2,0:0:0:0:
328,129,172839,1,2,0:0:0:0:
328,129,173039,1,0,0:0:0:0:
328,129,173139,1,0,0:0:0:0:
162,150,173839,1,2,0:0:0:0:
162,150,174139,1,2,0:0:0:0:
162,150,174439,1,2,0:0:0:0:
162,150,174639,1,0,0:0:0:0:
162,150,174939,1,0,0:0:0:0:
162,150,175039,1,0,0:0:0:0:
162,150,175239,1,0,0:0:0:0:
162,150,175439,1,2,0:0:0:0:
162,150,175739,1,2,0:0:0:0:
162,150,176039,1,0,0:0:0:0:
162,150,176239,1,0,0:0:0:0:
160,81,177039,1,2,0:0:0:0:
160,81,177239,1,0,0:0:0:0:
160,81,177339,1,0,0:0:0:0:
160,81,177539,1,0,0:0:0:0:
160,81,177639,1,0,0:0:0:0:
200,90,177839,1,0,0:0:0:0:
198,170,178439,1,2,0:0:0:0:
198,170,178639,1,0,0:0:0:0:
330,158,179039,1,0,0:0:0:0:
330,158,179139,1,0,0:0:0:0:
330,158,179239,1,0,0:0:0:0:
330,158,179439,1,0,0:0:0:0:
247,181,179839,1,2,0:0:0:0:
247,181,180239,1,2,0:0:0:0:
247,181,180339,1,2,0:0:0:0:
247,181,180439,1,2,0:0:0:0:
247,181,180639,1,2,0:0:0:0:
247,181,180839,1,0,0:0:0:0:
243,145,181039,1,2,0:0:0:0:
247,181,181139,1,2,0:0:0:0:
243,145,181339,1,0,0:0:0:0:
243,145,181439,1,0,0:0:0:0:
243,145,181639,1,0,0:0:0:0:
243,145,181839,1,2,0:0:0:0:
243,145,182039,1,0,0:0:0:0:
121,126,182239,1,2,0:0:0:0:
121,126,182339,1,2,0:0:0:0:
121,126,182439,1,2,0:0:0:0:
293,143,182639,1,0,0:0:0:0:
200,112,183239,1,0,0:0:0:0:
206,114,183439,1,2,0:0:0:0:
206,114,183539,1,2,0:0:0:0:
206,114,183639,1,2,0:0:0:0:
206,114,183839,1,2,0:0:0:0:
206,114,184039,1,0,0:0:0:0:
206,114,184139,1,0,0:0:0:0:
206,114,184239,1,0,0:0:0:0:
206,114,184439,1,0,0:0:0:0:
82,193,184639,1,2,0:0:0:0:
82,193,184739,1,2,0:0:0:0:
82,193,184839,1,2,0:0:0:0:
82,193,185039,1,2,0:0:0:0:
82,193,185239,1,2,0:0:0:0:
243,170,185439,1,0,0:0:0:0:
243,170,185539,1,0,0:0:0:0:
243,170,185639,1,0,0:0:0:0:
243,170,185839,1,0,0:0:0:0:
237,159,186239,1,0,0:0:0:0:
258,216,186639,1,2,0:0:0:0:
234,69,186739,1,2,0:0:0:0:
258,216,187039,1,0,0:0:0:0:
258,216,187239,1,0,0:0:0:0:
258,216,187439,1,2,0:0:0:0:
251,207,187539,1,2,0:0:0:0:
251,207,187839,1,2,0:0:0:0:
251,207,187939,1,2,0:0:0:0:
251,207,188039,1,2,0:0:0:0:
251,207,188239,1,0,0:0:0:0:
251,207,188439,1,0,0:0:0:0:
138,172,188539,1,0,0:0:0:0:
138,172,188639,1,0,0:0:0:0:
138,172,188839,1,2,0:0:0:0:
138,172,189039,1,0,0:0:0:0:
191,183,189639,1,0,0:0:0:0:
191,183,189839,1,2,0:0:0:0:
191,183,189939,1,2,0:0:0:0:
191,183,190039,1,2,0:0:0:0:
191,183,190239,1,0,0:0:0:0:
191,183,190439,1,2,0:0:0:0:
191,183,190539,1,2,0:0:0:0:
384,227,192239,5,0,0:0:0:0:
384,227,192505,1,2,0:0:0:0:
239,150,192839,1,0,0:0:0:0:
185,219,193039,1,2,0:0:0:0:
129,94,193139,1,2,0:0:0:0:
185,219,193239,1,2,0:0:0:0:
185,219,193439,1,0,0:0:0:0:
218,152,193839,1,0,0:0:0:0:
355,260,194105,1,2,0:0:0:0:
162,198,194439,1,0,0:0:0:0:
162,198,194839,1,2,0:0:0:0:
162,198,195039,1,0,0:0:0:0:
237,136,195139,1,0,0:0:0:0:
162,198,195239,1,0,0:0:0:0:
384,227,195439,1,0,0:0:0:0:
384,227,195705,1,2,0:0:0:0:
239,150,196039,1,0,0:0:0:0:
282,86,196239,1,0,0:0:0:0:
185,219,196439,1,2,0:0:0:0:
185,219,196639,1,2,0:0:0:0:
208,105,196739,1,2,0:0:0:0:
218,152,197039,1,0,0:0:0:0:
355,260,197305,1,2,0:0:0:0:
162,198,197639,1,0,0:0:0:0:
162,198,198239,1,2,0:0:0:0:
222,103,198339,1,2,0:0:0:0:
384,227,198639,5,0,0:0:0:0:
384,227,198905,1,2,0:0:0:0:
239,150,199239,1,0,0:0:0:0:
185,219,199439,1,2,0:0:0:0:
129,94,199539,1,2,0:0:0:0:
185,219,199639,1,2,0:0:0:0:
185,219,199839,1,0,0:0:0:0:
218,152,200239,1,0,0:0:0:0:
355,260,200505,1,2,0:0:0:0:
162,198,200839,1,0,0:0:0:0:
162,198,201239,1,2,0:0:0:0:
162,198,201439,1,0,0:0:0:0:
237,136,201539,1,0,0:0:0:0:
162,198,201639,1,0,0:0:0:0:
384,227,201839,1,0,0:0:0:0:
384,227,202105,1,2,0:0:0:0:
239,150,202439,1,0,0:0:0:0:
282,86,202639,5,0,0:0:0:0:
185,219,202839,1,2,0:0:0:0:
185,219,203039,1,2,0:0:0:0:
208,105,203139,1,2,0:0:0:0:
169,86,203439,1,0,0:0:0:0:
200,152,203739,5,2,0:0:0:0:
206,148,204039,1,0,0:0:0:0:
206,148,204139,1,0,0:0:0:0:
206,148,204239,1,0,0:0:0:0:
206,148,204639,1,6,0:0:0:0:
231,99,205039,1,2,0:0:0:0:
262,233,205639,1,0,0:0:0:0:
297,190,205839,1,2,0:0:0:0:
297,190,205939,1,2,0:0:0:0:
183,28,206239,1,0,0:0:0:0:
320,258,206639,1,2,0:0:0:0:
237,219,206939,1,2,0:0:0:0:
237,219,207239,1,0,0:0:0:0:
237,219,207439,1,2,0:0:0:0:
237,219,207839,1,2,0:0:0:0:
237,219,207939,1,2,0:0:0:0:
237,219,208039,1,2,0:0:0:0:
247,125,208239,1,0,0:0:0:0:
332,163,208539,1,0,0:0:0:0:
332,163,208839,1,0,0:0:0:0:
332,163,209039,1,2,0:0:0:0:
421,272,209439,1,2,0:0:0:0:
421,272,209539,1,2,0:0:0:0:
421,272,209839,1,2,0:0:0:0:
338,200,210139,1,0,0:0:0:0:
338,200,210439,5,0,0:0:0:0:
338,200,210639,1,2,0:0:0:0:
202,199,210839,1,2,0:0:0:0:
202,199,211039,1,2,0:0:0:0:
202,199,211139,1,2,0:0:0:0:
237,148,211239,1,2,0:0:0:0:
231,99,211439,5,0,0:0:0:0:
262,233,211739,1,0,0:0:0:0:
262,233,212039,1,0,0:0:0:0:
297,190,212239,1,2,0:0:0:0:
297,190,212339,1,2,0:0:0:0:
183,28,212639,1,0,0:0:0:0:
320,258,213039,1,0,0:0:0:0:
237,219,213339,1,2,0:0:0:0:
237,219,213639,1,0,0:0:0:0:
237,219,213839,1,2,0:0:0:0:
237,219,214239,1,2,0:0:0:0:
237,219,214339,1,2,0:0:0:0:
237,219,214439,1,2,0:0:0:0:
247,125,214639,1,0,0:0:0:0:
332,163,214939,1,0,0:0:0:0:
332,163,215239,1,0,0:0:0:0:
177,258,215839,1,2,0:0:0:0:
177,258,215939,1,2,0:0:0:0:
421,272,216239,1,0,0:0:0:0:
338,200,216539,1,2,0:0:0:0:
171,138,216839,1,0,0:0:0:0:
171,138,216939,1,0,0:0:0:0:
171,138,217039,1,0,0:0:0:0:
171,138,217439,1,2,0:0:0:0:
171,138,217639,1,0,0:0:0:0:
154,140,217739,1,0,0:0:0:0:
154,140,217839,1,0,0:0:0:0:
173,204,220239,1,2,0:0:0:0:
173,204,221039,1,2,0:0:0:0:
173,206,223439,1,2,0:0:0:0:
173,206,224239,1,0,0:0:0:0:
173,206,226639,1,2,0:0:0:0:
173,206,227439,1,2,0:0:0:0:
