osu file format v14

[General]
AudioFilename: audio.mp3
AudioLeadIn: 0
PreviewTime: 48860
Countdown: 0
SampleSet: Soft
StackLeniency: 0.7
Mode: 0
LetterboxInBreaks: 0
WidescreenStoryboard: 1

[Editor]
Bookmarks: 7744
DistanceSpacing: 0.8
BeatDivisor: 4
GridSize: 4
TimelineZoom: 1.6

[Metadata]
Title:Kizuato (TV Size)
TitleUnicode:キヅアト (TV Size)
Artist:Centimillimental
ArtistUnicode:センチミリメンタル
Creator:Blitzifyyy
Version:Easy
Source:ギヴン
Tags:nexusqi theblank given centimilli mental anime japanese op opening yaoi bl boys love shounen ai Lerche
BeatmapID:2476162
BeatmapSetID:1188247

[Difficulty]
HPDrainRate:2
CircleSize:2.6
OverallDifficulty:2
ApproachRate:3
SliderMultiplier:0.899999999999999
SliderTickRate:1

[Events]
//Background and Video events
Video,-450,"kizuato.mp4"
0,0,"Mafuyuqt.jpg",0,0
//Break Periods
//Storyboard Layer 0 (Background)
//Storyboard Layer 1 (Fail)
//Storyboard Layer 2 (Pass)
//Storyboard Layer 3 (Foreground)
//Storyboard Layer 4 (Overlay)
//Storyboard Sound Samples

[TimingPoints]
490,337.078651685393,4,2,1,50,1,0
490,-100,4,2,2,50,0,0
2512,-100,4,2,1,50,0,0
3902,307.692307692308,4,2,1,50,1,0
4534,337.078651685393,4,2,1,50,1,0
5713,-100,4,2,1,60,0,1
15151,-95.6937799043062,4,2,1,60,0,1
15320,315.789473684211,4,2,1,60,1,1
15951,342.857142857143,4,2,1,60,1,1
16669,337.078651685393,4,2,1,55,1,0
16669,-100,4,2,1,55,0,0
38242,-100,4,2,1,60,0,0
47680,-109.89010989011,4,2,1,60,0,0
47975,307.692307692308,4,2,1,60,1,0
49029,337.078651685393,4,2,1,65,1,1
49029,-100,4,2,1,65,0,1
59309,324.324324324324,4,2,1,65,1,1
59815,337.078651685393,4,2,1,65,1,1
70348,-100,4,2,1,65,0,0
70432,-100,4,2,1,60,0,1
80376,307.692307692308,4,2,1,60,1,1
80529,-102.040816326531,4,2,1,60,0,1
80683,313.725490196078,4,2,1,60,1,1
81388,337.078651685393,4,2,1,50,1,0
81388,-100,4,2,1,50,0,0
84590,-108.695652173913,4,2,1,50,0,0
84800,313.31592689295,4,2,1,50,1,0
88559,-100,4,2,1,5,0,0

[Colours]
Combo1 : 253,234,159
Combo2 : 255,145,91
Combo3 : 176,114,87

[HitObjects]
356,45,490,6,0,P|421:35|455:101,1,135,2|2,0:0|0:0,0:0:0:0:
472,176,1332,1,2,0:0:0:0:
408,240,1669,2,0,P|359:257|305:238,2,89.9999999999999,2|2|2,0:0|0:0|0:0,0:0:0:0:
284,112,3018,6,0,L|185:113,1,89.9999999999999,4|8,0:0|0:0,0:0:0:0:
125,171,3692,1,4,0:0:0:0:
168,249,4055,2,0,P|182:298|162:345,1,89.9999999999999,8|10,0:0|0:0,0:0:0:0:
390,381,5208,2,0,L|455:381,1,45,8|8,1:2|1:2,0:0:0:0:
498,316,5713,6,0,B|496:260|496:260|502:244|502:244|499:173,1,135,4|8,0:0|0:0,0:0:0:0:
444,111,6556,2,0,P|393:95|349:113,1,89.9999999999999,8|8,0:0|0:0,0:0:0:0:
285,157,7230,1,8,0:0:0:0:
207,111,7567,1,8,0:0:0:0:
158,186,7904,2,0,B|179:254|179:254|158:331,1,135,8|4,0:0|0:0,0:0:0:0:
31,348,8916,6,0,B|15:305|15:305|26:260,1,89.9999999999999,8|8,0:0|0:0,0:0:0:0:
63,180,9590,2,0,B|79:137|79:137|68:92,1,89.9999999999999,8|8,0:0|0:0,0:0:0:0:
116,18,10264,1,8,0:0:0:0:
194,62,10601,2,0,P|222:67|251:61,1,45,8|0,0:0|1:0,0:0:0:0:
315,18,11107,6,0,B|389:-8|376:59|456:29,1,135,4|8,0:0|0:0,0:0:0:0:
508,94,11949,2,0,L|508:199,1,89.9999999999999,8|8,0:0|0:0,0:0:0:0:
447,250,12623,1,8,0:0:0:0:
374,196,12960,1,8,0:0:0:0:
302,250,13298,2,0,L|155:250,1,135,8|4,0:0|0:0,0:0:0:0:
81,220,14140,6,0,P|57:177|69:120,1,89.9999999999999,0|2,1:0|1:2,0:0:0:0:
107,61,14814,1,8,0:0:0:0:
186,103,15151,2,0,B|263:123|247:74|322:94,1,135,2|8,1:2|0:0,0:0:0:0:
387,149,15951,1,8,0:0:0:0:
356,233,16293,1,0,1:0:0:0:
359,322,16669,6,0,B|261:296|281:360|177:332,1,180,4|2,1:2|0:0,0:0:0:0:
111,280,17680,1,10,0:0:0:0:
165,208,18017,2,0,P|228:182|291:213,1,135,2|0,1:2|1:0,0:0:0:0:
347,273,18860,2,0,P|373:276|404:272,1,45,0|10,1:0|0:0,0:0:0:0:
465,223,19365,6,0,L|465:85,1,135,4|0,1:2|1:0,0:0:0:0:
400,25,20208,1,0,1:0:0:0:
321,68,20545,2,0,B|258:69|258:69|246:75|246:75|182:75,1,135,0|8,1:0|0:0,0:0:0:0:
127,142,21388,1,2,0:0:0:0:
170,220,21725,1,10,0:0:0:0:
141,305,22062,6,0,P|80:333|18:304,1,135,4|0,1:2|1:0,0:0:0:0:
11,172,23073,1,10,0:0:0:0:
80,114,23410,2,0,B|153:83|140:148|227:114,1,135,2|0,1:2|1:0,0:0:0:0:
333,64,24421,1,10,0:0:0:0:
393,130,24758,6,0,B|403:179|403:179|394:217,1,89.9999999999999,4|8,1:2|0:0,0:0:0:0:
328,280,25433,2,0,L|238:280,2,89.9999999999999,2|10|2,0:0|0:0|1:2,0:0:0:0:
401,332,26444,1,8,0:0:0:0:
464,267,26781,2,0,P|476:224|464:177,1,89.9999999999999,10|8,0:0|1:2,0:0:0:0:
390,131,27455,6,0,B|324:131|324:131|313:135|313:135|246:135,1,135,4|0,1:2|1:0,0:0:0:0:
121,117,28466,1,10,0:0:0:0:
63,186,28803,2,0,P|43:246|69:312,1,135,2|0,1:2|1:0,0:0:0:0:
187,372,29815,1,10,0:0:0:0:
264,326,30152,6,0,B|333:308|328:354|402:334,1,135,2|0,1:2|1:0,0:0:0:0:
470,284,30994,2,0,L|470:182,1,89.9999999999999,0|0,1:0|1:0,0:0:0:0:
358,117,31837,1,8,0:0:0:0:
299,185,32174,2,0,P|258:198|214:187,1,89.9999999999999,2|10,0:0|0:0,0:0:0:0:
131,150,32848,6,0,B|110:133|110:133|110:17,1,135,4|0,1:2|1:0,0:0:0:0:
224,96,33860,1,10,0:0:0:0:
309,69,34197,2,0,B|380:83|380:83|453:66,2,135,2|0|10,1:2|1:0|0:0,0:0:0:0:
244,7,35545,6,0,P|194:0|148:15,1,89.9999999999999,2|8,1:2|0:0,0:0:0:0:
107,85,36219,2,0,L|107:179,1,89.9999999999999,2|10,0:0|0:0,0:0:0:0:
171,238,36893,1,2,1:2:0:0:
241,182,37230,1,8,0:0:0:0:
302,247,37567,2,0,L|395:247,1,89.9999999999999,8|0,0:0|1:0,0:0:0:0:
467,198,38242,6,0,B|452:134|452:134|468:49,2,135,8|0|0,1:2|0:0|1:0,0:0:0:0:
501,328,39758,1,8,1:2:0:0:
419,367,40095,2,0,L|359:368,1,45,0|8,1:0|0:0,0:0:0:0:
289,335,40601,1,0,1:0:0:0:
326,253,40938,6,0,B|354:180|296:186|324:110,1,135,8|0,1:2|0:0,0:0:0:0:
218,32,41949,2,0,B|156:32|156:32|139:38|139:38|75:38,1,135,0|8,1:0|1:2,0:0:0:0:
5,147,42961,1,8,0:0:0:0:
47,226,43298,1,0,1:0:0:0:
125,181,43635,6,0,P|189:159|260:188,2,135,8|0|0,1:2|0:0|1:0,0:0:0:0:
42,287,45152,1,8,1:2:0:0:
102,353,45489,2,0,L|164:353,1,45,0|8,1:0|0:0,0:0:0:0:
226,309,45994,1,0,1:0:0:0:
298,362,46331,6,0,B|361:362|361:362|379:367|379:367|446:368,2,135,12|12|12,0:0|0:0|0:0,0:0:0:0:
226,309,47680,2,0,P|212:252|228:205,1,89.9999999999999,8|8,1:2|1:2,0:0:0:0:
269,148,48359,2,0,P|282:105|276:61,1,89.9999999999999,8|8,1:2|1:2,0:0:0:0:
190,32,49029,6,0,B|128:32|128:32|121:36|121:36|51:36,1,135,4|0,1:2|1:0,0:0:0:0:
7,111,49871,1,0,1:0:0:0:
51,189,50208,2,0,P|65:238|50:284,1,89.9999999999999,0|0,1:0|1:0,0:0:0:0:
70,363,50882,2,0,B|141:343|137:388|223:364,1,135,0|10,1:0|0:0,0:0:0:0:
272,311,51725,6,0,L|272:221,1,89.9999999999999,10|10,0:0|0:0,0:0:0:0:
211,153,52399,1,10,0:0:0:0:
212,63,52736,1,10,0:0:0:0:
286,13,53073,2,0,B|365:13|365:13|383:23|383:23|467:23,1,180,10|10,0:0|0:0,0:0:0:0:
511,97,54085,1,10,0:0:0:0:
458,170,54422,6,0,P|445:213|462:266,2,89.9999999999999,12|10|10,0:0|0:0|0:0,0:0:0:0:
392,107,55433,1,10,0:0:0:0:
317,157,55770,2,0,L|223:157,1,89.9999999999999,10|10,0:0|0:0,0:0:0:0:
159,216,56444,2,0,P|146:250|162:306,1,89.9999999999999,10|10,0:0|0:0,0:0:0:0:
229,355,57118,6,0,L|382:355,1,135,10|0,0:0|1:0,0:0:0:0:
476,279,58130,2,0,L|476:221,1,45,10|4,0:0|1:2,0:0:0:0:
409,172,58635,2,0,P|348:192|279:171,1,135,8|2,0:0|1:2,0:0:0:0:
210,117,59471,1,8,1:2:0:0:
156,189,59815,6,0,B|156:251|156:251|160:258|160:258|160:328,1,135,4|0,1:2|1:0,0:0:0:0:
233,375,60657,1,0,1:0:0:0:
303,319,60994,2,0,P|351:308|395:324,1,89.9999999999999,0|0,1:0|1:0,0:0:0:0:
466,274,61668,2,0,B|486:203|441:207|465:121,1,135,0|10,1:0|0:0,0:0:0:0:
403,71,62511,6,0,P|363:60|313:71,1,89.9999999999999,10|10,0:0|0:0,0:0:0:0:
259,138,63185,1,10,0:0:0:0:
285,224,63522,1,10,0:0:0:0:
225,291,63859,2,0,B|146:291|146:291|128:301|128:301|44:301,1,180,10|10,0:0|0:0,0:0:0:0:
5,221,64871,1,10,0:0:0:0:
62,151,65208,6,0,P|75:108|58:55,2,89.9999999999999,12|10|10,0:0|0:0|0:0,0:0:0:0:
116,222,66219,1,10,0:0:0:0:
198,186,66556,2,0,L|292:186,1,89.9999999999999,10|10,0:0|0:0,0:0:0:0:
365,139,67230,2,0,P|378:105|324:29,1,135,10|4,0:0|1:2,0:0:0:0:
237,18,68073,6,0,L|133:18,1,89.9999999999999,2|4,1:2|1:2,0:0:0:0:
76,73,68747,2,0,B|63:123|63:123|74:173,1,89.9999999999999,2|4,1:2|1:2,0:0:0:0:
124,284,69590,1,8,0:0:0:0:
201,238,69927,1,0,1:0:0:0:
286,342,70432,6,0,B|343:342|343:342|357:347|357:347|429:347,1,135,4|8,0:0|0:0,0:0:0:0:
483,282,71275,2,0,P|499:231|481:187,1,89.9999999999999,8|8,0:0|0:0,0:0:0:0:
425,132,71949,1,8,0:0:0:0:
347,177,72286,1,8,0:0:0:0:
274,124,72623,2,0,B|212:107|212:107|131:126,1,135,8|4,0:0|0:0,0:0:0:0:
40,217,73635,6,0,B|31:260|31:260|45:305,1,89.9999999999999,8|8,0:0|0:0,0:0:0:0:
117,357,74309,2,0,L|210:357,1,89.9999999999999,8|8,0:0|0:0,0:0:0:0:
284,310,74983,1,8,0:0:0:0:
252,225,75320,2,0,P|247:197|253:168,1,45,8|0,0:0|1:0,0:0:0:0:
293,102,75826,6,0,B|367:76|354:143|434:113,1,135,4|8,0:0|0:0,0:0:0:0:
497,164,76668,2,0,L|497:264,1,89.9999999999999,8|8,0:0|0:0,0:0:0:0:
429,313,77343,1,8,0:0:0:0:
354,264,77680,1,8,0:0:0:0:
288,325,78017,2,0,L|141:325,1,135,8|4,0:0|0:0,0:0:0:0:
77,275,78859,6,0,P|62:234|79:179,1,89.9999999999999,0|2,1:0|1:2,0:0:0:0:
129,121,79534,1,8,0:0:0:0:
202,173,79871,2,0,B|307:173,1,89.9999999999999,2|8,1:2|0:0,0:0:0:0:
378,196,80529,2,0,P|409:240|402:327,1,133.649999592132,0|0,1:0|1:0,0:0:0:0:
335,373,81388,6,0,B|283:372|283:372|272:368|272:368|186:368,1,135,4|0,1:2|0:0,0:0:0:0:
138,302,82230,1,0,0:0:0:0:
170,218,82567,2,0,P|181:179|162:118,2,89.9999999999999
4,146,83916,2,0,P|-7:107|12:46,1,89.9999999999999,4|8,0:0|0:0,0:0:0:0:
78,9,84590,2,0,L|180:9,1,89.9999999999999,4|8,0:0|0:0,0:0:0:0:
251,42,85269,1,4,1:2:0:0:
256,192,85426,12,0,88559,0:0:0:0:
