osu file format v14

[General]
AudioFilename: audio.mp3
AudioLeadIn: 0
PreviewTime: 174274
Countdown: 0
SampleSet: Soft
StackLeniency: 0.7
Mode: 3
LetterboxInBreaks: 0
SpecialStyle: 0
WidescreenStoryboard: 1

[Editor]
Bookmarks: 44369,99031,133195,174191,215187
DistanceSpacing: 0.9
BeatDivisor: 4
GridSize: 4
TimelineZoom: 1.4

[Metadata]
Title:Baryogenesis
TitleUnicode:Baryogenesis
Artist:celtix
ArtistUnicode:celtix
Creator:_Kobii
Version:Symmetry Break
Source:
Tags:MWC 2024 World Cup MWC2024 MWC7K2024 grand finals long mixed rice electronic instrumental speedcore hyperbreak critical star blocko evening
BeatmapID:4499660
BeatmapSetID:2137694

[Difficulty]
HPDrainRate:8
CircleSize:7
OverallDifficulty:8
ApproachRate:5
SliderMultiplier:1.4
SliderTickRate:1

[Events]
//Background and Video events
0,0,"bg_2.jpg",0,0
//Break Periods
//Storyboard Layer 0 (Background)
//Storyboard Layer 1 (Fail)
//Storyboard Layer 2 (Pass)
//Storyboard Layer 3 (Foreground)
//Storyboard Layer 4 (Overlay)
//Storyboard Sound Samples

[TimingPoints]
3474,213.523131672598,4,2,1,40,1,0

[HitObjects]
256,192,2192,128,0,3473:0:0:0:0:
109,192,3473,5,0,0:0:0:0:
329,192,3473,1,0,0:0:0:0:
402,192,3473,1,0,0:0:0:0:
182,192,3580,1,0,0:0:0:0:
256,192,3687,1,0,0:0:0:0:
329,192,3794,1,0,0:0:0:0:
402,192,4114,1,0,0:0:0:0:
402,192,4541,1,0,0:0:0:0:
182,192,4541,1,0,0:0:0:0:
475,192,4648,1,0,0:0:0:0:
256,192,4648,1,0,0:0:0:0:
182,192,4755,1,0,0:0:0:0:
402,192,4755,1,0,0:0:0:0:
109,192,4861,1,0,0:0:0:0:
329,192,4861,1,0,0:0:0:0:
36,192,4968,1,0,0:0:0:0:
256,192,4968,1,0,0:0:0:0:
329,192,5075,1,0,0:0:0:0:
182,192,5075,1,0,0:0:0:0:
402,192,5395,1,0,0:0:0:0:
475,192,5609,1,0,0:0:0:0:
402,192,5929,1,0,0:0:0:0:
329,192,6143,1,0,0:0:0:0:
256,192,6463,1,0,0:0:0:0:
182,192,6676,1,0,0:0:0:0:
36,192,6890,1,0,0:0:0:0:
109,192,6997,1,0,0:0:0:0:
182,192,7103,1,0,0:0:0:0:
329,192,7210,1,0,0:0:0:0:
402,192,7530,1,0,0:0:0:0:
109,192,7957,1,0,0:0:0:0:
182,192,7957,1,0,0:0:0:0:
475,192,8064,1,0,0:0:0:0:
329,192,8064,1,0,0:0:0:0:
402,192,8171,1,0,0:0:0:0:
256,192,8171,1,0,0:0:0:0:
329,192,8278,1,0,0:0:0:0:
182,192,8278,1,0,0:0:0:0:
256,192,8385,1,0,0:0:0:0:
109,192,8385,1,0,0:0:0:0:
475,192,8491,1,0,0:0:0:0:
402,192,8491,1,0,0:0:0:0:
329,192,8812,1,0,0:0:0:0:
256,192,8918,1,0,0:0:0:0:
182,192,9025,1,0,0:0:0:0:
109,192,9132,1,0,0:0:0:0:
36,192,9239,1,0,0:0:0:0:
329,192,9345,1,0,0:0:0:0:
256,192,9452,1,0,0:0:0:0:
182,192,9559,1,0,0:0:0:0:
109,192,9666,1,0,0:0:0:0:
475,192,9772,1,0,0:0:0:0:
402,192,9772,1,0,0:0:0:0:
182,192,9879,1,0,0:0:0:0:
329,192,9879,1,0,0:0:0:0:
36,192,9986,1,0,0:0:0:0:
109,192,9986,1,0,0:0:0:0:
256,192,10093,1,0,0:0:0:0:
402,192,10093,1,0,0:0:0:0:
182,192,10199,1,0,0:0:0:0:
329,192,10199,1,0,0:0:0:0:
475,192,10306,1,0,0:0:0:0:
256,192,10306,1,0,0:0:0:0:
36,192,10306,1,0,0:0:0:0:
402,192,10306,1,0,0:0:0:0:
109,192,10413,1,0,0:0:0:0:
182,192,10520,1,0,0:0:0:0:
256,192,10627,1,0,0:0:0:0:
329,192,10733,1,0,0:0:0:0:
475,192,10733,1,0,0:0:0:0:
36,192,10840,1,0,0:0:0:0:
256,192,10947,1,0,0:0:0:0:
402,192,10947,1,0,0:0:0:0:
182,192,11054,1,0,0:0:0:0:
109,192,11160,1,0,0:0:0:0:
329,192,11160,1,0,0:0:0:0:
402,192,11374,1,0,0:0:0:0:
256,192,11374,1,0,0:0:0:0:
475,192,11481,1,0,0:0:0:0:
329,192,11481,1,0,0:0:0:0:
36,192,11587,1,0,0:0:0:0:
256,192,11587,1,0,0:0:0:0:
402,192,11587,1,0,0:0:0:0:
182,192,11694,1,0,0:0:0:0:
329,192,11694,1,0,0:0:0:0:
475,192,11801,1,0,0:0:0:0:
109,192,11801,1,0,0:0:0:0:
256,192,11801,1,0,0:0:0:0:
36,192,11908,1,0,0:0:0:0:
182,192,11908,1,0,0:0:0:0:
329,192,12014,1,0,0:0:0:0:
182,192,12121,1,0,0:0:0:0:
109,192,12121,1,0,0:0:0:0:
475,192,12228,1,0,0:0:0:0:
329,192,12228,1,0,0:0:0:0:
256,192,12281,1,0,0:0:0:0:
182,192,12335,1,0,0:0:0:0:
36,192,12335,1,0,0:0:0:0:
329,192,12388,1,0,0:0:0:0:
402,192,12441,1,0,0:0:0:0:
475,192,12441,1,0,0:0:0:0:
182,192,12495,1,0,0:0:0:0:
329,192,12548,1,0,0:0:0:0:
36,192,12548,1,0,0:0:0:0:
256,192,12655,1,0,0:0:0:0:
109,192,12655,1,0,0:0:0:0:
402,192,12762,5,0,0:0:0:0:
329,192,12762,1,0,0:0:0:0:
182,192,12815,1,0,0:0:0:0:
36,192,12869,1,0,0:0:0:0:
475,192,12869,1,0,0:0:0:0:
256,192,12922,1,0,0:0:0:0:
402,192,12975,1,0,0:0:0:0:
182,192,12975,1,0,0:0:0:0:
329,192,13029,1,0,0:0:0:0:
475,192,13082,1,0,0:0:0:0:
109,192,13135,1,0,0:0:0:0:
182,192,13189,1,0,0:0:0:0:
329,192,13189,1,0,0:0:0:0:
402,192,13242,1,0,0:0:0:0:
36,192,13296,1,0,0:0:0:0:
256,192,13296,1,0,0:0:0:0:
475,192,13349,1,0,0:0:0:0:
329,192,13402,1,0,0:0:0:0:
109,192,13456,1,0,0:0:0:0:
402,192,13509,1,0,0:0:0:0:
182,192,13509,1,0,0:0:0:0:
256,192,13616,1,0,0:0:0:0:
402,192,13616,1,0,0:0:0:0:
109,192,13723,1,0,0:0:0:0:
329,192,13723,1,0,0:0:0:0:
36,192,13723,1,0,0:0:0:0:
402,192,13829,1,0,0:0:0:0:
256,192,13883,1,0,0:0:0:0:
36,192,13936,5,0,0:0:0:0:
109,192,13936,1,0,0:0:0:0:
475,192,13990,1,0,0:0:0:0:
182,192,14043,1,0,0:0:0:0:
329,192,14096,1,0,0:0:0:0:
402,192,14150,1,0,0:0:0:0:
36,192,14150,1,0,0:0:0:0:
109,192,14203,1,0,0:0:0:0:
256,192,14256,1,0,0:0:0:0:
182,192,14310,1,0,0:0:0:0:
475,192,14363,1,0,0:0:0:0:
402,192,14363,1,0,0:0:0:0:
36,192,14417,1,0,0:0:0:0:
329,192,14470,1,0,0:0:0:0:
256,192,14523,1,0,0:0:0:0:
109,192,14577,5,0,0:0:0:0:
475,192,14577,1,0,0:0:0:0:
182,192,14630,1,0,0:0:0:0:
329,192,14683,1,0,0:0:0:0:
36,192,14683,1,0,0:0:0:0:
256,192,14737,1,0,0:0:0:0:
182,192,14790,1,0,0:0:0:0:
402,192,14790,1,0,0:0:0:0:
109,192,14844,1,0,0:0:0:0:
475,192,14897,1,0,0:0:0:0:
329,192,14897,1,0,0:0:0:0:
182,192,14950,1,0,0:0:0:0:
36,192,15004,1,0,0:0:0:0:
402,192,15004,1,0,0:0:0:0:
256,192,15057,1,0,0:0:0:0:
475,192,15111,1,0,0:0:0:0:
109,192,15111,1,0,0:0:0:0:
329,192,15164,1,0,0:0:0:0:
36,192,15217,1,0,0:0:0:0:
182,192,15217,1,0,0:0:0:0:
402,192,15271,1,0,0:0:0:0:
475,192,15271,1,0,0:0:0:0:
109,192,15324,1,0,0:0:0:0:
182,192,15324,1,0,0:0:0:0:
402,192,15377,1,0,0:0:0:0:
329,192,15377,1,0,0:0:0:0:
256,192,15431,1,0,0:0:0:0:
109,192,15431,1,0,0:0:0:0:
36,192,15431,1,0,0:0:0:0:
329,192,15858,1,0,0:0:0:0:
36,192,15858,1,0,0:0:0:0:
256,192,15911,1,0,0:0:0:0:
109,192,15965,1,0,0:0:0:0:
402,192,15965,1,0,0:0:0:0:
329,192,16018,1,0,0:0:0:0:
182,192,16071,1,0,0:0:0:0:
475,192,16071,1,0,0:0:0:0:
256,192,16178,1,0,0:0:0:0:
109,192,16178,1,0,0:0:0:0:
329,192,16285,1,0,0:0:0:0:
182,192,16285,1,0,0:0:0:0:
402,192,16392,1,0,0:0:0:0:
256,192,16392,1,0,0:0:0:0:
475,192,16498,1,0,0:0:0:0:
329,192,16498,1,0,0:0:0:0:
256,192,16605,1,0,0:0:0:0:
36,192,16605,1,0,0:0:0:0:
182,192,16659,1,0,0:0:0:0:
329,192,16712,1,0,0:0:0:0:
109,192,16712,1,0,0:0:0:0:
402,192,16819,1,0,0:0:0:0:
182,192,16819,1,0,0:0:0:0:
256,192,16925,5,0,0:0:0:0:
109,192,16925,1,0,0:0:0:0:
329,192,16925,1,0,0:0:0:0:
36,192,16925,1,0,0:0:0:0:
475,192,16925,1,0,0:0:0:0:
475,192,17032,1,0,0:0:0:0:
402,192,17032,1,0,0:0:0:0:
109,192,17139,5,0,0:0:0:0:
36,192,17139,1,0,0:0:0:0:
256,192,17139,1,0,0:0:0:0:
329,192,17139,1,0,0:0:0:0:
182,192,17139,1,0,0:0:0:0:
329,192,17246,1,0,0:0:0:0:
475,192,17246,1,0,0:0:0:0:
109,192,17353,1,0,0:0:0:0:
182,192,17353,1,0,0:0:0:0:
36,192,17353,1,0,0:0:0:0:
475,192,17459,1,0,0:0:0:0:
329,192,17459,1,0,0:0:0:0:
402,192,17459,1,0,0:0:0:0:
182,192,17459,1,0,0:0:0:0:
256,192,17459,1,0,0:0:0:0:
256,192,17566,1,0,0:0:0:0:
36,192,17566,1,0,0:0:0:0:
402,192,17659,1,0,0:0:0:0:
329,192,17673,1,0,0:0:0:0:
475,192,17673,1,0,0:0:0:0:
182,192,17673,1,0,0:0:0:0:
182,192,17780,1,0,0:0:0:0:
329,192,17780,1,0,0:0:0:0:
475,192,17780,1,0,0:0:0:0:
402,192,17793,1,0,0:0:0:0:
256,192,17886,1,0,0:0:0:0:
109,192,17886,1,0,0:0:0:0:
329,192,17940,1,0,0:0:0:0:
36,192,17993,1,0,0:0:0:0:
402,192,17993,1,0,0:0:0:0:
475,192,17993,1,0,0:0:0:0:
182,192,18100,1,0,0:0:0:0:
256,192,18127,1,0,0:0:0:0:
329,192,18153,1,0,0:0:0:0:
402,192,18180,1,0,0:0:0:0:
475,192,18207,1,0,0:0:0:0:
182,192,18260,1,0,0:0:0:0:
36,192,18313,1,0,0:0:0:0:
109,192,18313,1,0,0:0:0:0:
329,192,18367,1,0,0:0:0:0:
256,192,18420,1,0,0:0:0:0:
182,192,18420,1,0,0:0:0:0:
475,192,18420,1,0,0:0:0:0:
402,192,18420,1,0,0:0:0:0:
109,192,18474,1,0,0:0:0:0:
329,192,18580,1,0,0:0:0:0:
182,192,18598,1,0,0:0:0:0:
36,192,18616,1,0,0:0:0:0:
256,192,18740,1,0,0:0:0:0:
329,192,18794,1,0,0:0:0:0:
109,192,18847,1,0,0:0:0:0:
402,192,18847,1,0,0:0:0:0:
182,192,18847,1,0,0:0:0:0:
475,192,18847,1,0,0:0:0:0:
36,192,18847,1,0,0:0:0:0:
329,192,18954,1,0,0:0:0:0:
402,192,18954,1,0,0:0:0:0:
109,192,19061,1,0,0:0:0:0:
182,192,19061,1,0,0:0:0:0:
256,192,19061,1,0,0:0:0:0:
329,192,19167,1,0,0:0:0:0:
109,192,19167,1,0,0:0:0:0:
402,192,19167,1,0,0:0:0:0:
475,192,19167,1,0,0:0:0:0:
36,192,19167,1,0,0:0:0:0:
329,192,19274,1,0,0:0:0:0:
36,192,19328,1,0,0:0:0:0:
256,192,19328,1,0,0:0:0:0:
109,192,19381,1,0,0:0:0:0:
475,192,19381,1,0,0:0:0:0:
402,192,19417,1,0,0:0:0:0:
329,192,19452,1,0,0:0:0:0:
182,192,19488,1,0,0:0:0:0:
109,192,19523,1,0,0:0:0:0:
36,192,19541,1,0,0:0:0:0:
256,192,19594,1,0,0:0:0:0:
329,192,19612,1,0,0:0:0:0:
402,192,19630,1,0,0:0:0:0:
109,192,19701,1,0,0:0:0:0:
475,192,19701,1,0,0:0:0:0:
256,192,19701,1,0,0:0:0:0:
182,192,19701,1,0,0:0:0:0:
36,192,19701,1,0,0:0:0:0:
402,192,19808,1,0,0:0:0:0:
329,192,19808,1,0,0:0:0:0:
182,192,19915,1,0,0:0:0:0:
109,192,19968,1,0,0:0:0:0:
36,192,20022,1,0,0:0:0:0:
256,192,20022,1,0,0:0:0:0:
402,192,20022,1,0,0:0:0:0:
329,192,20022,1,0,0:0:0:0:
475,192,20022,1,0,0:0:0:0:
256,192,20128,1,0,0:0:0:0:
109,192,20128,1,0,0:0:0:0:
475,192,20235,1,0,0:0:0:0:
402,192,20235,1,0,0:0:0:0:
182,192,20235,1,0,0:0:0:0:
329,192,20235,1,0,0:0:0:0:
475,192,20342,1,0,0:0:0:0:
109,192,20342,1,0,0:0:0:0:
182,192,20342,1,0,0:0:0:0:
329,192,20342,1,0,0:0:0:0:
109,192,20449,1,0,0:0:0:0:
36,192,20449,1,0,0:0:0:0:
402,192,20449,1,0,0:0:0:0:
256,192,20449,1,0,0:0:0:0:
256,192,20555,1,0,0:0:0:0:
36,192,20555,1,0,0:0:0:0:
182,192,20555,1,0,0:0:0:0:
402,192,20555,1,0,0:0:0:0:
329,192,20555,1,0,0:0:0:0:
109,192,20662,1,0,0:0:0:0:
475,192,20662,1,0,0:0:0:0:
402,192,20698,1,0,0:0:0:0:
182,192,20715,1,0,0:0:0:0:
329,192,20733,1,0,0:0:0:0:
36,192,20769,1,0,0:0:0:0:
256,192,20769,1,0,0:0:0:0:
256,192,20876,1,0,0:0:0:0:
109,192,20876,1,0,0:0:0:0:
182,192,20876,1,0,0:0:0:0:
475,192,20876,1,0,0:0:0:0:
402,192,20876,1,0,0:0:0:0:
36,192,20982,1,0,0:0:0:0:
329,192,20982,1,0,0:0:0:0:
256,192,21018,1,0,0:0:0:0:
182,192,21054,1,0,0:0:0:0:
402,192,21089,1,0,0:0:0:0:
109,192,21089,1,0,0:0:0:0:
182,192,21196,1,0,0:0:0:0:
329,192,21196,1,0,0:0:0:0:
36,192,21249,1,0,0:0:0:0:
475,192,21249,1,0,0:0:0:0:
402,192,21303,1,0,0:0:0:0:
256,192,21343,1,0,0:0:0:0:
109,192,21383,1,0,0:0:0:0:
182,192,21516,1,0,0:0:0:0:
256,192,21516,1,0,0:0:0:0:
36,192,21516,1,0,0:0:0:0:
402,192,21516,1,0,0:0:0:0:
109,192,21623,1,0,0:0:0:0:
475,192,21636,1,0,0:0:0:0:
402,192,21650,1,0,0:0:0:0:
329,192,21663,1,0,0:0:0:0:
256,192,21676,1,0,0:0:0:0:
182,192,21730,1,0,0:0:0:0:
36,192,21783,1,0,0:0:0:0:
402,192,21836,1,0,0:0:0:0:
475,192,21836,1,0,0:0:0:0:
256,192,21836,1,0,0:0:0:0:
329,192,21836,1,0,0:0:0:0:
329,192,21943,1,0,0:0:0:0:
182,192,21943,1,0,0:0:0:0:
402,192,21997,1,0,0:0:0:0:
475,192,21997,1,0,0:0:0:0:
109,192,22050,1,0,0:0:0:0:
182,192,22050,1,0,0:0:0:0:
36,192,22050,1,0,0:0:0:0:
402,192,22157,1,0,0:0:0:0:
256,192,22157,1,0,0:0:0:0:
329,192,22264,1,0,0:0:0:0:
475,192,22264,1,0,0:0:0:0:
182,192,22264,1,0,0:0:0:0:
36,192,22264,1,0,0:0:0:0:
109,192,22264,1,0,0:0:0:0:
256,192,22317,1,0,0:0:0:0:
109,192,22370,1,0,0:0:0:0:
182,192,22424,1,0,0:0:0:0:
329,192,22477,1,0,0:0:0:0:
402,192,22584,1,0,0:0:0:0:
475,192,22584,1,0,0:0:0:0:
256,192,22584,1,0,0:0:0:0:
109,192,22584,1,0,0:0:0:0:
182,192,22584,1,0,0:0:0:0:
36,192,22691,1,0,0:0:0:0:
329,192,22691,1,0,0:0:0:0:
475,192,22744,1,0,0:0:0:0:
256,192,22744,1,0,0:0:0:0:
182,192,22797,1,0,0:0:0:0:
109,192,22797,1,0,0:0:0:0:
329,192,22851,1,0,0:0:0:0:
402,192,22851,1,0,0:0:0:0:
256,192,22904,1,0,0:0:0:0:
36,192,22904,1,0,0:0:0:0:
182,192,23011,1,0,0:0:0:0:
329,192,23011,1,0,0:0:0:0:
256,192,23118,1,0,0:0:0:0:
329,192,23135,1,0,0:0:0:0:
402,192,23153,1,0,0:0:0:0:
475,192,23179,1,0,0:0:0:0:
36,192,23189,1,0,0:0:0:0:
109,192,23211,1,0,0:0:0:0:
182,192,23236,1,0,0:0:0:0:
256,192,23264,1,0,0:0:0:0:
329,192,23296,1,0,0:0:0:0:
402,192,23331,1,0,0:0:0:0:
256,192,23438,1,0,0:0:0:0:
182,192,23456,1,0,0:0:0:0:
109,192,23474,1,0,0:0:0:0:
36,192,23497,1,0,0:0:0:0:
475,192,23509,1,0,0:0:0:0:
402,192,23531,1,0,0:0:0:0:
329,192,23558,1,0,0:0:0:0:
256,192,23580,1,0,0:0:0:0:
36,192,23651,1,0,0:0:0:0:
475,192,23651,1,0,0:0:0:0:
109,192,23665,1,0,0:0:0:0:
402,192,23665,1,0,0:0:0:0:
182,192,23678,1,0,0:0:0:0:
329,192,23678,1,0,0:0:0:0:
182,192,23758,1,0,0:0:0:0:
329,192,23758,1,0,0:0:0:0:
109,192,23772,1,0,0:0:0:0:
402,192,23772,1,0,0:0:0:0:
36,192,23785,1,0,0:0:0:0:
475,192,23785,1,0,0:0:0:0:
256,192,23865,1,0,0:0:0:0:
402,192,23972,1,0,0:0:0:0:
329,192,23972,1,0,0:0:0:0:
475,192,23972,1,0,0:0:0:0:
109,192,23972,1,0,0:0:0:0:
36,192,23972,1,0,0:0:0:0:
182,192,24078,1,0,0:0:0:0:
329,192,24078,1,0,0:0:0:0:
36,192,24185,1,0,0:0:0:0:
256,192,24185,1,0,0:0:0:0:
475,192,24185,1,0,0:0:0:0:
475,192,24292,1,0,0:0:0:0:
402,192,24292,1,0,0:0:0:0:
329,192,24292,1,0,0:0:0:0:
109,192,24292,1,0,0:0:0:0:
182,192,24292,1,0,0:0:0:0:
402,192,24399,1,0,0:0:0:0:
256,192,24399,1,0,0:0:0:0:
109,192,24492,1,0,0:0:0:0:
329,192,24506,1,0,0:0:0:0:
182,192,24506,1,0,0:0:0:0:
36,192,24506,1,0,0:0:0:0:
329,192,24612,1,0,0:0:0:0:
182,192,24612,1,0,0:0:0:0:
36,192,24612,1,0,0:0:0:0:
109,192,24626,1,0,0:0:0:0:
402,192,24719,1,0,0:0:0:0:
256,192,24719,1,0,0:0:0:0:
182,192,24772,1,0,0:0:0:0:
475,192,24826,1,0,0:0:0:0:
109,192,24826,1,0,0:0:0:0:
329,192,24933,1,0,0:0:0:0:
256,192,24959,1,0,0:0:0:0:
182,192,24986,1,0,0:0:0:0:
109,192,25013,1,0,0:0:0:0:
36,192,25039,1,0,0:0:0:0:
329,192,25093,1,0,0:0:0:0:
475,192,25146,1,0,0:0:0:0:
402,192,25146,1,0,0:0:0:0:
182,192,25199,1,0,0:0:0:0:
109,192,25253,1,0,0:0:0:0:
36,192,25253,1,0,0:0:0:0:
329,192,25253,1,0,0:0:0:0:
256,192,25253,1,0,0:0:0:0:
402,192,25306,1,0,0:0:0:0:
182,192,25413,1,0,0:0:0:0:
329,192,25431,1,0,0:0:0:0:
475,192,25449,1,0,0:0:0:0:
402,192,25573,1,0,0:0:0:0:
256,192,25627,1,0,0:0:0:0:
36,192,25680,1,0,0:0:0:0:
182,192,25680,1,0,0:0:0:0:
475,192,25680,1,0,0:0:0:0:
109,192,25680,1,0,0:0:0:0:
329,192,25680,1,0,0:0:0:0:
109,192,25787,1,0,0:0:0:0:
402,192,25893,1,0,0:0:0:0:
256,192,25893,1,0,0:0:0:0:
36,192,25893,1,0,0:0:0:0:
475,192,26000,1,0,0:0:0:0:
109,192,26000,1,0,0:0:0:0:
402,192,26000,1,0,0:0:0:0:
182,192,26000,1,0,0:0:0:0:
329,192,26000,1,0,0:0:0:0:
182,192,26107,1,0,0:0:0:0:
256,192,26160,1,0,0:0:0:0:
475,192,26160,1,0,0:0:0:0:
36,192,26214,1,0,0:0:0:0:
402,192,26214,1,0,0:0:0:0:
109,192,26249,1,0,0:0:0:0:
182,192,26285,1,0,0:0:0:0:
329,192,26320,1,0,0:0:0:0:
402,192,26356,1,0,0:0:0:0:
475,192,26374,1,0,0:0:0:0:
256,192,26427,1,0,0:0:0:0:
182,192,26445,1,0,0:0:0:0:
109,192,26463,1,0,0:0:0:0:
36,192,26534,1,0,0:0:0:0:
256,192,26534,1,0,0:0:0:0:
475,192,26534,1,0,0:0:0:0:
329,192,26534,1,0,0:0:0:0:
402,192,26534,1,0,0:0:0:0:
182,192,26641,1,0,0:0:0:0:
402,192,26641,1,0,0:0:0:0:
256,192,26748,1,0,0:0:0:0:
182,192,26801,1,0,0:0:0:0:
36,192,26854,1,0,0:0:0:0:
109,192,26854,1,0,0:0:0:0:
329,192,26854,1,0,0:0:0:0:
475,192,26854,1,0,0:0:0:0:
402,192,26854,1,0,0:0:0:0:
256,192,26961,1,0,0:0:0:0:
402,192,26961,1,0,0:0:0:0:
475,192,27068,1,0,0:0:0:0:
329,192,27068,1,0,0:0:0:0:
182,192,27068,1,0,0:0:0:0:
36,192,27068,1,0,0:0:0:0:
256,192,27175,1,0,0:0:0:0:
475,192,27175,1,0,0:0:0:0:
36,192,27175,1,0,0:0:0:0:
109,192,27175,1,0,0:0:0:0:
182,192,27281,1,0,0:0:0:0:
402,192,27281,1,0,0:0:0:0:
329,192,27281,1,0,0:0:0:0:
109,192,27281,1,0,0:0:0:0:
182,192,27388,1,0,0:0:0:0:
329,192,27388,1,0,0:0:0:0:
475,192,27388,1,0,0:0:0:0:
256,192,27388,1,0,0:0:0:0:
402,192,27495,1,0,0:0:0:0:
36,192,27495,1,0,0:0:0:0:
109,192,27530,1,0,0:0:0:0:
329,192,27548,1,0,0:0:0:0:
182,192,27566,1,0,0:0:0:0:
475,192,27602,1,0,0:0:0:0:
256,192,27602,1,0,0:0:0:0:
329,192,27708,1,0,0:0:0:0:
475,192,27708,1,0,0:0:0:0:
182,192,27708,1,0,0:0:0:0:
36,192,27708,1,0,0:0:0:0:
109,192,27708,1,0,0:0:0:0:
402,192,27815,1,0,0:0:0:0:
256,192,27815,1,0,0:0:0:0:
109,192,27851,1,0,0:0:0:0:
329,192,27886,1,0,0:0:0:0:
475,192,27922,1,0,0:0:0:0:
36,192,27922,1,0,0:0:0:0:
182,192,27957,1,0,0:0:0:0:
329,192,28029,1,0,0:0:0:0:
402,192,28029,1,0,0:0:0:0:
109,192,28082,1,0,0:0:0:0:
182,192,28082,1,0,0:0:0:0:
475,192,28135,1,0,0:0:0:0:
256,192,28175,1,0,0:0:0:0:
36,192,28215,1,0,0:0:0:0:
475,192,28349,1,0,0:0:0:0:
329,192,28349,1,0,0:0:0:0:
256,192,28349,1,0,0:0:0:0:
109,192,28349,1,0,0:0:0:0:
402,192,28456,1,0,0:0:0:0:
36,192,28469,1,0,0:0:0:0:
109,192,28482,1,0,0:0:0:0:
182,192,28496,1,0,0:0:0:0:
256,192,28509,1,0,0:0:0:0:
475,192,28562,1,0,0:0:0:0:
329,192,28616,1,0,0:0:0:0:
36,192,28669,1,0,0:0:0:0:
256,192,28669,1,0,0:0:0:0:
109,192,28669,1,0,0:0:0:0:
182,192,28669,1,0,0:0:0:0:
182,192,28776,1,0,0:0:0:0:
329,192,28776,1,0,0:0:0:0:
402,192,28829,1,0,0:0:0:0:
475,192,28829,1,0,0:0:0:0:
109,192,28883,1,0,0:0:0:0:
256,192,28883,1,0,0:0:0:0:
36,192,28883,1,0,0:0:0:0:
402,192,28990,1,0,0:0:0:0:
256,192,28990,1,0,0:0:0:0:
329,192,29096,1,0,0:0:0:0:
182,192,29096,1,0,0:0:0:0:
109,192,29096,1,0,0:0:0:0:
36,192,29096,1,0,0:0:0:0:
475,192,29096,1,0,0:0:0:0:
402,192,29096,1,0,0:0:0:0:
36,192,29203,1,0,0:0:0:0:
109,192,29310,1,0,0:0:0:0:
182,192,29417,1,0,0:0:0:0:
256,192,29523,1,0,0:0:0:0:
109,192,29630,1,0,0:0:0:0:
329,192,29630,1,0,0:0:0:0:
402,192,29737,1,0,0:0:0:0:
182,192,29737,1,0,0:0:0:0:
475,192,29844,1,0,0:0:0:0:
256,192,29844,1,0,0:0:0:0:
36,192,29950,1,0,0:0:0:0:
329,192,29950,1,0,0:0:0:0:
109,192,30057,1,0,0:0:0:0:
402,192,30057,1,0,0:0:0:0:
475,192,30164,1,0,0:0:0:0:
182,192,30164,1,0,0:0:0:0:
256,192,30271,1,0,0:0:0:0:
329,192,30377,1,0,0:0:0:0:
402,192,30377,1,0,0:0:0:0:
109,192,30484,1,0,0:0:0:0:
36,192,30484,1,0,0:0:0:0:
256,192,30591,1,0,0:0:0:0:
182,192,30591,1,0,0:0:0:0:
329,192,30698,1,0,0:0:0:0:
475,192,30698,1,0,0:0:0:0:
256,192,30804,1,0,0:0:0:0:
402,192,30804,1,0,0:0:0:0:
109,192,30804,1,0,0:0:0:0:
36,192,30804,1,0,0:0:0:0:
182,192,30804,1,0,0:0:0:0:
182,192,30911,1,0,0:0:0:0:
36,192,30911,1,0,0:0:0:0:
475,192,31018,1,0,0:0:0:0:
329,192,31018,1,0,0:0:0:0:
109,192,31018,1,0,0:0:0:0:
256,192,31125,1,0,0:0:0:0:
36,192,31125,1,0,0:0:0:0:
475,192,31125,1,0,0:0:0:0:
329,192,31125,1,0,0:0:0:0:
402,192,31125,1,0,0:0:0:0:
256,192,31232,1,0,0:0:0:0:
109,192,31232,1,0,0:0:0:0:
36,192,31232,1,0,0:0:0:0:
182,192,31232,1,0,0:0:0:0:
402,192,31325,1,0,0:0:0:0:
475,192,31338,1,0,0:0:0:0:
329,192,31338,1,0,0:0:0:0:
182,192,31392,1,0,0:0:0:0:
475,192,31445,1,0,0:0:0:0:
329,192,31445,1,0,0:0:0:0:
402,192,31458,1,0,0:0:0:0:
182,192,31552,1,0,0:0:0:0:
109,192,31570,1,0,0:0:0:0:
36,192,31587,1,0,0:0:0:0:
402,192,31605,1,0,0:0:0:0:
475,192,31605,1,0,0:0:0:0:
256,192,31659,1,0,0:0:0:0:
329,192,31659,1,0,0:0:0:0:
402,192,31765,1,0,0:0:0:0:
109,192,31783,1,0,0:0:0:0:
182,192,31801,1,0,0:0:0:0:
256,192,31819,1,0,0:0:0:0:
329,192,31836,1,0,0:0:0:0:
475,192,31872,1,0,0:0:0:0:
182,192,31925,1,0,0:0:0:0:
109,192,31979,1,0,0:0:0:0:
36,192,31979,1,0,0:0:0:0:
475,192,32032,1,0,0:0:0:0:
402,192,32032,1,0,0:0:0:0:
182,192,32086,1,0,0:0:0:0:
256,192,32086,1,0,0:0:0:0:
36,192,32086,1,0,0:0:0:0:
109,192,32086,1,0,0:0:0:0:
402,192,32139,1,0,0:0:0:0:
182,192,32246,1,0,0:0:0:0:
329,192,32264,1,0,0:0:0:0:
475,192,32281,1,0,0:0:0:0:
109,192,32299,1,0,0:0:0:0:
256,192,32406,1,0,0:0:0:0:
329,192,32459,1,0,0:0:0:0:
402,192,32513,1,0,0:0:0:0:
475,192,32513,1,0,0:0:0:0:
109,192,32513,1,0,0:0:0:0:
182,192,32513,1,0,0:0:0:0:
36,192,32513,1,0,0:0:0:0:
329,192,32619,1,0,0:0:0:0:
402,192,32619,1,0,0:0:0:0:
182,192,32726,1,0,0:0:0:0:
109,192,32726,1,0,0:0:0:0:
256,192,32726,1,0,0:0:0:0:
329,192,32833,1,0,0:0:0:0:
109,192,32833,1,0,0:0:0:0:
475,192,32833,1,0,0:0:0:0:
36,192,32833,1,0,0:0:0:0:
402,192,32833,1,0,0:0:0:0:
402,192,32940,1,0,0:0:0:0:
475,192,32940,1,0,0:0:0:0:
256,192,32940,1,0,0:0:0:0:
329,192,32940,1,0,0:0:0:0:
182,192,33046,1,0,0:0:0:0:
109,192,33082,1,0,0:0:0:0:
36,192,33118,1,0,0:0:0:0:
475,192,33153,1,0,0:0:0:0:
402,192,33189,1,0,0:0:0:0:
329,192,33207,1,0,0:0:0:0:
256,192,33260,1,0,0:0:0:0:
475,192,33260,1,0,0:0:0:0:
182,192,33260,1,0,0:0:0:0:
36,192,33260,1,0,0:0:0:0:
109,192,33260,1,0,0:0:0:0:
329,192,33367,1,0,0:0:0:0:
256,192,33420,1,0,0:0:0:0:
402,192,33474,1,0,0:0:0:0:
182,192,33474,1,0,0:0:0:0:
256,192,33580,1,0,0:0:0:0:
475,192,33580,1,0,0:0:0:0:
329,192,33580,1,0,0:0:0:0:
36,192,33580,1,0,0:0:0:0:
109,192,33580,1,0,0:0:0:0:
36,192,33687,1,0,0:0:0:0:
182,192,33687,1,0,0:0:0:0:
402,192,33794,1,0,0:0:0:0:
475,192,33794,1,0,0:0:0:0:
256,192,33794,1,0,0:0:0:0:
329,192,33794,1,0,0:0:0:0:
182,192,33901,1,0,0:0:0:0:
475,192,33901,1,0,0:0:0:0:
36,192,33901,1,0,0:0:0:0:
329,192,33901,1,0,0:0:0:0:
256,192,34007,1,0,0:0:0:0:
402,192,34007,1,0,0:0:0:0:
109,192,34007,1,0,0:0:0:0:
36,192,34007,1,0,0:0:0:0:
329,192,34114,1,0,0:0:0:0:
109,192,34114,1,0,0:0:0:0:
475,192,34114,1,0,0:0:0:0:
182,192,34114,1,0,0:0:0:0:
475,192,34221,1,0,0:0:0:0:
36,192,34221,1,0,0:0:0:0:
256,192,34221,1,0,0:0:0:0:
182,192,34221,1,0,0:0:0:0:
402,192,34221,1,0,0:0:0:0:
36,192,34328,1,0,0:0:0:0:
329,192,34328,1,0,0:0:0:0:
109,192,34363,1,0,0:0:0:0:
402,192,34381,1,0,0:0:0:0:
182,192,34399,1,0,0:0:0:0:
256,192,34434,1,0,0:0:0:0:
475,192,34434,1,0,0:0:0:0:
402,192,34541,1,0,0:0:0:0:
475,192,34541,1,0,0:0:0:0:
329,192,34541,1,0,0:0:0:0:
109,192,34541,1,0,0:0:0:0:
182,192,34541,1,0,0:0:0:0:
182,192,34648,1,0,0:0:0:0:
256,192,34648,1,0,0:0:0:0:
36,192,34648,1,0,0:0:0:0:
109,192,34648,1,0,0:0:0:0:
402,192,34701,1,0,0:0:0:0:
329,192,34755,1,0,0:0:0:0:
256,192,34808,1,0,0:0:0:0:
109,192,34861,1,0,0:0:0:0:
36,192,34861,1,0,0:0:0:0:
402,192,34915,1,0,0:0:0:0:
475,192,34915,1,0,0:0:0:0:
182,192,34968,1,0,0:0:0:0:
256,192,35008,1,0,0:0:0:0:
329,192,35048,1,0,0:0:0:0:
109,192,35182,1,0,0:0:0:0:
475,192,35182,1,0,0:0:0:0:
36,192,35182,1,0,0:0:0:0:
182,192,35182,1,0,0:0:0:0:
402,192,35288,1,0,0:0:0:0:
329,192,35302,1,0,0:0:0:0:
256,192,35315,1,0,0:0:0:0:
182,192,35328,1,0,0:0:0:0:
109,192,35342,1,0,0:0:0:0:
475,192,35395,1,0,0:0:0:0:
402,192,35449,1,0,0:0:0:0:
182,192,35502,1,0,0:0:0:0:
256,192,35502,1,0,0:0:0:0:
36,192,35502,1,0,0:0:0:0:
109,192,35502,1,0,0:0:0:0:
402,192,35609,1,0,0:0:0:0:
329,192,35635,1,0,0:0:0:0:
475,192,35715,1,0,0:0:0:0:
182,192,35715,1,0,0:0:0:0:
109,192,35742,1,0,0:0:0:0:
329,192,35822,1,0,0:0:0:0:
402,192,35849,1,0,0:0:0:0:
475,192,35929,1,0,0:0:0:0:
182,192,35929,1,0,0:0:0:0:
256,192,35929,1,0,0:0:0:0:
36,192,35929,1,0,0:0:0:0:
109,192,35929,1,0,0:0:0:0:
182,192,36036,1,0,0:0:0:0:
36,192,36143,1,0,0:0:0:0:
329,192,36143,1,0,0:0:0:0:
475,192,36249,1,0,0:0:0:0:
109,192,36249,1,0,0:0:0:0:
402,192,36249,1,0,0:0:0:0:
256,192,36249,1,0,0:0:0:0:
329,192,36249,1,0,0:0:0:0:
182,192,36356,1,0,0:0:0:0:
256,192,36356,1,0,0:0:0:0:
36,192,36356,1,0,0:0:0:0:
109,192,36356,1,0,0:0:0:0:
402,192,36409,1,0,0:0:0:0:
475,192,36409,1,0,0:0:0:0:
329,192,36463,1,0,0:0:0:0:
182,192,36516,1,0,0:0:0:0:
36,192,36570,1,0,0:0:0:0:
256,192,36570,1,0,0:0:0:0:
329,192,36676,1,0,0:0:0:0:
109,192,36676,1,0,0:0:0:0:
475,192,36676,1,0,0:0:0:0:
256,192,36783,1,0,0:0:0:0:
182,192,36801,1,0,0:0:0:0:
109,192,36819,1,0,0:0:0:0:
36,192,36844,1,0,0:0:0:0:
475,192,36854,1,0,0:0:0:0:
402,192,36877,1,0,0:0:0:0:
329,192,36902,1,0,0:0:0:0:
256,192,36930,1,0,0:0:0:0:
182,192,36961,1,0,0:0:0:0:
109,192,36997,1,0,0:0:0:0:
256,192,37103,1,0,0:0:0:0:
329,192,37121,1,0,0:0:0:0:
402,192,37139,1,0,0:0:0:0:
475,192,37163,1,0,0:0:0:0:
36,192,37175,1,0,0:0:0:0:
109,192,37197,1,0,0:0:0:0:
182,192,37224,1,0,0:0:0:0:
256,192,37246,1,0,0:0:0:0:
475,192,37317,1,0,0:0:0:0:
36,192,37317,1,0,0:0:0:0:
109,192,37330,1,0,0:0:0:0:
402,192,37330,1,0,0:0:0:0:
329,192,37344,1,0,0:0:0:0:
182,192,37344,1,0,0:0:0:0:
182,192,37424,1,0,0:0:0:0:
329,192,37424,1,0,0:0:0:0:
109,192,37437,1,0,0:0:0:0:
402,192,37437,1,0,0:0:0:0:
475,192,37450,1,0,0:0:0:0:
36,192,37450,1,0,0:0:0:0:
256,192,37530,1,0,0:0:0:0:
329,192,37637,1,0,0:0:0:0:
402,192,37637,1,0,0:0:0:0:
182,192,37637,1,0,0:0:0:0:
36,192,37637,1,0,0:0:0:0:
109,192,37637,1,0,0:0:0:0:
256,192,37744,1,0,0:0:0:0:
109,192,37744,1,0,0:0:0:0:
402,192,37851,1,0,0:0:0:0:
329,192,37851,1,0,0:0:0:0:
182,192,37851,1,0,0:0:0:0:
36,192,37957,1,0,0:0:0:0:
329,192,37957,1,0,0:0:0:0:
182,192,37957,1,0,0:0:0:0:
256,192,37957,1,0,0:0:0:0:
475,192,37957,1,0,0:0:0:0:
475,192,38064,1,0,0:0:0:0:
402,192,38064,1,0,0:0:0:0:
36,192,38064,1,0,0:0:0:0:
109,192,38064,1,0,0:0:0:0:
256,192,38158,1,0,0:0:0:0:
329,192,38171,1,0,0:0:0:0:
182,192,38171,1,0,0:0:0:0:
329,192,38278,1,0,0:0:0:0:
182,192,38278,1,0,0:0:0:0:
256,192,38291,1,0,0:0:0:0:
475,192,38385,1,0,0:0:0:0:
402,192,38402,1,0,0:0:0:0:
329,192,38420,1,0,0:0:0:0:
36,192,38438,1,0,0:0:0:0:
109,192,38438,1,0,0:0:0:0:
182,192,38491,1,0,0:0:0:0:
256,192,38491,1,0,0:0:0:0:
402,192,38598,1,0,0:0:0:0:
329,192,38616,1,0,0:0:0:0:
182,192,38634,1,0,0:0:0:0:
109,192,38651,1,0,0:0:0:0:
256,192,38705,1,0,0:0:0:0:
36,192,38758,1,0,0:0:0:0:
475,192,38758,1,0,0:0:0:0:
402,192,38812,1,0,0:0:0:0:
109,192,38812,1,0,0:0:0:0:
182,192,38865,1,0,0:0:0:0:
329,192,38865,1,0,0:0:0:0:
36,192,38918,1,0,0:0:0:0:
109,192,38918,1,0,0:0:0:0:
475,192,38918,1,0,0:0:0:0:
402,192,38918,1,0,0:0:0:0:
256,192,38972,1,0,0:0:0:0:
182,192,39078,1,0,0:0:0:0:
329,192,39096,1,0,0:0:0:0:
475,192,39114,1,0,0:0:0:0:
109,192,39132,1,0,0:0:0:0:
402,192,39239,1,0,0:0:0:0:
256,192,39292,1,0,0:0:0:0:
36,192,39345,1,0,0:0:0:0:
109,192,39345,1,0,0:0:0:0:
182,192,39345,1,0,0:0:0:0:
329,192,39345,1,0,0:0:0:0:
475,192,39345,1,0,0:0:0:0:
402,192,39452,1,0,0:0:0:0:
182,192,39452,1,0,0:0:0:0:
329,192,39559,1,0,0:0:0:0:
109,192,39559,1,0,0:0:0:0:
256,192,39559,1,0,0:0:0:0:
329,192,39666,1,0,0:0:0:0:
402,192,39666,1,0,0:0:0:0:
475,192,39666,1,0,0:0:0:0:
36,192,39666,1,0,0:0:0:0:
182,192,39666,1,0,0:0:0:0:
36,192,39772,1,0,0:0:0:0:
109,192,39772,1,0,0:0:0:0:
475,192,39772,1,0,0:0:0:0:
402,192,39772,1,0,0:0:0:0:
256,192,39879,1,0,0:0:0:0:
182,192,39906,1,0,0:0:0:0:
109,192,39933,1,0,0:0:0:0:
475,192,39959,1,0,0:0:0:0:
402,192,39986,1,0,0:0:0:0:
329,192,40013,1,0,0:0:0:0:
256,192,40026,1,0,0:0:0:0:
36,192,40093,1,0,0:0:0:0:
109,192,40111,1,0,0:0:0:0:
182,192,40128,1,0,0:0:0:0:
402,192,40199,1,0,0:0:0:0:
329,192,40199,1,0,0:0:0:0:
256,192,40199,1,0,0:0:0:0:
475,192,40199,1,0,0:0:0:0:
109,192,40306,1,0,0:0:0:0:
402,192,40306,1,0,0:0:0:0:
182,192,40413,1,0,0:0:0:0:
475,192,40413,1,0,0:0:0:0:
402,192,40466,1,0,0:0:0:0:
109,192,40466,1,0,0:0:0:0:
329,192,40520,1,0,0:0:0:0:
36,192,40520,1,0,0:0:0:0:
256,192,40520,1,0,0:0:0:0:
36,192,40627,1,0,0:0:0:0:
109,192,40627,1,0,0:0:0:0:
402,192,40627,1,0,0:0:0:0:
475,192,40627,1,0,0:0:0:0:
256,192,40627,1,0,0:0:0:0:
109,192,40733,1,0,0:0:0:0:
182,192,40733,1,0,0:0:0:0:
329,192,40733,1,0,0:0:0:0:
402,192,40733,1,0,0:0:0:0:
36,192,40840,1,0,0:0:0:0:
182,192,40840,1,0,0:0:0:0:
329,192,40840,1,0,0:0:0:0:
475,192,40840,1,0,0:0:0:0:
402,192,40947,1,0,0:0:0:0:
109,192,40947,1,0,0:0:0:0:
36,192,41054,1,0,0:0:0:0:
182,192,41054,1,0,0:0:0:0:
256,192,41054,1,0,0:0:0:0:
329,192,41054,1,0,0:0:0:0:
475,192,41054,1,0,0:0:0:0:
36,192,41160,1,0,0:0:0:0:
329,192,41160,1,0,0:0:0:0:
109,192,41196,1,0,0:0:0:0:
402,192,41214,1,0,0:0:0:0:
182,192,41232,1,0,0:0:0:0:
256,192,41267,1,0,0:0:0:0:
475,192,41267,1,0,0:0:0:0:
402,192,41374,1,0,0:0:0:0:
475,192,41374,1,0,0:0:0:0:
329,192,41374,1,0,0:0:0:0:
109,192,41374,1,0,0:0:0:0:
182,192,41374,1,0,0:0:0:0:
182,192,41481,1,0,0:0:0:0:
256,192,41481,1,0,0:0:0:0:
36,192,41481,1,0,0:0:0:0:
109,192,41481,1,0,0:0:0:0:
329,192,41587,1,0,0:0:0:0:
475,192,41587,1,0,0:0:0:0:
109,192,41623,1,0,0:0:0:0:
182,192,41659,1,0,0:0:0:0:
256,192,41694,1,0,0:0:0:0:
402,192,41694,1,0,0:0:0:0:
36,192,41748,1,0,0:0:0:0:
475,192,41748,1,0,0:0:0:0:
329,192,41801,1,0,0:0:0:0:
256,192,41841,1,0,0:0:0:0:
182,192,41881,1,0,0:0:0:0:
256,192,42014,1,0,0:0:0:0:
475,192,42014,1,0,0:0:0:0:
36,192,42014,1,0,0:0:0:0:
109,192,42014,1,0,0:0:0:0:
402,192,42121,1,0,0:0:0:0:
329,192,42135,1,0,0:0:0:0:
256,192,42148,1,0,0:0:0:0:
182,192,42161,1,0,0:0:0:0:
109,192,42175,1,0,0:0:0:0:
475,192,42228,1,0,0:0:0:0:
402,192,42281,1,0,0:0:0:0:
256,192,42335,1,0,0:0:0:0:
182,192,42335,1,0,0:0:0:0:
109,192,42335,1,0,0:0:0:0:
36,192,42335,1,0,0:0:0:0:
475,192,42441,1,0,0:0:0:0:
329,192,42455,1,0,0:0:0:0:
109,192,42548,1,0,0:0:0:0:
256,192,42562,1,0,0:0:0:0:
182,192,42655,1,0,0:0:0:0:
329,192,42668,1,0,0:0:0:0:
256,192,42762,5,0,0:0:0:0:
475,192,42762,1,0,0:0:0:0:
36,192,42762,1,0,0:0:0:0:
402,192,42762,1,0,0:0:0:0:
109,192,42762,1,0,0:0:0:0:
182,192,42869,1,0,0:0:0:0:
329,192,42975,1,0,0:0:0:0:
182,192,43029,1,0,0:0:0:0:
475,192,43082,1,0,0:0:0:0:
329,192,43082,1,0,0:0:0:0:
109,192,43189,1,0,0:0:0:0:
36,192,43189,1,0,0:0:0:0:
256,192,43296,1,0,0:0:0:0:
402,192,43349,1,0,0:0:0:0:
109,192,43402,1,0,0:0:0:0:
256,192,43402,1,0,0:0:0:0:
402,192,43509,1,0,0:0:0:0:
329,192,43509,1,0,0:0:0:0:
182,192,43509,1,0,0:0:0:0:
36,192,43616,1,0,0:0:0:0:
475,192,43616,1,0,0:0:0:0:
256,192,43616,1,0,0:0:0:0:
402,192,43669,1,0,0:0:0:0:
109,192,43669,1,0,0:0:0:0:
329,192,43723,1,0,0:0:0:0:
182,192,43723,1,0,0:0:0:0:
402,192,43829,1,0,0:0:0:0:
256,192,43829,1,0,0:0:0:0:
36,192,43829,1,0,0:0:0:0:
182,192,43883,1,0,0:0:0:0:
109,192,43936,1,0,0:0:0:0:
329,192,43936,1,0,0:0:0:0:
256,192,43990,1,0,0:0:0:0:
402,192,44043,1,0,0:0:0:0:
182,192,44043,1,0,0:0:0:0:
36,192,44043,1,0,0:0:0:0:
329,192,44096,1,0,0:0:0:0:
475,192,44150,1,0,0:0:0:0:
256,192,44150,1,0,0:0:0:0:
109,192,44203,1,0,0:0:0:0:
36,192,44203,1,0,0:0:0:0:
329,192,44256,1,0,0:0:0:0:
182,192,44256,1,0,0:0:0:0:
475,192,44310,1,0,0:0:0:0:
402,192,44310,1,0,0:0:0:0:
109,192,44363,1,0,0:0:0:0:
256,192,44363,1,0,0:0:0:0:
36,192,44363,1,0,0:0:0:0:
182,192,44417,1,0,0:0:0:0:
329,192,44417,1,0,0:0:0:0:
109,192,44470,5,0,0:0:0:0:
475,192,44470,1,0,0:0:0:0:
256,192,44470,1,0,0:0:0:0:
36,192,44470,1,0,0:0:0:0:
402,192,44506,1,0,0:0:0:0:
329,192,44541,1,0,0:0:0:0:
256,192,44577,1,0,0:0:0:0:
182,192,44612,1,0,0:0:0:0:
109,192,44648,1,0,0:0:0:0:
475,192,44683,1,0,0:0:0:0:
36,192,44683,1,0,0:0:0:0:
402,192,44719,1,0,0:0:0:0:
329,192,44755,1,0,0:0:0:0:
256,192,44790,1,0,0:0:0:0:
329,192,44897,1,0,0:0:0:0:
36,192,44897,1,0,0:0:0:0:
475,192,44897,1,0,0:0:0:0:
402,192,44897,1,0,0:0:0:0:
109,192,44933,1,0,0:0:0:0:
182,192,44968,1,0,0:0:0:0:
256,192,45004,1,0,0:0:0:0:
329,192,45039,1,0,0:0:0:0:
402,192,45075,1,0,0:0:0:0:
36,192,45111,1,0,0:0:0:0:
475,192,45111,1,0,0:0:0:0:
109,192,45146,1,0,0:0:0:0:
182,192,45182,1,0,0:0:0:0:
256,192,45217,1,0,0:0:0:0:
182,192,45324,1,0,0:0:0:0:
329,192,45324,1,0,0:0:0:0:
402,192,45324,1,0,0:0:0:0:
475,192,45324,1,0,0:0:0:0:
109,192,45431,1,0,0:0:0:0:
36,192,45431,1,0,0:0:0:0:
256,192,45431,1,0,0:0:0:0:
402,192,45538,1,0,0:0:0:0:
475,192,45538,1,0,0:0:0:0:
329,192,45538,1,0,0:0:0:0:
182,192,45591,1,0,0:0:0:0:
109,192,45591,1,0,0:0:0:0:
256,192,45591,1,0,0:0:0:0:
329,192,45644,1,0,0:0:0:0:
402,192,45644,1,0,0:0:0:0:
475,192,45644,1,0,0:0:0:0:
109,192,45751,1,0,0:0:0:0:
36,192,45751,1,0,0:0:0:0:
256,192,45751,1,0,0:0:0:0:
182,192,45858,1,0,0:0:0:0:
402,192,45858,1,0,0:0:0:0:
475,192,45858,1,0,0:0:0:0:
36,192,45911,1,0,0:0:0:0:
329,192,45911,1,0,0:0:0:0:
109,192,45911,1,0,0:0:0:0:
182,192,45965,1,0,0:0:0:0:
475,192,45965,1,0,0:0:0:0:
402,192,45965,1,0,0:0:0:0:
36,192,46071,1,0,0:0:0:0:
329,192,46071,1,0,0:0:0:0:
256,192,46071,1,0,0:0:0:0:
475,192,46178,1,0,0:0:0:0:
182,192,46178,1,0,0:0:0:0:
109,192,46178,1,0,0:0:0:0:
329,192,46232,1,0,0:0:0:0:
402,192,46232,1,0,0:0:0:0:
256,192,46232,1,0,0:0:0:0:
475,192,46285,1,0,0:0:0:0:
109,192,46285,1,0,0:0:0:0:
182,192,46285,1,0,0:0:0:0:
329,192,46392,1,0,0:0:0:0:
256,192,46392,1,0,0:0:0:0:
36,192,46392,1,0,0:0:0:0:
109,192,46498,1,0,0:0:0:0:
402,192,46498,1,0,0:0:0:0:
475,192,46498,1,0,0:0:0:0:
182,192,46552,1,0,0:0:0:0:
329,192,46552,1,0,0:0:0:0:
256,192,46552,1,0,0:0:0:0:
475,192,46605,1,0,0:0:0:0:
402,192,46605,1,0,0:0:0:0:
109,192,46605,1,0,0:0:0:0:
36,192,46605,1,0,0:0:0:0:
329,192,46712,1,0,0:0:0:0:
256,192,46712,1,0,0:0:0:0:
182,192,46712,1,0,0:0:0:0:
475,192,46819,1,0,0:0:0:0:
109,192,46819,1,0,0:0:0:0:
36,192,46819,1,0,0:0:0:0:
329,192,46872,1,0,0:0:0:0:
256,192,46872,1,0,0:0:0:0:
109,192,46925,1,0,0:0:0:0:
475,192,46925,1,0,0:0:0:0:
36,192,46925,1,0,0:0:0:0:
329,192,46979,1,0,0:0:0:0:
256,192,46979,1,0,0:0:0:0:
475,192,47032,1,0,0:0:0:0:
402,192,47032,1,0,0:0:0:0:
36,192,47032,1,0,0:0:0:0:
109,192,47059,1,0,0:0:0:0:
182,192,47086,1,0,0:0:0:0:
256,192,47112,1,0,0:0:0:0:
402,192,47192,1,0,0:0:0:0:
329,192,47219,1,0,0:0:0:0:
256,192,47246,1,0,0:0:0:0:
182,192,47272,1,0,0:0:0:0:
329,192,47353,1,0,0:0:0:0:
256,192,47379,1,0,0:0:0:0:
182,192,47406,1,0,0:0:0:0:
109,192,47433,1,0,0:0:0:0:
475,192,47459,1,0,0:0:0:0:
402,192,47495,1,0,0:0:0:0:
329,192,47530,1,0,0:0:0:0:
256,192,47566,1,0,0:0:0:0:
36,192,47593,1,0,0:0:0:0:
329,192,47619,1,0,0:0:0:0:
109,192,47646,1,0,0:0:0:0:
402,192,47673,1,0,0:0:0:0:
182,192,47699,1,0,0:0:0:0:
475,192,47726,1,0,0:0:0:0:
256,192,47753,1,0,0:0:0:0:
182,192,47780,1,0,0:0:0:0:
109,192,47815,1,0,0:0:0:0:
36,192,47851,1,0,0:0:0:0:
402,192,47886,5,0,0:0:0:0:
329,192,47886,1,0,0:0:0:0:
475,192,47886,1,0,0:0:0:0:
256,192,47922,1,0,0:0:0:0:
182,192,47957,1,0,0:0:0:0:
109,192,47993,1,0,0:0:0:0:
329,192,48029,1,0,0:0:0:0:
402,192,48064,1,0,0:0:0:0:
36,192,48100,1,0,0:0:0:0:
475,192,48100,1,0,0:0:0:0:
109,192,48135,1,0,0:0:0:0:
182,192,48171,1,0,0:0:0:0:
256,192,48207,1,0,0:0:0:0:
182,192,48313,1,0,0:0:0:0:
475,192,48313,1,0,0:0:0:0:
36,192,48313,1,0,0:0:0:0:
109,192,48313,1,0,0:0:0:0:
256,192,48349,1,0,0:0:0:0:
329,192,48385,1,0,0:0:0:0:
402,192,48420,1,0,0:0:0:0:
182,192,48456,1,0,0:0:0:0:
109,192,48491,1,0,0:0:0:0:
475,192,48527,1,0,0:0:0:0:
36,192,48527,1,0,0:0:0:0:
402,192,48562,1,0,0:0:0:0:
329,192,48598,1,0,0:0:0:0:
256,192,48634,1,0,0:0:0:0:
329,192,48740,1,0,0:0:0:0:
182,192,48740,1,0,0:0:0:0:
109,192,48740,1,0,0:0:0:0:
36,192,48740,1,0,0:0:0:0:
402,192,48847,1,0,0:0:0:0:
475,192,48847,1,0,0:0:0:0:
256,192,48847,1,0,0:0:0:0:
109,192,48954,1,0,0:0:0:0:
36,192,48954,1,0,0:0:0:0:
329,192,48954,1,0,0:0:0:0:
182,192,49007,1,0,0:0:0:0:
402,192,49007,1,0,0:0:0:0:
256,192,49007,1,0,0:0:0:0:
329,192,49061,1,0,0:0:0:0:
109,192,49061,1,0,0:0:0:0:
36,192,49061,1,0,0:0:0:0:
402,192,49167,1,0,0:0:0:0:
475,192,49167,1,0,0:0:0:0:
256,192,49167,1,0,0:0:0:0:
329,192,49274,1,0,0:0:0:0:
182,192,49274,1,0,0:0:0:0:
36,192,49274,1,0,0:0:0:0:
475,192,49328,1,0,0:0:0:0:
256,192,49328,1,0,0:0:0:0:
402,192,49328,1,0,0:0:0:0:
329,192,49381,1,0,0:0:0:0:
36,192,49381,1,0,0:0:0:0:
182,192,49381,1,0,0:0:0:0:
475,192,49488,1,0,0:0:0:0:
109,192,49488,1,0,0:0:0:0:
402,192,49488,1,0,0:0:0:0:
36,192,49594,1,0,0:0:0:0:
256,192,49594,1,0,0:0:0:0:
329,192,49594,1,0,0:0:0:0:
402,192,49648,1,0,0:0:0:0:
475,192,49648,1,0,0:0:0:0:
182,192,49648,1,0,0:0:0:0:
36,192,49701,1,0,0:0:0:0:
329,192,49701,1,0,0:0:0:0:
256,192,49701,1,0,0:0:0:0:
182,192,49808,1,0,0:0:0:0:
109,192,49808,1,0,0:0:0:0:
475,192,49808,1,0,0:0:0:0:
256,192,49915,1,0,0:0:0:0:
402,192,49915,1,0,0:0:0:0:
36,192,49915,1,0,0:0:0:0:
182,192,49968,1,0,0:0:0:0:
329,192,49968,1,0,0:0:0:0:
109,192,49968,1,0,0:0:0:0:
36,192,50022,1,0,0:0:0:0:
402,192,50022,1,0,0:0:0:0:
475,192,50022,1,0,0:0:0:0:
256,192,50022,1,0,0:0:0:0:
182,192,50128,1,0,0:0:0:0:
329,192,50128,1,0,0:0:0:0:
109,192,50128,1,0,0:0:0:0:
36,192,50235,1,0,0:0:0:0:
402,192,50235,1,0,0:0:0:0:
475,192,50235,1,0,0:0:0:0:
182,192,50288,1,0,0:0:0:0:
329,192,50288,1,0,0:0:0:0:
475,192,50342,1,0,0:0:0:0:
402,192,50342,1,0,0:0:0:0:
36,192,50342,1,0,0:0:0:0:
182,192,50395,1,0,0:0:0:0:
329,192,50395,1,0,0:0:0:0:
475,192,50449,1,0,0:0:0:0:
109,192,50449,1,0,0:0:0:0:
36,192,50449,1,0,0:0:0:0:
402,192,50449,1,0,0:0:0:0:
256,192,50555,1,0,0:0:0:0:
329,192,50555,1,0,0:0:0:0:
182,192,50555,1,0,0:0:0:0:
329,192,50662,1,0,0:0:0:0:
256,192,50662,1,0,0:0:0:0:
182,192,50662,1,0,0:0:0:0:
182,192,50769,1,0,0:0:0:0:
329,192,50769,1,0,0:0:0:0:
256,192,50769,1,0,0:0:0:0:
402,192,50876,1,0,0:0:0:0:
109,192,50876,1,0,0:0:0:0:
36,192,50876,1,0,0:0:0:0:
475,192,50876,1,0,0:0:0:0:
329,192,50982,1,0,0:0:0:0:
109,192,50982,1,0,0:0:0:0:
182,192,50982,1,0,0:0:0:0:
256,192,50982,1,0,0:0:0:0:
475,192,51089,1,0,0:0:0:0:
36,192,51089,1,0,0:0:0:0:
402,192,51089,1,0,0:0:0:0:
256,192,51089,1,0,0:0:0:0:
182,192,51196,1,0,0:0:0:0:
329,192,51196,1,0,0:0:0:0:
402,192,51196,1,0,0:0:0:0:
109,192,51196,1,0,0:0:0:0:
109,192,51303,5,0,0:0:0:0:
475,192,51303,1,0,0:0:0:0:
36,192,51303,1,0,0:0:0:0:
182,192,51303,1,0,0:0:0:0:
402,192,51338,1,0,0:0:0:0:
329,192,51374,1,0,0:0:0:0:
256,192,51409,1,0,0:0:0:0:
36,192,51445,1,0,0:0:0:0:
109,192,51481,1,0,0:0:0:0:
182,192,51516,1,0,0:0:0:0:
329,192,51516,1,0,0:0:0:0:
402,192,51552,1,0,0:0:0:0:
475,192,51587,1,0,0:0:0:0:
256,192,51623,1,0,0:0:0:0:
329,192,51730,1,0,0:0:0:0:
36,192,51730,1,0,0:0:0:0:
475,192,51730,1,0,0:0:0:0:
402,192,51730,1,0,0:0:0:0:
109,192,51765,1,0,0:0:0:0:
182,192,51801,1,0,0:0:0:0:
256,192,51836,1,0,0:0:0:0:
475,192,51872,1,0,0:0:0:0:
402,192,51908,1,0,0:0:0:0:
182,192,51943,1,0,0:0:0:0:
329,192,51943,1,0,0:0:0:0:
109,192,51979,1,0,0:0:0:0:
36,192,52014,1,0,0:0:0:0:
256,192,52050,1,0,0:0:0:0:
182,192,52157,1,0,0:0:0:0:
109,192,52157,1,0,0:0:0:0:
402,192,52157,1,0,0:0:0:0:
475,192,52157,1,0,0:0:0:0:
329,192,52264,1,0,0:0:0:0:
36,192,52264,1,0,0:0:0:0:
256,192,52264,1,0,0:0:0:0:
402,192,52370,1,0,0:0:0:0:
475,192,52370,1,0,0:0:0:0:
182,192,52370,1,0,0:0:0:0:
36,192,52424,1,0,0:0:0:0:
109,192,52424,1,0,0:0:0:0:
329,192,52424,1,0,0:0:0:0:
182,192,52477,1,0,0:0:0:0:
402,192,52477,1,0,0:0:0:0:
475,192,52477,1,0,0:0:0:0:
109,192,52584,1,0,0:0:0:0:
36,192,52584,1,0,0:0:0:0:
256,192,52584,1,0,0:0:0:0:
182,192,52691,1,0,0:0:0:0:
329,192,52691,1,0,0:0:0:0:
475,192,52691,1,0,0:0:0:0:
36,192,52744,1,0,0:0:0:0:
109,192,52744,1,0,0:0:0:0:
256,192,52744,1,0,0:0:0:0:
182,192,52797,1,0,0:0:0:0:
475,192,52797,1,0,0:0:0:0:
329,192,52797,1,0,0:0:0:0:
402,192,52904,1,0,0:0:0:0:
256,192,52904,1,0,0:0:0:0:
109,192,52904,1,0,0:0:0:0:
475,192,53011,1,0,0:0:0:0:
182,192,53011,1,0,0:0:0:0:
36,192,53011,1,0,0:0:0:0:
256,192,53064,1,0,0:0:0:0:
402,192,53064,1,0,0:0:0:0:
329,192,53064,1,0,0:0:0:0:
475,192,53118,1,0,0:0:0:0:
36,192,53118,1,0,0:0:0:0:
182,192,53118,1,0,0:0:0:0:
256,192,53224,1,0,0:0:0:0:
109,192,53224,1,0,0:0:0:0:
329,192,53224,1,0,0:0:0:0:
182,192,53331,1,0,0:0:0:0:
402,192,53331,1,0,0:0:0:0:
36,192,53331,1,0,0:0:0:0:
256,192,53385,1,0,0:0:0:0:
329,192,53385,1,0,0:0:0:0:
109,192,53385,1,0,0:0:0:0:
475,192,53438,1,0,0:0:0:0:
402,192,53438,1,0,0:0:0:0:
182,192,53438,1,0,0:0:0:0:
36,192,53438,1,0,0:0:0:0:
329,192,53545,1,0,0:0:0:0:
109,192,53545,1,0,0:0:0:0:
256,192,53545,1,0,0:0:0:0:
475,192,53651,1,0,0:0:0:0:
182,192,53651,1,0,0:0:0:0:
402,192,53651,1,0,0:0:0:0:
329,192,53705,1,0,0:0:0:0:
109,192,53705,1,0,0:0:0:0:
182,192,53758,1,0,0:0:0:0:
475,192,53758,1,0,0:0:0:0:
402,192,53758,1,0,0:0:0:0:
109,192,53812,1,0,0:0:0:0:
329,192,53812,1,0,0:0:0:0:
475,192,53865,1,0,0:0:0:0:
256,192,53865,1,0,0:0:0:0:
182,192,53865,1,0,0:0:0:0:
36,192,53892,1,0,0:0:0:0:
329,192,53918,1,0,0:0:0:0:
109,192,53945,1,0,0:0:0:0:
402,192,53972,1,0,0:0:0:0:
182,192,53998,1,0,0:0:0:0:
475,192,54025,1,0,0:0:0:0:
256,192,54052,1,0,0:0:0:0:
36,192,54078,1,0,0:0:0:0:
182,192,54114,1,0,0:0:0:0:
329,192,54150,1,0,0:0:0:0:
475,192,54185,1,0,0:0:0:0:
109,192,54185,1,0,0:0:0:0:
256,192,54221,1,0,0:0:0:0:
402,192,54256,1,0,0:0:0:0:
182,192,54292,1,0,0:0:0:0:
36,192,54328,1,0,0:0:0:0:
329,192,54363,1,0,0:0:0:0:
182,192,54399,1,0,0:0:0:0:
475,192,54434,1,0,0:0:0:0:
329,192,54470,1,0,0:0:0:0:
36,192,54506,1,0,0:0:0:0:
109,192,54541,1,0,0:0:0:0:
182,192,54577,1,0,0:0:0:0:
256,192,54612,1,0,0:0:0:0:
329,192,54648,1,0,0:0:0:0:
109,192,54719,5,0,0:0:0:0:
475,192,54719,1,0,0:0:0:0:
182,192,54719,1,0,0:0:0:0:
36,192,54719,1,0,0:0:0:0:
402,192,54755,1,0,0:0:0:0:
329,192,54790,1,0,0:0:0:0:
109,192,54826,1,0,0:0:0:0:
182,192,54861,1,0,0:0:0:0:
256,192,54897,1,0,0:0:0:0:
475,192,54933,1,0,0:0:0:0:
36,192,54933,1,0,0:0:0:0:
109,192,54968,1,0,0:0:0:0:
182,192,55004,1,0,0:0:0:0:
329,192,55039,1,0,0:0:0:0:
402,192,55146,5,0,0:0:0:0:
329,192,55146,1,0,0:0:0:0:
475,192,55146,1,0,0:0:0:0:
36,192,55146,1,0,0:0:0:0:
109,192,55182,1,0,0:0:0:0:
182,192,55217,1,0,0:0:0:0:
402,192,55253,1,0,0:0:0:0:
329,192,55288,1,0,0:0:0:0:
256,192,55324,1,0,0:0:0:0:
36,192,55360,1,0,0:0:0:0:
475,192,55360,1,0,0:0:0:0:
402,192,55395,1,0,0:0:0:0:
329,192,55431,1,0,0:0:0:0:
182,192,55466,1,0,0:0:0:0:
329,192,55573,1,0,0:0:0:0:
475,192,55573,1,0,0:0:0:0:
109,192,55573,1,0,0:0:0:0:
36,192,55573,1,0,0:0:0:0:
402,192,55680,1,0,0:0:0:0:
182,192,55680,1,0,0:0:0:0:
256,192,55680,1,0,0:0:0:0:
475,192,55787,1,0,0:0:0:0:
36,192,55787,1,0,0:0:0:0:
329,192,55787,1,0,0:0:0:0:
109,192,55840,1,0,0:0:0:0:
182,192,55840,1,0,0:0:0:0:
256,192,55840,1,0,0:0:0:0:
329,192,55893,1,0,0:0:0:0:
475,192,55893,1,0,0:0:0:0:
36,192,55893,1,0,0:0:0:0:
402,192,56000,1,0,0:0:0:0:
182,192,56000,1,0,0:0:0:0:
256,192,56000,1,0,0:0:0:0:
329,192,56107,1,0,0:0:0:0:
109,192,56107,1,0,0:0:0:0:
36,192,56107,1,0,0:0:0:0:
475,192,56160,1,0,0:0:0:0:
256,192,56160,1,0,0:0:0:0:
402,192,56160,1,0,0:0:0:0:
329,192,56214,1,0,0:0:0:0:
36,192,56214,1,0,0:0:0:0:
109,192,56214,1,0,0:0:0:0:
475,192,56320,1,0,0:0:0:0:
402,192,56320,1,0,0:0:0:0:
182,192,56320,1,0,0:0:0:0:
36,192,56427,1,0,0:0:0:0:
329,192,56427,1,0,0:0:0:0:
256,192,56427,1,0,0:0:0:0:
182,192,56481,1,0,0:0:0:0:
475,192,56481,1,0,0:0:0:0:
109,192,56481,1,0,0:0:0:0:
36,192,56534,1,0,0:0:0:0:
256,192,56534,1,0,0:0:0:0:
329,192,56534,1,0,0:0:0:0:
182,192,56641,1,0,0:0:0:0:
109,192,56641,1,0,0:0:0:0:
402,192,56641,1,0,0:0:0:0:
329,192,56748,1,0,0:0:0:0:
475,192,56748,1,0,0:0:0:0:
36,192,56748,1,0,0:0:0:0:
182,192,56801,1,0,0:0:0:0:
402,192,56801,1,0,0:0:0:0:
109,192,56801,1,0,0:0:0:0:
36,192,56854,1,0,0:0:0:0:
475,192,56854,1,0,0:0:0:0:
256,192,56854,1,0,0:0:0:0:
329,192,56854,1,0,0:0:0:0:
109,192,56961,1,0,0:0:0:0:
402,192,56961,1,0,0:0:0:0:
182,192,56961,1,0,0:0:0:0:
36,192,57068,1,0,0:0:0:0:
329,192,57068,1,0,0:0:0:0:
256,192,57068,1,0,0:0:0:0:
475,192,57121,1,0,0:0:0:0:
182,192,57121,1,0,0:0:0:0:
256,192,57175,1,0,0:0:0:0:
329,192,57175,1,0,0:0:0:0:
36,192,57175,1,0,0:0:0:0:
475,192,57228,1,0,0:0:0:0:
182,192,57228,1,0,0:0:0:0:
36,192,57281,1,0,0:0:0:0:
256,192,57281,1,0,0:0:0:0:
329,192,57281,1,0,0:0:0:0:
109,192,57317,1,0,0:0:0:0:
182,192,57353,1,0,0:0:0:0:
329,192,57388,1,0,0:0:0:0:
402,192,57415,1,0,0:0:0:0:
475,192,57441,1,0,0:0:0:0:
182,192,57495,1,0,0:0:0:0:
109,192,57522,1,0,0:0:0:0:
36,192,57548,1,0,0:0:0:0:
475,192,57602,1,0,0:0:0:0:
402,192,57637,1,0,0:0:0:0:
329,192,57673,1,0,0:0:0:0:
256,192,57708,1,0,0:0:0:0:
475,192,57735,1,0,0:0:0:0:
182,192,57762,1,0,0:0:0:0:
402,192,57788,1,0,0:0:0:0:
109,192,57815,1,0,0:0:0:0:
329,192,57842,1,0,0:0:0:0:
36,192,57869,1,0,0:0:0:0:
256,192,57895,1,0,0:0:0:0:
475,192,57922,1,0,0:0:0:0:
402,192,57949,1,0,0:0:0:0:
329,192,57975,1,0,0:0:0:0:
36,192,58002,1,0,0:0:0:0:
109,192,58029,1,0,0:0:0:0:
182,192,58055,1,0,0:0:0:0:
256,192,58082,1,0,0:0:0:0:
329,192,58109,1,0,0:0:0:0:
109,192,58135,1,0,0:0:0:0:
36,192,58135,1,0,0:0:0:0:
475,192,58135,1,0,0:0:0:0:
402,192,58135,1,0,0:0:0:0:
182,192,58349,1,0,0:0:0:0:
475,192,58456,1,0,0:0:0:0:
329,192,58456,1,0,0:0:0:0:
36,192,58456,1,0,0:0:0:0:
182,192,58456,1,0,0:0:0:0:
109,192,58456,1,0,0:0:0:0:
402,192,58456,1,0,0:0:0:0:
256,192,58562,1,0,0:0:0:0:
402,192,58669,1,0,0:0:0:0:
402,192,58776,1,0,0:0:0:0:
329,192,58883,1,0,0:0:0:0:
182,192,58936,1,0,0:0:0:0:
36,192,58990,1,0,0:0:0:0:
182,192,59096,1,0,0:0:0:0:
36,192,59203,1,0,0:0:0:0:
182,192,59256,1,0,0:0:0:0:
475,192,59310,1,0,0:0:0:0:
329,192,59363,1,0,0:0:0:0:
402,192,59417,1,0,0:0:0:0:
256,192,59470,1,0,0:0:0:0:
329,192,59523,1,0,0:0:0:0:
182,192,59630,1,0,0:0:0:0:
109,192,59737,1,0,0:0:0:0:
402,192,59844,1,0,0:0:0:0:
475,192,59844,1,0,0:0:0:0:
182,192,59844,1,0,0:0:0:0:
36,192,59844,1,0,0:0:0:0:
109,192,59844,1,0,0:0:0:0:
256,192,59844,1,0,0:0:0:0:
402,192,60057,1,0,0:0:0:0:
36,192,60164,1,0,0:0:0:0:
109,192,60164,1,0,0:0:0:0:
329,192,60164,1,0,0:0:0:0:
402,192,60164,1,0,0:0:0:0:
475,192,60164,1,0,0:0:0:0:
256,192,60164,1,0,0:0:0:0:
182,192,60271,1,0,0:0:0:0:
329,192,60324,1,0,0:0:0:0:
182,192,60377,1,0,0:0:0:0:
109,192,60484,1,0,0:0:0:0:
329,192,60591,1,0,0:0:0:0:
182,192,60644,1,0,0:0:0:0:
36,192,60698,1,0,0:0:0:0:
475,192,60804,1,0,0:0:0:0:
36,192,60911,1,0,0:0:0:0:
256,192,60965,1,0,0:0:0:0:
475,192,61018,1,0,0:0:0:0:
109,192,61125,1,0,0:0:0:0:
256,192,61178,1,0,0:0:0:0:
402,192,61232,1,0,0:0:0:0:
475,192,61338,1,0,0:0:0:0:
475,192,61445,1,0,0:0:0:0:
36,192,61552,1,0,0:0:0:0:
256,192,61552,1,0,0:0:0:0:
402,192,61552,1,0,0:0:0:0:
182,192,61552,1,0,0:0:0:0:
475,192,61552,1,0,0:0:0:0:
329,192,61552,1,0,0:0:0:0:
109,192,61659,1,0,0:0:0:0:
256,192,61712,1,0,0:0:0:0:
402,192,61765,1,0,0:0:0:0:
36,192,61872,5,0,0:0:0:0:
329,192,61872,1,0,0:0:0:0:
475,192,61872,1,0,0:0:0:0:
109,192,61872,1,0,0:0:0:0:
256,192,61872,1,0,0:0:0:0:
182,192,61872,1,0,0:0:0:0:
402,192,61979,1,0,0:0:0:0:
256,192,62032,1,0,0:0:0:0:
109,192,62086,1,0,0:0:0:0:
475,192,62192,1,0,0:0:0:0:
329,192,62246,1,0,0:0:0:0:
182,192,62299,1,0,0:0:0:0:
36,192,62406,1,0,0:0:0:0:
182,192,62513,1,0,0:0:0:0:
329,192,62566,1,0,0:0:0:0:
475,192,62619,1,0,0:0:0:0:
256,192,62726,1,0,0:0:0:0:
402,192,62833,1,0,0:0:0:0:
182,192,62940,1,0,0:0:0:0:
329,192,63046,1,0,0:0:0:0:
256,192,63153,1,0,0:0:0:0:
329,192,63260,1,0,0:0:0:0:
475,192,63260,1,0,0:0:0:0:
182,192,63260,1,0,0:0:0:0:
256,192,63260,1,0,0:0:0:0:
36,192,63260,1,0,0:0:0:0:
402,192,63260,1,0,0:0:0:0:
109,192,63474,1,0,0:0:0:0:
329,192,63580,1,0,0:0:0:0:
475,192,63580,1,0,0:0:0:0:
182,192,63580,1,0,0:0:0:0:
109,192,63580,1,0,0:0:0:0:
36,192,63580,1,0,0:0:0:0:
256,192,63580,1,0,0:0:0:0:
402,192,63687,1,0,0:0:0:0:
256,192,63740,1,0,0:0:0:0:
109,192,63794,1,0,0:0:0:0:
329,192,63901,1,0,0:0:0:0:
256,192,64007,1,0,0:0:0:0:
475,192,64114,1,0,0:0:0:0:
109,192,64114,1,0,0:0:0:0:
36,192,64114,1,0,0:0:0:0:
256,192,64114,1,0,0:0:0:0:
182,192,64114,1,0,0:0:0:0:
402,192,64167,1,0,0:0:0:0:
329,192,64221,1,0,0:0:0:0:
256,192,64274,1,0,0:0:0:0:
182,192,64328,1,0,0:0:0:0:
402,192,64434,1,0,0:0:0:0:
109,192,64434,1,0,0:0:0:0:
475,192,64434,1,0,0:0:0:0:
182,192,64434,1,0,0:0:0:0:
36,192,64434,1,0,0:0:0:0:
329,192,64488,1,0,0:0:0:0:
256,192,64541,1,0,0:0:0:0:
182,192,64594,1,0,0:0:0:0:
475,192,64648,1,0,0:0:0:0:
329,192,64648,1,0,0:0:0:0:
402,192,64648,1,0,0:0:0:0:
109,192,64648,1,0,0:0:0:0:
36,192,64648,1,0,0:0:0:0:
109,192,64755,1,0,0:0:0:0:
36,192,64755,1,0,0:0:0:0:
475,192,64755,1,0,0:0:0:0:
329,192,64755,1,0,0:0:0:0:
402,192,64755,1,0,0:0:0:0:
182,192,64790,1,0,0:0:0:0:
256,192,64826,1,0,0:0:0:0:
329,192,64861,1,0,0:0:0:0:
109,192,64968,1,0,0:0:0:0:
36,192,64968,1,0,0:0:0:0:
182,192,64968,1,0,0:0:0:0:
402,192,64968,1,0,0:0:0:0:
475,192,64968,1,0,0:0:0:0:
36,192,65075,1,0,0:0:0:0:
109,192,65075,1,0,0:0:0:0:
182,192,65075,1,0,0:0:0:0:
36,192,65182,1,0,0:0:0:0:
402,192,65182,1,0,0:0:0:0:
329,192,65182,1,0,0:0:0:0:
329,192,65288,1,0,0:0:0:0:
402,192,65288,1,0,0:0:0:0:
109,192,65395,1,0,0:0:0:0:
36,192,65395,1,0,0:0:0:0:
182,192,65395,1,0,0:0:0:0:
475,192,65395,1,0,0:0:0:0:
256,192,65395,1,0,0:0:0:0:
109,192,65502,1,0,0:0:0:0:
182,192,65502,1,0,0:0:0:0:
256,192,65502,1,0,0:0:0:0:
109,192,65609,1,0,0:0:0:0:
402,192,65609,1,0,0:0:0:0:
475,192,65609,1,0,0:0:0:0:
475,192,65715,1,0,0:0:0:0:
402,192,65715,1,0,0:0:0:0:
36,192,65822,1,0,0:0:0:0:
109,192,65822,1,0,0:0:0:0:
182,192,65822,1,0,0:0:0:0:
256,192,65822,1,0,0:0:0:0:
329,192,65822,1,0,0:0:0:0:
182,192,65929,1,0,0:0:0:0:
256,192,65929,1,0,0:0:0:0:
329,192,65929,1,0,0:0:0:0:
475,192,66036,1,0,0:0:0:0:
182,192,66036,1,0,0:0:0:0:
36,192,66036,1,0,0:0:0:0:
475,192,66143,1,0,0:0:0:0:
36,192,66143,1,0,0:0:0:0:
182,192,66249,1,0,0:0:0:0:
109,192,66249,1,0,0:0:0:0:
256,192,66249,1,0,0:0:0:0:
402,192,66249,1,0,0:0:0:0:
329,192,66249,1,0,0:0:0:0:
402,192,66356,1,0,0:0:0:0:
329,192,66356,1,0,0:0:0:0:
256,192,66356,1,0,0:0:0:0:
36,192,66463,1,0,0:0:0:0:
109,192,66463,1,0,0:0:0:0:
256,192,66463,1,0,0:0:0:0:
109,192,66570,1,0,0:0:0:0:
36,192,66570,1,0,0:0:0:0:
402,192,66676,1,0,0:0:0:0:
475,192,66676,1,0,0:0:0:0:
329,192,66676,1,0,0:0:0:0:
182,192,66676,1,0,0:0:0:0:
256,192,66676,1,0,0:0:0:0:
475,192,66783,1,0,0:0:0:0:
402,192,66783,1,0,0:0:0:0:
329,192,66783,1,0,0:0:0:0:
475,192,66890,1,0,0:0:0:0:
109,192,66890,1,0,0:0:0:0:
182,192,66890,1,0,0:0:0:0:
182,192,66997,1,0,0:0:0:0:
109,192,66997,1,0,0:0:0:0:
402,192,67103,1,0,0:0:0:0:
475,192,67103,1,0,0:0:0:0:
329,192,67103,1,0,0:0:0:0:
36,192,67103,1,0,0:0:0:0:
256,192,67103,1,0,0:0:0:0:
402,192,67210,1,0,0:0:0:0:
329,192,67210,1,0,0:0:0:0:
256,192,67210,1,0,0:0:0:0:
402,192,67317,1,0,0:0:0:0:
109,192,67317,1,0,0:0:0:0:
36,192,67317,1,0,0:0:0:0:
36,192,67424,1,0,0:0:0:0:
109,192,67424,1,0,0:0:0:0:
475,192,67530,1,0,0:0:0:0:
402,192,67530,1,0,0:0:0:0:
329,192,67530,1,0,0:0:0:0:
256,192,67530,1,0,0:0:0:0:
182,192,67530,1,0,0:0:0:0:
329,192,67637,1,0,0:0:0:0:
256,192,67637,1,0,0:0:0:0:
182,192,67637,1,0,0:0:0:0:
36,192,67744,1,0,0:0:0:0:
329,192,67744,1,0,0:0:0:0:
475,192,67744,1,0,0:0:0:0:
36,192,67851,1,0,0:0:0:0:
475,192,67851,1,0,0:0:0:0:
329,192,67957,1,0,0:0:0:0:
402,192,67957,1,0,0:0:0:0:
256,192,67957,1,0,0:0:0:0:
109,192,67957,1,0,0:0:0:0:
182,192,67957,1,0,0:0:0:0:
109,192,68064,1,0,0:0:0:0:
182,192,68064,1,0,0:0:0:0:
256,192,68064,1,0,0:0:0:0:
475,192,68171,1,0,0:0:0:0:
402,192,68171,1,0,0:0:0:0:
256,192,68171,1,0,0:0:0:0:
402,192,68278,1,0,0:0:0:0:
475,192,68278,1,0,0:0:0:0:
36,192,68385,1,0,0:0:0:0:
109,192,68385,1,0,0:0:0:0:
329,192,68385,1,0,0:0:0:0:
256,192,68438,1,0,0:0:0:0:
182,192,68438,1,0,0:0:0:0:
402,192,68491,1,0,0:0:0:0:
329,192,68491,1,0,0:0:0:0:
475,192,68491,1,0,0:0:0:0:
36,192,68545,1,0,0:0:0:0:
109,192,68545,1,0,0:0:0:0:
182,192,68598,1,0,0:0:0:0:
402,192,68598,1,0,0:0:0:0:
475,192,68598,1,0,0:0:0:0:
256,192,68651,1,0,0:0:0:0:
329,192,68651,1,0,0:0:0:0:
109,192,68705,1,0,0:0:0:0:
182,192,68705,1,0,0:0:0:0:
36,192,68705,1,0,0:0:0:0:
475,192,68758,1,0,0:0:0:0:
402,192,68758,1,0,0:0:0:0:
109,192,68812,1,0,0:0:0:0:
36,192,68812,1,0,0:0:0:0:
329,192,68812,1,0,0:0:0:0:
182,192,68865,1,0,0:0:0:0:
256,192,68865,1,0,0:0:0:0:
329,192,68918,1,0,0:0:0:0:
402,192,68918,1,0,0:0:0:0:
475,192,68918,1,0,0:0:0:0:
109,192,68972,1,0,0:0:0:0:
36,192,68972,1,0,0:0:0:0:
182,192,69025,1,0,0:0:0:0:
402,192,69025,1,0,0:0:0:0:
475,192,69025,1,0,0:0:0:0:
329,192,69078,1,0,0:0:0:0:
256,192,69078,1,0,0:0:0:0:
182,192,69132,1,0,0:0:0:0:
109,192,69132,1,0,0:0:0:0:
36,192,69132,1,0,0:0:0:0:
402,192,69185,1,0,0:0:0:0:
475,192,69185,1,0,0:0:0:0:
109,192,69239,1,0,0:0:0:0:
36,192,69239,1,0,0:0:0:0:
256,192,69239,1,0,0:0:0:0:
402,192,69292,1,0,0:0:0:0:
329,192,69292,1,0,0:0:0:0:
182,192,69345,1,0,0:0:0:0:
256,192,69345,1,0,0:0:0:0:
475,192,69345,1,0,0:0:0:0:
109,192,69399,1,0,0:0:0:0:
36,192,69399,1,0,0:0:0:0:
329,192,69452,1,0,0:0:0:0:
402,192,69452,1,0,0:0:0:0:
475,192,69452,1,0,0:0:0:0:
109,192,69506,1,0,0:0:0:0:
182,192,69506,1,0,0:0:0:0:
256,192,69559,1,0,0:0:0:0:
329,192,69559,1,0,0:0:0:0:
36,192,69559,1,0,0:0:0:0:
402,192,69612,1,0,0:0:0:0:
475,192,69612,1,0,0:0:0:0:
182,192,69666,1,0,0:0:0:0:
36,192,69666,1,0,0:0:0:0:
109,192,69666,1,0,0:0:0:0:
402,192,69719,1,0,0:0:0:0:
329,192,69719,1,0,0:0:0:0:
256,192,69772,1,0,0:0:0:0:
182,192,69772,1,0,0:0:0:0:
475,192,69772,1,0,0:0:0:0:
36,192,69826,1,0,0:0:0:0:
109,192,69826,1,0,0:0:0:0:
475,192,69879,1,0,0:0:0:0:
402,192,69879,1,0,0:0:0:0:
329,192,69879,1,0,0:0:0:0:
182,192,69933,1,0,0:0:0:0:
109,192,69933,1,0,0:0:0:0:
256,192,69986,1,0,0:0:0:0:
329,192,69986,1,0,0:0:0:0:
36,192,69986,1,0,0:0:0:0:
475,192,70039,1,0,0:0:0:0:
402,192,70039,1,0,0:0:0:0:
36,192,70093,1,0,0:0:0:0:
109,192,70093,1,0,0:0:0:0:
182,192,70093,1,0,0:0:0:0:
256,192,70199,1,0,0:0:0:0:
329,192,70306,1,0,0:0:0:0:
402,192,70413,1,0,0:0:0:0:
256,192,70520,1,0,0:0:0:0:
329,192,70627,1,0,0:0:0:0:
402,192,70733,1,0,0:0:0:0:
475,192,70840,1,0,0:0:0:0:
182,192,70947,1,0,0:0:0:0:
109,192,70960,1,0,0:0:0:0:
36,192,70974,1,0,0:0:0:0:
475,192,71054,1,0,0:0:0:0:
402,192,71067,1,0,0:0:0:0:
329,192,71080,1,0,0:0:0:0:
109,192,71160,1,0,0:0:0:0:
182,192,71174,1,0,0:0:0:0:
475,192,71214,1,0,0:0:0:0:
402,192,71227,1,0,0:0:0:0:
36,192,71267,1,0,0:0:0:0:
109,192,71280,1,0,0:0:0:0:
402,192,71320,1,0,0:0:0:0:
329,192,71334,1,0,0:0:0:0:
36,192,71374,1,0,0:0:0:0:
256,192,71427,1,0,0:0:0:0:
329,192,71441,1,0,0:0:0:0:
36,192,71481,1,0,0:0:0:0:
109,192,71481,1,0,0:0:0:0:
182,192,71481,1,0,0:0:0:0:
475,192,71587,1,0,0:0:0:0:
329,192,71587,1,0,0:0:0:0:
256,192,71587,1,0,0:0:0:0:
402,192,71641,1,0,0:0:0:0:
182,192,71641,1,0,0:0:0:0:
109,192,71694,1,0,0:0:0:0:
329,192,71694,1,0,0:0:0:0:
402,192,71748,1,0,0:0:0:0:
475,192,71801,1,0,0:0:0:0:
109,192,71801,1,0,0:0:0:0:
182,192,71801,1,0,0:0:0:0:
36,192,71801,1,0,0:0:0:0:
256,192,71854,1,0,0:0:0:0:
329,192,71908,1,0,0:0:0:0:
402,192,71961,1,0,0:0:0:0:
109,192,72014,1,0,0:0:0:0:
182,192,72014,1,0,0:0:0:0:
475,192,72014,1,0,0:0:0:0:
36,192,72014,1,0,0:0:0:0:
256,192,72068,1,0,0:0:0:0:
329,192,72121,1,0,0:0:0:0:
182,192,72121,1,0,0:0:0:0:
109,192,72175,1,0,0:0:0:0:
256,192,72228,1,0,0:0:0:0:
475,192,72228,1,0,0:0:0:0:
36,192,72228,1,0,0:0:0:0:
402,192,72228,1,0,0:0:0:0:
182,192,72281,1,0,0:0:0:0:
329,192,72335,1,0,0:0:0:0:
109,192,72335,1,0,0:0:0:0:
402,192,72388,1,0,0:0:0:0:
475,192,72441,1,0,0:0:0:0:
182,192,72441,1,0,0:0:0:0:
256,192,72441,1,0,0:0:0:0:
36,192,72441,1,0,0:0:0:0:
329,192,72495,1,0,0:0:0:0:
402,192,72548,1,0,0:0:0:0:
109,192,72548,1,0,0:0:0:0:
475,192,72602,1,0,0:0:0:0:
256,192,72655,1,0,0:0:0:0:
36,192,72655,1,0,0:0:0:0:
329,192,72655,1,0,0:0:0:0:
182,192,72655,1,0,0:0:0:0:
109,192,72708,1,0,0:0:0:0:
182,192,72762,1,0,0:0:0:0:
475,192,72762,1,0,0:0:0:0:
256,192,72815,1,0,0:0:0:0:
329,192,72869,1,0,0:0:0:0:
36,192,72869,1,0,0:0:0:0:
109,192,72869,1,0,0:0:0:0:
475,192,72869,1,0,0:0:0:0:
182,192,72922,1,0,0:0:0:0:
256,192,72975,1,0,0:0:0:0:
329,192,73029,1,0,0:0:0:0:
402,192,73082,1,0,0:0:0:0:
109,192,73082,1,0,0:0:0:0:
36,192,73082,1,0,0:0:0:0:
475,192,73082,1,0,0:0:0:0:
256,192,73135,1,0,0:0:0:0:
329,192,73189,1,0,0:0:0:0:
182,192,73189,1,0,0:0:0:0:
109,192,73242,1,0,0:0:0:0:
475,192,73296,1,0,0:0:0:0:
182,192,73296,1,0,0:0:0:0:
36,192,73296,1,0,0:0:0:0:
256,192,73296,1,0,0:0:0:0:
402,192,73349,1,0,0:0:0:0:
109,192,73402,1,0,0:0:0:0:
329,192,73402,1,0,0:0:0:0:
256,192,73456,1,0,0:0:0:0:
475,192,73509,1,0,0:0:0:0:
182,192,73509,1,0,0:0:0:0:
402,192,73509,1,0,0:0:0:0:
36,192,73509,1,0,0:0:0:0:
256,192,73562,1,0,0:0:0:0:
329,192,73616,1,0,0:0:0:0:
402,192,73669,1,0,0:0:0:0:
182,192,73723,1,0,0:0:0:0:
256,192,73723,1,0,0:0:0:0:
475,192,73723,1,0,0:0:0:0:
36,192,73723,1,0,0:0:0:0:
329,192,73776,1,0,0:0:0:0:
256,192,73829,1,0,0:0:0:0:
402,192,73829,1,0,0:0:0:0:
182,192,73883,1,0,0:0:0:0:
109,192,73936,1,0,0:0:0:0:
329,192,73936,1,0,0:0:0:0:
475,192,73936,1,0,0:0:0:0:
402,192,73936,1,0,0:0:0:0:
36,192,73990,1,0,0:0:0:0:
182,192,74043,1,0,0:0:0:0:
256,192,74043,1,0,0:0:0:0:
329,192,74096,1,0,0:0:0:0:
475,192,74150,1,0,0:0:0:0:
109,192,74150,1,0,0:0:0:0:
36,192,74150,1,0,0:0:0:0:
402,192,74150,1,0,0:0:0:0:
182,192,74203,1,0,0:0:0:0:
256,192,74256,1,0,0:0:0:0:
329,192,74256,1,0,0:0:0:0:
402,192,74310,1,0,0:0:0:0:
109,192,74363,1,0,0:0:0:0:
36,192,74363,1,0,0:0:0:0:
329,192,74363,1,0,0:0:0:0:
475,192,74363,1,0,0:0:0:0:
182,192,74417,1,0,0:0:0:0:
402,192,74470,1,0,0:0:0:0:
256,192,74470,1,0,0:0:0:0:
329,192,74523,1,0,0:0:0:0:
475,192,74577,1,0,0:0:0:0:
36,192,74577,1,0,0:0:0:0:
109,192,74577,1,0,0:0:0:0:
182,192,74577,1,0,0:0:0:0:
402,192,74630,1,0,0:0:0:0:
182,192,74683,1,0,0:0:0:0:
329,192,74683,1,0,0:0:0:0:
256,192,74737,1,0,0:0:0:0:
402,192,74790,1,0,0:0:0:0:
109,192,74790,1,0,0:0:0:0:
36,192,74790,1,0,0:0:0:0:
475,192,74790,1,0,0:0:0:0:
329,192,74844,1,0,0:0:0:0:
109,192,74897,1,0,0:0:0:0:
256,192,74897,1,0,0:0:0:0:
402,192,74950,1,0,0:0:0:0:
475,192,75004,1,0,0:0:0:0:
256,192,75004,1,0,0:0:0:0:
36,192,75004,1,0,0:0:0:0:
182,192,75004,1,0,0:0:0:0:
329,192,75057,1,0,0:0:0:0:
109,192,75057,1,0,0:0:0:0:
402,192,75111,1,0,0:0:0:0:
182,192,75111,1,0,0:0:0:0:
256,192,75164,1,0,0:0:0:0:
109,192,75217,1,0,0:0:0:0:
329,192,75217,1,0,0:0:0:0:
36,192,75217,1,0,0:0:0:0:
475,192,75217,1,0,0:0:0:0:
182,192,75271,1,0,0:0:0:0:
402,192,75324,1,0,0:0:0:0:
329,192,75377,1,0,0:0:0:0:
109,192,75431,1,0,0:0:0:0:
256,192,75431,1,0,0:0:0:0:
475,192,75431,1,0,0:0:0:0:
36,192,75431,1,0,0:0:0:0:
402,192,75484,1,0,0:0:0:0:
329,192,75538,1,0,0:0:0:0:
36,192,75538,1,0,0:0:0:0:
256,192,75591,1,0,0:0:0:0:
109,192,75644,1,0,0:0:0:0:
475,192,75644,1,0,0:0:0:0:
182,192,75644,1,0,0:0:0:0:
402,192,75644,1,0,0:0:0:0:
329,192,75698,1,0,0:0:0:0:
256,192,75751,1,0,0:0:0:0:
36,192,75751,1,0,0:0:0:0:
182,192,75804,1,0,0:0:0:0:
329,192,75858,1,0,0:0:0:0:
402,192,75858,1,0,0:0:0:0:
109,192,75858,1,0,0:0:0:0:
475,192,75858,1,0,0:0:0:0:
256,192,75911,1,0,0:0:0:0:
36,192,75965,1,0,0:0:0:0:
182,192,75965,1,0,0:0:0:0:
402,192,76018,1,0,0:0:0:0:
256,192,76071,1,0,0:0:0:0:
36,192,76071,1,0,0:0:0:0:
475,192,76071,1,0,0:0:0:0:
109,192,76071,1,0,0:0:0:0:
329,192,76125,1,0,0:0:0:0:
182,192,76178,1,0,0:0:0:0:
402,192,76178,1,0,0:0:0:0:
256,192,76232,1,0,0:0:0:0:
402,192,76285,1,0,0:0:0:0:
36,192,76285,1,0,0:0:0:0:
109,192,76285,1,0,0:0:0:0:
475,192,76285,1,0,0:0:0:0:
329,192,76338,1,0,0:0:0:0:
182,192,76392,1,0,0:0:0:0:
109,192,76445,1,0,0:0:0:0:
475,192,76498,1,0,0:0:0:0:
256,192,76498,1,0,0:0:0:0:
36,192,76498,1,0,0:0:0:0:
402,192,76498,1,0,0:0:0:0:
182,192,76552,1,0,0:0:0:0:
109,192,76605,1,0,0:0:0:0:
329,192,76605,1,0,0:0:0:0:
402,192,76659,1,0,0:0:0:0:
475,192,76712,1,0,0:0:0:0:
329,192,76712,1,0,0:0:0:0:
182,192,76712,1,0,0:0:0:0:
36,192,76712,1,0,0:0:0:0:
256,192,76765,1,0,0:0:0:0:
402,192,76819,1,0,0:0:0:0:
109,192,76819,1,0,0:0:0:0:
182,192,76872,1,0,0:0:0:0:
329,192,76925,1,0,0:0:0:0:
475,192,76925,1,0,0:0:0:0:
36,192,76925,1,0,0:0:0:0:
256,192,76925,1,0,0:0:0:0:
109,192,76979,1,0,0:0:0:0:
182,192,77032,1,0,0:0:0:0:
256,192,77086,1,0,0:0:0:0:
109,192,77139,1,0,0:0:0:0:
329,192,77139,1,0,0:0:0:0:
475,192,77139,1,0,0:0:0:0:
36,192,77139,1,0,0:0:0:0:
182,192,77192,1,0,0:0:0:0:
402,192,77246,1,0,0:0:0:0:
329,192,77246,1,0,0:0:0:0:
256,192,77299,1,0,0:0:0:0:
36,192,77353,1,0,0:0:0:0:
109,192,77353,1,0,0:0:0:0:
475,192,77353,1,0,0:0:0:0:
182,192,77353,1,0,0:0:0:0:
402,192,77406,1,0,0:0:0:0:
329,192,77459,1,0,0:0:0:0:
256,192,77459,1,0,0:0:0:0:
182,192,77513,1,0,0:0:0:0:
475,192,77566,1,0,0:0:0:0:
256,192,77566,1,0,0:0:0:0:
109,192,77566,1,0,0:0:0:0:
36,192,77566,1,0,0:0:0:0:
402,192,77619,1,0,0:0:0:0:
329,192,77673,1,0,0:0:0:0:
182,192,77673,1,0,0:0:0:0:
109,192,77726,1,0,0:0:0:0:
256,192,77780,1,0,0:0:0:0:
36,192,77780,1,0,0:0:0:0:
475,192,77780,1,0,0:0:0:0:
402,192,77780,1,0,0:0:0:0:
182,192,77833,1,0,0:0:0:0:
109,192,77886,1,0,0:0:0:0:
329,192,77886,1,0,0:0:0:0:
256,192,77940,1,0,0:0:0:0:
475,192,77993,1,0,0:0:0:0:
36,192,77993,1,0,0:0:0:0:
182,192,77993,1,0,0:0:0:0:
402,192,77993,1,0,0:0:0:0:
329,192,78046,1,0,0:0:0:0:
402,192,78100,1,0,0:0:0:0:
256,192,78100,1,0,0:0:0:0:
182,192,78153,1,0,0:0:0:0:
329,192,78207,1,0,0:0:0:0:
109,192,78207,1,0,0:0:0:0:
36,192,78207,1,0,0:0:0:0:
475,192,78207,1,0,0:0:0:0:
256,192,78260,1,0,0:0:0:0:
182,192,78313,1,0,0:0:0:0:
109,192,78313,1,0,0:0:0:0:
256,192,78367,1,0,0:0:0:0:
329,192,78420,1,0,0:0:0:0:
402,192,78420,1,0,0:0:0:0:
36,192,78420,1,0,0:0:0:0:
475,192,78420,1,0,0:0:0:0:
109,192,78474,1,0,0:0:0:0:
182,192,78527,1,0,0:0:0:0:
329,192,78527,1,0,0:0:0:0:
402,192,78580,1,0,0:0:0:0:
256,192,78634,1,0,0:0:0:0:
475,192,78634,1,0,0:0:0:0:
109,192,78634,1,0,0:0:0:0:
36,192,78634,1,0,0:0:0:0:
329,192,78740,1,0,0:0:0:0:
402,192,78740,1,0,0:0:0:0:
182,192,78740,1,0,0:0:0:0:
109,192,78740,1,0,0:0:0:0:
256,192,78847,1,0,0:0:0:0:
36,192,78847,1,0,0:0:0:0:
475,192,78847,1,0,0:0:0:0:
402,192,78847,1,0,0:0:0:0:
182,192,78901,1,0,0:0:0:0:
475,192,78954,1,0,0:0:0:0:
109,192,78954,1,0,0:0:0:0:
402,192,79007,1,0,0:0:0:0:
36,192,79061,1,0,0:0:0:0:
256,192,79061,1,0,0:0:0:0:
329,192,79061,1,0,0:0:0:0:
182,192,79061,1,0,0:0:0:0:
109,192,79114,1,0,0:0:0:0:
402,192,79167,1,0,0:0:0:0:
182,192,79167,1,0,0:0:0:0:
256,192,79221,1,0,0:0:0:0:
36,192,79274,1,0,0:0:0:0:
475,192,79274,1,0,0:0:0:0:
329,192,79274,1,0,0:0:0:0:
109,192,79274,1,0,0:0:0:0:
182,192,79328,1,0,0:0:0:0:
256,192,79381,1,0,0:0:0:0:
402,192,79381,1,0,0:0:0:0:
475,192,79434,1,0,0:0:0:0:
36,192,79488,1,0,0:0:0:0:
182,192,79488,1,0,0:0:0:0:
329,192,79488,1,0,0:0:0:0:
109,192,79488,1,0,0:0:0:0:
256,192,79541,1,0,0:0:0:0:
402,192,79594,1,0,0:0:0:0:
182,192,79594,1,0,0:0:0:0:
329,192,79648,1,0,0:0:0:0:
475,192,79701,1,0,0:0:0:0:
36,192,79701,1,0,0:0:0:0:
109,192,79701,1,0,0:0:0:0:
256,192,79701,1,0,0:0:0:0:
402,192,79755,1,0,0:0:0:0:
329,192,79808,1,0,0:0:0:0:
182,192,79861,1,0,0:0:0:0:
402,192,79915,1,0,0:0:0:0:
36,192,79915,1,0,0:0:0:0:
256,192,79915,1,0,0:0:0:0:
475,192,79915,1,0,0:0:0:0:
109,192,79968,1,0,0:0:0:0:
182,192,80022,1,0,0:0:0:0:
329,192,80022,1,0,0:0:0:0:
256,192,80075,1,0,0:0:0:0:
36,192,80128,1,0,0:0:0:0:
475,192,80128,1,0,0:0:0:0:
329,192,80128,1,0,0:0:0:0:
109,192,80128,1,0,0:0:0:0:
182,192,80182,1,0,0:0:0:0:
256,192,80235,1,0,0:0:0:0:
402,192,80235,1,0,0:0:0:0:
475,192,80288,1,0,0:0:0:0:
182,192,80342,1,0,0:0:0:0:
36,192,80342,1,0,0:0:0:0:
329,192,80342,1,0,0:0:0:0:
109,192,80342,1,0,0:0:0:0:
402,192,80395,1,0,0:0:0:0:
256,192,80449,1,0,0:0:0:0:
182,192,80502,1,0,0:0:0:0:
475,192,80555,1,0,0:0:0:0:
329,192,80555,1,0,0:0:0:0:
109,192,80555,1,0,0:0:0:0:
36,192,80555,1,0,0:0:0:0:
256,192,80609,1,0,0:0:0:0:
329,192,80662,1,0,0:0:0:0:
182,192,80662,1,0,0:0:0:0:
402,192,80715,1,0,0:0:0:0:
36,192,80769,1,0,0:0:0:0:
256,192,80769,1,0,0:0:0:0:
475,192,80769,1,0,0:0:0:0:
109,192,80769,1,0,0:0:0:0:
182,192,80822,1,0,0:0:0:0:
402,192,80876,1,0,0:0:0:0:
109,192,80876,1,0,0:0:0:0:
36,192,80929,1,0,0:0:0:0:
329,192,80982,1,0,0:0:0:0:
475,192,80982,1,0,0:0:0:0:
256,192,80982,1,0,0:0:0:0:
182,192,80982,1,0,0:0:0:0:
109,192,81036,1,0,0:0:0:0:
36,192,81089,1,0,0:0:0:0:
402,192,81089,1,0,0:0:0:0:
329,192,81143,1,0,0:0:0:0:
256,192,81196,1,0,0:0:0:0:
475,192,81196,1,0,0:0:0:0:
109,192,81196,1,0,0:0:0:0:
36,192,81196,1,0,0:0:0:0:
402,192,81249,1,0,0:0:0:0:
182,192,81303,1,0,0:0:0:0:
329,192,81303,1,0,0:0:0:0:
256,192,81356,1,0,0:0:0:0:
402,192,81409,1,0,0:0:0:0:
109,192,81409,1,0,0:0:0:0:
182,192,81409,1,0,0:0:0:0:
36,192,81409,1,0,0:0:0:0:
329,192,81463,1,0,0:0:0:0:
475,192,81516,1,0,0:0:0:0:
109,192,81516,1,0,0:0:0:0:
182,192,81570,1,0,0:0:0:0:
36,192,81623,1,0,0:0:0:0:
256,192,81623,1,0,0:0:0:0:
402,192,81623,1,0,0:0:0:0:
329,192,81623,1,0,0:0:0:0:
109,192,81676,1,0,0:0:0:0:
182,192,81730,1,0,0:0:0:0:
402,192,81730,1,0,0:0:0:0:
329,192,81783,1,0,0:0:0:0:
256,192,81836,1,0,0:0:0:0:
475,192,81836,1,0,0:0:0:0:
36,192,81836,1,0,0:0:0:0:
109,192,81836,1,0,0:0:0:0:
182,192,81890,1,0,0:0:0:0:
402,192,81890,1,0,0:0:0:0:
329,192,81943,1,0,0:0:0:0:
109,192,81943,1,0,0:0:0:0:
256,192,81997,1,0,0:0:0:0:
182,192,82050,1,0,0:0:0:0:
475,192,82050,1,0,0:0:0:0:
402,192,82050,1,0,0:0:0:0:
36,192,82050,1,0,0:0:0:0:
109,192,82103,1,0,0:0:0:0:
256,192,82157,1,0,0:0:0:0:
329,192,82210,1,0,0:0:0:0:
36,192,82264,1,0,0:0:0:0:
109,192,82264,1,0,0:0:0:0:
402,192,82264,1,0,0:0:0:0:
182,192,82264,1,0,0:0:0:0:
256,192,82317,1,0,0:0:0:0:
36,192,82370,1,0,0:0:0:0:
329,192,82370,1,0,0:0:0:0:
402,192,82424,1,0,0:0:0:0:
256,192,82477,1,0,0:0:0:0:
182,192,82477,1,0,0:0:0:0:
475,192,82477,1,0,0:0:0:0:
329,192,82477,1,0,0:0:0:0:
109,192,82530,1,0,0:0:0:0:
36,192,82584,1,0,0:0:0:0:
402,192,82584,1,0,0:0:0:0:
329,192,82637,1,0,0:0:0:0:
475,192,82691,1,0,0:0:0:0:
36,192,82691,1,0,0:0:0:0:
109,192,82691,1,0,0:0:0:0:
256,192,82691,1,0,0:0:0:0:
402,192,82744,1,0,0:0:0:0:
182,192,82797,1,0,0:0:0:0:
329,192,82797,1,0,0:0:0:0:
109,192,82851,1,0,0:0:0:0:
475,192,82904,1,0,0:0:0:0:
402,192,82904,1,0,0:0:0:0:
182,192,82904,1,0,0:0:0:0:
36,192,82904,1,0,0:0:0:0:
256,192,82957,1,0,0:0:0:0:
109,192,83011,1,0,0:0:0:0:
329,192,83011,1,0,0:0:0:0:
402,192,83064,1,0,0:0:0:0:
109,192,83118,1,0,0:0:0:0:
36,192,83118,1,0,0:0:0:0:
475,192,83118,1,0,0:0:0:0:
182,192,83118,1,0,0:0:0:0:
256,192,83171,1,0,0:0:0:0:
329,192,83224,1,0,0:0:0:0:
182,192,83278,1,0,0:0:0:0:
36,192,83331,1,0,0:0:0:0:
475,192,83331,1,0,0:0:0:0:
256,192,83331,1,0,0:0:0:0:
402,192,83331,1,0,0:0:0:0:
109,192,83385,1,0,0:0:0:0:
182,192,83438,1,0,0:0:0:0:
329,192,83438,1,0,0:0:0:0:
402,192,83491,1,0,0:0:0:0:
182,192,83545,1,0,0:0:0:0:
475,192,83545,1,0,0:0:0:0:
256,192,83545,1,0,0:0:0:0:
36,192,83545,1,0,0:0:0:0:
329,192,83598,1,0,0:0:0:0:
109,192,83651,1,0,0:0:0:0:
402,192,83651,1,0,0:0:0:0:
182,192,83705,1,0,0:0:0:0:
475,192,83758,1,0,0:0:0:0:
36,192,83758,1,0,0:0:0:0:
329,192,83758,1,0,0:0:0:0:
256,192,83758,1,0,0:0:0:0:
109,192,83812,1,0,0:0:0:0:
402,192,83865,1,0,0:0:0:0:
182,192,83918,1,0,0:0:0:0:
475,192,83972,1,0,0:0:0:0:
329,192,83972,1,0,0:0:0:0:
256,192,83972,1,0,0:0:0:0:
36,192,83972,1,0,0:0:0:0:
109,192,84025,1,0,0:0:0:0:
402,192,84078,1,0,0:0:0:0:
182,192,84078,1,0,0:0:0:0:
329,192,84132,1,0,0:0:0:0:
36,192,84185,1,0,0:0:0:0:
182,192,84185,1,0,0:0:0:0:
475,192,84185,1,0,0:0:0:0:
109,192,84185,1,0,0:0:0:0:
256,192,84239,1,0,0:0:0:0:
329,192,84292,1,0,0:0:0:0:
402,192,84292,1,0,0:0:0:0:
182,192,84345,1,0,0:0:0:0:
109,192,84399,1,0,0:0:0:0:
475,192,84399,1,0,0:0:0:0:
329,192,84399,1,0,0:0:0:0:
36,192,84399,1,0,0:0:0:0:
256,192,84452,1,0,0:0:0:0:
182,192,84506,1,0,0:0:0:0:
402,192,84506,1,0,0:0:0:0:
109,192,84559,1,0,0:0:0:0:
475,192,84612,1,0,0:0:0:0:
36,192,84612,1,0,0:0:0:0:
256,192,84612,1,0,0:0:0:0:
329,192,84612,1,0,0:0:0:0:
109,192,84666,1,0,0:0:0:0:
402,192,84719,1,0,0:0:0:0:
182,192,84719,1,0,0:0:0:0:
329,192,84772,1,0,0:0:0:0:
256,192,84826,1,0,0:0:0:0:
475,192,84826,1,0,0:0:0:0:
109,192,84826,1,0,0:0:0:0:
402,192,84879,1,0,0:0:0:0:
329,192,84933,1,0,0:0:0:0:
109,192,84933,1,0,0:0:0:0:
182,192,84986,1,0,0:0:0:0:
475,192,85039,1,0,0:0:0:0:
36,192,85039,1,0,0:0:0:0:
256,192,85039,1,0,0:0:0:0:
402,192,85039,1,0,0:0:0:0:
109,192,85093,1,0,0:0:0:0:
182,192,85146,1,0,0:0:0:0:
256,192,85146,1,0,0:0:0:0:
329,192,85199,1,0,0:0:0:0:
36,192,85253,1,0,0:0:0:0:
475,192,85253,1,0,0:0:0:0:
402,192,85253,1,0,0:0:0:0:
182,192,85253,1,0,0:0:0:0:
256,192,85306,1,0,0:0:0:0:
109,192,85360,1,0,0:0:0:0:
402,192,85360,1,0,0:0:0:0:
329,192,85413,1,0,0:0:0:0:
475,192,85466,1,0,0:0:0:0:
36,192,85466,1,0,0:0:0:0:
256,192,85466,1,0,0:0:0:0:
182,192,85466,1,0,0:0:0:0:
109,192,85466,1,0,0:0:0:0:
402,192,85520,1,0,0:0:0:0:
182,192,85573,1,0,0:0:0:0:
256,192,85627,1,0,0:0:0:0:
402,192,85680,1,0,0:0:0:0:
329,192,85680,1,0,0:0:0:0:
36,192,85680,1,0,0:0:0:0:
475,192,85680,1,0,0:0:0:0:
109,192,85733,1,0,0:0:0:0:
182,192,85787,1,0,0:0:0:0:
329,192,85787,1,0,0:0:0:0:
402,192,85840,1,0,0:0:0:0:
256,192,85893,1,0,0:0:0:0:
36,192,85893,1,0,0:0:0:0:
475,192,85893,1,0,0:0:0:0:
109,192,85893,1,0,0:0:0:0:
329,192,85947,1,0,0:0:0:0:
182,192,86000,1,0,0:0:0:0:
402,192,86000,1,0,0:0:0:0:
109,192,86054,1,0,0:0:0:0:
36,192,86107,1,0,0:0:0:0:
329,192,86107,1,0,0:0:0:0:
256,192,86107,1,0,0:0:0:0:
475,192,86107,1,0,0:0:0:0:
182,192,86160,1,0,0:0:0:0:
109,192,86214,1,0,0:0:0:0:
402,192,86214,1,0,0:0:0:0:
36,192,86267,1,0,0:0:0:0:
256,192,86320,1,0,0:0:0:0:
475,192,86320,1,0,0:0:0:0:
182,192,86320,1,0,0:0:0:0:
329,192,86320,1,0,0:0:0:0:
402,192,86374,1,0,0:0:0:0:
329,192,86427,1,0,0:0:0:0:
36,192,86427,1,0,0:0:0:0:
256,192,86481,1,0,0:0:0:0:
182,192,86534,1,0,0:0:0:0:
475,192,86534,1,0,0:0:0:0:
402,192,86534,1,0,0:0:0:0:
36,192,86534,1,0,0:0:0:0:
329,192,86587,1,0,0:0:0:0:
256,192,86641,1,0,0:0:0:0:
182,192,86694,1,0,0:0:0:0:
402,192,86748,1,0,0:0:0:0:
475,192,86748,1,0,0:0:0:0:
109,192,86748,1,0,0:0:0:0:
36,192,86748,1,0,0:0:0:0:
256,192,86801,1,0,0:0:0:0:
182,192,86854,1,0,0:0:0:0:
329,192,86854,1,0,0:0:0:0:
402,192,86908,1,0,0:0:0:0:
36,192,86961,1,0,0:0:0:0:
256,192,86961,1,0,0:0:0:0:
475,192,86961,1,0,0:0:0:0:
182,192,86961,1,0,0:0:0:0:
329,192,87014,1,0,0:0:0:0:
402,192,87068,1,0,0:0:0:0:
109,192,87068,1,0,0:0:0:0:
475,192,87121,1,0,0:0:0:0:
36,192,87175,1,0,0:0:0:0:
329,192,87175,1,0,0:0:0:0:
256,192,87175,1,0,0:0:0:0:
182,192,87175,1,0,0:0:0:0:
402,192,87228,1,0,0:0:0:0:
109,192,87281,1,0,0:0:0:0:
182,192,87335,1,0,0:0:0:0:
329,192,87388,1,0,0:0:0:0:
256,192,87388,1,0,0:0:0:0:
36,192,87388,1,0,0:0:0:0:
475,192,87388,1,0,0:0:0:0:
109,192,87441,1,0,0:0:0:0:
256,192,87495,1,0,0:0:0:0:
182,192,87495,1,0,0:0:0:0:
329,192,87548,1,0,0:0:0:0:
402,192,87602,1,0,0:0:0:0:
475,192,87602,1,0,0:0:0:0:
36,192,87602,1,0,0:0:0:0:
109,192,87602,1,0,0:0:0:0:
256,192,87655,1,0,0:0:0:0:
329,192,87708,1,0,0:0:0:0:
182,192,87708,1,0,0:0:0:0:
109,192,87762,1,0,0:0:0:0:
36,192,87815,1,0,0:0:0:0:
402,192,87815,1,0,0:0:0:0:
475,192,87815,1,0,0:0:0:0:
256,192,87815,1,0,0:0:0:0:
182,192,87869,1,0,0:0:0:0:
109,192,87922,1,0,0:0:0:0:
329,192,87922,1,0,0:0:0:0:
256,192,87975,1,0,0:0:0:0:
475,192,88029,1,0,0:0:0:0:
182,192,88029,1,0,0:0:0:0:
402,192,88029,1,0,0:0:0:0:
36,192,88029,1,0,0:0:0:0:
329,192,88082,1,0,0:0:0:0:
109,192,88135,1,0,0:0:0:0:
256,192,88135,1,0,0:0:0:0:
402,192,88189,1,0,0:0:0:0:
36,192,88242,1,0,0:0:0:0:
475,192,88242,1,0,0:0:0:0:
329,192,88242,1,0,0:0:0:0:
182,192,88242,1,0,0:0:0:0:
109,192,88296,1,0,0:0:0:0:
182,192,88349,1,0,0:0:0:0:
256,192,88349,1,0,0:0:0:0:
329,192,88402,1,0,0:0:0:0:
109,192,88456,1,0,0:0:0:0:
402,192,88456,1,0,0:0:0:0:
475,192,88456,1,0,0:0:0:0:
36,192,88456,1,0,0:0:0:0:
256,192,88509,1,0,0:0:0:0:
182,192,88562,1,0,0:0:0:0:
402,192,88562,1,0,0:0:0:0:
109,192,88616,1,0,0:0:0:0:
36,192,88669,1,0,0:0:0:0:
256,192,88669,1,0,0:0:0:0:
475,192,88669,1,0,0:0:0:0:
329,192,88669,1,0,0:0:0:0:
182,192,88723,1,0,0:0:0:0:
402,192,88723,1,0,0:0:0:0:
109,192,88776,1,0,0:0:0:0:
329,192,88776,1,0,0:0:0:0:
256,192,88829,1,0,0:0:0:0:
402,192,88883,1,0,0:0:0:0:
182,192,88883,1,0,0:0:0:0:
475,192,88883,1,0,0:0:0:0:
36,192,88883,1,0,0:0:0:0:
329,192,88936,1,0,0:0:0:0:
109,192,88990,1,0,0:0:0:0:
182,192,89043,1,0,0:0:0:0:
402,192,89096,1,0,0:0:0:0:
256,192,89096,1,0,0:0:0:0:
36,192,89096,1,0,0:0:0:0:
475,192,89096,1,0,0:0:0:0:
109,192,89150,1,0,0:0:0:0:
182,192,89203,1,0,0:0:0:0:
256,192,89203,1,0,0:0:0:0:
329,192,89256,1,0,0:0:0:0:
402,192,89310,1,0,0:0:0:0:
36,192,89310,1,0,0:0:0:0:
475,192,89310,1,0,0:0:0:0:
109,192,89310,1,0,0:0:0:0:
182,192,89363,1,0,0:0:0:0:
256,192,89417,1,0,0:0:0:0:
402,192,89417,1,0,0:0:0:0:
329,192,89470,1,0,0:0:0:0:
36,192,89523,1,0,0:0:0:0:
182,192,89523,1,0,0:0:0:0:
109,192,89523,1,0,0:0:0:0:
475,192,89523,1,0,0:0:0:0:
402,192,89577,1,0,0:0:0:0:
256,192,89630,1,0,0:0:0:0:
329,192,89630,1,0,0:0:0:0:
182,192,89683,1,0,0:0:0:0:
402,192,89737,1,0,0:0:0:0:
475,192,89737,1,0,0:0:0:0:
36,192,89737,1,0,0:0:0:0:
109,192,89737,1,0,0:0:0:0:
329,192,89790,1,0,0:0:0:0:
256,192,89844,1,0,0:0:0:0:
182,192,89844,1,0,0:0:0:0:
329,192,89897,1,0,0:0:0:0:
182,192,89950,1,0,0:0:0:0:
475,192,89950,1,0,0:0:0:0:
402,192,89950,1,0,0:0:0:0:
36,192,89950,1,0,0:0:0:0:
109,192,90004,1,0,0:0:0:0:
256,192,90057,1,0,0:0:0:0:
329,192,90111,1,0,0:0:0:0:
36,192,90164,1,0,0:0:0:0:
182,192,90164,1,0,0:0:0:0:
475,192,90164,1,0,0:0:0:0:
402,192,90164,1,0,0:0:0:0:
256,192,90217,1,0,0:0:0:0:
109,192,90271,1,0,0:0:0:0:
329,192,90271,1,0,0:0:0:0:
402,192,90324,1,0,0:0:0:0:
36,192,90377,1,0,0:0:0:0:
475,192,90377,1,0,0:0:0:0:
329,192,90377,1,0,0:0:0:0:
256,192,90377,1,0,0:0:0:0:
182,192,90431,1,0,0:0:0:0:
402,192,90484,1,0,0:0:0:0:
109,192,90484,1,0,0:0:0:0:
329,192,90538,1,0,0:0:0:0:
182,192,90591,1,0,0:0:0:0:
256,192,90591,1,0,0:0:0:0:
475,192,90591,1,0,0:0:0:0:
36,192,90591,1,0,0:0:0:0:
402,192,90644,1,0,0:0:0:0:
109,192,90698,1,0,0:0:0:0:
182,192,90751,1,0,0:0:0:0:
402,192,90804,1,0,0:0:0:0:
256,192,90804,1,0,0:0:0:0:
36,192,90804,1,0,0:0:0:0:
475,192,90804,1,0,0:0:0:0:
329,192,90858,1,0,0:0:0:0:
402,192,90911,1,0,0:0:0:0:
182,192,90911,1,0,0:0:0:0:
109,192,90965,1,0,0:0:0:0:
475,192,91018,1,0,0:0:0:0:
256,192,91018,1,0,0:0:0:0:
36,192,91018,1,0,0:0:0:0:
182,192,91018,1,0,0:0:0:0:
402,192,91071,1,0,0:0:0:0:
109,192,91125,1,0,0:0:0:0:
329,192,91125,1,0,0:0:0:0:
182,192,91178,1,0,0:0:0:0:
36,192,91232,1,0,0:0:0:0:
256,192,91232,1,0,0:0:0:0:
402,192,91232,1,0,0:0:0:0:
475,192,91232,1,0,0:0:0:0:
109,192,91285,1,0,0:0:0:0:
182,192,91338,1,0,0:0:0:0:
329,192,91338,1,0,0:0:0:0:
402,192,91392,1,0,0:0:0:0:
256,192,91445,1,0,0:0:0:0:
475,192,91445,1,0,0:0:0:0:
36,192,91445,1,0,0:0:0:0:
109,192,91445,1,0,0:0:0:0:
329,192,91498,1,0,0:0:0:0:
402,192,91552,1,0,0:0:0:0:
182,192,91552,1,0,0:0:0:0:
256,192,91605,1,0,0:0:0:0:
36,192,91659,1,0,0:0:0:0:
475,192,91659,1,0,0:0:0:0:
329,192,91659,1,0,0:0:0:0:
109,192,91659,1,0,0:0:0:0:
182,192,91712,1,0,0:0:0:0:
109,192,91765,1,0,0:0:0:0:
256,192,91765,1,0,0:0:0:0:
329,192,91819,1,0,0:0:0:0:
182,192,91872,1,0,0:0:0:0:
402,192,91872,1,0,0:0:0:0:
475,192,91872,1,0,0:0:0:0:
256,192,91872,1,0,0:0:0:0:
109,192,91925,1,0,0:0:0:0:
36,192,91979,1,0,0:0:0:0:
402,192,91979,1,0,0:0:0:0:
329,192,92032,1,0,0:0:0:0:
182,192,92086,1,0,0:0:0:0:
109,192,92086,1,0,0:0:0:0:
475,192,92086,1,0,0:0:0:0:
256,192,92086,1,0,0:0:0:0:
402,192,92139,1,0,0:0:0:0:
329,192,92192,1,0,0:0:0:0:
182,192,92192,1,0,0:0:0:0:
109,192,92246,1,0,0:0:0:0:
256,192,92299,1,0,0:0:0:0:
36,192,92299,1,0,0:0:0:0:
402,192,92299,1,0,0:0:0:0:
475,192,92299,1,0,0:0:0:0:
182,192,92406,1,0,0:0:0:0:
109,192,92406,1,0,0:0:0:0:
329,192,92406,1,0,0:0:0:0:
402,192,92406,1,0,0:0:0:0:
256,192,92513,1,0,0:0:0:0:
475,192,92513,1,0,0:0:0:0:
36,192,92513,1,0,0:0:0:0:
109,192,92513,1,0,0:0:0:0:
329,192,92566,1,0,0:0:0:0:
36,192,92619,1,0,0:0:0:0:
402,192,92619,1,0,0:0:0:0:
109,192,92673,1,0,0:0:0:0:
475,192,92726,1,0,0:0:0:0:
256,192,92726,1,0,0:0:0:0:
182,192,92726,1,0,0:0:0:0:
329,192,92726,1,0,0:0:0:0:
402,192,92780,1,0,0:0:0:0:
109,192,92833,1,0,0:0:0:0:
329,192,92833,1,0,0:0:0:0:
256,192,92886,1,0,0:0:0:0:
475,192,92940,1,0,0:0:0:0:
36,192,92940,1,0,0:0:0:0:
182,192,92940,1,0,0:0:0:0:
402,192,92940,1,0,0:0:0:0:
329,192,92993,1,0,0:0:0:0:
256,192,93046,1,0,0:0:0:0:
109,192,93046,1,0,0:0:0:0:
36,192,93100,1,0,0:0:0:0:
475,192,93153,1,0,0:0:0:0:
329,192,93153,1,0,0:0:0:0:
182,192,93153,1,0,0:0:0:0:
402,192,93153,1,0,0:0:0:0:
256,192,93207,1,0,0:0:0:0:
109,192,93260,1,0,0:0:0:0:
329,192,93260,1,0,0:0:0:0:
402,192,93313,1,0,0:0:0:0:
36,192,93367,1,0,0:0:0:0:
475,192,93367,1,0,0:0:0:0:
109,192,93367,1,0,0:0:0:0:
256,192,93367,1,0,0:0:0:0:
329,192,93420,1,0,0:0:0:0:
402,192,93474,1,0,0:0:0:0:
182,192,93527,1,0,0:0:0:0:
109,192,93580,1,0,0:0:0:0:
475,192,93580,1,0,0:0:0:0:
256,192,93580,1,0,0:0:0:0:
36,192,93580,1,0,0:0:0:0:
402,192,93634,1,0,0:0:0:0:
329,192,93687,1,0,0:0:0:0:
182,192,93687,1,0,0:0:0:0:
109,192,93740,1,0,0:0:0:0:
475,192,93794,1,0,0:0:0:0:
36,192,93794,1,0,0:0:0:0:
329,192,93794,1,0,0:0:0:0:
402,192,93794,1,0,0:0:0:0:
256,192,93847,1,0,0:0:0:0:
182,192,93901,1,0,0:0:0:0:
109,192,93901,1,0,0:0:0:0:
256,192,93954,1,0,0:0:0:0:
329,192,94007,1,0,0:0:0:0:
475,192,94007,1,0,0:0:0:0:
36,192,94007,1,0,0:0:0:0:
402,192,94007,1,0,0:0:0:0:
109,192,94061,1,0,0:0:0:0:
182,192,94114,1,0,0:0:0:0:
256,192,94167,1,0,0:0:0:0:
36,192,94221,1,0,0:0:0:0:
329,192,94221,1,0,0:0:0:0:
402,192,94221,1,0,0:0:0:0:
475,192,94221,1,0,0:0:0:0:
109,192,94274,1,0,0:0:0:0:
182,192,94328,1,0,0:0:0:0:
329,192,94328,1,0,0:0:0:0:
402,192,94381,1,0,0:0:0:0:
475,192,94434,1,0,0:0:0:0:
256,192,94434,1,0,0:0:0:0:
36,192,94434,1,0,0:0:0:0:
109,192,94434,1,0,0:0:0:0:
329,192,94488,1,0,0:0:0:0:
182,192,94541,1,0,0:0:0:0:
402,192,94541,1,0,0:0:0:0:
475,192,94594,1,0,0:0:0:0:
109,192,94648,1,0,0:0:0:0:
36,192,94648,1,0,0:0:0:0:
256,192,94648,1,0,0:0:0:0:
329,192,94648,1,0,0:0:0:0:
402,192,94701,1,0,0:0:0:0:
475,192,94755,1,0,0:0:0:0:
182,192,94755,1,0,0:0:0:0:
109,192,94808,1,0,0:0:0:0:
256,192,94861,1,0,0:0:0:0:
36,192,94861,1,0,0:0:0:0:
402,192,94861,1,0,0:0:0:0:
329,192,94861,1,0,0:0:0:0:
182,192,94915,1,0,0:0:0:0:
475,192,94968,1,0,0:0:0:0:
109,192,94968,1,0,0:0:0:0:
256,192,95022,1,0,0:0:0:0:
36,192,95075,1,0,0:0:0:0:
329,192,95075,1,0,0:0:0:0:
182,192,95075,1,0,0:0:0:0:
402,192,95075,1,0,0:0:0:0:
475,192,95128,1,0,0:0:0:0:
256,192,95182,1,0,0:0:0:0:
329,192,95182,1,0,0:0:0:0:
182,192,95235,1,0,0:0:0:0:
36,192,95288,1,0,0:0:0:0:
475,192,95288,1,0,0:0:0:0:
109,192,95288,1,0,0:0:0:0:
402,192,95288,1,0,0:0:0:0:
256,192,95342,1,0,0:0:0:0:
109,192,95395,1,0,0:0:0:0:
329,192,95395,1,0,0:0:0:0:
182,192,95449,1,0,0:0:0:0:
256,192,95502,1,0,0:0:0:0:
36,192,95502,1,0,0:0:0:0:
475,192,95502,1,0,0:0:0:0:
402,192,95502,1,0,0:0:0:0:
329,192,95555,1,0,0:0:0:0:
109,192,95555,1,0,0:0:0:0:
182,192,95609,1,0,0:0:0:0:
402,192,95609,1,0,0:0:0:0:
256,192,95662,1,0,0:0:0:0:
36,192,95715,1,0,0:0:0:0:
109,192,95715,1,0,0:0:0:0:
329,192,95715,1,0,0:0:0:0:
475,192,95715,1,0,0:0:0:0:
402,192,95769,1,0,0:0:0:0:
256,192,95822,1,0,0:0:0:0:
182,192,95876,1,0,0:0:0:0:
475,192,95929,1,0,0:0:0:0:
402,192,95929,1,0,0:0:0:0:
109,192,95929,1,0,0:0:0:0:
329,192,95929,1,0,0:0:0:0:
256,192,95982,1,0,0:0:0:0:
36,192,96036,1,0,0:0:0:0:
182,192,96036,1,0,0:0:0:0:
109,192,96089,1,0,0:0:0:0:
256,192,96143,1,0,0:0:0:0:
402,192,96143,1,0,0:0:0:0:
36,192,96143,1,0,0:0:0:0:
475,192,96143,1,0,0:0:0:0:
329,192,96196,1,0,0:0:0:0:
402,192,96249,1,0,0:0:0:0:
182,192,96249,1,0,0:0:0:0:
109,192,96303,1,0,0:0:0:0:
36,192,96356,1,0,0:0:0:0:
256,192,96356,1,0,0:0:0:0:
475,192,96356,1,0,0:0:0:0:
329,192,96356,1,0,0:0:0:0:
182,192,96409,1,0,0:0:0:0:
402,192,96463,1,0,0:0:0:0:
109,192,96463,1,0,0:0:0:0:
329,192,96516,1,0,0:0:0:0:
36,192,96570,1,0,0:0:0:0:
182,192,96570,1,0,0:0:0:0:
402,192,96570,1,0,0:0:0:0:
475,192,96570,1,0,0:0:0:0:
256,192,96623,1,0,0:0:0:0:
329,192,96676,1,0,0:0:0:0:
109,192,96676,1,0,0:0:0:0:
182,192,96730,1,0,0:0:0:0:
402,192,96783,1,0,0:0:0:0:
475,192,96783,1,0,0:0:0:0:
36,192,96783,1,0,0:0:0:0:
329,192,96783,1,0,0:0:0:0:
109,192,96836,1,0,0:0:0:0:
256,192,96890,1,0,0:0:0:0:
329,192,96943,1,0,0:0:0:0:
475,192,96997,1,0,0:0:0:0:
36,192,96997,1,0,0:0:0:0:
182,192,96997,1,0,0:0:0:0:
402,192,96997,1,0,0:0:0:0:
256,192,97050,1,0,0:0:0:0:
329,192,97103,1,0,0:0:0:0:
109,192,97103,1,0,0:0:0:0:
182,192,97157,1,0,0:0:0:0:
256,192,97210,1,0,0:0:0:0:
109,192,97210,1,0,0:0:0:0:
36,192,97210,1,0,0:0:0:0:
475,192,97210,1,0,0:0:0:0:
402,192,97264,1,0,0:0:0:0:
329,192,97317,1,0,0:0:0:0:
182,192,97317,1,0,0:0:0:0:
109,192,97370,1,0,0:0:0:0:
36,192,97424,1,0,0:0:0:0:
256,192,97424,1,0,0:0:0:0:
475,192,97424,1,0,0:0:0:0:
402,192,97424,1,0,0:0:0:0:
182,192,97477,1,0,0:0:0:0:
329,192,97530,1,0,0:0:0:0:
402,192,97584,1,0,0:0:0:0:
36,192,97637,1,0,0:0:0:0:
109,192,97637,1,0,0:0:0:0:
182,192,97637,1,0,0:0:0:0:
475,192,97637,1,0,0:0:0:0:
329,192,97691,1,0,0:0:0:0:
182,192,97744,1,0,0:0:0:0:
256,192,97744,1,0,0:0:0:0:
109,192,97797,1,0,0:0:0:0:
475,192,97851,1,0,0:0:0:0:
329,192,97851,1,0,0:0:0:0:
36,192,97851,1,0,0:0:0:0:
402,192,97851,1,0,0:0:0:0:
256,192,97904,1,0,0:0:0:0:
402,192,97957,5,0,0:0:0:0:
109,192,97957,1,0,0:0:0:0:
182,192,98011,1,0,0:0:0:0:
329,192,98064,1,0,0:0:0:0:
36,192,98064,1,0,0:0:0:0:
256,192,98064,1,0,0:0:0:0:
475,192,98064,1,0,0:0:0:0:
109,192,98118,1,0,0:0:0:0:
402,192,98171,1,0,0:0:0:0:
182,192,98171,1,0,0:0:0:0:
256,192,98224,1,0,0:0:0:0:
109,192,98278,1,0,0:0:0:0:
36,192,98278,1,0,0:0:0:0:
329,192,98278,1,0,0:0:0:0:
475,192,98278,1,0,0:0:0:0:
329,192,98385,1,0,0:0:0:0:
182,192,98491,1,0,0:0:0:0:
256,192,98505,1,0,0:0:0:0:
475,192,98545,1,0,0:0:0:0:
402,192,98558,1,0,0:0:0:0:
182,192,98598,1,0,0:0:0:0:
109,192,98611,1,0,0:0:0:0:
329,192,98651,1,0,0:0:0:0:
402,192,98665,1,0,0:0:0:0:
36,192,98705,1,0,0:0:0:0:
109,192,98718,1,0,0:0:0:0:
182,192,98758,1,0,0:0:0:0:
329,192,98772,1,0,0:0:0:0:
402,192,98812,1,0,0:0:0:0:
475,192,98825,1,0,0:0:0:0:
182,192,98918,1,0,0:0:0:0:
36,192,98918,1,0,0:0:0:0:
109,192,98918,1,0,0:0:0:0:
256,192,98918,1,0,0:0:0:0:
329,192,98972,1,0,0:0:0:0:
182,192,99025,1,0,0:0:0:0:
329,192,99078,1,0,0:0:0:0:
36,192,99132,5,0,0:0:0:0:
182,192,99132,1,0,0:0:0:0:
475,192,99132,1,0,0:0:0:0:
402,192,99132,1,0,0:0:0:0:
109,192,99132,1,0,0:0:0:0:
256,192,99132,1,0,0:0:0:0:
329,192,99239,1,0,0:0:0:0:
109,192,99239,1,0,0:0:0:0:
182,192,99292,1,0,0:0:0:0:
402,192,99345,1,0,0:0:0:0:
256,192,99345,1,0,0:0:0:0:
475,192,99345,1,0,0:0:0:0:
402,192,99452,1,0,0:0:0:0:
182,192,99452,1,0,0:0:0:0:
475,192,99452,1,0,0:0:0:0:
36,192,99452,1,0,0:0:0:0:
109,192,99452,1,0,0:0:0:0:
329,192,99488,1,0,0:0:0:0:
256,192,99523,1,0,0:0:0:0:
182,192,99559,1,0,0:0:0:0:
36,192,99559,1,0,0:0:0:0:
109,192,99559,1,0,0:0:0:0:
256,192,99666,1,0,0:0:0:0:
475,192,99666,1,0,0:0:0:0:
402,192,99701,1,0,0:0:0:0:
182,192,99719,1,0,0:0:0:0:
329,192,99737,1,0,0:0:0:0:
475,192,99772,1,0,0:0:0:0:
36,192,99772,1,0,0:0:0:0:
109,192,99808,1,0,0:0:0:0:
402,192,99826,1,0,0:0:0:0:
182,192,99844,1,0,0:0:0:0:
329,192,99879,1,0,0:0:0:0:
402,192,99915,1,0,0:0:0:0:
256,192,99933,1,0,0:0:0:0:
475,192,99950,1,0,0:0:0:0:
36,192,99986,1,0,0:0:0:0:
182,192,99986,1,0,0:0:0:0:
109,192,100093,1,0,0:0:0:0:
329,192,100093,1,0,0:0:0:0:
256,192,100146,1,0,0:0:0:0:
36,192,100199,1,0,0:0:0:0:
182,192,100199,1,0,0:0:0:0:
402,192,100253,1,0,0:0:0:0:
475,192,100306,1,0,0:0:0:0:
256,192,100306,1,0,0:0:0:0:
109,192,100360,1,0,0:0:0:0:
329,192,100360,1,0,0:0:0:0:
402,192,100413,1,0,0:0:0:0:
475,192,100413,1,0,0:0:0:0:
182,192,100413,1,0,0:0:0:0:
36,192,100413,1,0,0:0:0:0:
109,192,100466,1,0,0:0:0:0:
256,192,100466,1,0,0:0:0:0:
475,192,100573,1,0,0:0:0:0:
182,192,100573,1,0,0:0:0:0:
402,192,100600,1,0,0:0:0:0:
36,192,100627,1,0,0:0:0:0:
329,192,100627,1,0,0:0:0:0:
256,192,100733,1,0,0:0:0:0:
109,192,100733,1,0,0:0:0:0:
402,192,100840,1,0,0:0:0:0:
475,192,100840,1,0,0:0:0:0:
182,192,100840,1,0,0:0:0:0:
36,192,100840,1,0,0:0:0:0:
256,192,100840,1,0,0:0:0:0:
329,192,100840,1,0,0:0:0:0:
402,192,100947,1,0,0:0:0:0:
182,192,100947,1,0,0:0:0:0:
329,192,101000,1,0,0:0:0:0:
36,192,101054,1,0,0:0:0:0:
256,192,101054,1,0,0:0:0:0:
109,192,101054,1,0,0:0:0:0:
475,192,101160,1,0,0:0:0:0:
402,192,101160,1,0,0:0:0:0:
36,192,101160,1,0,0:0:0:0:
109,192,101160,1,0,0:0:0:0:
329,192,101160,1,0,0:0:0:0:
182,192,101196,1,0,0:0:0:0:
256,192,101232,1,0,0:0:0:0:
402,192,101267,1,0,0:0:0:0:
475,192,101267,1,0,0:0:0:0:
329,192,101267,1,0,0:0:0:0:
36,192,101374,1,0,0:0:0:0:
109,192,101374,1,0,0:0:0:0:
256,192,101374,1,0,0:0:0:0:
329,192,101427,1,0,0:0:0:0:
182,192,101481,1,0,0:0:0:0:
402,192,101481,1,0,0:0:0:0:
475,192,101507,1,0,0:0:0:0:
329,192,101587,1,0,0:0:0:0:
109,192,101587,1,0,0:0:0:0:
256,192,101614,1,0,0:0:0:0:
36,192,101694,1,0,0:0:0:0:
475,192,101694,1,0,0:0:0:0:
182,192,101694,1,0,0:0:0:0:
109,192,101694,1,0,0:0:0:0:
402,192,101694,1,0,0:0:0:0:
475,192,101801,1,0,0:0:0:0:
402,192,101801,1,0,0:0:0:0:
182,192,101801,1,0,0:0:0:0:
329,192,101854,1,0,0:0:0:0:
36,192,101908,1,0,0:0:0:0:
256,192,101908,1,0,0:0:0:0:
109,192,101943,1,0,0:0:0:0:
182,192,101979,1,0,0:0:0:0:
256,192,102014,1,0,0:0:0:0:
329,192,102014,1,0,0:0:0:0:
402,192,102014,1,0,0:0:0:0:
475,192,102014,1,0,0:0:0:0:
36,192,102014,1,0,0:0:0:0:
329,192,102121,1,0,0:0:0:0:
182,192,102121,1,0,0:0:0:0:
475,192,102121,1,0,0:0:0:0:
109,192,102121,1,0,0:0:0:0:
182,192,102228,1,0,0:0:0:0:
475,192,102228,1,0,0:0:0:0:
36,192,102228,1,0,0:0:0:0:
402,192,102228,1,0,0:0:0:0:
329,192,102335,1,0,0:0:0:0:
36,192,102335,1,0,0:0:0:0:
109,192,102335,1,0,0:0:0:0:
256,192,102335,1,0,0:0:0:0:
402,192,102441,1,0,0:0:0:0:
256,192,102441,1,0,0:0:0:0:
182,192,102441,1,0,0:0:0:0:
475,192,102441,1,0,0:0:0:0:
402,192,102548,1,0,0:0:0:0:
182,192,102548,1,0,0:0:0:0:
109,192,102548,1,0,0:0:0:0:
36,192,102548,1,0,0:0:0:0:
475,192,102548,1,0,0:0:0:0:
329,192,102602,1,0,0:0:0:0:
256,192,102655,1,0,0:0:0:0:
109,192,102655,1,0,0:0:0:0:
329,192,102708,1,0,0:0:0:0:
36,192,102762,1,0,0:0:0:0:
402,192,102762,1,0,0:0:0:0:
475,192,102762,1,0,0:0:0:0:
182,192,102762,1,0,0:0:0:0:
256,192,102815,1,0,0:0:0:0:
402,192,102869,1,0,0:0:0:0:
109,192,102869,1,0,0:0:0:0:
182,192,102922,1,0,0:0:0:0:
329,192,102975,1,0,0:0:0:0:
475,192,102975,1,0,0:0:0:0:
36,192,102975,1,0,0:0:0:0:
256,192,102975,1,0,0:0:0:0:
109,192,103029,1,0,0:0:0:0:
402,192,103029,1,0,0:0:0:0:
182,192,103082,1,0,0:0:0:0:
329,192,103135,1,0,0:0:0:0:
402,192,103189,1,0,0:0:0:0:
475,192,103189,1,0,0:0:0:0:
109,192,103189,1,0,0:0:0:0:
36,192,103189,1,0,0:0:0:0:
256,192,103242,1,0,0:0:0:0:
329,192,103296,1,0,0:0:0:0:
182,192,103296,1,0,0:0:0:0:
402,192,103349,1,0,0:0:0:0:
36,192,103402,1,0,0:0:0:0:
109,192,103402,1,0,0:0:0:0:
256,192,103402,1,0,0:0:0:0:
475,192,103402,1,0,0:0:0:0:
402,192,103456,1,0,0:0:0:0:
182,192,103509,1,0,0:0:0:0:
329,192,103509,1,0,0:0:0:0:
109,192,103562,1,0,0:0:0:0:
475,192,103616,1,0,0:0:0:0:
402,192,103616,1,0,0:0:0:0:
256,192,103616,1,0,0:0:0:0:
36,192,103616,1,0,0:0:0:0:
182,192,103669,1,0,0:0:0:0:
329,192,103723,1,0,0:0:0:0:
109,192,103723,1,0,0:0:0:0:
402,192,103776,1,0,0:0:0:0:
182,192,103829,1,0,0:0:0:0:
36,192,103829,1,0,0:0:0:0:
475,192,103829,1,0,0:0:0:0:
256,192,103829,1,0,0:0:0:0:
329,192,103883,1,0,0:0:0:0:
182,192,103936,1,0,0:0:0:0:
402,192,103936,1,0,0:0:0:0:
109,192,103990,1,0,0:0:0:0:
475,192,104043,1,0,0:0:0:0:
36,192,104043,1,0,0:0:0:0:
256,192,104043,1,0,0:0:0:0:
329,192,104043,1,0,0:0:0:0:
109,192,104096,1,0,0:0:0:0:
402,192,104096,1,0,0:0:0:0:
182,192,104150,1,0,0:0:0:0:
256,192,104150,1,0,0:0:0:0:
329,192,104203,1,0,0:0:0:0:
109,192,104256,1,0,0:0:0:0:
36,192,104256,1,0,0:0:0:0:
402,192,104256,1,0,0:0:0:0:
475,192,104256,1,0,0:0:0:0:
182,192,104256,1,0,0:0:0:0:
256,192,104310,1,0,0:0:0:0:
329,192,104363,1,0,0:0:0:0:
109,192,104363,1,0,0:0:0:0:
182,192,104417,1,0,0:0:0:0:
256,192,104470,1,0,0:0:0:0:
36,192,104470,1,0,0:0:0:0:
475,192,104470,1,0,0:0:0:0:
402,192,104470,1,0,0:0:0:0:
109,192,104523,1,0,0:0:0:0:
329,192,104577,1,0,0:0:0:0:
182,192,104577,1,0,0:0:0:0:
402,192,104630,1,0,0:0:0:0:
475,192,104683,1,0,0:0:0:0:
182,192,104683,1,0,0:0:0:0:
36,192,104683,1,0,0:0:0:0:
256,192,104683,1,0,0:0:0:0:
402,192,104737,1,0,0:0:0:0:
329,192,104790,1,0,0:0:0:0:
109,192,104790,1,0,0:0:0:0:
182,192,104844,1,0,0:0:0:0:
256,192,104897,1,0,0:0:0:0:
475,192,104897,1,0,0:0:0:0:
402,192,104897,1,0,0:0:0:0:
36,192,104897,1,0,0:0:0:0:
329,192,104950,1,0,0:0:0:0:
182,192,105004,1,0,0:0:0:0:
109,192,105004,1,0,0:0:0:0:
256,192,105057,1,0,0:0:0:0:
329,192,105111,1,0,0:0:0:0:
475,192,105111,1,0,0:0:0:0:
402,192,105111,1,0,0:0:0:0:
36,192,105111,1,0,0:0:0:0:
109,192,105164,1,0,0:0:0:0:
256,192,105217,1,0,0:0:0:0:
182,192,105217,1,0,0:0:0:0:
329,192,105271,1,0,0:0:0:0:
475,192,105324,1,0,0:0:0:0:
402,192,105324,1,0,0:0:0:0:
109,192,105324,1,0,0:0:0:0:
36,192,105324,1,0,0:0:0:0:
256,192,105377,1,0,0:0:0:0:
329,192,105377,1,0,0:0:0:0:
109,192,105431,1,0,0:0:0:0:
182,192,105431,1,0,0:0:0:0:
329,192,105484,1,0,0:0:0:0:
402,192,105484,1,0,0:0:0:0:
256,192,105538,1,0,0:0:0:0:
475,192,105538,1,0,0:0:0:0:
36,192,105538,1,0,0:0:0:0:
182,192,105538,1,0,0:0:0:0:
402,192,105591,1,0,0:0:0:0:
329,192,105644,1,0,0:0:0:0:
256,192,105644,1,0,0:0:0:0:
109,192,105644,1,0,0:0:0:0:
182,192,105698,1,0,0:0:0:0:
36,192,105751,1,0,0:0:0:0:
402,192,105751,1,0,0:0:0:0:
475,192,105751,1,0,0:0:0:0:
329,192,105751,1,0,0:0:0:0:
256,192,105804,1,0,0:0:0:0:
182,192,105858,1,0,0:0:0:0:
109,192,105858,1,0,0:0:0:0:
36,192,105858,1,0,0:0:0:0:
329,192,105911,1,0,0:0:0:0:
402,192,105965,1,0,0:0:0:0:
475,192,105965,1,0,0:0:0:0:
256,192,105965,1,0,0:0:0:0:
182,192,105965,1,0,0:0:0:0:
109,192,105965,1,0,0:0:0:0:
256,192,106071,1,0,0:0:0:0:
329,192,106178,1,0,0:0:0:0:
36,192,106178,1,0,0:0:0:0:
182,192,106178,1,0,0:0:0:0:
256,192,106285,1,0,0:0:0:0:
402,192,106285,1,0,0:0:0:0:
475,192,106285,1,0,0:0:0:0:
109,192,106285,1,0,0:0:0:0:
36,192,106285,1,0,0:0:0:0:
182,192,106392,1,0,0:0:0:0:
329,192,106392,1,0,0:0:0:0:
402,192,106392,1,0,0:0:0:0:
475,192,106392,1,0,0:0:0:0:
256,192,106498,1,0,0:0:0:0:
109,192,106498,1,0,0:0:0:0:
402,192,106552,1,0,0:0:0:0:
109,192,106605,1,0,0:0:0:0:
256,192,106605,1,0,0:0:0:0:
402,192,106659,1,0,0:0:0:0:
182,192,106712,1,0,0:0:0:0:
36,192,106712,1,0,0:0:0:0:
329,192,106765,1,0,0:0:0:0:
109,192,106819,1,0,0:0:0:0:
475,192,106819,1,0,0:0:0:0:
256,192,106925,1,0,0:0:0:0:
402,192,106925,1,0,0:0:0:0:
109,192,107032,1,0,0:0:0:0:
475,192,107032,1,0,0:0:0:0:
329,192,107032,1,0,0:0:0:0:
182,192,107086,1,0,0:0:0:0:
402,192,107139,1,0,0:0:0:0:
36,192,107139,1,0,0:0:0:0:
329,192,107175,1,0,0:0:0:0:
256,192,107210,1,0,0:0:0:0:
182,192,107246,1,0,0:0:0:0:
109,192,107246,1,0,0:0:0:0:
475,192,107246,1,0,0:0:0:0:
36,192,107246,1,0,0:0:0:0:
329,192,107299,1,0,0:0:0:0:
256,192,107406,1,0,0:0:0:0:
182,192,107433,1,0,0:0:0:0:
109,192,107459,1,0,0:0:0:0:
402,192,107459,1,0,0:0:0:0:
109,192,107566,1,0,0:0:0:0:
256,192,107566,1,0,0:0:0:0:
36,192,107673,1,0,0:0:0:0:
475,192,107673,1,0,0:0:0:0:
182,192,107673,1,0,0:0:0:0:
402,192,107673,1,0,0:0:0:0:
329,192,107673,1,0,0:0:0:0:
256,192,107780,1,0,0:0:0:0:
182,192,107886,1,0,0:0:0:0:
475,192,107886,1,0,0:0:0:0:
329,192,107886,1,0,0:0:0:0:
256,192,107993,1,0,0:0:0:0:
109,192,107993,1,0,0:0:0:0:
36,192,107993,1,0,0:0:0:0:
402,192,107993,1,0,0:0:0:0:
475,192,107993,1,0,0:0:0:0:
329,192,108100,1,0,0:0:0:0:
182,192,108100,1,0,0:0:0:0:
109,192,108100,1,0,0:0:0:0:
36,192,108100,1,0,0:0:0:0:
475,192,108207,1,0,0:0:0:0:
402,192,108207,1,0,0:0:0:0:
109,192,108313,1,0,0:0:0:0:
256,192,108313,1,0,0:0:0:0:
36,192,108340,1,0,0:0:0:0:
182,192,108420,1,0,0:0:0:0:
329,192,108420,1,0,0:0:0:0:
109,192,108447,1,0,0:0:0:0:
36,192,108527,1,0,0:0:0:0:
402,192,108527,1,0,0:0:0:0:
256,192,108527,1,0,0:0:0:0:
475,192,108527,1,0,0:0:0:0:
329,192,108634,1,0,0:0:0:0:
475,192,108634,1,0,0:0:0:0:
256,192,108687,1,0,0:0:0:0:
36,192,108740,1,0,0:0:0:0:
182,192,108740,1,0,0:0:0:0:
329,192,108794,1,0,0:0:0:0:
109,192,108847,1,0,0:0:0:0:
475,192,108847,1,0,0:0:0:0:
402,192,108847,1,0,0:0:0:0:
182,192,108847,1,0,0:0:0:0:
256,192,108847,1,0,0:0:0:0:
402,192,108954,1,0,0:0:0:0:
36,192,108954,1,0,0:0:0:0:
475,192,108954,1,0,0:0:0:0:
256,192,108954,1,0,0:0:0:0:
182,192,109061,1,0,0:0:0:0:
36,192,109061,1,0,0:0:0:0:
329,192,109061,1,0,0:0:0:0:
402,192,109061,1,0,0:0:0:0:
256,192,109114,1,0,0:0:0:0:
109,192,109167,1,0,0:0:0:0:
329,192,109167,1,0,0:0:0:0:
475,192,109167,1,0,0:0:0:0:
182,192,109167,1,0,0:0:0:0:
402,192,109274,1,0,0:0:0:0:
256,192,109274,1,0,0:0:0:0:
109,192,109274,1,0,0:0:0:0:
36,192,109274,1,0,0:0:0:0:
475,192,109381,1,0,0:0:0:0:
329,192,109381,1,0,0:0:0:0:
182,192,109381,1,0,0:0:0:0:
36,192,109381,1,0,0:0:0:0:
256,192,109434,1,0,0:0:0:0:
402,192,109488,1,0,0:0:0:0:
109,192,109488,1,0,0:0:0:0:
329,192,109541,1,0,0:0:0:0:
182,192,109594,1,0,0:0:0:0:
256,192,109594,1,0,0:0:0:0:
475,192,109594,1,0,0:0:0:0:
36,192,109594,1,0,0:0:0:0:
329,192,109648,1,0,0:0:0:0:
402,192,109701,1,0,0:0:0:0:
109,192,109701,1,0,0:0:0:0:
182,192,109755,1,0,0:0:0:0:
256,192,109808,1,0,0:0:0:0:
329,192,109808,1,0,0:0:0:0:
475,192,109808,1,0,0:0:0:0:
402,192,109808,1,0,0:0:0:0:
109,192,109861,1,0,0:0:0:0:
36,192,109861,1,0,0:0:0:0:
475,192,109915,1,0,0:0:0:0:
182,192,109915,1,0,0:0:0:0:
329,192,109968,1,0,0:0:0:0:
36,192,110022,1,0,0:0:0:0:
109,192,110022,1,0,0:0:0:0:
256,192,110022,1,0,0:0:0:0:
182,192,110022,1,0,0:0:0:0:
402,192,110075,1,0,0:0:0:0:
475,192,110075,1,0,0:0:0:0:
36,192,110128,1,0,0:0:0:0:
329,192,110128,1,0,0:0:0:0:
182,192,110182,1,0,0:0:0:0:
329,192,110235,1,0,0:0:0:0:
256,192,110235,1,0,0:0:0:0:
402,192,110235,1,0,0:0:0:0:
475,192,110235,1,0,0:0:0:0:
182,192,110288,1,0,0:0:0:0:
109,192,110342,1,0,0:0:0:0:
402,192,110342,1,0,0:0:0:0:
256,192,110395,1,0,0:0:0:0:
182,192,110449,1,0,0:0:0:0:
36,192,110449,1,0,0:0:0:0:
329,192,110449,1,0,0:0:0:0:
475,192,110449,1,0,0:0:0:0:
402,192,110502,1,0,0:0:0:0:
256,192,110555,1,0,0:0:0:0:
109,192,110555,1,0,0:0:0:0:
475,192,110609,1,0,0:0:0:0:
182,192,110662,1,0,0:0:0:0:
36,192,110662,1,0,0:0:0:0:
329,192,110662,1,0,0:0:0:0:
256,192,110698,1,0,0:0:0:0:
402,192,110733,1,0,0:0:0:0:
109,192,110769,1,0,0:0:0:0:
475,192,110769,1,0,0:0:0:0:
182,192,110804,1,0,0:0:0:0:
329,192,110840,1,0,0:0:0:0:
36,192,110876,1,0,0:0:0:0:
402,192,110876,1,0,0:0:0:0:
256,192,110876,1,0,0:0:0:0:
109,192,110911,1,0,0:0:0:0:
182,192,110947,1,0,0:0:0:0:
329,192,110982,1,0,0:0:0:0:
475,192,110982,1,0,0:0:0:0:
256,192,111018,1,0,0:0:0:0:
182,192,111054,1,0,0:0:0:0:
36,192,111089,1,0,0:0:0:0:
109,192,111089,1,0,0:0:0:0:
475,192,111089,1,0,0:0:0:0:
402,192,111089,1,0,0:0:0:0:
329,192,111089,1,0,0:0:0:0:
256,192,111409,1,0,0:0:0:0:
329,192,111730,1,0,0:0:0:0:
475,192,111943,1,0,0:0:0:0:
182,192,111943,1,0,0:0:0:0:
109,192,111970,1,0,0:0:0:0:
329,192,112050,1,0,0:0:0:0:
402,192,112077,1,0,0:0:0:0:
182,192,112157,1,0,0:0:0:0:
256,192,112210,1,0,0:0:0:0:
109,192,112264,1,0,0:0:0:0:
36,192,112281,1,0,0:0:0:0:
402,192,112317,1,0,0:0:0:0:
329,192,112335,1,0,0:0:0:0:
182,192,112424,1,0,0:0:0:0:
256,192,112441,1,0,0:0:0:0:
475,192,112477,1,0,0:0:0:0:
402,192,112504,1,0,0:0:0:0:
182,192,112584,1,0,0:0:0:0:
329,192,112584,1,0,0:0:0:0:
109,192,112637,1,0,0:0:0:0:
36,192,112637,1,0,0:0:0:0:
256,192,112691,1,0,0:0:0:0:
402,192,112691,1,0,0:0:0:0:
182,192,112744,1,0,0:0:0:0:
329,192,112744,1,0,0:0:0:0:
475,192,112797,1,0,0:0:0:0:
36,192,112797,1,0,0:0:0:0:
109,192,112797,1,0,0:0:0:0:
402,192,112851,1,0,0:0:0:0:
329,192,112877,1,0,0:0:0:0:
256,192,112904,1,0,0:0:0:0:
182,192,112931,1,0,0:0:0:0:
109,192,112957,1,0,0:0:0:0:
36,192,112984,1,0,0:0:0:0:
329,192,113011,1,0,0:0:0:0:
402,192,113038,1,0,0:0:0:0:
475,192,113064,1,0,0:0:0:0:
109,192,113091,1,0,0:0:0:0:
182,192,113118,1,0,0:0:0:0:
256,192,113144,1,0,0:0:0:0:
329,192,113171,1,0,0:0:0:0:
402,192,113198,1,0,0:0:0:0:
182,192,113224,1,0,0:0:0:0:
36,192,113224,1,0,0:0:0:0:
475,192,113224,1,0,0:0:0:0:
109,192,113224,1,0,0:0:0:0:
329,192,113438,1,0,0:0:0:0:
182,192,113438,1,0,0:0:0:0:
402,192,113456,1,0,0:0:0:0:
475,192,113474,1,0,0:0:0:0:
256,192,113545,1,0,0:0:0:0:
109,192,113545,1,0,0:0:0:0:
329,192,113562,1,0,0:0:0:0:
402,192,113580,1,0,0:0:0:0:
475,192,113651,1,0,0:0:0:0:
182,192,113651,1,0,0:0:0:0:
36,192,113651,1,0,0:0:0:0:
109,192,113758,1,0,0:0:0:0:
256,192,113758,1,0,0:0:0:0:
402,192,113812,1,0,0:0:0:0:
475,192,113812,1,0,0:0:0:0:
182,192,113865,1,0,0:0:0:0:
329,192,113865,1,0,0:0:0:0:
109,192,113883,1,0,0:0:0:0:
36,192,113901,1,0,0:0:0:0:
256,192,113972,1,0,0:0:0:0:
402,192,113972,1,0,0:0:0:0:
182,192,113990,1,0,0:0:0:0:
109,192,114007,1,0,0:0:0:0:
36,192,114078,1,0,0:0:0:0:
329,192,114078,1,0,0:0:0:0:
475,192,114078,1,0,0:0:0:0:
256,192,114114,1,0,0:0:0:0:
109,192,114150,1,0,0:0:0:0:
402,192,114185,1,0,0:0:0:0:
182,192,114221,1,0,0:0:0:0:
256,192,114256,1,0,0:0:0:0:
475,192,114292,1,0,0:0:0:0:
402,192,114319,1,0,0:0:0:0:
329,192,114345,1,0,0:0:0:0:
182,192,114372,1,0,0:0:0:0:
36,192,114399,1,0,0:0:0:0:
109,192,114425,1,0,0:0:0:0:
256,192,114452,1,0,0:0:0:0:
329,192,114479,1,0,0:0:0:0:
402,192,114506,1,0,0:0:0:0:
475,192,114506,1,0,0:0:0:0:
182,192,114559,1,0,0:0:0:0:
329,192,114612,1,0,0:0:0:0:
475,192,114648,1,0,0:0:0:0:
109,192,114683,1,0,0:0:0:0:
256,192,114719,1,0,0:0:0:0:
402,192,114755,1,0,0:0:0:0:
36,192,114790,1,0,0:0:0:0:
182,192,114826,1,0,0:0:0:0:
329,192,114861,1,0,0:0:0:0:
475,192,114897,1,0,0:0:0:0:
109,192,114933,1,0,0:0:0:0:
256,192,114933,1,0,0:0:0:0:
36,192,114933,1,0,0:0:0:0:
256,192,115146,1,0,0:0:0:0:
402,192,115146,1,0,0:0:0:0:
109,192,115164,1,0,0:0:0:0:
36,192,115182,1,0,0:0:0:0:
329,192,115253,1,0,0:0:0:0:
182,192,115253,1,0,0:0:0:0:
402,192,115271,1,0,0:0:0:0:
475,192,115288,1,0,0:0:0:0:
256,192,115360,1,0,0:0:0:0:
109,192,115360,1,0,0:0:0:0:
36,192,115360,1,0,0:0:0:0:
182,192,115466,1,0,0:0:0:0:
329,192,115466,1,0,0:0:0:0:
402,192,115520,1,0,0:0:0:0:
475,192,115520,1,0,0:0:0:0:
109,192,115573,1,0,0:0:0:0:
256,192,115573,1,0,0:0:0:0:
36,192,115591,1,0,0:0:0:0:
182,192,115680,1,0,0:0:0:0:
329,192,115680,1,0,0:0:0:0:
109,192,115698,1,0,0:0:0:0:
256,192,115787,1,0,0:0:0:0:
402,192,115787,1,0,0:0:0:0:
36,192,115787,1,0,0:0:0:0:
182,192,115822,1,0,0:0:0:0:
329,192,115893,1,0,0:0:0:0:
475,192,115893,1,0,0:0:0:0:
256,192,115929,1,0,0:0:0:0:
36,192,116000,1,0,0:0:0:0:
109,192,116027,1,0,0:0:0:0:
182,192,116054,1,0,0:0:0:0:
256,192,116080,1,0,0:0:0:0:
475,192,116107,1,0,0:0:0:0:
402,192,116134,1,0,0:0:0:0:
329,192,116160,1,0,0:0:0:0:
256,192,116187,1,0,0:0:0:0:
36,192,116214,1,0,0:0:0:0:
182,192,116214,1,0,0:0:0:0:
109,192,116214,1,0,0:0:0:0:
329,192,116267,1,0,0:0:0:0:
402,192,116294,1,0,0:0:0:0:
475,192,116320,1,0,0:0:0:0:
182,192,116347,1,0,0:0:0:0:
256,192,116374,1,0,0:0:0:0:
329,192,116401,1,0,0:0:0:0:
36,192,116427,1,0,0:0:0:0:
109,192,116463,1,0,0:0:0:0:
182,192,116498,1,0,0:0:0:0:
256,192,116534,1,0,0:0:0:0:
329,192,116570,1,0,0:0:0:0:
402,192,116605,1,0,0:0:0:0:
475,192,116641,1,0,0:0:0:0:
109,192,116641,1,0,0:0:0:0:
36,192,116641,1,0,0:0:0:0:
256,192,116641,1,0,0:0:0:0:
109,192,116854,1,0,0:0:0:0:
256,192,116854,1,0,0:0:0:0:
402,192,116872,1,0,0:0:0:0:
475,192,116890,1,0,0:0:0:0:
182,192,116961,1,0,0:0:0:0:
329,192,116961,1,0,0:0:0:0:
109,192,116979,1,0,0:0:0:0:
36,192,116997,1,0,0:0:0:0:
402,192,117068,1,0,0:0:0:0:
256,192,117068,1,0,0:0:0:0:
475,192,117068,1,0,0:0:0:0:
329,192,117175,1,0,0:0:0:0:
182,192,117175,1,0,0:0:0:0:
36,192,117228,1,0,0:0:0:0:
402,192,117281,1,0,0:0:0:0:
256,192,117281,1,0,0:0:0:0:
182,192,117299,1,0,0:0:0:0:
109,192,117317,1,0,0:0:0:0:
475,192,117388,1,0,0:0:0:0:
329,192,117388,1,0,0:0:0:0:
256,192,117406,1,0,0:0:0:0:
182,192,117424,1,0,0:0:0:0:
109,192,117495,1,0,0:0:0:0:
402,192,117495,1,0,0:0:0:0:
36,192,117495,1,0,0:0:0:0:
256,192,117530,1,0,0:0:0:0:
475,192,117566,1,0,0:0:0:0:
329,192,117602,1,0,0:0:0:0:
182,192,117637,1,0,0:0:0:0:
402,192,117673,1,0,0:0:0:0:
36,192,117708,1,0,0:0:0:0:
109,192,117735,1,0,0:0:0:0:
256,192,117762,1,0,0:0:0:0:
329,192,117788,1,0,0:0:0:0:
475,192,117815,1,0,0:0:0:0:
402,192,117842,1,0,0:0:0:0:
256,192,117869,1,0,0:0:0:0:
182,192,117895,1,0,0:0:0:0:
109,192,117922,1,0,0:0:0:0:
36,192,117922,1,0,0:0:0:0:
329,192,117957,1,0,0:0:0:0:
182,192,117993,1,0,0:0:0:0:
402,192,118029,1,0,0:0:0:0:
256,192,118064,1,0,0:0:0:0:
475,192,118100,1,0,0:0:0:0:
329,192,118135,1,0,0:0:0:0:
182,192,118135,1,0,0:0:0:0:
109,192,118153,1,0,0:0:0:0:
36,192,118171,1,0,0:0:0:0:
256,192,118242,1,0,0:0:0:0:
402,192,118242,1,0,0:0:0:0:
182,192,118260,1,0,0:0:0:0:
109,192,118278,1,0,0:0:0:0:
329,192,118349,1,0,0:0:0:0:
182,192,118349,1,0,0:0:0:0:
36,192,118349,1,0,0:0:0:0:
402,192,118367,1,0,0:0:0:0:
475,192,118385,1,0,0:0:0:0:
256,192,118456,1,0,0:0:0:0:
109,192,118456,1,0,0:0:0:0:
329,192,118491,1,0,0:0:0:0:
475,192,118527,1,0,0:0:0:0:
182,192,118562,1,0,0:0:0:0:
109,192,118598,1,0,0:0:0:0:
36,192,118634,1,0,0:0:0:0:
475,192,118669,1,0,0:0:0:0:
329,192,118669,1,0,0:0:0:0:
256,192,118687,1,0,0:0:0:0:
182,192,118705,1,0,0:0:0:0:
36,192,118776,1,0,0:0:0:0:
109,192,118776,1,0,0:0:0:0:
402,192,118776,1,0,0:0:0:0:
256,192,118829,1,0,0:0:0:0:
475,192,118829,1,0,0:0:0:0:
329,192,118883,1,0,0:0:0:0:
182,192,118883,1,0,0:0:0:0:
109,192,118901,1,0,0:0:0:0:
36,192,118918,1,0,0:0:0:0:
256,192,118990,1,0,0:0:0:0:
402,192,118990,1,0,0:0:0:0:
182,192,119007,1,0,0:0:0:0:
109,192,119025,1,0,0:0:0:0:
329,192,119096,1,0,0:0:0:0:
475,192,119096,1,0,0:0:0:0:
256,192,119150,1,0,0:0:0:0:
109,192,119150,1,0,0:0:0:0:
475,192,119203,1,0,0:0:0:0:
182,192,119203,1,0,0:0:0:0:
36,192,119203,1,0,0:0:0:0:
402,192,119221,1,0,0:0:0:0:
329,192,119239,1,0,0:0:0:0:
256,192,119310,1,0,0:0:0:0:
109,192,119310,1,0,0:0:0:0:
329,192,119345,1,0,0:0:0:0:
402,192,119381,1,0,0:0:0:0:
475,192,119417,1,0,0:0:0:0:
36,192,119417,1,0,0:0:0:0:
182,192,119443,1,0,0:0:0:0:
329,192,119470,1,0,0:0:0:0:
109,192,119497,1,0,0:0:0:0:
256,192,119523,1,0,0:0:0:0:
402,192,119550,1,0,0:0:0:0:
182,192,119577,1,0,0:0:0:0:
36,192,119630,1,0,0:0:0:0:
329,192,119630,1,0,0:0:0:0:
475,192,119630,1,0,0:0:0:0:
109,192,119683,1,0,0:0:0:0:
182,192,119710,1,0,0:0:0:0:
256,192,119737,1,0,0:0:0:0:
329,192,119764,1,0,0:0:0:0:
402,192,119790,1,0,0:0:0:0:
475,192,119817,1,0,0:0:0:0:
256,192,119844,1,0,0:0:0:0:
182,192,119870,1,0,0:0:0:0:
109,192,119897,1,0,0:0:0:0:
36,192,119924,1,0,0:0:0:0:
402,192,119950,1,0,0:0:0:0:
329,192,119977,1,0,0:0:0:0:
182,192,120004,1,0,0:0:0:0:
109,192,120030,1,0,0:0:0:0:
256,192,120057,1,0,0:0:0:0:
475,192,120057,1,0,0:0:0:0:
36,192,120057,1,0,0:0:0:0:
402,192,120057,1,0,0:0:0:0:
182,192,120271,1,0,0:0:0:0:
329,192,120271,1,0,0:0:0:0:
109,192,120288,1,0,0:0:0:0:
36,192,120306,1,0,0:0:0:0:
256,192,120377,1,0,0:0:0:0:
402,192,120377,1,0,0:0:0:0:
182,192,120395,1,0,0:0:0:0:
109,192,120413,1,0,0:0:0:0:
36,192,120484,1,0,0:0:0:0:
329,192,120484,1,0,0:0:0:0:
475,192,120484,1,0,0:0:0:0:
402,192,120591,1,0,0:0:0:0:
256,192,120591,1,0,0:0:0:0:
109,192,120644,1,0,0:0:0:0:
36,192,120644,1,0,0:0:0:0:
329,192,120698,1,0,0:0:0:0:
182,192,120698,1,0,0:0:0:0:
402,192,120715,1,0,0:0:0:0:
475,192,120733,1,0,0:0:0:0:
256,192,120804,1,0,0:0:0:0:
109,192,120804,1,0,0:0:0:0:
329,192,120822,1,0,0:0:0:0:
402,192,120840,1,0,0:0:0:0:
475,192,120911,1,0,0:0:0:0:
182,192,120911,1,0,0:0:0:0:
36,192,120911,1,0,0:0:0:0:
329,192,120947,1,0,0:0:0:0:
256,192,120982,1,0,0:0:0:0:
109,192,121018,1,0,0:0:0:0:
402,192,121054,1,0,0:0:0:0:
329,192,121089,1,0,0:0:0:0:
36,192,121125,1,0,0:0:0:0:
109,192,121151,1,0,0:0:0:0:
182,192,121178,1,0,0:0:0:0:
475,192,121205,1,0,0:0:0:0:
402,192,121232,1,0,0:0:0:0:
329,192,121258,1,0,0:0:0:0:
256,192,121285,1,0,0:0:0:0:
182,192,121312,1,0,0:0:0:0:
109,192,121338,1,0,0:0:0:0:
36,192,121338,1,0,0:0:0:0:
475,192,121338,1,0,0:0:0:0:
329,192,121392,1,0,0:0:0:0:
182,192,121445,1,0,0:0:0:0:
36,192,121481,1,0,0:0:0:0:
402,192,121516,1,0,0:0:0:0:
256,192,121552,1,0,0:0:0:0:
109,192,121587,1,0,0:0:0:0:
475,192,121623,1,0,0:0:0:0:
329,192,121659,1,0,0:0:0:0:
182,192,121694,1,0,0:0:0:0:
36,192,121730,1,0,0:0:0:0:
402,192,121765,1,0,0:0:0:0:
256,192,121765,1,0,0:0:0:0:
475,192,121765,1,0,0:0:0:0:
109,192,121765,1,0,0:0:0:0:
256,192,121979,1,0,0:0:0:0:
109,192,121979,1,0,0:0:0:0:
402,192,121997,1,0,0:0:0:0:
475,192,122014,1,0,0:0:0:0:
182,192,122086,1,0,0:0:0:0:
329,192,122086,1,0,0:0:0:0:
109,192,122103,1,0,0:0:0:0:
36,192,122121,1,0,0:0:0:0:
256,192,122192,1,0,0:0:0:0:
402,192,122192,1,0,0:0:0:0:
475,192,122192,1,0,0:0:0:0:
182,192,122299,1,0,0:0:0:0:
329,192,122299,1,0,0:0:0:0:
109,192,122353,1,0,0:0:0:0:
36,192,122353,1,0,0:0:0:0:
402,192,122406,1,0,0:0:0:0:
475,192,122406,1,0,0:0:0:0:
329,192,122424,1,0,0:0:0:0:
256,192,122441,1,0,0:0:0:0:
36,192,122513,1,0,0:0:0:0:
182,192,122513,1,0,0:0:0:0:
329,192,122530,1,0,0:0:0:0:
402,192,122548,1,0,0:0:0:0:
256,192,122619,1,0,0:0:0:0:
475,192,122619,1,0,0:0:0:0:
109,192,122619,1,0,0:0:0:0:
109,192,122726,1,0,0:0:0:0:
256,192,122726,1,0,0:0:0:0:
36,192,122833,1,0,0:0:0:0:
109,192,122860,1,0,0:0:0:0:
182,192,122886,1,0,0:0:0:0:
329,192,122913,1,0,0:0:0:0:
475,192,122940,1,0,0:0:0:0:
402,192,122966,1,0,0:0:0:0:
256,192,122993,1,0,0:0:0:0:
182,192,123020,1,0,0:0:0:0:
109,192,123046,1,0,0:0:0:0:
36,192,123046,1,0,0:0:0:0:
475,192,123046,1,0,0:0:0:0:
329,192,123046,1,0,0:0:0:0:
402,192,123100,1,0,0:0:0:0:
256,192,123153,1,0,0:0:0:0:
329,192,123207,1,0,0:0:0:0:
182,192,123260,1,0,0:0:0:0:
256,192,123313,1,0,0:0:0:0:
475,192,123367,1,0,0:0:0:0:
36,192,123367,1,0,0:0:0:0:
109,192,123367,1,0,0:0:0:0:
402,192,123367,1,0,0:0:0:0:
329,192,123393,1,0,0:0:0:0:
256,192,123420,1,0,0:0:0:0:
182,192,123447,1,0,0:0:0:0:
109,192,123474,1,0,0:0:0:0:
329,192,123580,1,0,0:0:0:0:
475,192,123580,1,0,0:0:0:0:
36,192,123580,1,0,0:0:0:0:
402,192,123598,1,0,0:0:0:0:
402,192,123687,1,0,0:0:0:0:
109,192,123687,1,0,0:0:0:0:
329,192,123705,1,0,0:0:0:0:
475,192,123705,1,0,0:0:0:0:
329,192,123794,1,0,0:0:0:0:
475,192,123794,1,0,0:0:0:0:
182,192,123794,1,0,0:0:0:0:
402,192,123812,1,0,0:0:0:0:
256,192,123901,1,0,0:0:0:0:
182,192,123901,1,0,0:0:0:0:
36,192,123901,1,0,0:0:0:0:
109,192,123901,1,0,0:0:0:0:
475,192,123954,1,0,0:0:0:0:
402,192,123981,1,0,0:0:0:0:
329,192,124007,1,0,0:0:0:0:
182,192,124114,1,0,0:0:0:0:
329,192,124114,1,0,0:0:0:0:
256,192,124132,1,0,0:0:0:0:
36,192,124221,1,0,0:0:0:0:
109,192,124221,1,0,0:0:0:0:
475,192,124221,1,0,0:0:0:0:
402,192,124221,1,0,0:0:0:0:
329,192,124248,1,0,0:0:0:0:
256,192,124274,1,0,0:0:0:0:
182,192,124301,1,0,0:0:0:0:
109,192,124328,1,0,0:0:0:0:
256,192,124434,1,0,0:0:0:0:
402,192,124434,1,0,0:0:0:0:
36,192,124488,1,0,0:0:0:0:
109,192,124488,1,0,0:0:0:0:
329,192,124541,1,0,0:0:0:0:
475,192,124541,1,0,0:0:0:0:
256,192,124559,1,0,0:0:0:0:
182,192,124577,1,0,0:0:0:0:
402,192,124648,1,0,0:0:0:0:
109,192,124648,1,0,0:0:0:0:
329,192,124666,1,0,0:0:0:0:
256,192,124683,1,0,0:0:0:0:
182,192,124755,1,0,0:0:0:0:
402,192,124755,1,0,0:0:0:0:
36,192,124755,1,0,0:0:0:0:
475,192,124755,1,0,0:0:0:0:
256,192,124915,1,0,0:0:0:0:
109,192,124915,1,0,0:0:0:0:
329,192,124915,1,0,0:0:0:0:
475,192,124915,1,0,0:0:0:0:
402,192,124915,1,0,0:0:0:0:
182,192,125075,1,0,0:0:0:0:
36,192,125075,1,0,0:0:0:0:
402,192,125075,1,0,0:0:0:0:
329,192,125075,1,0,0:0:0:0:
256,192,125182,1,0,0:0:0:0:
402,192,125182,1,0,0:0:0:0:
475,192,125182,1,0,0:0:0:0:
109,192,125182,1,0,0:0:0:0:
36,192,125182,1,0,0:0:0:0:
329,192,125342,1,0,0:0:0:0:
182,192,125342,1,0,0:0:0:0:
475,192,125342,1,0,0:0:0:0:
36,192,125342,1,0,0:0:0:0:
256,192,125342,1,0,0:0:0:0:
256,192,125502,1,0,0:0:0:0:
182,192,125502,1,0,0:0:0:0:
329,192,125502,1,0,0:0:0:0:
402,192,125502,1,0,0:0:0:0:
109,192,125502,1,0,0:0:0:0:
329,192,125609,1,0,0:0:0:0:
402,192,125609,1,0,0:0:0:0:
475,192,125609,1,0,0:0:0:0:
109,192,125609,1,0,0:0:0:0:
182,192,125609,1,0,0:0:0:0:
36,192,125609,1,0,0:0:0:0:
256,192,125715,1,0,0:0:0:0:
329,192,125822,1,0,0:0:0:0:
182,192,125929,1,0,0:0:0:0:
329,192,126036,1,0,0:0:0:0:
402,192,126143,1,0,0:0:0:0:
109,192,126249,1,0,0:0:0:0:
182,192,126303,1,0,0:0:0:0:
256,192,126356,1,0,0:0:0:0:
329,192,126409,1,0,0:0:0:0:
182,192,126463,1,0,0:0:0:0:
402,192,126463,1,0,0:0:0:0:
475,192,126463,1,0,0:0:0:0:
36,192,126463,1,0,0:0:0:0:
109,192,126463,1,0,0:0:0:0:
329,192,126570,1,0,0:0:0:0:
182,192,126676,1,0,0:0:0:0:
36,192,126676,1,0,0:0:0:0:
256,192,126783,1,0,0:0:0:0:
402,192,126783,1,0,0:0:0:0:
329,192,126890,1,0,0:0:0:0:
182,192,126997,1,0,0:0:0:0:
36,192,126997,1,0,0:0:0:0:
329,192,127103,1,0,0:0:0:0:
475,192,127103,1,0,0:0:0:0:
256,192,127210,1,0,0:0:0:0:
182,192,127264,1,0,0:0:0:0:
36,192,127264,1,0,0:0:0:0:
109,192,127317,1,0,0:0:0:0:
402,192,127317,1,0,0:0:0:0:
256,192,127424,1,0,0:0:0:0:
475,192,127424,1,0,0:0:0:0:
109,192,127584,1,0,0:0:0:0:
329,192,127637,1,0,0:0:0:0:
475,192,127637,1,0,0:0:0:0:
182,192,127691,1,0,0:0:0:0:
36,192,127744,1,0,0:0:0:0:
402,192,127744,1,0,0:0:0:0:
256,192,127797,1,0,0:0:0:0:
109,192,127851,1,0,0:0:0:0:
329,192,127851,1,0,0:0:0:0:
475,192,127904,1,0,0:0:0:0:
256,192,127957,1,0,0:0:0:0:
182,192,128064,1,0,0:0:0:0:
329,192,128064,1,0,0:0:0:0:
36,192,128171,1,0,0:0:0:0:
475,192,128171,1,0,0:0:0:0:
256,192,128171,1,0,0:0:0:0:
329,192,128385,1,0,0:0:0:0:
256,192,128385,1,0,0:0:0:0:
182,192,128385,1,0,0:0:0:0:
182,192,128491,1,0,0:0:0:0:
329,192,128491,1,0,0:0:0:0:
256,192,128491,1,0,0:0:0:0:
402,192,128545,1,0,0:0:0:0:
475,192,128545,1,0,0:0:0:0:
36,192,128598,1,0,0:0:0:0:
109,192,128598,1,0,0:0:0:0:
256,192,128651,1,0,0:0:0:0:
182,192,128705,1,0,0:0:0:0:
329,192,128705,1,0,0:0:0:0:
256,192,128812,1,0,0:0:0:0:
109,192,128812,1,0,0:0:0:0:
329,192,128918,1,0,0:0:0:0:
475,192,128918,1,0,0:0:0:0:
182,192,128972,1,0,0:0:0:0:
36,192,129025,1,0,0:0:0:0:
256,192,129025,1,0,0:0:0:0:
329,192,129132,1,0,0:0:0:0:
109,192,129132,1,0,0:0:0:0:
402,192,129239,1,0,0:0:0:0:
182,192,129239,1,0,0:0:0:0:
36,192,129292,1,0,0:0:0:0:
256,192,129345,1,0,0:0:0:0:
475,192,129345,1,0,0:0:0:0:
329,192,129452,1,0,0:0:0:0:
109,192,129452,1,0,0:0:0:0:
182,192,129506,1,0,0:0:0:0:
329,192,129559,1,0,0:0:0:0:
475,192,129559,1,0,0:0:0:0:
182,192,129612,1,0,0:0:0:0:
109,192,129666,1,0,0:0:0:0:
402,192,129666,1,0,0:0:0:0:
109,192,129772,1,0,0:0:0:0:
402,192,129772,1,0,0:0:0:0:
182,192,129879,1,0,0:0:0:0:
256,192,129879,1,0,0:0:0:0:
329,192,129879,1,0,0:0:0:0:
109,192,129933,1,0,0:0:0:0:
36,192,129933,1,0,0:0:0:0:
402,192,129986,1,0,0:0:0:0:
475,192,129986,1,0,0:0:0:0:
329,192,130039,1,0,0:0:0:0:
182,192,130039,1,0,0:0:0:0:
109,192,130093,1,0,0:0:0:0:
36,192,130093,1,0,0:0:0:0:
256,192,130093,1,0,0:0:0:0:
402,192,130146,1,0,0:0:0:0:
475,192,130146,1,0,0:0:0:0:
109,192,130199,1,0,0:0:0:0:
36,192,130199,1,0,0:0:0:0:
182,192,130253,1,0,0:0:0:0:
329,192,130253,1,0,0:0:0:0:
402,192,130306,1,0,0:0:0:0:
475,192,130306,1,0,0:0:0:0:
256,192,130360,1,0,0:0:0:0:
109,192,130360,1,0,0:0:0:0:
329,192,130413,1,0,0:0:0:0:
402,192,130413,1,0,0:0:0:0:
36,192,130466,1,0,0:0:0:0:
182,192,130466,1,0,0:0:0:0:
256,192,130520,1,0,0:0:0:0:
329,192,130520,1,0,0:0:0:0:
402,192,130573,1,0,0:0:0:0:
475,192,130573,1,0,0:0:0:0:
256,192,130627,1,0,0:0:0:0:
182,192,130627,1,0,0:0:0:0:
109,192,130680,1,0,0:0:0:0:
36,192,130680,1,0,0:0:0:0:
402,192,130733,1,0,0:0:0:0:
475,192,130733,1,0,0:0:0:0:
329,192,130787,1,0,0:0:0:0:
182,192,130787,1,0,0:0:0:0:
109,192,130840,1,0,0:0:0:0:
36,192,130840,1,0,0:0:0:0:
256,192,130893,1,0,0:0:0:0:
402,192,130893,1,0,0:0:0:0:
182,192,130947,1,0,0:0:0:0:
109,192,130947,1,0,0:0:0:0:
329,192,131000,1,0,0:0:0:0:
475,192,131000,1,0,0:0:0:0:
256,192,131054,1,0,0:0:0:0:
182,192,131054,1,0,0:0:0:0:
109,192,131107,1,0,0:0:0:0:
36,192,131107,1,0,0:0:0:0:
256,192,131160,1,0,0:0:0:0:
329,192,131160,1,0,0:0:0:0:
402,192,131214,1,0,0:0:0:0:
475,192,131214,1,0,0:0:0:0:
109,192,131267,1,0,0:0:0:0:
182,192,131267,1,0,0:0:0:0:
256,192,131320,1,0,0:0:0:0:
329,192,131320,1,0,0:0:0:0:
402,192,131374,1,0,0:0:0:0:
475,192,131374,1,0,0:0:0:0:
36,192,131427,1,0,0:0:0:0:
109,192,131427,1,0,0:0:0:0:
182,192,131481,1,0,0:0:0:0:
329,192,131481,1,0,0:0:0:0:
475,192,131534,1,0,0:0:0:0:
402,192,131534,1,0,0:0:0:0:
36,192,131587,1,0,0:0:0:0:
109,192,131587,1,0,0:0:0:0:
256,192,131587,1,0,0:0:0:0:
182,192,131587,1,0,0:0:0:0:
182,192,133082,1,0,0:0:0:0:
256,192,133082,1,0,0:0:0:0:
329,192,133082,1,0,0:0:0:0:
402,192,133082,1,0,0:0:0:0:
109,192,133082,1,0,0:0:0:0:
36,192,133296,5,0,0:0:0:0:
329,192,133296,1,0,0:0:0:0:
182,192,133296,1,0,0:0:0:0:
109,192,133296,1,0,0:0:0:0:
475,192,133296,1,0,0:0:0:0:
402,192,133349,1,0,0:0:0:0:
256,192,133402,1,0,0:0:0:0:
36,192,133456,1,0,0:0:0:0:
109,192,133509,1,0,0:0:0:0:
475,192,133509,1,0,0:0:0:0:
402,192,133509,1,0,0:0:0:0:
329,192,133562,1,0,0:0:0:0:
182,192,133616,1,0,0:0:0:0:
109,192,133669,1,0,0:0:0:0:
329,192,133723,1,0,0:0:0:0:
402,192,133723,1,0,0:0:0:0:
256,192,133723,1,0,0:0:0:0:
475,192,133723,1,0,0:0:0:0:
36,192,133723,1,0,0:0:0:0:
182,192,133776,1,0,0:0:0:0:
329,192,133829,1,0,0:0:0:0:
475,192,133883,1,0,0:0:0:0:
109,192,133936,1,0,0:0:0:0:
256,192,133936,1,0,0:0:0:0:
36,192,133936,1,0,0:0:0:0:
402,192,133990,1,0,0:0:0:0:
182,192,134043,1,0,0:0:0:0:
256,192,134096,1,0,0:0:0:0:
329,192,134150,1,0,0:0:0:0:
109,192,134150,1,0,0:0:0:0:
36,192,134150,1,0,0:0:0:0:
475,192,134150,1,0,0:0:0:0:
402,192,134150,1,0,0:0:0:0:
182,192,134203,1,0,0:0:0:0:
256,192,134256,1,0,0:0:0:0:
475,192,134310,1,0,0:0:0:0:
109,192,134363,1,0,0:0:0:0:
36,192,134363,1,0,0:0:0:0:
402,192,134363,1,0,0:0:0:0:
182,192,134417,1,0,0:0:0:0:
329,192,134470,1,0,0:0:0:0:
402,192,134523,1,0,0:0:0:0:
109,192,134577,1,0,0:0:0:0:
36,192,134577,1,0,0:0:0:0:
182,192,134577,1,0,0:0:0:0:
475,192,134577,1,0,0:0:0:0:
256,192,134577,1,0,0:0:0:0:
329,192,134630,1,0,0:0:0:0:
182,192,134683,1,0,0:0:0:0:
36,192,134737,1,0,0:0:0:0:
475,192,134790,1,0,0:0:0:0:
256,192,134790,1,0,0:0:0:0:
402,192,134790,1,0,0:0:0:0:
109,192,134844,1,0,0:0:0:0:
329,192,134897,1,0,0:0:0:0:
256,192,134950,1,0,0:0:0:0:
402,192,135004,1,0,0:0:0:0:
182,192,135004,1,0,0:0:0:0:
109,192,135004,1,0,0:0:0:0:
36,192,135004,1,0,0:0:0:0:
475,192,135004,1,0,0:0:0:0:
329,192,135057,1,0,0:0:0:0:
182,192,135111,1,0,0:0:0:0:
109,192,135164,1,0,0:0:0:0:
256,192,135217,1,0,0:0:0:0:
36,192,135217,1,0,0:0:0:0:
402,192,135217,1,0,0:0:0:0:
475,192,135271,1,0,0:0:0:0:
329,192,135324,1,0,0:0:0:0:
182,192,135377,1,0,0:0:0:0:
109,192,135431,1,0,0:0:0:0:
36,192,135431,1,0,0:0:0:0:
256,192,135431,1,0,0:0:0:0:
402,192,135484,1,0,0:0:0:0:
182,192,135538,1,0,0:0:0:0:
475,192,135591,1,0,0:0:0:0:
329,192,135644,1,0,0:0:0:0:
256,192,135644,1,0,0:0:0:0:
109,192,135644,1,0,0:0:0:0:
36,192,135644,1,0,0:0:0:0:
402,192,135644,1,0,0:0:0:0:
329,192,135751,1,0,0:0:0:0:
402,192,135751,1,0,0:0:0:0:
475,192,135751,1,0,0:0:0:0:
182,192,135751,1,0,0:0:0:0:
256,192,135858,1,0,0:0:0:0:
109,192,135858,1,0,0:0:0:0:
36,192,135858,1,0,0:0:0:0:
402,192,135911,1,0,0:0:0:0:
109,192,135965,1,0,0:0:0:0:
329,192,136018,1,0,0:0:0:0:
182,192,136071,1,0,0:0:0:0:
402,192,136071,1,0,0:0:0:0:
36,192,136071,1,0,0:0:0:0:
475,192,136125,1,0,0:0:0:0:
256,192,136178,1,0,0:0:0:0:
182,192,136232,1,0,0:0:0:0:
475,192,136285,1,0,0:0:0:0:
109,192,136285,1,0,0:0:0:0:
402,192,136285,1,0,0:0:0:0:
329,192,136338,1,0,0:0:0:0:
182,192,136392,1,0,0:0:0:0:
109,192,136445,1,0,0:0:0:0:
475,192,136498,1,0,0:0:0:0:
36,192,136498,1,0,0:0:0:0:
329,192,136498,1,0,0:0:0:0:
402,192,136498,1,0,0:0:0:0:
256,192,136498,1,0,0:0:0:0:
182,192,136552,1,0,0:0:0:0:
329,192,136605,1,0,0:0:0:0:
402,192,136659,1,0,0:0:0:0:
475,192,136712,1,0,0:0:0:0:
182,192,136712,1,0,0:0:0:0:
109,192,136712,1,0,0:0:0:0:
36,192,136712,1,0,0:0:0:0:
256,192,136712,1,0,0:0:0:0:
329,192,136765,1,0,0:0:0:0:
182,192,136819,1,0,0:0:0:0:
109,192,136872,1,0,0:0:0:0:
402,192,136925,1,0,0:0:0:0:
329,192,136925,1,0,0:0:0:0:
36,192,136925,1,0,0:0:0:0:
256,192,136979,1,0,0:0:0:0:
182,192,137032,1,0,0:0:0:0:
329,192,137086,1,0,0:0:0:0:
475,192,137139,1,0,0:0:0:0:
402,192,137139,1,0,0:0:0:0:
256,192,137139,1,0,0:0:0:0:
36,192,137139,1,0,0:0:0:0:
109,192,137139,1,0,0:0:0:0:
182,192,137192,1,0,0:0:0:0:
329,192,137246,1,0,0:0:0:0:
402,192,137299,1,0,0:0:0:0:
36,192,137353,1,0,0:0:0:0:
475,192,137353,1,0,0:0:0:0:
109,192,137353,1,0,0:0:0:0:
256,192,137406,1,0,0:0:0:0:
329,192,137459,1,0,0:0:0:0:
402,192,137513,1,0,0:0:0:0:
36,192,137566,1,0,0:0:0:0:
256,192,137566,1,0,0:0:0:0:
475,192,137566,1,0,0:0:0:0:
109,192,137566,1,0,0:0:0:0:
182,192,137566,1,0,0:0:0:0:
329,192,137619,1,0,0:0:0:0:
402,192,137673,1,0,0:0:0:0:
182,192,137673,1,0,0:0:0:0:
109,192,137726,1,0,0:0:0:0:
329,192,137780,1,0,0:0:0:0:
256,192,137780,1,0,0:0:0:0:
36,192,137780,1,0,0:0:0:0:
402,192,137833,1,0,0:0:0:0:
182,192,137886,1,0,0:0:0:0:
256,192,137940,1,0,0:0:0:0:
36,192,137993,1,0,0:0:0:0:
402,192,137993,1,0,0:0:0:0:
109,192,137993,1,0,0:0:0:0:
475,192,137993,1,0,0:0:0:0:
329,192,137993,1,0,0:0:0:0:
182,192,138046,1,0,0:0:0:0:
256,192,138100,1,0,0:0:0:0:
402,192,138153,1,0,0:0:0:0:
329,192,138207,1,0,0:0:0:0:
36,192,138207,1,0,0:0:0:0:
109,192,138207,1,0,0:0:0:0:
475,192,138260,1,0,0:0:0:0:
256,192,138313,1,0,0:0:0:0:
182,192,138367,1,0,0:0:0:0:
475,192,138420,1,0,0:0:0:0:
109,192,138420,1,0,0:0:0:0:
36,192,138420,1,0,0:0:0:0:
329,192,138420,1,0,0:0:0:0:
402,192,138420,1,0,0:0:0:0:
256,192,138474,1,0,0:0:0:0:
182,192,138527,1,0,0:0:0:0:
402,192,138580,1,0,0:0:0:0:
475,192,138634,1,0,0:0:0:0:
109,192,138634,1,0,0:0:0:0:
256,192,138634,1,0,0:0:0:0:
329,192,138687,1,0,0:0:0:0:
402,192,138740,1,0,0:0:0:0:
256,192,138794,1,0,0:0:0:0:
36,192,138847,1,0,0:0:0:0:
182,192,138847,1,0,0:0:0:0:
475,192,138847,1,0,0:0:0:0:
402,192,138901,1,0,0:0:0:0:
109,192,138954,1,0,0:0:0:0:
329,192,139007,1,0,0:0:0:0:
182,192,139061,1,0,0:0:0:0:
36,192,139061,1,0,0:0:0:0:
475,192,139061,1,0,0:0:0:0:
402,192,139061,1,0,0:0:0:0:
256,192,139061,1,0,0:0:0:0:
329,192,139167,1,0,0:0:0:0:
402,192,139167,1,0,0:0:0:0:
36,192,139167,1,0,0:0:0:0:
109,192,139167,1,0,0:0:0:0:
182,192,139274,1,0,0:0:0:0:
256,192,139274,1,0,0:0:0:0:
475,192,139274,1,0,0:0:0:0:
109,192,139328,1,0,0:0:0:0:
36,192,139381,1,0,0:0:0:0:
329,192,139434,1,0,0:0:0:0:
475,192,139488,1,0,0:0:0:0:
256,192,139488,1,0,0:0:0:0:
109,192,139488,1,0,0:0:0:0:
402,192,139541,1,0,0:0:0:0:
329,192,139594,1,0,0:0:0:0:
182,192,139648,1,0,0:0:0:0:
475,192,139701,1,0,0:0:0:0:
256,192,139701,1,0,0:0:0:0:
329,192,139701,1,0,0:0:0:0:
36,192,139701,1,0,0:0:0:0:
402,192,139701,1,0,0:0:0:0:
109,192,139755,1,0,0:0:0:0:
182,192,139808,1,0,0:0:0:0:
402,192,139861,1,0,0:0:0:0:
109,192,139915,1,0,0:0:0:0:
475,192,139915,1,0,0:0:0:0:
256,192,139915,1,0,0:0:0:0:
329,192,139968,1,0,0:0:0:0:
182,192,140022,1,0,0:0:0:0:
402,192,140075,1,0,0:0:0:0:
329,192,140128,1,0,0:0:0:0:
475,192,140128,1,0,0:0:0:0:
256,192,140128,1,0,0:0:0:0:
36,192,140128,1,0,0:0:0:0:
109,192,140128,1,0,0:0:0:0:
182,192,140182,1,0,0:0:0:0:
475,192,140235,1,0,0:0:0:0:
402,192,140235,1,0,0:0:0:0:
256,192,140235,1,0,0:0:0:0:
109,192,140288,1,0,0:0:0:0:
182,192,140342,1,0,0:0:0:0:
329,192,140342,1,0,0:0:0:0:
475,192,140342,1,0,0:0:0:0:
36,192,140395,1,0,0:0:0:0:
256,192,140449,1,0,0:0:0:0:
475,192,140502,1,0,0:0:0:0:
329,192,140555,1,0,0:0:0:0:
402,192,140555,1,0,0:0:0:0:
36,192,140555,1,0,0:0:0:0:
182,192,140555,1,0,0:0:0:0:
109,192,140555,1,0,0:0:0:0:
256,192,140609,1,0,0:0:0:0:
182,192,140662,1,0,0:0:0:0:
329,192,140715,1,0,0:0:0:0:
402,192,140769,1,0,0:0:0:0:
36,192,140769,1,0,0:0:0:0:
256,192,140769,1,0,0:0:0:0:
109,192,140822,1,0,0:0:0:0:
182,192,140876,1,0,0:0:0:0:
329,192,140929,1,0,0:0:0:0:
402,192,140982,1,0,0:0:0:0:
475,192,140982,1,0,0:0:0:0:
36,192,140982,1,0,0:0:0:0:
256,192,140982,1,0,0:0:0:0:
109,192,140982,1,0,0:0:0:0:
182,192,141036,1,0,0:0:0:0:
329,192,141089,1,0,0:0:0:0:
402,192,141143,1,0,0:0:0:0:
182,192,141196,1,0,0:0:0:0:
475,192,141196,1,0,0:0:0:0:
109,192,141196,1,0,0:0:0:0:
329,192,141249,1,0,0:0:0:0:
256,192,141303,1,0,0:0:0:0:
36,192,141356,1,0,0:0:0:0:
182,192,141409,1,0,0:0:0:0:
402,192,141409,1,0,0:0:0:0:
109,192,141409,1,0,0:0:0:0:
329,192,141409,1,0,0:0:0:0:
475,192,141409,1,0,0:0:0:0:
256,192,141463,1,0,0:0:0:0:
402,192,141516,1,0,0:0:0:0:
182,192,141570,1,0,0:0:0:0:
329,192,141623,1,0,0:0:0:0:
109,192,141623,1,0,0:0:0:0:
36,192,141623,1,0,0:0:0:0:
256,192,141676,1,0,0:0:0:0:
402,192,141730,1,0,0:0:0:0:
182,192,141783,1,0,0:0:0:0:
109,192,141836,1,0,0:0:0:0:
36,192,141836,1,0,0:0:0:0:
256,192,141836,1,0,0:0:0:0:
329,192,141836,1,0,0:0:0:0:
475,192,141836,1,0,0:0:0:0:
402,192,141890,1,0,0:0:0:0:
182,192,141943,1,0,0:0:0:0:
256,192,141997,1,0,0:0:0:0:
36,192,142050,1,0,0:0:0:0:
329,192,142050,1,0,0:0:0:0:
402,192,142050,1,0,0:0:0:0:
109,192,142103,1,0,0:0:0:0:
182,192,142157,1,0,0:0:0:0:
329,192,142210,1,0,0:0:0:0:
402,192,142264,1,0,0:0:0:0:
475,192,142264,1,0,0:0:0:0:
36,192,142264,1,0,0:0:0:0:
256,192,142264,1,0,0:0:0:0:
109,192,142264,1,0,0:0:0:0:
182,192,142317,1,0,0:0:0:0:
109,192,142370,1,0,0:0:0:0:
329,192,142424,1,0,0:0:0:0:
402,192,142477,1,0,0:0:0:0:
36,192,142477,1,0,0:0:0:0:
256,192,142477,1,0,0:0:0:0:
475,192,142477,1,0,0:0:0:0:
182,192,142477,1,0,0:0:0:0:
36,192,142584,1,0,0:0:0:0:
182,192,142584,1,0,0:0:0:0:
329,192,142584,1,0,0:0:0:0:
109,192,142584,1,0,0:0:0:0:
402,192,142691,1,0,0:0:0:0:
256,192,142691,1,0,0:0:0:0:
475,192,142691,1,0,0:0:0:0:
109,192,142744,1,0,0:0:0:0:
182,192,142797,1,0,0:0:0:0:
329,192,142851,1,0,0:0:0:0:
402,192,142904,1,0,0:0:0:0:
256,192,142904,1,0,0:0:0:0:
36,192,142904,1,0,0:0:0:0:
182,192,142957,1,0,0:0:0:0:
329,192,143011,1,0,0:0:0:0:
475,192,143064,1,0,0:0:0:0:
36,192,143118,1,0,0:0:0:0:
109,192,143118,1,0,0:0:0:0:
256,192,143118,1,0,0:0:0:0:
402,192,143171,1,0,0:0:0:0:
329,192,143224,1,0,0:0:0:0:
182,192,143278,1,0,0:0:0:0:
256,192,143331,1,0,0:0:0:0:
475,192,143331,1,0,0:0:0:0:
402,192,143331,1,0,0:0:0:0:
109,192,143331,1,0,0:0:0:0:
36,192,143331,1,0,0:0:0:0:
182,192,143385,1,0,0:0:0:0:
329,192,143438,1,0,0:0:0:0:
402,192,143491,1,0,0:0:0:0:
475,192,143545,1,0,0:0:0:0:
256,192,143545,1,0,0:0:0:0:
109,192,143545,1,0,0:0:0:0:
36,192,143545,1,0,0:0:0:0:
182,192,143545,1,0,0:0:0:0:
402,192,143598,1,0,0:0:0:0:
329,192,143651,1,0,0:0:0:0:
256,192,143705,1,0,0:0:0:0:
475,192,143758,1,0,0:0:0:0:
182,192,143758,1,0,0:0:0:0:
402,192,143758,1,0,0:0:0:0:
109,192,143812,1,0,0:0:0:0:
329,192,143865,1,0,0:0:0:0:
182,192,143918,1,0,0:0:0:0:
36,192,143972,1,0,0:0:0:0:
475,192,143972,1,0,0:0:0:0:
402,192,143972,1,0,0:0:0:0:
329,192,143972,1,0,0:0:0:0:
256,192,143972,1,0,0:0:0:0:
109,192,144025,1,0,0:0:0:0:
182,192,144078,1,0,0:0:0:0:
256,192,144132,1,0,0:0:0:0:
329,192,144185,1,0,0:0:0:0:
36,192,144185,1,0,0:0:0:0:
109,192,144185,1,0,0:0:0:0:
402,192,144239,1,0,0:0:0:0:
182,192,144292,1,0,0:0:0:0:
329,192,144345,1,0,0:0:0:0:
256,192,144399,1,0,0:0:0:0:
109,192,144399,1,0,0:0:0:0:
36,192,144399,1,0,0:0:0:0:
475,192,144399,1,0,0:0:0:0:
402,192,144399,1,0,0:0:0:0:
182,192,144452,1,0,0:0:0:0:
109,192,144506,1,0,0:0:0:0:
36,192,144559,1,0,0:0:0:0:
329,192,144612,1,0,0:0:0:0:
402,192,144612,1,0,0:0:0:0:
475,192,144612,1,0,0:0:0:0:
256,192,144666,1,0,0:0:0:0:
182,192,144719,1,0,0:0:0:0:
109,192,144772,1,0,0:0:0:0:
256,192,144826,1,0,0:0:0:0:
36,192,144826,1,0,0:0:0:0:
475,192,144826,1,0,0:0:0:0:
402,192,144826,1,0,0:0:0:0:
182,192,144826,1,0,0:0:0:0:
329,192,144879,1,0,0:0:0:0:
402,192,144933,1,0,0:0:0:0:
475,192,144986,1,0,0:0:0:0:
182,192,145039,1,0,0:0:0:0:
36,192,145039,1,0,0:0:0:0:
109,192,145039,1,0,0:0:0:0:
256,192,145093,1,0,0:0:0:0:
329,192,145146,1,0,0:0:0:0:
402,192,145199,1,0,0:0:0:0:
182,192,145253,1,0,0:0:0:0:
36,192,145253,1,0,0:0:0:0:
475,192,145253,1,0,0:0:0:0:
256,192,145253,1,0,0:0:0:0:
109,192,145253,1,0,0:0:0:0:
329,192,145306,1,0,0:0:0:0:
182,192,145360,1,0,0:0:0:0:
109,192,145413,1,0,0:0:0:0:
36,192,145466,1,0,0:0:0:0:
256,192,145466,1,0,0:0:0:0:
402,192,145466,1,0,0:0:0:0:
182,192,145520,1,0,0:0:0:0:
329,192,145573,1,0,0:0:0:0:
256,192,145627,1,0,0:0:0:0:
402,192,145680,1,0,0:0:0:0:
182,192,145680,1,0,0:0:0:0:
109,192,145680,1,0,0:0:0:0:
329,192,145733,1,0,0:0:0:0:
475,192,145787,1,0,0:0:0:0:
256,192,145840,1,0,0:0:0:0:
109,192,145893,1,0,0:0:0:0:
402,192,145893,1,0,0:0:0:0:
36,192,145893,1,0,0:0:0:0:
182,192,145947,1,0,0:0:0:0:
329,192,146000,1,0,0:0:0:0:
475,192,146000,1,0,0:0:0:0:
256,192,146054,1,0,0:0:0:0:
475,192,146107,1,0,0:0:0:0:
36,192,146107,1,0,0:0:0:0:
182,192,146107,1,0,0:0:0:0:
402,192,146160,1,0,0:0:0:0:
329,192,146214,1,0,0:0:0:0:
182,192,146267,1,0,0:0:0:0:
109,192,146320,1,0,0:0:0:0:
402,192,146320,1,0,0:0:0:0:
36,192,146320,1,0,0:0:0:0:
329,192,146374,1,0,0:0:0:0:
182,192,146427,1,0,0:0:0:0:
256,192,146481,1,0,0:0:0:0:
402,192,146534,1,0,0:0:0:0:
329,192,146534,1,0,0:0:0:0:
36,192,146534,1,0,0:0:0:0:
109,192,146534,1,0,0:0:0:0:
475,192,146534,1,0,0:0:0:0:
182,192,146587,1,0,0:0:0:0:
256,192,146641,1,0,0:0:0:0:
109,192,146694,1,0,0:0:0:0:
36,192,146748,1,0,0:0:0:0:
329,192,146748,1,0,0:0:0:0:
475,192,146748,1,0,0:0:0:0:
182,192,146801,1,0,0:0:0:0:
256,192,146854,1,0,0:0:0:0:
329,192,146908,1,0,0:0:0:0:
182,192,146961,5,0,0:0:0:0:
36,192,146961,1,0,0:0:0:0:
109,192,146961,1,0,0:0:0:0:
402,192,146961,1,0,0:0:0:0:
475,192,146961,1,0,0:0:0:0:
402,192,147388,1,0,0:0:0:0:
109,192,147815,1,0,0:0:0:0:
329,192,148242,1,0,0:0:0:0:
109,192,148669,1,0,0:0:0:0:
36,192,149310,1,0,0:0:0:0:
329,192,149417,1,0,0:0:0:0:
109,192,149523,1,0,0:0:0:0:
475,192,149523,1,0,0:0:0:0:
182,192,149523,1,0,0:0:0:0:
256,192,149630,1,0,0:0:0:0:
329,192,149657,1,0,0:0:0:0:
402,192,149683,1,0,0:0:0:0:
475,192,149710,1,0,0:0:0:0:
182,192,149737,1,0,0:0:0:0:
36,192,149737,1,0,0:0:0:0:
109,192,149737,1,0,0:0:0:0:
475,192,149844,1,0,0:0:0:0:
402,192,149844,1,0,0:0:0:0:
329,192,149844,1,0,0:0:0:0:
36,192,149897,1,0,0:0:0:0:
182,192,149897,1,0,0:0:0:0:
109,192,149897,1,0,0:0:0:0:
402,192,149950,1,0,0:0:0:0:
329,192,149950,1,0,0:0:0:0:
256,192,149950,1,0,0:0:0:0:
109,192,150004,1,0,0:0:0:0:
36,192,150004,1,0,0:0:0:0:
182,192,150004,1,0,0:0:0:0:
475,192,150057,1,0,0:0:0:0:
402,192,150057,1,0,0:0:0:0:
329,192,150057,1,0,0:0:0:0:
402,192,150164,1,0,0:0:0:0:
475,192,150164,1,0,0:0:0:0:
256,192,150164,1,0,0:0:0:0:
36,192,150164,1,0,0:0:0:0:
182,192,150164,1,0,0:0:0:0:
109,192,150164,1,0,0:0:0:0:
182,192,150271,1,0,0:0:0:0:
329,192,150271,1,0,0:0:0:0:
36,192,150377,1,0,0:0:0:0:
109,192,150377,1,0,0:0:0:0:
182,192,150377,1,0,0:0:0:0:
256,192,150377,1,0,0:0:0:0:
475,192,150377,1,0,0:0:0:0:
402,192,150377,1,0,0:0:0:0:
329,192,150484,1,0,0:0:0:0:
475,192,150484,1,0,0:0:0:0:
256,192,150484,1,0,0:0:0:0:
329,192,150591,1,0,0:0:0:0:
182,192,150591,1,0,0:0:0:0:
109,192,150591,1,0,0:0:0:0:
475,192,150591,1,0,0:0:0:0:
402,192,150698,1,0,0:0:0:0:
182,192,150698,1,0,0:0:0:0:
36,192,150698,1,0,0:0:0:0:
475,192,150804,1,0,0:0:0:0:
256,192,150804,1,0,0:0:0:0:
109,192,150804,1,0,0:0:0:0:
36,192,150804,1,0,0:0:0:0:
329,192,150804,1,0,0:0:0:0:
402,192,150804,1,0,0:0:0:0:
182,192,150911,1,0,0:0:0:0:
475,192,150911,1,0,0:0:0:0:
329,192,150911,1,0,0:0:0:0:
329,192,151018,1,0,0:0:0:0:
182,192,151018,1,0,0:0:0:0:
109,192,151018,1,0,0:0:0:0:
256,192,151018,1,0,0:0:0:0:
36,192,151125,1,0,0:0:0:0:
475,192,151125,1,0,0:0:0:0:
402,192,151125,1,0,0:0:0:0:
256,192,151178,1,0,0:0:0:0:
182,192,151178,1,0,0:0:0:0:
475,192,151232,1,0,0:0:0:0:
109,192,151232,1,0,0:0:0:0:
36,192,151232,1,0,0:0:0:0:
402,192,151232,1,0,0:0:0:0:
329,192,151232,1,0,0:0:0:0:
402,192,151338,1,0,0:0:0:0:
256,192,151338,1,0,0:0:0:0:
182,192,151338,1,0,0:0:0:0:
329,192,151445,1,0,0:0:0:0:
109,192,151445,1,0,0:0:0:0:
36,192,151445,1,0,0:0:0:0:
475,192,151498,1,0,0:0:0:0:
256,192,151498,1,0,0:0:0:0:
182,192,151552,1,0,0:0:0:0:
329,192,151552,1,0,0:0:0:0:
402,192,151552,1,0,0:0:0:0:
402,192,151659,1,0,0:0:0:0:
475,192,151659,1,0,0:0:0:0:
109,192,151659,1,0,0:0:0:0:
36,192,151659,1,0,0:0:0:0:
182,192,151659,1,0,0:0:0:0:
256,192,151659,1,0,0:0:0:0:
109,192,151765,1,0,0:0:0:0:
329,192,151765,1,0,0:0:0:0:
402,192,151872,1,0,0:0:0:0:
256,192,151899,1,0,0:0:0:0:
182,192,151925,1,0,0:0:0:0:
109,192,151952,1,0,0:0:0:0:
475,192,151979,1,0,0:0:0:0:
329,192,151979,1,0,0:0:0:0:
36,192,151979,1,0,0:0:0:0:
475,192,152086,1,0,0:0:0:0:
256,192,152086,1,0,0:0:0:0:
402,192,152086,1,0,0:0:0:0:
109,192,152139,1,0,0:0:0:0:
182,192,152139,1,0,0:0:0:0:
36,192,152139,1,0,0:0:0:0:
475,192,152192,1,0,0:0:0:0:
402,192,152192,1,0,0:0:0:0:
329,192,152192,1,0,0:0:0:0:
109,192,152246,1,0,0:0:0:0:
182,192,152246,1,0,0:0:0:0:
256,192,152246,1,0,0:0:0:0:
475,192,152299,1,0,0:0:0:0:
402,192,152299,1,0,0:0:0:0:
329,192,152299,1,0,0:0:0:0:
36,192,152406,1,0,0:0:0:0:
256,192,152406,1,0,0:0:0:0:
109,192,152406,1,0,0:0:0:0:
329,192,152513,1,0,0:0:0:0:
402,192,152513,1,0,0:0:0:0:
109,192,152513,1,0,0:0:0:0:
182,192,152513,1,0,0:0:0:0:
402,192,152619,1,0,0:0:0:0:
256,192,152619,1,0,0:0:0:0:
475,192,152619,1,0,0:0:0:0:
109,192,152726,1,0,0:0:0:0:
329,192,152726,1,0,0:0:0:0:
182,192,152726,1,0,0:0:0:0:
475,192,152726,1,0,0:0:0:0:
182,192,152833,1,0,0:0:0:0:
402,192,152833,1,0,0:0:0:0:
36,192,152833,1,0,0:0:0:0:
256,192,152833,1,0,0:0:0:0:
109,192,152940,1,0,0:0:0:0:
475,192,152940,1,0,0:0:0:0:
329,192,152940,1,0,0:0:0:0:
182,192,153046,1,0,0:0:0:0:
329,192,153046,1,0,0:0:0:0:
256,192,153046,1,0,0:0:0:0:
402,192,153153,1,0,0:0:0:0:
182,192,153153,1,0,0:0:0:0:
36,192,153153,1,0,0:0:0:0:
402,192,153260,1,0,0:0:0:0:
109,192,153260,1,0,0:0:0:0:
329,192,153260,1,0,0:0:0:0:
475,192,153367,1,0,0:0:0:0:
36,192,153367,1,0,0:0:0:0:
256,192,153367,1,0,0:0:0:0:
329,192,153420,1,0,0:0:0:0:
182,192,153420,1,0,0:0:0:0:
402,192,153420,1,0,0:0:0:0:
475,192,153474,1,0,0:0:0:0:
109,192,153474,1,0,0:0:0:0:
36,192,153474,1,0,0:0:0:0:
329,192,153580,1,0,0:0:0:0:
256,192,153580,1,0,0:0:0:0:
182,192,153580,1,0,0:0:0:0:
402,192,153794,1,0,0:0:0:0:
475,192,153794,1,0,0:0:0:0:
36,192,153794,1,0,0:0:0:0:
329,192,153794,1,0,0:0:0:0:
109,192,153794,1,0,0:0:0:0:
256,192,153847,1,0,0:0:0:0:
182,192,153901,1,0,0:0:0:0:
109,192,153954,1,0,0:0:0:0:
402,192,154007,1,0,0:0:0:0:
329,192,154007,1,0,0:0:0:0:
256,192,154007,1,0,0:0:0:0:
182,192,154061,1,0,0:0:0:0:
109,192,154114,1,0,0:0:0:0:
36,192,154167,1,0,0:0:0:0:
329,192,154221,1,0,0:0:0:0:
109,192,154221,1,0,0:0:0:0:
402,192,154221,1,0,0:0:0:0:
182,192,154221,1,0,0:0:0:0:
475,192,154221,1,0,0:0:0:0:
256,192,154274,1,0,0:0:0:0:
329,192,154328,1,0,0:0:0:0:
402,192,154381,1,0,0:0:0:0:
182,192,154434,1,0,0:0:0:0:
109,192,154434,1,0,0:0:0:0:
256,192,154434,1,0,0:0:0:0:
329,192,154488,1,0,0:0:0:0:
402,192,154541,1,0,0:0:0:0:
475,192,154594,1,0,0:0:0:0:
182,192,154648,1,0,0:0:0:0:
329,192,154648,1,0,0:0:0:0:
109,192,154648,1,0,0:0:0:0:
256,192,154648,1,0,0:0:0:0:
36,192,154648,1,0,0:0:0:0:
402,192,154701,1,0,0:0:0:0:
182,192,154755,1,0,0:0:0:0:
329,192,154808,1,0,0:0:0:0:
109,192,154861,1,0,0:0:0:0:
36,192,154861,1,0,0:0:0:0:
475,192,154861,1,0,0:0:0:0:
256,192,154915,1,0,0:0:0:0:
182,192,154968,1,0,0:0:0:0:
109,192,155022,1,0,0:0:0:0:
475,192,155075,1,0,0:0:0:0:
402,192,155075,1,0,0:0:0:0:
256,192,155075,1,0,0:0:0:0:
36,192,155128,1,0,0:0:0:0:
182,192,155182,1,0,0:0:0:0:
329,192,155235,1,0,0:0:0:0:
109,192,155288,1,0,0:0:0:0:
256,192,155288,1,0,0:0:0:0:
402,192,155288,1,0,0:0:0:0:
475,192,155342,1,0,0:0:0:0:
329,192,155395,1,0,0:0:0:0:
256,192,155449,1,0,0:0:0:0:
402,192,155502,1,0,0:0:0:0:
475,192,155502,1,0,0:0:0:0:
36,192,155502,1,0,0:0:0:0:
182,192,155502,1,0,0:0:0:0:
109,192,155502,1,0,0:0:0:0:
329,192,155555,1,0,0:0:0:0:
256,192,155609,1,0,0:0:0:0:
182,192,155662,1,0,0:0:0:0:
36,192,155715,1,0,0:0:0:0:
402,192,155715,1,0,0:0:0:0:
109,192,155715,1,0,0:0:0:0:
256,192,155769,1,0,0:0:0:0:
329,192,155822,1,0,0:0:0:0:
402,192,155876,1,0,0:0:0:0:
109,192,155929,1,0,0:0:0:0:
182,192,155929,1,0,0:0:0:0:
475,192,155929,1,0,0:0:0:0:
329,192,155982,1,0,0:0:0:0:
256,192,156036,1,0,0:0:0:0:
182,192,156089,1,0,0:0:0:0:
475,192,156143,1,0,0:0:0:0:
109,192,156143,1,0,0:0:0:0:
36,192,156143,1,0,0:0:0:0:
402,192,156143,1,0,0:0:0:0:
329,192,156143,1,0,0:0:0:0:
329,192,156249,1,0,0:0:0:0:
475,192,156249,1,0,0:0:0:0:
109,192,156249,1,0,0:0:0:0:
182,192,156249,1,0,0:0:0:0:
402,192,156356,1,0,0:0:0:0:
36,192,156356,1,0,0:0:0:0:
256,192,156356,1,0,0:0:0:0:
182,192,156409,1,0,0:0:0:0:
475,192,156463,1,0,0:0:0:0:
329,192,156516,1,0,0:0:0:0:
36,192,156570,1,0,0:0:0:0:
109,192,156570,1,0,0:0:0:0:
256,192,156570,1,0,0:0:0:0:
402,192,156623,1,0,0:0:0:0:
329,192,156676,1,0,0:0:0:0:
182,192,156730,1,0,0:0:0:0:
475,192,156783,1,0,0:0:0:0:
402,192,156783,1,0,0:0:0:0:
109,192,156783,1,0,0:0:0:0:
36,192,156836,1,0,0:0:0:0:
256,192,156890,1,0,0:0:0:0:
329,192,156943,1,0,0:0:0:0:
475,192,156997,1,0,0:0:0:0:
402,192,156997,1,0,0:0:0:0:
109,192,156997,1,0,0:0:0:0:
182,192,156997,1,0,0:0:0:0:
36,192,156997,1,0,0:0:0:0:
256,192,157050,1,0,0:0:0:0:
329,192,157103,1,0,0:0:0:0:
182,192,157157,1,0,0:0:0:0:
402,192,157210,1,0,0:0:0:0:
475,192,157210,1,0,0:0:0:0:
256,192,157210,1,0,0:0:0:0:
36,192,157210,1,0,0:0:0:0:
109,192,157210,1,0,0:0:0:0:
329,192,157264,1,0,0:0:0:0:
182,192,157317,1,0,0:0:0:0:
109,192,157370,1,0,0:0:0:0:
402,192,157424,1,0,0:0:0:0:
256,192,157424,1,0,0:0:0:0:
36,192,157424,1,0,0:0:0:0:
475,192,157477,1,0,0:0:0:0:
182,192,157530,1,0,0:0:0:0:
329,192,157584,1,0,0:0:0:0:
36,192,157637,1,0,0:0:0:0:
109,192,157637,1,0,0:0:0:0:
256,192,157637,1,0,0:0:0:0:
402,192,157637,1,0,0:0:0:0:
475,192,157637,1,0,0:0:0:0:
182,192,157691,1,0,0:0:0:0:
329,192,157744,1,0,0:0:0:0:
402,192,157797,1,0,0:0:0:0:
109,192,157851,1,0,0:0:0:0:
182,192,157851,1,0,0:0:0:0:
475,192,157851,1,0,0:0:0:0:
329,192,157904,1,0,0:0:0:0:
256,192,157957,1,0,0:0:0:0:
109,192,158011,1,0,0:0:0:0:
329,192,158064,1,0,0:0:0:0:
475,192,158064,1,0,0:0:0:0:
402,192,158064,1,0,0:0:0:0:
36,192,158064,1,0,0:0:0:0:
182,192,158064,1,0,0:0:0:0:
256,192,158118,1,0,0:0:0:0:
109,192,158171,1,0,0:0:0:0:
329,192,158224,1,0,0:0:0:0:
182,192,158278,1,0,0:0:0:0:
475,192,158278,1,0,0:0:0:0:
256,192,158278,1,0,0:0:0:0:
36,192,158331,1,0,0:0:0:0:
329,192,158385,1,0,0:0:0:0:
256,192,158438,1,0,0:0:0:0:
475,192,158491,1,0,0:0:0:0:
182,192,158491,1,0,0:0:0:0:
36,192,158491,1,0,0:0:0:0:
402,192,158491,1,0,0:0:0:0:
109,192,158491,1,0,0:0:0:0:
329,192,158545,1,0,0:0:0:0:
182,192,158598,1,0,0:0:0:0:
109,192,158651,1,0,0:0:0:0:
475,192,158705,1,0,0:0:0:0:
256,192,158705,1,0,0:0:0:0:
36,192,158705,1,0,0:0:0:0:
329,192,158758,1,0,0:0:0:0:
402,192,158812,1,0,0:0:0:0:
256,192,158865,1,0,0:0:0:0:
36,192,158918,1,0,0:0:0:0:
475,192,158918,1,0,0:0:0:0:
109,192,158918,1,0,0:0:0:0:
182,192,158918,1,0,0:0:0:0:
329,192,158918,1,0,0:0:0:0:
402,192,158972,1,0,0:0:0:0:
256,192,159025,1,0,0:0:0:0:
182,192,159078,1,0,0:0:0:0:
329,192,159132,1,0,0:0:0:0:
109,192,159132,1,0,0:0:0:0:
475,192,159132,1,0,0:0:0:0:
256,192,159185,1,0,0:0:0:0:
402,192,159239,1,0,0:0:0:0:
182,192,159292,1,0,0:0:0:0:
256,192,159345,1,0,0:0:0:0:
329,192,159345,1,0,0:0:0:0:
36,192,159345,1,0,0:0:0:0:
109,192,159399,1,0,0:0:0:0:
182,192,159452,1,0,0:0:0:0:
329,192,159506,1,0,0:0:0:0:
256,192,159559,1,0,0:0:0:0:
36,192,159559,1,0,0:0:0:0:
475,192,159559,1,0,0:0:0:0:
402,192,159612,1,0,0:0:0:0:
329,192,159666,1,0,0:0:0:0:
182,192,159666,1,0,0:0:0:0:
109,192,159719,1,0,0:0:0:0:
36,192,159772,1,0,0:0:0:0:
475,192,159772,1,0,0:0:0:0:
256,192,159772,1,0,0:0:0:0:
402,192,159826,1,0,0:0:0:0:
182,192,159879,1,0,0:0:0:0:
329,192,159933,1,0,0:0:0:0:
36,192,159986,1,0,0:0:0:0:
402,192,159986,1,0,0:0:0:0:
475,192,159986,1,0,0:0:0:0:
256,192,160039,1,0,0:0:0:0:
109,192,160093,1,0,0:0:0:0:
182,192,160146,1,0,0:0:0:0:
36,192,160199,1,0,0:0:0:0:
475,192,160199,1,0,0:0:0:0:
402,192,160199,1,0,0:0:0:0:
329,192,160199,1,0,0:0:0:0:
256,192,160253,1,0,0:0:0:0:
182,192,160306,1,0,0:0:0:0:
329,192,160360,1,0,0:0:0:0:
36,192,160413,1,0,0:0:0:0:
109,192,160413,1,0,0:0:0:0:
402,192,160413,1,0,0:0:0:0:
256,192,160413,1,0,0:0:0:0:
182,192,160413,1,0,0:0:0:0:
475,192,160466,1,0,0:0:0:0:
329,192,160520,1,0,0:0:0:0:
256,192,160573,1,0,0:0:0:0:
36,192,160627,5,0,0:0:0:0:
329,192,160627,1,0,0:0:0:0:
402,192,160627,1,0,0:0:0:0:
475,192,160627,1,0,0:0:0:0:
109,192,160627,1,0,0:0:0:0:
182,192,160627,1,0,0:0:0:0:
36,192,160840,1,0,0:0:0:0:
182,192,160840,1,0,0:0:0:0:
475,192,160947,1,0,0:0:0:0:
256,192,160947,1,0,0:0:0:0:
329,192,160947,1,0,0:0:0:0:
109,192,160947,1,0,0:0:0:0:
182,192,160947,1,0,0:0:0:0:
402,192,160947,1,0,0:0:0:0:
256,192,161160,1,0,0:0:0:0:
109,192,161267,1,0,0:0:0:0:
402,192,161267,1,0,0:0:0:0:
329,192,161374,1,0,0:0:0:0:
182,192,161427,1,0,0:0:0:0:
402,192,161481,1,0,0:0:0:0:
36,192,161587,1,0,0:0:0:0:
256,192,161694,1,0,0:0:0:0:
109,192,161748,1,0,0:0:0:0:
475,192,161801,1,0,0:0:0:0:
329,192,161854,1,0,0:0:0:0:
182,192,161908,1,0,0:0:0:0:
402,192,162014,1,0,0:0:0:0:
256,192,162121,1,0,0:0:0:0:
475,192,162121,1,0,0:0:0:0:
109,192,162228,1,0,0:0:0:0:
36,192,162335,1,0,0:0:0:0:
182,192,162335,1,0,0:0:0:0:
256,192,162335,1,0,0:0:0:0:
329,192,162335,1,0,0:0:0:0:
402,192,162335,1,0,0:0:0:0:
475,192,162335,1,0,0:0:0:0:
182,192,162548,1,0,0:0:0:0:
402,192,162548,1,0,0:0:0:0:
36,192,162655,1,0,0:0:0:0:
109,192,162655,1,0,0:0:0:0:
256,192,162655,1,0,0:0:0:0:
329,192,162655,1,0,0:0:0:0:
182,192,162655,1,0,0:0:0:0:
475,192,162655,1,0,0:0:0:0:
402,192,162762,1,0,0:0:0:0:
109,192,162815,1,0,0:0:0:0:
256,192,162869,1,0,0:0:0:0:
182,192,162975,1,0,0:0:0:0:
329,192,162975,1,0,0:0:0:0:
256,192,163082,1,0,0:0:0:0:
475,192,163135,1,0,0:0:0:0:
36,192,163189,1,0,0:0:0:0:
256,192,163296,1,0,0:0:0:0:
402,192,163296,1,0,0:0:0:0:
182,192,163402,1,0,0:0:0:0:
329,192,163456,1,0,0:0:0:0:
402,192,163509,1,0,0:0:0:0:
36,192,163562,1,0,0:0:0:0:
256,192,163616,1,0,0:0:0:0:
109,192,163669,1,0,0:0:0:0:
475,192,163723,1,0,0:0:0:0:
329,192,163776,1,0,0:0:0:0:
182,192,163829,1,0,0:0:0:0:
182,192,163936,1,0,0:0:0:0:
109,192,164043,1,0,0:0:0:0:
36,192,164043,1,0,0:0:0:0:
402,192,164043,1,0,0:0:0:0:
475,192,164043,1,0,0:0:0:0:
329,192,164043,1,0,0:0:0:0:
256,192,164043,1,0,0:0:0:0:
256,192,164256,1,0,0:0:0:0:
182,192,164256,1,0,0:0:0:0:
329,192,164363,1,0,0:0:0:0:
402,192,164363,1,0,0:0:0:0:
475,192,164363,1,0,0:0:0:0:
109,192,164363,1,0,0:0:0:0:
182,192,164363,1,0,0:0:0:0:
36,192,164363,1,0,0:0:0:0:
329,192,164470,1,0,0:0:0:0:
402,192,164577,1,0,0:0:0:0:
256,192,164683,1,0,0:0:0:0:
329,192,164683,1,0,0:0:0:0:
109,192,164737,1,0,0:0:0:0:
475,192,164790,1,0,0:0:0:0:
182,192,164897,1,0,0:0:0:0:
329,192,165004,1,0,0:0:0:0:
109,192,165111,1,0,0:0:0:0:
36,192,165111,1,0,0:0:0:0:
402,192,165217,1,0,0:0:0:0:
475,192,165217,1,0,0:0:0:0:
182,192,165324,1,0,0:0:0:0:
329,192,165324,1,0,0:0:0:0:
36,192,165431,1,0,0:0:0:0:
109,192,165431,1,0,0:0:0:0:
402,192,165538,1,0,0:0:0:0:
256,192,165538,1,0,0:0:0:0:
475,192,165644,1,0,0:0:0:0:
329,192,165644,1,0,0:0:0:0:
36,192,165751,1,0,0:0:0:0:
182,192,165751,1,0,0:0:0:0:
329,192,165751,1,0,0:0:0:0:
402,192,165751,1,0,0:0:0:0:
109,192,165751,1,0,0:0:0:0:
256,192,165751,1,0,0:0:0:0:
182,192,165965,1,0,0:0:0:0:
182,192,166071,1,0,0:0:0:0:
256,192,166071,1,0,0:0:0:0:
402,192,166071,1,0,0:0:0:0:
475,192,166071,1,0,0:0:0:0:
329,192,166071,1,0,0:0:0:0:
109,192,166071,1,0,0:0:0:0:
329,192,166178,1,0,0:0:0:0:
36,192,166178,1,0,0:0:0:0:
475,192,166232,1,0,0:0:0:0:
182,192,166285,1,0,0:0:0:0:
256,192,166338,1,0,0:0:0:0:
402,192,166392,1,0,0:0:0:0:
109,192,166392,1,0,0:0:0:0:
182,192,166498,1,0,0:0:0:0:
329,192,166552,1,0,0:0:0:0:
402,192,166605,1,0,0:0:0:0:
109,192,166605,1,0,0:0:0:0:
36,192,166605,1,0,0:0:0:0:
475,192,166605,1,0,0:0:0:0:
256,192,166659,1,0,0:0:0:0:
182,192,166712,1,0,0:0:0:0:
402,192,166765,1,0,0:0:0:0:
109,192,166765,1,0,0:0:0:0:
329,192,166819,1,0,0:0:0:0:
256,192,166872,1,0,0:0:0:0:
36,192,166925,1,0,0:0:0:0:
109,192,166925,1,0,0:0:0:0:
329,192,166925,1,0,0:0:0:0:
402,192,166925,1,0,0:0:0:0:
475,192,166925,1,0,0:0:0:0:
182,192,166979,1,0,0:0:0:0:
256,192,167032,1,0,0:0:0:0:
329,192,167086,1,0,0:0:0:0:
36,192,167139,1,0,0:0:0:0:
109,192,167139,1,0,0:0:0:0:
402,192,167139,1,0,0:0:0:0:
475,192,167139,1,0,0:0:0:0:
109,192,167246,1,0,0:0:0:0:
182,192,167246,1,0,0:0:0:0:
256,192,167246,1,0,0:0:0:0:
329,192,167246,1,0,0:0:0:0:
402,192,167246,1,0,0:0:0:0:
329,192,167459,5,0,0:0:0:0:
402,192,167459,1,0,0:0:0:0:
36,192,167459,1,0,0:0:0:0:
109,192,167459,1,0,0:0:0:0:
475,192,167459,1,0,0:0:0:0:
256,192,167459,1,0,0:0:0:0:
329,192,167566,1,0,0:0:0:0:
475,192,167566,1,0,0:0:0:0:
475,192,167673,1,0,0:0:0:0:
182,192,167673,1,0,0:0:0:0:
109,192,167673,1,0,0:0:0:0:
182,192,167780,1,0,0:0:0:0:
109,192,167780,1,0,0:0:0:0:
329,192,167886,5,0,0:0:0:0:
109,192,167886,1,0,0:0:0:0:
256,192,167886,1,0,0:0:0:0:
475,192,167886,1,0,0:0:0:0:
402,192,167886,1,0,0:0:0:0:
36,192,167886,1,0,0:0:0:0:
475,192,167993,1,0,0:0:0:0:
402,192,167993,1,0,0:0:0:0:
36,192,168100,1,0,0:0:0:0:
182,192,168100,1,0,0:0:0:0:
402,192,168100,1,0,0:0:0:0:
36,192,168207,1,0,0:0:0:0:
182,192,168207,1,0,0:0:0:0:
329,192,168313,1,0,0:0:0:0:
256,192,168313,1,0,0:0:0:0:
402,192,168313,1,0,0:0:0:0:
36,192,168313,1,0,0:0:0:0:
475,192,168313,1,0,0:0:0:0:
109,192,168313,1,0,0:0:0:0:
402,192,168420,1,0,0:0:0:0:
329,192,168420,1,0,0:0:0:0:
402,192,168527,1,0,0:0:0:0:
36,192,168527,1,0,0:0:0:0:
109,192,168527,1,0,0:0:0:0:
109,192,168634,1,0,0:0:0:0:
36,192,168634,1,0,0:0:0:0:
329,192,168740,1,0,0:0:0:0:
256,192,168740,1,0,0:0:0:0:
475,192,168740,1,0,0:0:0:0:
109,192,168740,1,0,0:0:0:0:
402,192,168740,1,0,0:0:0:0:
182,192,168740,1,0,0:0:0:0:
402,192,168847,1,0,0:0:0:0:
329,192,168847,1,0,0:0:0:0:
329,192,168954,1,0,0:0:0:0:
36,192,168954,1,0,0:0:0:0:
182,192,168954,1,0,0:0:0:0:
182,192,169061,1,0,0:0:0:0:
109,192,169061,1,0,0:0:0:0:
182,192,169167,1,0,0:0:0:0:
402,192,169167,1,0,0:0:0:0:
475,192,169167,1,0,0:0:0:0:
256,192,169167,1,0,0:0:0:0:
329,192,169167,1,0,0:0:0:0:
36,192,169167,1,0,0:0:0:0:
475,192,169274,1,0,0:0:0:0:
402,192,169274,1,0,0:0:0:0:
109,192,169381,1,0,0:0:0:0:
182,192,169381,1,0,0:0:0:0:
475,192,169381,1,0,0:0:0:0:
36,192,169488,1,0,0:0:0:0:
109,192,169488,1,0,0:0:0:0:
475,192,169594,1,0,0:0:0:0:
109,192,169594,1,0,0:0:0:0:
402,192,169594,1,0,0:0:0:0:
329,192,169594,1,0,0:0:0:0:
182,192,169594,1,0,0:0:0:0:
256,192,169594,1,0,0:0:0:0:
402,192,169701,1,0,0:0:0:0:
329,192,169701,1,0,0:0:0:0:
329,192,169808,1,0,0:0:0:0:
36,192,169808,1,0,0:0:0:0:
182,192,169808,1,0,0:0:0:0:
109,192,169915,1,0,0:0:0:0:
36,192,169915,1,0,0:0:0:0:
256,192,170022,1,0,0:0:0:0:
36,192,170022,1,0,0:0:0:0:
402,192,170022,1,0,0:0:0:0:
329,192,170022,1,0,0:0:0:0:
475,192,170022,1,0,0:0:0:0:
182,192,170022,1,0,0:0:0:0:
402,192,170128,1,0,0:0:0:0:
475,192,170128,1,0,0:0:0:0:
475,192,170235,1,0,0:0:0:0:
182,192,170235,1,0,0:0:0:0:
329,192,170235,1,0,0:0:0:0:
109,192,170342,1,0,0:0:0:0:
182,192,170342,1,0,0:0:0:0:
109,192,170449,1,0,0:0:0:0:
475,192,170449,1,0,0:0:0:0:
182,192,170449,1,0,0:0:0:0:
36,192,170449,1,0,0:0:0:0:
402,192,170449,1,0,0:0:0:0:
256,192,170449,1,0,0:0:0:0:
329,192,170555,1,0,0:0:0:0:
402,192,170555,1,0,0:0:0:0:
402,192,170662,1,0,0:0:0:0:
182,192,170662,1,0,0:0:0:0:
36,192,170662,1,0,0:0:0:0:
36,192,170769,1,0,0:0:0:0:
256,192,170769,1,0,0:0:0:0:
475,192,170876,1,0,0:0:0:0:
402,192,170876,1,0,0:0:0:0:
36,192,170876,1,0,0:0:0:0:
109,192,170876,1,0,0:0:0:0:
256,192,170929,1,0,0:0:0:0:
182,192,170929,1,0,0:0:0:0:
402,192,170982,1,0,0:0:0:0:
329,192,170982,1,0,0:0:0:0:
182,192,171036,1,0,0:0:0:0:
109,192,171036,1,0,0:0:0:0:
329,192,171089,1,0,0:0:0:0:
256,192,171089,1,0,0:0:0:0:
475,192,171089,1,0,0:0:0:0:
109,192,171143,1,0,0:0:0:0:
36,192,171143,1,0,0:0:0:0:
256,192,171196,1,0,0:0:0:0:
182,192,171196,1,0,0:0:0:0:
402,192,171249,1,0,0:0:0:0:
475,192,171249,1,0,0:0:0:0:
329,192,171303,1,0,0:0:0:0:
109,192,171303,1,0,0:0:0:0:
36,192,171303,1,0,0:0:0:0:
475,192,171356,1,0,0:0:0:0:
402,192,171356,1,0,0:0:0:0:
182,192,171409,1,0,0:0:0:0:
256,192,171409,1,0,0:0:0:0:
36,192,171463,1,0,0:0:0:0:
109,192,171463,1,0,0:0:0:0:
475,192,171516,1,0,0:0:0:0:
256,192,171516,1,0,0:0:0:0:
329,192,171516,1,0,0:0:0:0:
109,192,171570,1,0,0:0:0:0:
182,192,171570,1,0,0:0:0:0:
402,192,171623,1,0,0:0:0:0:
329,192,171623,1,0,0:0:0:0:
36,192,171676,1,0,0:0:0:0:
256,192,171676,1,0,0:0:0:0:
475,192,171730,1,0,0:0:0:0:
402,192,171730,1,0,0:0:0:0:
182,192,171730,1,0,0:0:0:0:
109,192,171783,1,0,0:0:0:0:
329,192,171783,1,0,0:0:0:0:
36,192,171836,1,0,0:0:0:0:
256,192,171836,1,0,0:0:0:0:
475,192,171890,1,0,0:0:0:0:
402,192,171890,1,0,0:0:0:0:
182,192,171943,1,0,0:0:0:0:
109,192,171943,1,0,0:0:0:0:
36,192,171943,1,0,0:0:0:0:
329,192,171997,1,0,0:0:0:0:
256,192,171997,1,0,0:0:0:0:
109,192,172050,1,0,0:0:0:0:
475,192,172050,1,0,0:0:0:0:
329,192,172103,1,0,0:0:0:0:
182,192,172103,1,0,0:0:0:0:
475,192,172157,1,0,0:0:0:0:
402,192,172157,1,0,0:0:0:0:
256,192,172157,1,0,0:0:0:0:
109,192,172210,1,0,0:0:0:0:
36,192,172210,1,0,0:0:0:0:
329,192,172264,1,0,0:0:0:0:
182,192,172264,1,0,0:0:0:0:
475,192,172317,1,0,0:0:0:0:
402,192,172317,1,0,0:0:0:0:
256,192,172370,1,0,0:0:0:0:
36,192,172370,1,0,0:0:0:0:
109,192,172370,1,0,0:0:0:0:
329,192,172424,1,0,0:0:0:0:
182,192,172424,1,0,0:0:0:0:
402,192,172477,1,0,0:0:0:0:
256,192,172477,1,0,0:0:0:0:
36,192,172530,1,0,0:0:0:0:
109,192,172530,1,0,0:0:0:0:
475,192,172584,1,0,0:0:0:0:
329,192,172584,1,0,0:0:0:0:
182,192,172584,1,0,0:0:0:0:
182,192,173438,1,0,0:0:0:0:
109,192,173451,1,0,0:0:0:0:
329,192,173465,1,0,0:0:0:0:
402,192,173478,1,0,0:0:0:0:
475,192,173545,1,0,0:0:0:0:
256,192,173545,1,0,0:0:0:0:
36,192,173651,1,0,0:0:0:0:
109,192,173651,1,0,0:0:0:0:
329,192,173705,1,0,0:0:0:0:
182,192,173705,1,0,0:0:0:0:
475,192,173758,1,0,0:0:0:0:
402,192,173758,1,0,0:0:0:0:
182,192,173852,1,0,0:0:0:0:
256,192,173865,1,0,0:0:0:0:
109,192,173865,1,0,0:0:0:0:
36,192,173878,1,0,0:0:0:0:
329,192,173878,1,0,0:0:0:0:
256,192,174012,1,0,0:0:0:0:
329,192,174025,1,0,0:0:0:0:
182,192,174025,1,0,0:0:0:0:
402,192,174038,1,0,0:0:0:0:
109,192,174038,1,0,0:0:0:0:
329,192,174172,1,0,0:0:0:0:
402,192,174185,1,0,0:0:0:0:
256,192,174185,1,0,0:0:0:0:
475,192,174199,1,0,0:0:0:0:
182,192,174199,1,0,0:0:0:0:
109,192,174292,1,0,0:0:0:0:
256,192,174292,1,0,0:0:0:0:
402,192,174292,1,0,0:0:0:0:
36,192,174292,1,0,0:0:0:0:
329,192,174399,1,0,0:0:0:0:
256,192,174452,1,0,0:0:0:0:
402,192,174506,1,0,0:0:0:0:
475,192,174506,1,0,0:0:0:0:
36,192,174506,1,0,0:0:0:0:
182,192,174506,1,0,0:0:0:0:
109,192,174506,1,0,0:0:0:0:
256,192,174559,1,0,0:0:0:0:
329,192,174612,1,0,0:0:0:0:
109,192,174612,1,0,0:0:0:0:
402,192,174666,1,0,0:0:0:0:
475,192,174719,1,0,0:0:0:0:
256,192,174719,1,0,0:0:0:0:
36,192,174719,1,0,0:0:0:0:
329,192,174719,1,0,0:0:0:0:
182,192,174772,1,0,0:0:0:0:
402,192,174826,1,0,0:0:0:0:
109,192,174826,1,0,0:0:0:0:
329,192,174879,1,0,0:0:0:0:
36,192,174933,1,0,0:0:0:0:
475,192,174933,1,0,0:0:0:0:
256,192,174933,1,0,0:0:0:0:
109,192,174933,1,0,0:0:0:0:
329,192,174986,1,0,0:0:0:0:
402,192,175039,1,0,0:0:0:0:
182,192,175039,1,0,0:0:0:0:
109,192,175093,1,0,0:0:0:0:
402,192,175146,1,0,0:0:0:0:
36,192,175146,1,0,0:0:0:0:
475,192,175146,1,0,0:0:0:0:
329,192,175146,1,0,0:0:0:0:
256,192,175199,1,0,0:0:0:0:
182,192,175253,1,0,0:0:0:0:
329,192,175306,1,0,0:0:0:0:
109,192,175306,1,0,0:0:0:0:
36,192,175306,1,0,0:0:0:0:
475,192,175360,1,0,0:0:0:0:
402,192,175360,1,0,0:0:0:0:
182,192,175360,1,0,0:0:0:0:
256,192,175413,1,0,0:0:0:0:
402,192,175466,1,0,0:0:0:0:
329,192,175466,1,0,0:0:0:0:
109,192,175466,1,0,0:0:0:0:
182,192,175520,1,0,0:0:0:0:
475,192,175573,1,0,0:0:0:0:
256,192,175573,1,0,0:0:0:0:
36,192,175573,1,0,0:0:0:0:
109,192,175573,1,0,0:0:0:0:
402,192,175627,1,0,0:0:0:0:
329,192,175680,1,0,0:0:0:0:
182,192,175680,1,0,0:0:0:0:
109,192,175733,1,0,0:0:0:0:
36,192,175787,1,0,0:0:0:0:
402,192,175787,1,0,0:0:0:0:
256,192,175787,1,0,0:0:0:0:
475,192,175787,1,0,0:0:0:0:
182,192,175893,1,0,0:0:0:0:
402,192,175893,1,0,0:0:0:0:
329,192,175893,1,0,0:0:0:0:
109,192,175893,1,0,0:0:0:0:
36,192,176000,1,0,0:0:0:0:
329,192,176000,1,0,0:0:0:0:
475,192,176000,1,0,0:0:0:0:
256,192,176000,1,0,0:0:0:0:
109,192,176054,1,0,0:0:0:0:
182,192,176107,1,0,0:0:0:0:
475,192,176160,1,0,0:0:0:0:
256,192,176160,1,0,0:0:0:0:
402,192,176214,1,0,0:0:0:0:
36,192,176214,1,0,0:0:0:0:
109,192,176214,1,0,0:0:0:0:
329,192,176267,1,0,0:0:0:0:
109,192,176320,1,0,0:0:0:0:
182,192,176320,1,0,0:0:0:0:
475,192,176320,1,0,0:0:0:0:
256,192,176374,1,0,0:0:0:0:
329,192,176427,1,0,0:0:0:0:
475,192,176427,1,0,0:0:0:0:
36,192,176427,1,0,0:0:0:0:
402,192,176427,1,0,0:0:0:0:
109,192,176481,1,0,0:0:0:0:
402,192,176534,1,0,0:0:0:0:
182,192,176534,1,0,0:0:0:0:
329,192,176587,1,0,0:0:0:0:
36,192,176641,1,0,0:0:0:0:
475,192,176641,1,0,0:0:0:0:
256,192,176641,1,0,0:0:0:0:
109,192,176641,1,0,0:0:0:0:
402,192,176694,1,0,0:0:0:0:
329,192,176748,1,0,0:0:0:0:
109,192,176748,1,0,0:0:0:0:
182,192,176801,1,0,0:0:0:0:
402,192,176854,1,0,0:0:0:0:
36,192,176854,1,0,0:0:0:0:
256,192,176854,1,0,0:0:0:0:
475,192,176854,1,0,0:0:0:0:
109,192,176908,1,0,0:0:0:0:
329,192,176961,1,0,0:0:0:0:
109,192,177014,1,0,0:0:0:0:
256,192,177014,1,0,0:0:0:0:
475,192,177068,1,0,0:0:0:0:
402,192,177068,1,0,0:0:0:0:
36,192,177068,1,0,0:0:0:0:
182,192,177121,1,0,0:0:0:0:
329,192,177175,1,0,0:0:0:0:
402,192,177175,1,0,0:0:0:0:
256,192,177175,1,0,0:0:0:0:
109,192,177228,1,0,0:0:0:0:
475,192,177281,1,0,0:0:0:0:
256,192,177281,1,0,0:0:0:0:
36,192,177281,1,0,0:0:0:0:
182,192,177281,1,0,0:0:0:0:
402,192,177335,1,0,0:0:0:0:
329,192,177388,1,0,0:0:0:0:
182,192,177388,1,0,0:0:0:0:
109,192,177441,1,0,0:0:0:0:
36,192,177495,1,0,0:0:0:0:
402,192,177495,1,0,0:0:0:0:
256,192,177495,1,0,0:0:0:0:
475,192,177495,1,0,0:0:0:0:
182,192,177548,1,0,0:0:0:0:
329,192,177602,1,0,0:0:0:0:
109,192,177602,1,0,0:0:0:0:
402,192,177655,1,0,0:0:0:0:
36,192,177708,1,0,0:0:0:0:
182,192,177708,1,0,0:0:0:0:
475,192,177708,1,0,0:0:0:0:
109,192,177708,1,0,0:0:0:0:
256,192,177762,1,0,0:0:0:0:
329,192,177815,1,0,0:0:0:0:
402,192,177869,1,0,0:0:0:0:
109,192,177869,1,0,0:0:0:0:
182,192,177869,1,0,0:0:0:0:
256,192,177922,1,0,0:0:0:0:
475,192,177922,1,0,0:0:0:0:
36,192,177922,1,0,0:0:0:0:
329,192,177975,1,0,0:0:0:0:
402,192,178029,1,0,0:0:0:0:
182,192,178029,1,0,0:0:0:0:
475,192,178029,1,0,0:0:0:0:
109,192,178082,1,0,0:0:0:0:
329,192,178135,1,0,0:0:0:0:
256,192,178135,1,0,0:0:0:0:
36,192,178135,1,0,0:0:0:0:
182,192,178135,1,0,0:0:0:0:
402,192,178189,1,0,0:0:0:0:
475,192,178242,1,0,0:0:0:0:
109,192,178242,1,0,0:0:0:0:
182,192,178296,1,0,0:0:0:0:
36,192,178349,1,0,0:0:0:0:
402,192,178349,1,0,0:0:0:0:
256,192,178349,1,0,0:0:0:0:
475,192,178349,1,0,0:0:0:0:
329,192,178402,1,0,0:0:0:0:
182,192,178456,1,0,0:0:0:0:
109,192,178456,1,0,0:0:0:0:
256,192,178509,1,0,0:0:0:0:
329,192,178562,1,0,0:0:0:0:
36,192,178562,1,0,0:0:0:0:
475,192,178562,1,0,0:0:0:0:
402,192,178562,1,0,0:0:0:0:
256,192,178616,1,0,0:0:0:0:
182,192,178669,1,0,0:0:0:0:
475,192,178723,1,0,0:0:0:0:
109,192,178723,1,0,0:0:0:0:
402,192,178723,1,0,0:0:0:0:
329,192,178776,1,0,0:0:0:0:
256,192,178776,1,0,0:0:0:0:
36,192,178776,1,0,0:0:0:0:
182,192,178829,1,0,0:0:0:0:
109,192,178883,1,0,0:0:0:0:
475,192,178883,1,0,0:0:0:0:
402,192,178883,1,0,0:0:0:0:
256,192,178936,1,0,0:0:0:0:
402,192,178990,1,0,0:0:0:0:
109,192,178990,1,0,0:0:0:0:
36,192,178990,1,0,0:0:0:0:
329,192,178990,1,0,0:0:0:0:
182,192,179043,1,0,0:0:0:0:
256,192,179096,1,0,0:0:0:0:
475,192,179096,1,0,0:0:0:0:
402,192,179150,1,0,0:0:0:0:
36,192,179203,1,0,0:0:0:0:
182,192,179203,1,0,0:0:0:0:
329,192,179203,1,0,0:0:0:0:
256,192,179203,1,0,0:0:0:0:
402,192,179256,1,0,0:0:0:0:
475,192,179256,1,0,0:0:0:0:
182,192,179310,1,0,0:0:0:0:
109,192,179310,1,0,0:0:0:0:
329,192,179363,1,0,0:0:0:0:
256,192,179363,1,0,0:0:0:0:
402,192,179417,1,0,0:0:0:0:
475,192,179417,1,0,0:0:0:0:
36,192,179417,1,0,0:0:0:0:
109,192,179417,1,0,0:0:0:0:
36,192,179523,1,0,0:0:0:0:
402,192,179523,1,0,0:0:0:0:
182,192,179523,1,0,0:0:0:0:
256,192,179523,1,0,0:0:0:0:
109,192,179630,1,0,0:0:0:0:
182,192,179630,1,0,0:0:0:0:
329,192,179630,1,0,0:0:0:0:
475,192,179630,1,0,0:0:0:0:
256,192,179683,1,0,0:0:0:0:
109,192,179737,1,0,0:0:0:0:
402,192,179737,1,0,0:0:0:0:
182,192,179790,1,0,0:0:0:0:
36,192,179844,1,0,0:0:0:0:
256,192,179844,1,0,0:0:0:0:
329,192,179844,1,0,0:0:0:0:
475,192,179844,1,0,0:0:0:0:
109,192,179897,1,0,0:0:0:0:
182,192,179950,1,0,0:0:0:0:
402,192,179950,1,0,0:0:0:0:
329,192,180004,1,0,0:0:0:0:
256,192,180057,1,0,0:0:0:0:
109,192,180057,1,0,0:0:0:0:
36,192,180057,1,0,0:0:0:0:
475,192,180057,1,0,0:0:0:0:
402,192,180111,1,0,0:0:0:0:
329,192,180164,1,0,0:0:0:0:
109,192,180164,1,0,0:0:0:0:
182,192,180217,1,0,0:0:0:0:
475,192,180271,1,0,0:0:0:0:
36,192,180271,1,0,0:0:0:0:
329,192,180271,1,0,0:0:0:0:
402,192,180271,1,0,0:0:0:0:
256,192,180324,1,0,0:0:0:0:
182,192,180377,1,0,0:0:0:0:
109,192,180431,1,0,0:0:0:0:
329,192,180431,1,0,0:0:0:0:
402,192,180484,1,0,0:0:0:0:
475,192,180484,1,0,0:0:0:0:
256,192,180484,1,0,0:0:0:0:
36,192,180538,1,0,0:0:0:0:
182,192,180591,1,0,0:0:0:0:
109,192,180591,1,0,0:0:0:0:
329,192,180591,1,0,0:0:0:0:
402,192,180644,1,0,0:0:0:0:
36,192,180698,1,0,0:0:0:0:
256,192,180698,1,0,0:0:0:0:
475,192,180698,1,0,0:0:0:0:
109,192,180698,1,0,0:0:0:0:
329,192,180751,1,0,0:0:0:0:
182,192,180804,1,0,0:0:0:0:
36,192,180858,1,0,0:0:0:0:
475,192,180858,1,0,0:0:0:0:
402,192,180858,1,0,0:0:0:0:
329,192,180911,1,0,0:0:0:0:
109,192,180911,1,0,0:0:0:0:
256,192,180911,1,0,0:0:0:0:
182,192,180965,1,0,0:0:0:0:
36,192,181018,1,0,0:0:0:0:
475,192,181018,1,0,0:0:0:0:
329,192,181018,1,0,0:0:0:0:
256,192,181071,1,0,0:0:0:0:
182,192,181125,1,0,0:0:0:0:
36,192,181125,1,0,0:0:0:0:
475,192,181125,1,0,0:0:0:0:
109,192,181125,1,0,0:0:0:0:
402,192,181178,1,0,0:0:0:0:
329,192,181232,1,0,0:0:0:0:
182,192,181285,1,0,0:0:0:0:
109,192,181285,1,0,0:0:0:0:
475,192,181338,1,0,0:0:0:0:
256,192,181338,1,0,0:0:0:0:
36,192,181338,1,0,0:0:0:0:
329,192,181392,1,0,0:0:0:0:
402,192,181445,1,0,0:0:0:0:
182,192,181445,1,0,0:0:0:0:
475,192,181445,1,0,0:0:0:0:
109,192,181498,1,0,0:0:0:0:
402,192,181552,1,0,0:0:0:0:
256,192,181552,1,0,0:0:0:0:
36,192,181552,1,0,0:0:0:0:
329,192,181552,1,0,0:0:0:0:
182,192,181605,1,0,0:0:0:0:
329,192,181659,1,0,0:0:0:0:
109,192,181659,1,0,0:0:0:0:
402,192,181712,1,0,0:0:0:0:
36,192,181765,1,0,0:0:0:0:
475,192,181765,1,0,0:0:0:0:
256,192,181765,1,0,0:0:0:0:
109,192,181765,1,0,0:0:0:0:
329,192,181819,1,0,0:0:0:0:
402,192,181872,1,0,0:0:0:0:
182,192,181872,1,0,0:0:0:0:
475,192,181925,1,0,0:0:0:0:
256,192,181979,1,0,0:0:0:0:
36,192,181979,1,0,0:0:0:0:
109,192,181979,1,0,0:0:0:0:
329,192,181979,1,0,0:0:0:0:
402,192,182032,1,0,0:0:0:0:
182,192,182086,1,0,0:0:0:0:
475,192,182139,1,0,0:0:0:0:
36,192,182139,1,0,0:0:0:0:
329,192,182139,1,0,0:0:0:0:
256,192,182192,1,0,0:0:0:0:
182,192,182192,1,0,0:0:0:0:
109,192,182192,1,0,0:0:0:0:
402,192,182246,1,0,0:0:0:0:
36,192,182299,1,0,0:0:0:0:
109,192,182299,1,0,0:0:0:0:
329,192,182299,1,0,0:0:0:0:
182,192,182353,1,0,0:0:0:0:
475,192,182406,1,0,0:0:0:0:
256,192,182406,1,0,0:0:0:0:
402,192,182406,1,0,0:0:0:0:
36,192,182406,1,0,0:0:0:0:
109,192,182459,1,0,0:0:0:0:
329,192,182513,1,0,0:0:0:0:
182,192,182513,1,0,0:0:0:0:
402,192,182566,1,0,0:0:0:0:
36,192,182619,1,0,0:0:0:0:
475,192,182619,1,0,0:0:0:0:
256,192,182619,1,0,0:0:0:0:
182,192,182619,1,0,0:0:0:0:
402,192,182673,1,0,0:0:0:0:
329,192,182726,1,0,0:0:0:0:
109,192,182726,1,0,0:0:0:0:
182,192,182780,1,0,0:0:0:0:
329,192,182833,1,0,0:0:0:0:
475,192,182833,1,0,0:0:0:0:
36,192,182833,1,0,0:0:0:0:
256,192,182833,1,0,0:0:0:0:
109,192,182886,1,0,0:0:0:0:
402,192,182940,1,0,0:0:0:0:
329,192,182993,1,0,0:0:0:0:
36,192,182993,1,0,0:0:0:0:
256,192,183046,1,0,0:0:0:0:
475,192,183046,1,0,0:0:0:0:
109,192,183046,1,0,0:0:0:0:
402,192,183100,1,0,0:0:0:0:
182,192,183153,1,0,0:0:0:0:
256,192,183153,1,0,0:0:0:0:
329,192,183153,1,0,0:0:0:0:
109,192,183207,1,0,0:0:0:0:
36,192,183260,1,0,0:0:0:0:
475,192,183260,1,0,0:0:0:0:
402,192,183260,1,0,0:0:0:0:
329,192,183260,1,0,0:0:0:0:
182,192,183313,1,0,0:0:0:0:
109,192,183367,1,0,0:0:0:0:
256,192,183367,1,0,0:0:0:0:
329,192,183420,1,0,0:0:0:0:
182,192,183474,1,0,0:0:0:0:
402,192,183474,1,0,0:0:0:0:
36,192,183474,1,0,0:0:0:0:
475,192,183474,1,0,0:0:0:0:
256,192,183527,1,0,0:0:0:0:
109,192,183580,1,0,0:0:0:0:
329,192,183580,1,0,0:0:0:0:
402,192,183634,1,0,0:0:0:0:
256,192,183687,1,0,0:0:0:0:
36,192,183687,1,0,0:0:0:0:
475,192,183687,1,0,0:0:0:0:
329,192,183687,1,0,0:0:0:0:
109,192,183740,1,0,0:0:0:0:
182,192,183794,1,0,0:0:0:0:
109,192,183847,1,0,0:0:0:0:
329,192,183847,1,0,0:0:0:0:
36,192,183901,1,0,0:0:0:0:
402,192,183901,1,0,0:0:0:0:
256,192,183901,1,0,0:0:0:0:
182,192,183954,1,0,0:0:0:0:
109,192,184007,1,0,0:0:0:0:
329,192,184007,1,0,0:0:0:0:
475,192,184007,1,0,0:0:0:0:
256,192,184061,1,0,0:0:0:0:
36,192,184114,1,0,0:0:0:0:
475,192,184114,1,0,0:0:0:0:
109,192,184114,1,0,0:0:0:0:
402,192,184114,1,0,0:0:0:0:
182,192,184167,1,0,0:0:0:0:
256,192,184221,1,0,0:0:0:0:
329,192,184221,1,0,0:0:0:0:
109,192,184274,1,0,0:0:0:0:
402,192,184328,1,0,0:0:0:0:
475,192,184328,1,0,0:0:0:0:
36,192,184328,1,0,0:0:0:0:
256,192,184328,1,0,0:0:0:0:
182,192,184381,1,0,0:0:0:0:
329,192,184434,1,0,0:0:0:0:
109,192,184434,1,0,0:0:0:0:
402,192,184488,1,0,0:0:0:0:
329,192,184541,1,0,0:0:0:0:
256,192,184541,1,0,0:0:0:0:
475,192,184541,1,0,0:0:0:0:
36,192,184541,1,0,0:0:0:0:
109,192,184594,1,0,0:0:0:0:
182,192,184648,1,0,0:0:0:0:
256,192,184701,1,0,0:0:0:0:
475,192,184701,1,0,0:0:0:0:
36,192,184701,1,0,0:0:0:0:
329,192,184755,1,0,0:0:0:0:
109,192,184755,1,0,0:0:0:0:
402,192,184755,1,0,0:0:0:0:
256,192,184808,1,0,0:0:0:0:
182,192,184861,1,0,0:0:0:0:
402,192,184861,1,0,0:0:0:0:
475,192,184861,1,0,0:0:0:0:
329,192,184915,1,0,0:0:0:0:
36,192,184968,1,0,0:0:0:0:
256,192,184968,1,0,0:0:0:0:
182,192,184968,1,0,0:0:0:0:
475,192,184968,1,0,0:0:0:0:
402,192,185022,1,0,0:0:0:0:
109,192,185075,1,0,0:0:0:0:
329,192,185075,1,0,0:0:0:0:
182,192,185128,1,0,0:0:0:0:
475,192,185182,1,0,0:0:0:0:
256,192,185182,1,0,0:0:0:0:
36,192,185182,1,0,0:0:0:0:
402,192,185182,1,0,0:0:0:0:
109,192,185235,1,0,0:0:0:0:
256,192,185288,1,0,0:0:0:0:
182,192,185288,1,0,0:0:0:0:
329,192,185288,1,0,0:0:0:0:
402,192,185342,1,0,0:0:0:0:
109,192,185395,1,0,0:0:0:0:
36,192,185395,1,0,0:0:0:0:
475,192,185395,1,0,0:0:0:0:
329,192,185395,1,0,0:0:0:0:
256,192,185449,1,0,0:0:0:0:
402,192,185502,1,0,0:0:0:0:
109,192,185555,1,0,0:0:0:0:
182,192,185555,1,0,0:0:0:0:
329,192,185555,1,0,0:0:0:0:
36,192,185609,1,0,0:0:0:0:
475,192,185609,1,0,0:0:0:0:
256,192,185609,1,0,0:0:0:0:
182,192,185662,1,0,0:0:0:0:
329,192,185715,1,0,0:0:0:0:
402,192,185715,1,0,0:0:0:0:
109,192,185715,1,0,0:0:0:0:
256,192,185769,1,0,0:0:0:0:
36,192,185822,1,0,0:0:0:0:
329,192,185822,1,0,0:0:0:0:
475,192,185822,1,0,0:0:0:0:
182,192,185822,1,0,0:0:0:0:
402,192,185876,1,0,0:0:0:0:
109,192,185929,1,0,0:0:0:0:
256,192,185929,1,0,0:0:0:0:
329,192,185982,1,0,0:0:0:0:
475,192,186036,1,0,0:0:0:0:
36,192,186036,1,0,0:0:0:0:
182,192,186036,1,0,0:0:0:0:
402,192,186036,1,0,0:0:0:0:
256,192,186089,1,0,0:0:0:0:
329,192,186143,1,0,0:0:0:0:
109,192,186143,1,0,0:0:0:0:
182,192,186196,1,0,0:0:0:0:
256,192,186249,1,0,0:0:0:0:
109,192,186249,1,0,0:0:0:0:
36,192,186249,1,0,0:0:0:0:
402,192,186249,1,0,0:0:0:0:
475,192,186249,1,0,0:0:0:0:
182,192,186356,1,0,0:0:0:0:
256,192,186409,1,0,0:0:0:0:
329,192,186409,1,0,0:0:0:0:
402,192,186409,1,0,0:0:0:0:
109,192,186516,1,0,0:0:0:0:
475,192,186570,1,0,0:0:0:0:
329,192,186570,1,0,0:0:0:0:
402,192,186570,1,0,0:0:0:0:
182,192,186570,1,0,0:0:0:0:
36,192,186570,1,0,0:0:0:0:
256,192,186676,1,0,0:0:0:0:
182,192,186730,1,0,0:0:0:0:
402,192,186783,1,0,0:0:0:0:
329,192,186783,1,0,0:0:0:0:
109,192,186783,1,0,0:0:0:0:
182,192,186890,1,0,0:0:0:0:
475,192,186890,1,0,0:0:0:0:
329,192,186890,1,0,0:0:0:0:
256,192,186890,1,0,0:0:0:0:
36,192,186890,1,0,0:0:0:0:
402,192,186997,1,0,0:0:0:0:
109,192,186997,1,0,0:0:0:0:
182,192,186997,1,0,0:0:0:0:
475,192,187103,1,0,0:0:0:0:
256,192,187103,1,0,0:0:0:0:
402,192,187103,1,0,0:0:0:0:
36,192,187103,1,0,0:0:0:0:
109,192,187103,1,0,0:0:0:0:
329,192,187210,1,0,0:0:0:0:
182,192,187264,1,0,0:0:0:0:
109,192,187264,1,0,0:0:0:0:
256,192,187264,1,0,0:0:0:0:
402,192,187370,1,0,0:0:0:0:
329,192,187424,1,0,0:0:0:0:
109,192,187424,1,0,0:0:0:0:
182,192,187424,1,0,0:0:0:0:
36,192,187424,1,0,0:0:0:0:
475,192,187424,1,0,0:0:0:0:
402,192,187637,1,0,0:0:0:0:
256,192,187637,1,0,0:0:0:0:
475,192,187637,1,0,0:0:0:0:
109,192,187637,1,0,0:0:0:0:
36,192,187637,1,0,0:0:0:0:
182,192,187744,1,0,0:0:0:0:
256,192,187744,1,0,0:0:0:0:
36,192,187744,1,0,0:0:0:0:
329,192,187744,1,0,0:0:0:0:
475,192,187744,1,0,0:0:0:0:
329,192,187957,5,0,0:0:0:0:
36,192,187957,1,0,0:0:0:0:
182,192,187957,1,0,0:0:0:0:
475,192,187957,1,0,0:0:0:0:
256,192,188064,5,0,0:0:0:0:
182,192,188118,1,0,0:0:0:0:
109,192,188171,1,0,0:0:0:0:
36,192,188171,1,0,0:0:0:0:
475,192,188171,1,0,0:0:0:0:
329,192,188171,1,0,0:0:0:0:
402,192,188171,1,0,0:0:0:0:
256,192,188224,1,0,0:0:0:0:
182,192,188278,1,0,0:0:0:0:
402,192,188278,1,0,0:0:0:0:
109,192,188331,1,0,0:0:0:0:
36,192,188385,1,0,0:0:0:0:
256,192,188385,1,0,0:0:0:0:
475,192,188385,1,0,0:0:0:0:
182,192,188385,1,0,0:0:0:0:
329,192,188438,1,0,0:0:0:0:
402,192,188491,1,0,0:0:0:0:
109,192,188491,1,0,0:0:0:0:
182,192,188545,1,0,0:0:0:0:
475,192,188598,1,0,0:0:0:0:
36,192,188598,1,0,0:0:0:0:
256,192,188598,1,0,0:0:0:0:
402,192,188598,1,0,0:0:0:0:
182,192,188651,1,0,0:0:0:0:
109,192,188705,1,0,0:0:0:0:
329,192,188705,1,0,0:0:0:0:
402,192,188758,1,0,0:0:0:0:
109,192,188812,1,0,0:0:0:0:
475,192,188812,1,0,0:0:0:0:
36,192,188812,1,0,0:0:0:0:
182,192,188812,1,0,0:0:0:0:
256,192,188865,1,0,0:0:0:0:
329,192,188918,1,0,0:0:0:0:
182,192,188972,1,0,0:0:0:0:
402,192,188972,1,0,0:0:0:0:
36,192,189025,1,0,0:0:0:0:
109,192,189025,1,0,0:0:0:0:
329,192,189025,1,0,0:0:0:0:
256,192,189078,1,0,0:0:0:0:
109,192,189132,1,0,0:0:0:0:
182,192,189132,1,0,0:0:0:0:
402,192,189132,1,0,0:0:0:0:
329,192,189185,1,0,0:0:0:0:
36,192,189239,1,0,0:0:0:0:
256,192,189239,1,0,0:0:0:0:
475,192,189239,1,0,0:0:0:0:
402,192,189239,1,0,0:0:0:0:
109,192,189292,1,0,0:0:0:0:
182,192,189345,1,0,0:0:0:0:
329,192,189345,1,0,0:0:0:0:
402,192,189399,1,0,0:0:0:0:
475,192,189452,1,0,0:0:0:0:
109,192,189452,1,0,0:0:0:0:
256,192,189452,1,0,0:0:0:0:
36,192,189452,1,0,0:0:0:0:
329,192,189559,1,0,0:0:0:0:
109,192,189559,1,0,0:0:0:0:
182,192,189559,1,0,0:0:0:0:
402,192,189559,1,0,0:0:0:0:
475,192,189666,1,0,0:0:0:0:
36,192,189666,1,0,0:0:0:0:
182,192,189666,1,0,0:0:0:0:
256,192,189666,1,0,0:0:0:0:
402,192,189719,1,0,0:0:0:0:
329,192,189772,1,0,0:0:0:0:
36,192,189826,1,0,0:0:0:0:
475,192,189826,1,0,0:0:0:0:
256,192,189879,1,0,0:0:0:0:
182,192,189879,1,0,0:0:0:0:
402,192,189879,1,0,0:0:0:0:
109,192,189933,1,0,0:0:0:0:
475,192,189986,1,0,0:0:0:0:
329,192,189986,1,0,0:0:0:0:
36,192,189986,1,0,0:0:0:0:
256,192,190039,1,0,0:0:0:0:
182,192,190093,1,0,0:0:0:0:
402,192,190093,1,0,0:0:0:0:
475,192,190093,1,0,0:0:0:0:
109,192,190093,1,0,0:0:0:0:
256,192,190146,1,0,0:0:0:0:
109,192,190199,1,0,0:0:0:0:
329,192,190199,1,0,0:0:0:0:
182,192,190253,1,0,0:0:0:0:
475,192,190306,1,0,0:0:0:0:
36,192,190306,1,0,0:0:0:0:
256,192,190306,1,0,0:0:0:0:
402,192,190306,1,0,0:0:0:0:
109,192,190360,1,0,0:0:0:0:
182,192,190413,1,0,0:0:0:0:
402,192,190413,1,0,0:0:0:0:
329,192,190466,1,0,0:0:0:0:
109,192,190520,1,0,0:0:0:0:
475,192,190520,1,0,0:0:0:0:
256,192,190520,1,0,0:0:0:0:
36,192,190520,1,0,0:0:0:0:
402,192,190573,1,0,0:0:0:0:
182,192,190627,1,0,0:0:0:0:
256,192,190680,1,0,0:0:0:0:
475,192,190680,1,0,0:0:0:0:
36,192,190733,1,0,0:0:0:0:
109,192,190733,1,0,0:0:0:0:
402,192,190733,1,0,0:0:0:0:
329,192,190787,1,0,0:0:0:0:
182,192,190840,1,0,0:0:0:0:
109,192,190840,1,0,0:0:0:0:
256,192,190840,1,0,0:0:0:0:
402,192,190893,1,0,0:0:0:0:
36,192,190947,1,0,0:0:0:0:
256,192,190947,1,0,0:0:0:0:
475,192,190947,1,0,0:0:0:0:
329,192,190947,1,0,0:0:0:0:
109,192,191000,1,0,0:0:0:0:
182,192,191054,1,0,0:0:0:0:
329,192,191054,1,0,0:0:0:0:
402,192,191107,1,0,0:0:0:0:
475,192,191160,1,0,0:0:0:0:
109,192,191160,1,0,0:0:0:0:
256,192,191160,1,0,0:0:0:0:
36,192,191160,1,0,0:0:0:0:
329,192,191214,1,0,0:0:0:0:
182,192,191267,1,0,0:0:0:0:
402,192,191267,1,0,0:0:0:0:
109,192,191320,1,0,0:0:0:0:
475,192,191374,1,0,0:0:0:0:
329,192,191374,1,0,0:0:0:0:
36,192,191374,1,0,0:0:0:0:
402,192,191374,1,0,0:0:0:0:
256,192,191427,1,0,0:0:0:0:
182,192,191481,1,0,0:0:0:0:
109,192,191534,1,0,0:0:0:0:
402,192,191534,1,0,0:0:0:0:
475,192,191534,1,0,0:0:0:0:
329,192,191587,1,0,0:0:0:0:
36,192,191587,1,0,0:0:0:0:
256,192,191587,1,0,0:0:0:0:
182,192,191641,1,0,0:0:0:0:
329,192,191694,1,0,0:0:0:0:
36,192,191694,1,0,0:0:0:0:
109,192,191694,1,0,0:0:0:0:
402,192,191748,1,0,0:0:0:0:
109,192,191801,1,0,0:0:0:0:
475,192,191801,1,0,0:0:0:0:
182,192,191801,1,0,0:0:0:0:
256,192,191854,1,0,0:0:0:0:
329,192,191854,1,0,0:0:0:0:
402,192,191854,1,0,0:0:0:0:
182,192,191908,1,0,0:0:0:0:
109,192,191961,1,0,0:0:0:0:
475,192,192014,1,0,0:0:0:0:
329,192,192014,1,0,0:0:0:0:
36,192,192014,1,0,0:0:0:0:
402,192,192014,1,0,0:0:0:0:
256,192,192068,1,0,0:0:0:0:
182,192,192121,1,0,0:0:0:0:
402,192,192121,1,0,0:0:0:0:
329,192,192175,1,0,0:0:0:0:
182,192,192228,1,0,0:0:0:0:
475,192,192228,1,0,0:0:0:0:
36,192,192228,1,0,0:0:0:0:
109,192,192228,1,0,0:0:0:0:
256,192,192281,1,0,0:0:0:0:
109,192,192335,1,0,0:0:0:0:
329,192,192335,1,0,0:0:0:0:
402,192,192388,1,0,0:0:0:0:
256,192,192441,1,0,0:0:0:0:
182,192,192441,1,0,0:0:0:0:
36,192,192441,1,0,0:0:0:0:
475,192,192441,1,0,0:0:0:0:
329,192,192495,1,0,0:0:0:0:
182,192,192548,1,0,0:0:0:0:
109,192,192548,1,0,0:0:0:0:
402,192,192548,1,0,0:0:0:0:
256,192,192602,1,0,0:0:0:0:
36,192,192655,1,0,0:0:0:0:
402,192,192655,1,0,0:0:0:0:
475,192,192655,1,0,0:0:0:0:
109,192,192655,1,0,0:0:0:0:
329,192,192708,1,0,0:0:0:0:
256,192,192762,1,0,0:0:0:0:
36,192,192815,1,0,0:0:0:0:
109,192,192815,1,0,0:0:0:0:
182,192,192815,1,0,0:0:0:0:
475,192,192869,1,0,0:0:0:0:
329,192,192869,1,0,0:0:0:0:
402,192,192869,1,0,0:0:0:0:
256,192,192869,1,0,0:0:0:0:
109,192,192922,1,0,0:0:0:0:
182,192,192922,1,0,0:0:0:0:
402,192,192975,1,0,0:0:0:0:
329,192,192975,1,0,0:0:0:0:
182,192,193029,1,0,0:0:0:0:
256,192,193029,1,0,0:0:0:0:
109,192,193082,1,0,0:0:0:0:
36,192,193082,1,0,0:0:0:0:
475,192,193082,1,0,0:0:0:0:
402,192,193082,1,0,0:0:0:0:
475,192,193189,1,0,0:0:0:0:
109,192,193189,1,0,0:0:0:0:
329,192,193189,1,0,0:0:0:0:
256,192,193189,1,0,0:0:0:0:
402,192,193296,1,0,0:0:0:0:
329,192,193296,1,0,0:0:0:0:
182,192,193296,1,0,0:0:0:0:
36,192,193296,1,0,0:0:0:0:
256,192,193349,1,0,0:0:0:0:
402,192,193402,1,0,0:0:0:0:
109,192,193402,1,0,0:0:0:0:
182,192,193402,1,0,0:0:0:0:
329,192,193456,1,0,0:0:0:0:
256,192,193509,1,0,0:0:0:0:
475,192,193509,1,0,0:0:0:0:
36,192,193509,1,0,0:0:0:0:
109,192,193562,1,0,0:0:0:0:
402,192,193562,1,0,0:0:0:0:
182,192,193562,1,0,0:0:0:0:
329,192,193616,1,0,0:0:0:0:
256,192,193669,1,0,0:0:0:0:
182,192,193723,1,0,0:0:0:0:
109,192,193723,1,0,0:0:0:0:
475,192,193723,1,0,0:0:0:0:
36,192,193723,1,0,0:0:0:0:
402,192,193776,1,0,0:0:0:0:
329,192,193829,1,0,0:0:0:0:
182,192,193829,1,0,0:0:0:0:
109,192,193883,1,0,0:0:0:0:
36,192,193936,1,0,0:0:0:0:
475,192,193936,1,0,0:0:0:0:
329,192,193936,1,0,0:0:0:0:
402,192,193936,1,0,0:0:0:0:
182,192,193990,1,0,0:0:0:0:
402,192,194043,1,0,0:0:0:0:
256,192,194043,1,0,0:0:0:0:
109,192,194096,1,0,0:0:0:0:
36,192,194150,1,0,0:0:0:0:
329,192,194150,1,0,0:0:0:0:
475,192,194150,1,0,0:0:0:0:
256,192,194150,1,0,0:0:0:0:
182,192,194203,1,0,0:0:0:0:
402,192,194256,1,0,0:0:0:0:
109,192,194256,1,0,0:0:0:0:
329,192,194310,1,0,0:0:0:0:
475,192,194363,1,0,0:0:0:0:
256,192,194363,1,0,0:0:0:0:
36,192,194363,1,0,0:0:0:0:
109,192,194363,1,0,0:0:0:0:
402,192,194417,1,0,0:0:0:0:
182,192,194470,1,0,0:0:0:0:
36,192,194523,1,0,0:0:0:0:
329,192,194523,1,0,0:0:0:0:
109,192,194523,1,0,0:0:0:0:
182,192,194577,1,0,0:0:0:0:
402,192,194577,1,0,0:0:0:0:
475,192,194577,1,0,0:0:0:0:
256,192,194630,1,0,0:0:0:0:
109,192,194683,1,0,0:0:0:0:
402,192,194683,1,0,0:0:0:0:
329,192,194683,1,0,0:0:0:0:
182,192,194737,1,0,0:0:0:0:
256,192,194790,1,0,0:0:0:0:
475,192,194790,1,0,0:0:0:0:
36,192,194790,1,0,0:0:0:0:
329,192,194790,1,0,0:0:0:0:
109,192,194844,1,0,0:0:0:0:
182,192,194897,1,0,0:0:0:0:
402,192,194950,1,0,0:0:0:0:
329,192,194950,1,0,0:0:0:0:
36,192,195004,1,0,0:0:0:0:
256,192,195004,1,0,0:0:0:0:
475,192,195004,1,0,0:0:0:0:
182,192,195057,1,0,0:0:0:0:
109,192,195111,1,0,0:0:0:0:
329,192,195111,1,0,0:0:0:0:
36,192,195111,1,0,0:0:0:0:
402,192,195164,1,0,0:0:0:0:
109,192,195217,1,0,0:0:0:0:
256,192,195217,1,0,0:0:0:0:
475,192,195217,1,0,0:0:0:0:
182,192,195217,1,0,0:0:0:0:
329,192,195271,1,0,0:0:0:0:
182,192,195324,1,0,0:0:0:0:
402,192,195324,1,0,0:0:0:0:
109,192,195377,1,0,0:0:0:0:
475,192,195431,1,0,0:0:0:0:
36,192,195431,1,0,0:0:0:0:
256,192,195431,1,0,0:0:0:0:
402,192,195431,1,0,0:0:0:0:
182,192,195484,1,0,0:0:0:0:
109,192,195538,1,0,0:0:0:0:
329,192,195538,1,0,0:0:0:0:
256,192,195591,1,0,0:0:0:0:
36,192,195644,1,0,0:0:0:0:
475,192,195644,1,0,0:0:0:0:
402,192,195644,1,0,0:0:0:0:
182,192,195644,1,0,0:0:0:0:
256,192,195698,1,0,0:0:0:0:
329,192,195751,1,0,0:0:0:0:
36,192,195804,1,0,0:0:0:0:
402,192,195804,1,0,0:0:0:0:
109,192,195804,1,0,0:0:0:0:
256,192,195858,1,0,0:0:0:0:
329,192,195858,1,0,0:0:0:0:
475,192,195858,1,0,0:0:0:0:
182,192,195911,1,0,0:0:0:0:
475,192,195965,1,0,0:0:0:0:
402,192,195965,1,0,0:0:0:0:
109,192,195965,1,0,0:0:0:0:
329,192,196018,1,0,0:0:0:0:
36,192,196071,1,0,0:0:0:0:
256,192,196071,1,0,0:0:0:0:
109,192,196071,1,0,0:0:0:0:
402,192,196071,1,0,0:0:0:0:
475,192,196125,1,0,0:0:0:0:
182,192,196178,1,0,0:0:0:0:
329,192,196178,1,0,0:0:0:0:
109,192,196232,1,0,0:0:0:0:
475,192,196285,1,0,0:0:0:0:
36,192,196285,1,0,0:0:0:0:
256,192,196285,1,0,0:0:0:0:
329,192,196285,1,0,0:0:0:0:
109,192,196338,1,0,0:0:0:0:
182,192,196392,1,0,0:0:0:0:
402,192,196392,1,0,0:0:0:0:
329,192,196445,1,0,0:0:0:0:
36,192,196498,1,0,0:0:0:0:
256,192,196498,1,0,0:0:0:0:
475,192,196498,1,0,0:0:0:0:
109,192,196498,1,0,0:0:0:0:
329,192,196552,1,0,0:0:0:0:
182,192,196605,1,0,0:0:0:0:
109,192,196659,1,0,0:0:0:0:
402,192,196659,1,0,0:0:0:0:
329,192,196712,1,0,0:0:0:0:
475,192,196712,1,0,0:0:0:0:
36,192,196712,1,0,0:0:0:0:
182,192,196765,1,0,0:0:0:0:
329,192,196819,1,0,0:0:0:0:
402,192,196819,1,0,0:0:0:0:
109,192,196819,1,0,0:0:0:0:
256,192,196872,1,0,0:0:0:0:
475,192,196925,1,0,0:0:0:0:
36,192,196925,1,0,0:0:0:0:
182,192,196925,1,0,0:0:0:0:
109,192,196925,1,0,0:0:0:0:
329,192,196979,1,0,0:0:0:0:
402,192,197032,1,0,0:0:0:0:
182,192,197032,1,0,0:0:0:0:
256,192,197086,1,0,0:0:0:0:
329,192,197139,1,0,0:0:0:0:
109,192,197139,1,0,0:0:0:0:
475,192,197139,1,0,0:0:0:0:
36,192,197139,1,0,0:0:0:0:
182,192,197192,1,0,0:0:0:0:
402,192,197246,1,0,0:0:0:0:
109,192,197246,1,0,0:0:0:0:
36,192,197299,1,0,0:0:0:0:
256,192,197353,1,0,0:0:0:0:
475,192,197353,1,0,0:0:0:0:
182,192,197353,1,0,0:0:0:0:
329,192,197353,1,0,0:0:0:0:
402,192,197406,1,0,0:0:0:0:
329,192,197459,1,0,0:0:0:0:
36,192,197513,1,0,0:0:0:0:
182,192,197513,1,0,0:0:0:0:
402,192,197566,1,0,0:0:0:0:
109,192,197566,1,0,0:0:0:0:
256,192,197566,1,0,0:0:0:0:
329,192,197619,1,0,0:0:0:0:
402,192,197673,1,0,0:0:0:0:
182,192,197673,1,0,0:0:0:0:
36,192,197673,1,0,0:0:0:0:
475,192,197726,1,0,0:0:0:0:
256,192,197780,1,0,0:0:0:0:
36,192,197780,1,0,0:0:0:0:
109,192,197780,1,0,0:0:0:0:
402,192,197851,1,0,0:0:0:0:
329,192,197851,1,0,0:0:0:0:
182,192,197851,1,0,0:0:0:0:
475,192,197922,1,0,0:0:0:0:
36,192,197922,1,0,0:0:0:0:
256,192,197922,1,0,0:0:0:0:
109,192,197993,1,0,0:0:0:0:
182,192,197993,1,0,0:0:0:0:
329,192,197993,1,0,0:0:0:0:
475,192,198064,1,0,0:0:0:0:
256,192,198064,1,0,0:0:0:0:
402,192,198064,1,0,0:0:0:0:
109,192,198135,1,0,0:0:0:0:
329,192,198135,1,0,0:0:0:0:
182,192,198135,1,0,0:0:0:0:
402,192,198207,1,0,0:0:0:0:
256,192,198207,1,0,0:0:0:0:
36,192,198207,1,0,0:0:0:0:
475,192,198207,1,0,0:0:0:0:
109,192,198367,1,0,0:0:0:0:
329,192,198527,1,0,0:0:0:0:
182,192,198687,1,0,0:0:0:0:
402,192,198847,1,0,0:0:0:0:
475,192,198954,1,0,0:0:0:0:
256,192,199061,1,0,0:0:0:0:
182,192,199167,1,0,0:0:0:0:
329,192,199274,1,0,0:0:0:0:
475,192,199381,1,0,0:0:0:0:
109,192,199488,1,0,0:0:0:0:
402,192,199648,1,0,0:0:0:0:
256,192,199808,1,0,0:0:0:0:
329,192,199915,1,0,0:0:0:0:
475,192,199915,1,0,0:0:0:0:
182,192,199915,1,0,0:0:0:0:
36,192,199915,1,0,0:0:0:0:
182,192,200022,1,0,0:0:0:0:
36,192,200022,1,0,0:0:0:0:
36,192,200128,1,0,0:0:0:0:
182,192,200128,1,0,0:0:0:0:
182,192,200235,1,0,0:0:0:0:
36,192,200235,1,0,0:0:0:0:
475,192,200342,1,0,0:0:0:0:
329,192,200342,1,0,0:0:0:0:
182,192,200395,1,0,0:0:0:0:
475,192,200449,1,0,0:0:0:0:
329,192,200449,1,0,0:0:0:0:
182,192,200502,1,0,0:0:0:0:
36,192,200555,1,0,0:0:0:0:
256,192,200662,1,0,0:0:0:0:
329,192,200662,1,0,0:0:0:0:
475,192,200662,1,0,0:0:0:0:
109,192,200769,1,0,0:0:0:0:
402,192,200876,1,0,0:0:0:0:
256,192,200876,1,0,0:0:0:0:
109,192,200876,1,0,0:0:0:0:
182,192,200982,1,0,0:0:0:0:
475,192,200982,1,0,0:0:0:0:
329,192,200982,1,0,0:0:0:0:
402,192,201089,1,0,0:0:0:0:
256,192,201089,1,0,0:0:0:0:
329,192,201143,1,0,0:0:0:0:
182,192,201143,1,0,0:0:0:0:
109,192,201196,1,0,0:0:0:0:
402,192,201196,1,0,0:0:0:0:
475,192,201196,1,0,0:0:0:0:
256,192,201196,1,0,0:0:0:0:
36,192,201196,1,0,0:0:0:0:
182,192,201303,1,0,0:0:0:0:
329,192,201303,1,0,0:0:0:0:
256,192,201409,1,0,0:0:0:0:
109,192,201409,1,0,0:0:0:0:
329,192,201516,1,0,0:0:0:0:
182,192,201516,1,0,0:0:0:0:
475,192,201623,1,0,0:0:0:0:
256,192,201623,1,0,0:0:0:0:
329,192,201623,1,0,0:0:0:0:
402,192,201623,1,0,0:0:0:0:
109,192,201623,1,0,0:0:0:0:
36,192,201623,1,0,0:0:0:0:
182,192,201623,1,0,0:0:0:0:
36,192,201730,1,0,0:0:0:0:
256,192,201730,1,0,0:0:0:0:
109,192,201836,1,0,0:0:0:0:
475,192,201836,1,0,0:0:0:0:
402,192,201863,1,0,0:0:0:0:
329,192,201890,1,0,0:0:0:0:
256,192,201917,1,0,0:0:0:0:
182,192,201943,1,0,0:0:0:0:
182,192,202050,1,0,0:0:0:0:
36,192,202050,1,0,0:0:0:0:
329,192,202050,1,0,0:0:0:0:
475,192,202050,1,0,0:0:0:0:
402,192,202050,1,0,0:0:0:0:
475,192,202157,1,0,0:0:0:0:
256,192,202157,1,0,0:0:0:0:
36,192,202210,1,0,0:0:0:0:
182,192,202264,1,0,0:0:0:0:
402,192,202264,1,0,0:0:0:0:
109,192,202317,1,0,0:0:0:0:
329,192,202370,1,0,0:0:0:0:
402,192,202384,1,0,0:0:0:0:
475,192,202397,1,0,0:0:0:0:
182,192,202477,1,0,0:0:0:0:
36,192,202477,1,0,0:0:0:0:
329,192,202477,1,0,0:0:0:0:
256,192,202477,1,0,0:0:0:0:
109,192,202477,1,0,0:0:0:0:
402,192,202584,1,0,0:0:0:0:
182,192,202584,1,0,0:0:0:0:
36,192,202637,1,0,0:0:0:0:
329,192,202637,1,0,0:0:0:0:
256,192,202691,1,0,0:0:0:0:
109,192,202691,1,0,0:0:0:0:
329,192,202744,1,0,0:0:0:0:
475,192,202797,1,0,0:0:0:0:
182,192,202797,1,0,0:0:0:0:
109,192,202851,1,0,0:0:0:0:
402,192,202851,1,0,0:0:0:0:
182,192,202904,1,0,0:0:0:0:
36,192,202904,1,0,0:0:0:0:
329,192,202904,1,0,0:0:0:0:
256,192,202904,1,0,0:0:0:0:
402,192,202957,1,0,0:0:0:0:
475,192,202957,1,0,0:0:0:0:
329,192,203011,1,0,0:0:0:0:
256,192,203064,1,0,0:0:0:0:
182,192,203078,1,0,0:0:0:0:
109,192,203091,1,0,0:0:0:0:
36,192,203104,1,0,0:0:0:0:
475,192,203118,1,0,0:0:0:0:
402,192,203224,1,0,0:0:0:0:
109,192,203224,1,0,0:0:0:0:
256,192,203224,1,0,0:0:0:0:
329,192,203278,1,0,0:0:0:0:
36,192,203331,1,0,0:0:0:0:
256,192,203331,1,0,0:0:0:0:
109,192,203331,1,0,0:0:0:0:
402,192,203331,1,0,0:0:0:0:
475,192,203331,1,0,0:0:0:0:
36,192,203438,1,0,0:0:0:0:
329,192,203438,1,0,0:0:0:0:
402,192,203545,1,0,0:0:0:0:
109,192,203545,1,0,0:0:0:0:
182,192,203571,1,0,0:0:0:0:
256,192,203598,1,0,0:0:0:0:
329,192,203625,1,0,0:0:0:0:
109,192,203651,1,0,0:0:0:0:
402,192,203651,1,0,0:0:0:0:
329,192,203758,1,0,0:0:0:0:
475,192,203758,1,0,0:0:0:0:
256,192,203758,1,0,0:0:0:0:
36,192,203758,1,0,0:0:0:0:
182,192,203758,1,0,0:0:0:0:
109,192,203812,1,0,0:0:0:0:
329,192,203865,1,0,0:0:0:0:
182,192,203865,1,0,0:0:0:0:
402,192,203918,1,0,0:0:0:0:
475,192,203918,1,0,0:0:0:0:
109,192,203972,1,0,0:0:0:0:
182,192,203985,1,0,0:0:0:0:
256,192,203998,1,0,0:0:0:0:
402,192,204078,1,0,0:0:0:0:
329,192,204092,1,0,0:0:0:0:
256,192,204105,1,0,0:0:0:0:
402,192,204185,1,0,0:0:0:0:
475,192,204185,1,0,0:0:0:0:
36,192,204185,1,0,0:0:0:0:
182,192,204185,1,0,0:0:0:0:
109,192,204185,1,0,0:0:0:0:
329,192,204292,1,0,0:0:0:0:
36,192,204292,1,0,0:0:0:0:
256,192,204292,1,0,0:0:0:0:
402,192,204345,1,0,0:0:0:0:
182,192,204399,1,0,0:0:0:0:
475,192,204399,1,0,0:0:0:0:
402,192,204452,1,0,0:0:0:0:
109,192,204452,1,0,0:0:0:0:
329,192,204506,1,0,0:0:0:0:
36,192,204506,1,0,0:0:0:0:
256,192,204559,1,0,0:0:0:0:
402,192,204612,1,0,0:0:0:0:
475,192,204612,1,0,0:0:0:0:
36,192,204612,1,0,0:0:0:0:
109,192,204612,1,0,0:0:0:0:
329,192,204612,1,0,0:0:0:0:
182,192,204666,1,0,0:0:0:0:
109,192,204719,1,0,0:0:0:0:
402,192,204719,1,0,0:0:0:0:
256,192,204772,1,0,0:0:0:0:
36,192,204826,1,0,0:0:0:0:
109,192,204839,1,0,0:0:0:0:
182,192,204853,1,0,0:0:0:0:
329,192,204933,1,0,0:0:0:0:
402,192,204946,1,0,0:0:0:0:
475,192,204959,1,0,0:0:0:0:
109,192,205039,1,0,0:0:0:0:
36,192,205039,1,0,0:0:0:0:
182,192,205039,1,0,0:0:0:0:
329,192,205039,1,0,0:0:0:0:
256,192,205039,1,0,0:0:0:0:
36,192,205146,1,0,0:0:0:0:
182,192,205146,1,0,0:0:0:0:
475,192,205199,1,0,0:0:0:0:
329,192,205199,1,0,0:0:0:0:
256,192,205253,1,0,0:0:0:0:
182,192,205280,1,0,0:0:0:0:
109,192,205306,1,0,0:0:0:0:
36,192,205333,1,0,0:0:0:0:
402,192,205360,1,0,0:0:0:0:
329,192,205413,1,0,0:0:0:0:
36,192,205466,1,0,0:0:0:0:
182,192,205466,1,0,0:0:0:0:
475,192,205466,1,0,0:0:0:0:
256,192,205466,1,0,0:0:0:0:
402,192,205466,1,0,0:0:0:0:
109,192,205520,1,0,0:0:0:0:
182,192,205573,1,0,0:0:0:0:
36,192,205680,1,0,0:0:0:0:
109,192,205680,1,0,0:0:0:0:
329,192,205680,1,0,0:0:0:0:
475,192,205680,1,0,0:0:0:0:
256,192,205733,1,0,0:0:0:0:
402,192,205733,1,0,0:0:0:0:
182,192,205787,1,0,0:0:0:0:
329,192,205787,1,0,0:0:0:0:
402,192,205840,1,0,0:0:0:0:
36,192,205893,1,0,0:0:0:0:
475,192,205893,1,0,0:0:0:0:
109,192,205893,1,0,0:0:0:0:
256,192,205893,1,0,0:0:0:0:
182,192,205893,1,0,0:0:0:0:
329,192,206000,1,0,0:0:0:0:
109,192,206000,1,0,0:0:0:0:
36,192,206000,1,0,0:0:0:0:
402,192,206107,1,0,0:0:0:0:
329,192,206120,1,0,0:0:0:0:
256,192,206134,1,0,0:0:0:0:
182,192,206147,1,0,0:0:0:0:
109,192,206160,1,0,0:0:0:0:
402,192,206214,1,0,0:0:0:0:
182,192,206267,1,0,0:0:0:0:
475,192,206320,1,0,0:0:0:0:
329,192,206320,1,0,0:0:0:0:
256,192,206320,1,0,0:0:0:0:
109,192,206320,1,0,0:0:0:0:
36,192,206320,1,0,0:0:0:0:
402,192,206374,1,0,0:0:0:0:
36,192,206427,1,0,0:0:0:0:
329,192,206427,1,0,0:0:0:0:
475,192,206481,1,0,0:0:0:0:
182,192,206481,1,0,0:0:0:0:
402,192,206534,1,0,0:0:0:0:
256,192,206534,1,0,0:0:0:0:
109,192,206534,1,0,0:0:0:0:
329,192,206587,1,0,0:0:0:0:
182,192,206641,1,0,0:0:0:0:
256,192,206641,1,0,0:0:0:0:
109,192,206694,1,0,0:0:0:0:
475,192,206748,1,0,0:0:0:0:
402,192,206748,1,0,0:0:0:0:
329,192,206748,1,0,0:0:0:0:
36,192,206748,1,0,0:0:0:0:
182,192,206748,1,0,0:0:0:0:
402,192,206854,1,0,0:0:0:0:
256,192,206854,1,0,0:0:0:0:
109,192,206854,1,0,0:0:0:0:
402,192,206961,1,0,0:0:0:0:
256,192,206961,1,0,0:0:0:0:
109,192,206961,1,0,0:0:0:0:
182,192,207068,1,0,0:0:0:0:
329,192,207068,1,0,0:0:0:0:
402,192,207175,1,0,0:0:0:0:
475,192,207175,1,0,0:0:0:0:
36,192,207175,1,0,0:0:0:0:
109,192,207175,1,0,0:0:0:0:
256,192,207175,1,0,0:0:0:0:
329,192,207228,1,0,0:0:0:0:
182,192,207228,1,0,0:0:0:0:
36,192,207281,1,0,0:0:0:0:
475,192,207281,1,0,0:0:0:0:
109,192,207335,1,0,0:0:0:0:
402,192,207335,1,0,0:0:0:0:
182,192,207388,1,0,0:0:0:0:
256,192,207495,1,0,0:0:0:0:
329,192,207508,1,0,0:0:0:0:
402,192,207522,1,0,0:0:0:0:
475,192,207535,1,0,0:0:0:0:
256,192,207602,1,0,0:0:0:0:
182,192,207602,1,0,0:0:0:0:
109,192,207602,1,0,0:0:0:0:
36,192,207602,1,0,0:0:0:0:
329,192,207602,1,0,0:0:0:0:
109,192,207708,1,0,0:0:0:0:
182,192,207722,1,0,0:0:0:0:
256,192,207735,1,0,0:0:0:0:
402,192,207815,1,0,0:0:0:0:
475,192,207815,1,0,0:0:0:0:
182,192,207842,1,0,0:0:0:0:
109,192,207855,1,0,0:0:0:0:
36,192,207869,1,0,0:0:0:0:
329,192,207922,1,0,0:0:0:0:
402,192,207922,1,0,0:0:0:0:
109,192,207975,1,0,0:0:0:0:
256,192,207975,1,0,0:0:0:0:
402,192,208029,1,0,0:0:0:0:
182,192,208029,1,0,0:0:0:0:
36,192,208029,1,0,0:0:0:0:
475,192,208029,1,0,0:0:0:0:
329,192,208082,1,0,0:0:0:0:
109,192,208135,1,0,0:0:0:0:
256,192,208135,1,0,0:0:0:0:
402,192,208189,1,0,0:0:0:0:
36,192,208242,1,0,0:0:0:0:
182,192,208242,1,0,0:0:0:0:
329,192,208242,1,0,0:0:0:0:
475,192,208296,1,0,0:0:0:0:
109,192,208349,1,0,0:0:0:0:
256,192,208349,1,0,0:0:0:0:
402,192,208349,1,0,0:0:0:0:
182,192,208402,1,0,0:0:0:0:
109,192,208456,1,0,0:0:0:0:
36,192,208456,1,0,0:0:0:0:
256,192,208456,1,0,0:0:0:0:
402,192,208456,1,0,0:0:0:0:
475,192,208456,1,0,0:0:0:0:
329,192,208456,1,0,0:0:0:0:
182,192,208562,1,0,0:0:0:0:
329,192,208562,1,0,0:0:0:0:
402,192,208669,1,0,0:0:0:0:
36,192,208669,1,0,0:0:0:0:
109,192,208696,1,0,0:0:0:0:
182,192,208723,1,0,0:0:0:0:
256,192,208749,1,0,0:0:0:0:
329,192,208776,1,0,0:0:0:0:
329,192,208883,1,0,0:0:0:0:
475,192,208883,1,0,0:0:0:0:
182,192,208883,1,0,0:0:0:0:
36,192,208883,1,0,0:0:0:0:
109,192,208883,1,0,0:0:0:0:
36,192,208990,1,0,0:0:0:0:
256,192,208990,1,0,0:0:0:0:
475,192,209043,1,0,0:0:0:0:
329,192,209096,1,0,0:0:0:0:
109,192,209096,1,0,0:0:0:0:
402,192,209150,1,0,0:0:0:0:
182,192,209203,1,0,0:0:0:0:
109,192,209216,1,0,0:0:0:0:
36,192,209230,1,0,0:0:0:0:
329,192,209310,1,0,0:0:0:0:
475,192,209310,1,0,0:0:0:0:
182,192,209310,1,0,0:0:0:0:
256,192,209310,1,0,0:0:0:0:
402,192,209310,1,0,0:0:0:0:
109,192,209417,1,0,0:0:0:0:
329,192,209417,1,0,0:0:0:0:
475,192,209470,1,0,0:0:0:0:
182,192,209470,1,0,0:0:0:0:
256,192,209523,1,0,0:0:0:0:
402,192,209523,1,0,0:0:0:0:
182,192,209577,1,0,0:0:0:0:
36,192,209630,1,0,0:0:0:0:
329,192,209630,1,0,0:0:0:0:
402,192,209683,1,0,0:0:0:0:
109,192,209683,1,0,0:0:0:0:
329,192,209737,1,0,0:0:0:0:
475,192,209737,1,0,0:0:0:0:
182,192,209737,1,0,0:0:0:0:
256,192,209737,1,0,0:0:0:0:
109,192,209790,1,0,0:0:0:0:
36,192,209790,1,0,0:0:0:0:
182,192,209844,1,0,0:0:0:0:
256,192,209897,1,0,0:0:0:0:
329,192,209910,1,0,0:0:0:0:
402,192,209924,1,0,0:0:0:0:
475,192,209937,1,0,0:0:0:0:
36,192,209950,1,0,0:0:0:0:
109,192,210057,1,0,0:0:0:0:
402,192,210057,1,0,0:0:0:0:
256,192,210057,1,0,0:0:0:0:
182,192,210111,1,0,0:0:0:0:
475,192,210164,1,0,0:0:0:0:
256,192,210164,1,0,0:0:0:0:
402,192,210164,1,0,0:0:0:0:
109,192,210164,1,0,0:0:0:0:
36,192,210164,1,0,0:0:0:0:
475,192,210271,1,0,0:0:0:0:
182,192,210271,1,0,0:0:0:0:
109,192,210377,1,0,0:0:0:0:
402,192,210377,1,0,0:0:0:0:
329,192,210404,1,0,0:0:0:0:
256,192,210431,1,0,0:0:0:0:
182,192,210457,1,0,0:0:0:0:
402,192,210484,1,0,0:0:0:0:
109,192,210484,1,0,0:0:0:0:
182,192,210591,1,0,0:0:0:0:
36,192,210591,1,0,0:0:0:0:
256,192,210591,1,0,0:0:0:0:
475,192,210591,1,0,0:0:0:0:
329,192,210591,1,0,0:0:0:0:
402,192,210644,1,0,0:0:0:0:
182,192,210698,1,0,0:0:0:0:
329,192,210698,1,0,0:0:0:0:
109,192,210751,1,0,0:0:0:0:
36,192,210751,1,0,0:0:0:0:
402,192,210804,1,0,0:0:0:0:
329,192,210818,1,0,0:0:0:0:
256,192,210831,1,0,0:0:0:0:
109,192,210911,1,0,0:0:0:0:
182,192,210925,1,0,0:0:0:0:
256,192,210938,1,0,0:0:0:0:
109,192,211018,1,0,0:0:0:0:
36,192,211018,1,0,0:0:0:0:
475,192,211018,1,0,0:0:0:0:
329,192,211018,1,0,0:0:0:0:
402,192,211018,1,0,0:0:0:0:
182,192,211125,1,0,0:0:0:0:
475,192,211125,1,0,0:0:0:0:
256,192,211125,1,0,0:0:0:0:
109,192,211178,1,0,0:0:0:0:
329,192,211232,1,0,0:0:0:0:
36,192,211232,1,0,0:0:0:0:
109,192,211285,1,0,0:0:0:0:
402,192,211285,1,0,0:0:0:0:
182,192,211338,1,0,0:0:0:0:
475,192,211338,1,0,0:0:0:0:
256,192,211392,1,0,0:0:0:0:
109,192,211445,1,0,0:0:0:0:
36,192,211445,1,0,0:0:0:0:
475,192,211445,1,0,0:0:0:0:
402,192,211445,1,0,0:0:0:0:
182,192,211445,1,0,0:0:0:0:
329,192,211498,1,0,0:0:0:0:
402,192,211552,1,0,0:0:0:0:
109,192,211552,1,0,0:0:0:0:
256,192,211605,1,0,0:0:0:0:
475,192,211659,1,0,0:0:0:0:
402,192,211672,1,0,0:0:0:0:
329,192,211685,1,0,0:0:0:0:
182,192,211765,1,0,0:0:0:0:
109,192,211779,1,0,0:0:0:0:
36,192,211792,1,0,0:0:0:0:
402,192,211872,1,0,0:0:0:0:
475,192,211872,1,0,0:0:0:0:
329,192,211872,1,0,0:0:0:0:
182,192,211872,1,0,0:0:0:0:
256,192,211872,1,0,0:0:0:0:
475,192,211979,1,0,0:0:0:0:
329,192,211979,1,0,0:0:0:0:
36,192,212032,1,0,0:0:0:0:
182,192,212032,1,0,0:0:0:0:
256,192,212086,1,0,0:0:0:0:
329,192,212112,1,0,0:0:0:0:
402,192,212139,1,0,0:0:0:0:
475,192,212166,1,0,0:0:0:0:
109,192,212192,1,0,0:0:0:0:
182,192,212246,1,0,0:0:0:0:
475,192,212299,1,0,0:0:0:0:
329,192,212299,1,0,0:0:0:0:
36,192,212299,1,0,0:0:0:0:
256,192,212299,1,0,0:0:0:0:
109,192,212299,1,0,0:0:0:0:
402,192,212353,1,0,0:0:0:0:
329,192,212406,1,0,0:0:0:0:
475,192,212513,1,0,0:0:0:0:
402,192,212513,1,0,0:0:0:0:
182,192,212513,1,0,0:0:0:0:
36,192,212513,1,0,0:0:0:0:
256,192,212566,1,0,0:0:0:0:
109,192,212566,1,0,0:0:0:0:
329,192,212619,1,0,0:0:0:0:
182,192,212619,1,0,0:0:0:0:
109,192,212673,1,0,0:0:0:0:
475,192,212726,1,0,0:0:0:0:
36,192,212726,1,0,0:0:0:0:
402,192,212726,1,0,0:0:0:0:
256,192,212726,1,0,0:0:0:0:
329,192,212726,1,0,0:0:0:0:
182,192,212833,1,0,0:0:0:0:
402,192,212833,1,0,0:0:0:0:
475,192,212833,1,0,0:0:0:0:
109,192,212940,1,0,0:0:0:0:
182,192,212953,1,0,0:0:0:0:
256,192,212966,1,0,0:0:0:0:
329,192,212980,1,0,0:0:0:0:
402,192,212993,1,0,0:0:0:0:
109,192,213046,1,0,0:0:0:0:
329,192,213100,1,0,0:0:0:0:
36,192,213153,1,0,0:0:0:0:
182,192,213153,1,0,0:0:0:0:
256,192,213153,1,0,0:0:0:0:
402,192,213153,1,0,0:0:0:0:
475,192,213153,1,0,0:0:0:0:
109,192,213207,1,0,0:0:0:0:
475,192,213260,1,0,0:0:0:0:
329,192,213260,1,0,0:0:0:0:
36,192,213313,1,0,0:0:0:0:
182,192,213313,1,0,0:0:0:0:
109,192,213367,1,0,0:0:0:0:
256,192,213367,1,0,0:0:0:0:
402,192,213367,1,0,0:0:0:0:
182,192,213420,1,0,0:0:0:0:
329,192,213474,1,0,0:0:0:0:
109,192,213474,1,0,0:0:0:0:
402,192,213527,1,0,0:0:0:0:
475,192,213580,1,0,0:0:0:0:
256,192,213580,1,0,0:0:0:0:
329,192,213580,1,0,0:0:0:0:
182,192,213580,1,0,0:0:0:0:
36,192,213580,1,0,0:0:0:0:
182,192,213687,1,0,0:0:0:0:
36,192,213687,1,0,0:0:0:0:
36,192,213794,1,0,0:0:0:0:
182,192,213794,1,0,0:0:0:0:
182,192,213901,1,0,0:0:0:0:
36,192,213901,1,0,0:0:0:0:
475,192,214007,1,0,0:0:0:0:
329,192,214007,1,0,0:0:0:0:
109,192,214061,1,0,0:0:0:0:
256,192,214061,1,0,0:0:0:0:
329,192,214114,5,0,0:0:0:0:
475,192,214114,1,0,0:0:0:0:
109,192,214167,1,0,0:0:0:0:
256,192,214167,1,0,0:0:0:0:
36,192,214221,1,0,0:0:0:0:
182,192,214328,1,0,0:0:0:0:
402,192,214328,1,0,0:0:0:0:
475,192,214328,1,0,0:0:0:0:
329,192,214328,1,0,0:0:0:0:
256,192,214434,1,0,0:0:0:0:
329,192,214541,1,0,0:0:0:0:
256,192,214554,1,0,0:0:0:0:
182,192,214568,1,0,0:0:0:0:
109,192,214648,1,0,0:0:0:0:
36,192,214648,1,0,0:0:0:0:
329,192,214661,1,0,0:0:0:0:
402,192,214675,1,0,0:0:0:0:
475,192,214688,1,0,0:0:0:0:
182,192,214755,1,0,0:0:0:0:
36,192,214755,1,0,0:0:0:0:
109,192,214808,1,0,0:0:0:0:
256,192,214808,1,0,0:0:0:0:
182,192,214861,1,0,0:0:0:0:
329,192,214861,1,0,0:0:0:0:
475,192,214861,1,0,0:0:0:0:
36,192,214915,1,0,0:0:0:0:
402,192,214968,1,0,0:0:0:0:
256,192,214968,1,0,0:0:0:0:
109,192,215022,1,0,0:0:0:0:
475,192,215075,1,0,0:0:0:0:
329,192,215075,1,0,0:0:0:0:
182,192,215075,1,0,0:0:0:0:
36,192,215128,1,0,0:0:0:0:
402,192,215182,1,0,0:0:0:0:
256,192,215182,1,0,0:0:0:0:
109,192,215182,1,0,0:0:0:0:
329,192,215235,1,0,0:0:0:0:
182,192,215288,5,0,0:0:0:0:
256,192,215288,1,0,0:0:0:0:
36,192,215288,1,0,0:0:0:0:
402,192,215288,1,0,0:0:0:0:
475,192,215288,1,0,0:0:0:0:
109,192,215342,1,0,0:0:0:0:
329,192,215395,1,0,0:0:0:0:
182,192,215449,1,0,0:0:0:0:
109,192,215502,1,0,0:0:0:0:
36,192,215502,1,0,0:0:0:0:
329,192,215502,1,0,0:0:0:0:
475,192,215502,1,0,0:0:0:0:
402,192,215555,1,0,0:0:0:0:
182,192,215609,1,0,0:0:0:0:
256,192,215662,1,0,0:0:0:0:
36,192,215715,1,0,0:0:0:0:
475,192,215715,1,0,0:0:0:0:
402,192,215715,1,0,0:0:0:0:
329,192,215715,1,0,0:0:0:0:
109,192,215733,1,0,0:0:0:0:
182,192,215751,1,0,0:0:0:0:
475,192,215929,1,0,0:0:0:0:
329,192,215929,1,0,0:0:0:0:
402,192,215929,1,0,0:0:0:0:
182,192,215929,1,0,0:0:0:0:
109,192,215947,1,0,0:0:0:0:
36,192,215965,1,0,0:0:0:0:
109,192,216036,1,0,0:0:0:0:
182,192,216054,1,0,0:0:0:0:
256,192,216071,1,0,0:0:0:0:
402,192,216143,1,0,0:0:0:0:
329,192,216143,1,0,0:0:0:0:
475,192,216143,1,0,0:0:0:0:
36,192,216143,1,0,0:0:0:0:
256,192,216249,1,0,0:0:0:0:
182,192,216267,1,0,0:0:0:0:
109,192,216285,1,0,0:0:0:0:
329,192,216303,1,0,0:0:0:0:
36,192,216356,1,0,0:0:0:0:
402,192,216356,1,0,0:0:0:0:
109,192,216374,1,0,0:0:0:0:
182,192,216392,1,0,0:0:0:0:
475,192,216409,1,0,0:0:0:0:
402,192,216463,1,0,0:0:0:0:
329,192,216481,1,0,0:0:0:0:
256,192,216498,1,0,0:0:0:0:
109,192,216516,1,0,0:0:0:0:
182,192,216570,1,0,0:0:0:0:
36,192,216570,1,0,0:0:0:0:
475,192,216570,1,0,0:0:0:0:
402,192,216623,1,0,0:0:0:0:
329,192,216676,1,0,0:0:0:0:
256,192,216730,1,0,0:0:0:0:
36,192,216783,1,0,0:0:0:0:
402,192,216783,1,0,0:0:0:0:
475,192,216783,1,0,0:0:0:0:
109,192,216810,1,0,0:0:0:0:
182,192,216836,1,0,0:0:0:0:
256,192,216863,1,0,0:0:0:0:
475,192,216890,1,0,0:0:0:0:
402,192,216890,1,0,0:0:0:0:
329,192,216890,1,0,0:0:0:0:
182,192,216943,1,0,0:0:0:0:
475,192,216997,1,0,0:0:0:0:
109,192,216997,1,0,0:0:0:0:
36,192,216997,1,0,0:0:0:0:
329,192,216997,1,0,0:0:0:0:
256,192,217050,1,0,0:0:0:0:
402,192,217086,1,0,0:0:0:0:
109,192,217157,1,0,0:0:0:0:
36,192,217210,1,0,0:0:0:0:
475,192,217210,1,0,0:0:0:0:
256,192,217210,1,0,0:0:0:0:
329,192,217210,1,0,0:0:0:0:
182,192,217264,1,0,0:0:0:0:
402,192,217317,1,0,0:0:0:0:
256,192,217370,1,0,0:0:0:0:
475,192,217424,1,0,0:0:0:0:
36,192,217424,1,0,0:0:0:0:
109,192,217424,1,0,0:0:0:0:
182,192,217424,1,0,0:0:0:0:
402,192,217441,1,0,0:0:0:0:
329,192,217459,1,0,0:0:0:0:
36,192,217637,1,0,0:0:0:0:
182,192,217637,1,0,0:0:0:0:
109,192,217637,1,0,0:0:0:0:
329,192,217637,1,0,0:0:0:0:
402,192,217655,1,0,0:0:0:0:
475,192,217673,1,0,0:0:0:0:
402,192,217744,1,0,0:0:0:0:
329,192,217762,1,0,0:0:0:0:
256,192,217780,1,0,0:0:0:0:
109,192,217851,1,0,0:0:0:0:
182,192,217851,1,0,0:0:0:0:
36,192,217851,1,0,0:0:0:0:
475,192,217851,1,0,0:0:0:0:
256,192,217957,1,0,0:0:0:0:
329,192,217975,1,0,0:0:0:0:
402,192,217993,1,0,0:0:0:0:
182,192,218011,1,0,0:0:0:0:
475,192,218064,1,0,0:0:0:0:
109,192,218064,1,0,0:0:0:0:
402,192,218082,1,0,0:0:0:0:
329,192,218100,1,0,0:0:0:0:
36,192,218118,1,0,0:0:0:0:
109,192,218171,1,0,0:0:0:0:
182,192,218189,1,0,0:0:0:0:
256,192,218207,1,0,0:0:0:0:
402,192,218224,1,0,0:0:0:0:
329,192,218278,1,0,0:0:0:0:
475,192,218278,1,0,0:0:0:0:
36,192,218278,1,0,0:0:0:0:
109,192,218331,1,0,0:0:0:0:
182,192,218385,1,0,0:0:0:0:
256,192,218438,1,0,0:0:0:0:
109,192,218491,1,0,0:0:0:0:
402,192,218491,1,0,0:0:0:0:
475,192,218491,1,0,0:0:0:0:
329,192,218518,1,0,0:0:0:0:
256,192,218545,1,0,0:0:0:0:
182,192,218571,1,0,0:0:0:0:
36,192,218598,1,0,0:0:0:0:
109,192,218625,1,0,0:0:0:0:
256,192,218651,1,0,0:0:0:0:
329,192,218678,1,0,0:0:0:0:
402,192,218705,1,0,0:0:0:0:
475,192,218705,1,0,0:0:0:0:
182,192,218705,1,0,0:0:0:0:
36,192,218705,1,0,0:0:0:0:
109,192,218758,1,0,0:0:0:0:
256,192,218812,1,0,0:0:0:0:
402,192,218865,1,0,0:0:0:0:
182,192,218918,1,0,0:0:0:0:
475,192,218918,1,0,0:0:0:0:
36,192,218918,1,0,0:0:0:0:
329,192,218918,1,0,0:0:0:0:
256,192,218972,1,0,0:0:0:0:
109,192,219025,1,0,0:0:0:0:
329,192,219078,1,0,0:0:0:0:
256,192,219132,1,0,0:0:0:0:
402,192,219132,1,0,0:0:0:0:
182,192,219132,1,0,0:0:0:0:
475,192,219132,1,0,0:0:0:0:
109,192,219150,1,0,0:0:0:0:
36,192,219167,1,0,0:0:0:0:
402,192,219345,1,0,0:0:0:0:
109,192,219345,1,0,0:0:0:0:
475,192,219345,1,0,0:0:0:0:
329,192,219345,1,0,0:0:0:0:
182,192,219363,1,0,0:0:0:0:
256,192,219381,1,0,0:0:0:0:
182,192,219452,1,0,0:0:0:0:
109,192,219470,1,0,0:0:0:0:
36,192,219488,1,0,0:0:0:0:
475,192,219559,1,0,0:0:0:0:
256,192,219559,1,0,0:0:0:0:
402,192,219559,1,0,0:0:0:0:
329,192,219559,1,0,0:0:0:0:
109,192,219666,1,0,0:0:0:0:
182,192,219683,1,0,0:0:0:0:
256,192,219701,1,0,0:0:0:0:
402,192,219719,1,0,0:0:0:0:
182,192,219772,1,0,0:0:0:0:
475,192,219772,1,0,0:0:0:0:
109,192,219790,1,0,0:0:0:0:
36,192,219808,1,0,0:0:0:0:
256,192,219826,1,0,0:0:0:0:
329,192,219879,1,0,0:0:0:0:
402,192,219897,1,0,0:0:0:0:
475,192,219915,1,0,0:0:0:0:
182,192,219933,1,0,0:0:0:0:
109,192,219986,1,0,0:0:0:0:
256,192,219986,1,0,0:0:0:0:
36,192,219986,1,0,0:0:0:0:
329,192,220039,1,0,0:0:0:0:
182,192,220093,1,0,0:0:0:0:
402,192,220146,1,0,0:0:0:0:
475,192,220199,1,0,0:0:0:0:
109,192,220199,1,0,0:0:0:0:
36,192,220199,1,0,0:0:0:0:
329,192,220226,1,0,0:0:0:0:
256,192,220253,1,0,0:0:0:0:
182,192,220280,1,0,0:0:0:0:
109,192,220306,1,0,0:0:0:0:
402,192,220306,1,0,0:0:0:0:
475,192,220306,1,0,0:0:0:0:
329,192,220360,1,0,0:0:0:0:
182,192,220413,1,0,0:0:0:0:
36,192,220413,1,0,0:0:0:0:
402,192,220413,1,0,0:0:0:0:
256,192,220466,1,0,0:0:0:0:
109,192,220520,1,0,0:0:0:0:
329,192,220573,1,0,0:0:0:0:
475,192,220627,1,0,0:0:0:0:
182,192,220627,1,0,0:0:0:0:
36,192,220627,1,0,0:0:0:0:
402,192,220653,1,0,0:0:0:0:
256,192,220680,1,0,0:0:0:0:
109,192,220733,1,0,0:0:0:0:
329,192,220733,1,0,0:0:0:0:
182,192,220760,1,0,0:0:0:0:
402,192,220787,1,0,0:0:0:0:
36,192,220840,1,0,0:0:0:0:
475,192,220840,1,0,0:0:0:0:
109,192,220867,1,0,0:0:0:0:
329,192,220893,1,0,0:0:0:0:
182,192,220947,1,0,0:0:0:0:
402,192,220947,1,0,0:0:0:0:
109,192,220974,1,0,0:0:0:0:
256,192,221000,1,0,0:0:0:0:
329,192,221054,1,0,0:0:0:0:
36,192,221054,1,0,0:0:0:0:
475,192,221054,1,0,0:0:0:0:
109,192,221080,1,0,0:0:0:0:
182,192,221107,1,0,0:0:0:0:
402,192,221160,1,0,0:0:0:0:
256,192,221160,1,0,0:0:0:0:
475,192,221187,1,0,0:0:0:0:
182,192,221214,1,0,0:0:0:0:
329,192,221267,1,0,0:0:0:0:
109,192,221267,1,0,0:0:0:0:
36,192,221267,1,0,0:0:0:0:
475,192,221320,1,0,0:0:0:0:
402,192,221320,1,0,0:0:0:0:
256,192,221374,1,0,0:0:0:0:
36,192,221481,1,0,0:0:0:0:
475,192,221481,1,0,0:0:0:0:
182,192,221481,1,0,0:0:0:0:
402,192,221507,1,0,0:0:0:0:
109,192,221534,1,0,0:0:0:0:
256,192,221587,1,0,0:0:0:0:
329,192,221614,1,0,0:0:0:0:
475,192,221641,1,0,0:0:0:0:
182,192,221641,1,0,0:0:0:0:
36,192,221694,1,0,0:0:0:0:
402,192,221694,1,0,0:0:0:0:
109,192,221721,1,0,0:0:0:0:
329,192,221748,1,0,0:0:0:0:
256,192,221801,1,0,0:0:0:0:
182,192,221828,1,0,0:0:0:0:
402,192,221854,1,0,0:0:0:0:
475,192,221908,1,0,0:0:0:0:
109,192,221908,1,0,0:0:0:0:
36,192,221908,1,0,0:0:0:0:
329,192,221934,1,0,0:0:0:0:
256,192,221961,1,0,0:0:0:0:
182,192,221988,1,0,0:0:0:0:
109,192,222014,1,0,0:0:0:0:
329,192,222041,1,0,0:0:0:0:
402,192,222068,1,0,0:0:0:0:
475,192,222094,1,0,0:0:0:0:
36,192,222121,1,0,0:0:0:0:
182,192,222121,1,0,0:0:0:0:
109,192,222121,1,0,0:0:0:0:
256,192,222121,1,0,0:0:0:0:
402,192,222175,1,0,0:0:0:0:
329,192,222228,1,0,0:0:0:0:
182,192,222281,1,0,0:0:0:0:
36,192,222335,1,0,0:0:0:0:
256,192,222335,1,0,0:0:0:0:
475,192,222335,1,0,0:0:0:0:
402,192,222335,1,0,0:0:0:0:
109,192,222388,1,0,0:0:0:0:
329,192,222441,1,0,0:0:0:0:
256,192,222495,1,0,0:0:0:0:
475,192,222548,1,0,0:0:0:0:
36,192,222548,1,0,0:0:0:0:
109,192,222548,1,0,0:0:0:0:
182,192,222548,1,0,0:0:0:0:
402,192,222566,1,0,0:0:0:0:
329,192,222584,1,0,0:0:0:0:
36,192,222762,1,0,0:0:0:0:
182,192,222762,1,0,0:0:0:0:
109,192,222762,1,0,0:0:0:0:
329,192,222762,1,0,0:0:0:0:
402,192,222780,1,0,0:0:0:0:
475,192,222797,1,0,0:0:0:0:
402,192,222869,1,0,0:0:0:0:
329,192,222886,1,0,0:0:0:0:
256,192,222904,1,0,0:0:0:0:
109,192,222975,1,0,0:0:0:0:
182,192,222975,1,0,0:0:0:0:
36,192,222975,1,0,0:0:0:0:
475,192,222975,1,0,0:0:0:0:
256,192,223082,1,0,0:0:0:0:
329,192,223100,1,0,0:0:0:0:
402,192,223118,1,0,0:0:0:0:
182,192,223135,1,0,0:0:0:0:
475,192,223189,1,0,0:0:0:0:
109,192,223189,1,0,0:0:0:0:
402,192,223207,1,0,0:0:0:0:
329,192,223224,1,0,0:0:0:0:
36,192,223242,1,0,0:0:0:0:
109,192,223296,1,0,0:0:0:0:
182,192,223313,1,0,0:0:0:0:
256,192,223331,1,0,0:0:0:0:
402,192,223349,1,0,0:0:0:0:
329,192,223402,1,0,0:0:0:0:
475,192,223402,1,0,0:0:0:0:
36,192,223402,1,0,0:0:0:0:
109,192,223456,1,0,0:0:0:0:
182,192,223509,1,0,0:0:0:0:
256,192,223562,1,0,0:0:0:0:
475,192,223616,1,0,0:0:0:0:
109,192,223616,1,0,0:0:0:0:
36,192,223616,1,0,0:0:0:0:
402,192,223643,1,0,0:0:0:0:
329,192,223669,1,0,0:0:0:0:
256,192,223696,1,0,0:0:0:0:
36,192,223723,1,0,0:0:0:0:
109,192,223723,1,0,0:0:0:0:
182,192,223723,1,0,0:0:0:0:
329,192,223776,1,0,0:0:0:0:
475,192,223829,1,0,0:0:0:0:
402,192,223829,1,0,0:0:0:0:
182,192,223829,1,0,0:0:0:0:
36,192,223829,1,0,0:0:0:0:
256,192,223883,1,0,0:0:0:0:
109,192,223936,1,0,0:0:0:0:
402,192,223990,1,0,0:0:0:0:
256,192,224043,1,0,0:0:0:0:
182,192,224043,1,0,0:0:0:0:
475,192,224043,1,0,0:0:0:0:
36,192,224043,1,0,0:0:0:0:
329,192,224096,1,0,0:0:0:0:
109,192,224150,1,0,0:0:0:0:
256,192,224203,1,0,0:0:0:0:
402,192,224256,1,0,0:0:0:0:
329,192,224256,1,0,0:0:0:0:
36,192,224256,1,0,0:0:0:0:
475,192,224256,1,0,0:0:0:0:
109,192,224274,1,0,0:0:0:0:
182,192,224292,1,0,0:0:0:0:
402,192,224470,1,0,0:0:0:0:
182,192,224470,1,0,0:0:0:0:
475,192,224470,1,0,0:0:0:0:
329,192,224470,1,0,0:0:0:0:
109,192,224488,1,0,0:0:0:0:
36,192,224506,1,0,0:0:0:0:
109,192,224577,1,0,0:0:0:0:
182,192,224594,1,0,0:0:0:0:
256,192,224612,1,0,0:0:0:0:
475,192,224683,1,0,0:0:0:0:
36,192,224683,1,0,0:0:0:0:
402,192,224683,1,0,0:0:0:0:
329,192,224683,1,0,0:0:0:0:
256,192,224790,1,0,0:0:0:0:
182,192,224808,1,0,0:0:0:0:
109,192,224826,1,0,0:0:0:0:
329,192,224844,1,0,0:0:0:0:
402,192,224897,1,0,0:0:0:0:
36,192,224897,1,0,0:0:0:0:
109,192,224915,1,0,0:0:0:0:
182,192,224933,1,0,0:0:0:0:
475,192,224950,1,0,0:0:0:0:
402,192,225004,1,0,0:0:0:0:
329,192,225022,1,0,0:0:0:0:
256,192,225039,1,0,0:0:0:0:
109,192,225057,1,0,0:0:0:0:
475,192,225111,1,0,0:0:0:0:
36,192,225111,1,0,0:0:0:0:
182,192,225111,1,0,0:0:0:0:
402,192,225164,1,0,0:0:0:0:
329,192,225217,1,0,0:0:0:0:
256,192,225271,1,0,0:0:0:0:
36,192,225324,1,0,0:0:0:0:
109,192,225324,1,0,0:0:0:0:
182,192,225351,1,0,0:0:0:0:
329,192,225377,1,0,0:0:0:0:
402,192,225404,1,0,0:0:0:0:
475,192,225431,1,0,0:0:0:0:
256,192,225457,1,0,0:0:0:0:
182,192,225484,1,0,0:0:0:0:
109,192,225538,1,0,0:0:0:0:
36,192,225538,1,0,0:0:0:0:
329,192,225538,1,0,0:0:0:0:
402,192,225564,1,0,0:0:0:0:
475,192,225591,1,0,0:0:0:0:
182,192,225618,1,0,0:0:0:0:
256,192,225644,1,0,0:0:0:0:
329,192,225671,1,0,0:0:0:0:
402,192,225698,1,0,0:0:0:0:
109,192,225724,1,0,0:0:0:0:
182,192,225751,1,0,0:0:0:0:
256,192,225778,1,0,0:0:0:0:
329,192,225804,1,0,0:0:0:0:
402,192,225831,1,0,0:0:0:0:
36,192,225858,1,0,0:0:0:0:
475,192,225858,1,0,0:0:0:0:
182,192,225858,1,0,0:0:0:0:
109,192,225858,1,0,0:0:0:0:
256,192,225911,1,0,0:0:0:0:
329,192,225911,1,0,0:0:0:0:
182,192,226071,1,0,0:0:0:0:
36,192,226071,1,0,0:0:0:0:
475,192,226071,1,0,0:0:0:0:
402,192,226089,1,0,0:0:0:0:
329,192,226107,1,0,0:0:0:0:
109,192,226178,1,0,0:0:0:0:
256,192,226178,1,0,0:0:0:0:
329,192,226196,1,0,0:0:0:0:
402,192,226214,1,0,0:0:0:0:
182,192,226285,1,0,0:0:0:0:
36,192,226285,1,0,0:0:0:0:
475,192,226285,1,0,0:0:0:0:
402,192,226303,1,0,0:0:0:0:
329,192,226320,1,0,0:0:0:0:
256,192,226392,1,0,0:0:0:0:
109,192,226392,1,0,0:0:0:0:
36,192,226392,1,0,0:0:0:0:
475,192,226392,1,0,0:0:0:0:
402,192,226445,1,0,0:0:0:0:
329,192,226498,1,0,0:0:0:0:
182,192,226525,1,0,0:0:0:0:
109,192,226552,1,0,0:0:0:0:
36,192,226605,1,0,0:0:0:0:
475,192,226605,1,0,0:0:0:0:
329,192,226605,1,0,0:0:0:0:
402,192,226623,1,0,0:0:0:0:
36,192,226712,1,0,0:0:0:0:
475,192,226712,1,0,0:0:0:0:
329,192,226712,1,0,0:0:0:0:
109,192,226712,1,0,0:0:0:0:
182,192,226765,1,0,0:0:0:0:
256,192,226819,1,0,0:0:0:0:
329,192,226845,1,0,0:0:0:0:
402,192,226872,1,0,0:0:0:0:
475,192,226925,1,0,0:0:0:0:
36,192,226925,1,0,0:0:0:0:
182,192,226979,1,0,0:0:0:0:
329,192,226979,1,0,0:0:0:0:
256,192,227032,1,0,0:0:0:0:
109,192,227032,1,0,0:0:0:0:
36,192,227059,1,0,0:0:0:0:
182,192,227139,1,0,0:0:0:0:
329,192,227139,1,0,0:0:0:0:
109,192,227166,1,0,0:0:0:0:
475,192,227246,1,0,0:0:0:0:
36,192,227246,1,0,0:0:0:0:
402,192,227246,1,0,0:0:0:0:
256,192,227246,1,0,0:0:0:0:
329,192,227299,1,0,0:0:0:0:
182,192,227353,1,0,0:0:0:0:
256,192,227406,1,0,0:0:0:0:
109,192,227406,1,0,0:0:0:0:
36,192,227406,1,0,0:0:0:0:
402,192,227406,1,0,0:0:0:0:
475,192,227406,1,0,0:0:0:0:
329,192,227459,1,0,0:0:0:0:
182,192,227513,1,0,0:0:0:0:
36,192,227566,1,0,0:0:0:0:
402,192,227566,1,0,0:0:0:0:
475,192,227566,1,0,0:0:0:0:
109,192,227566,1,0,0:0:0:0:
256,192,227619,1,0,0:0:0:0:
402,192,227673,1,0,0:0:0:0:
475,192,227673,1,0,0:0:0:0:
36,192,227673,1,0,0:0:0:0:
329,192,227673,1,0,0:0:0:0:
109,192,227673,1,0,0:0:0:0:
182,192,227726,1,0,0:0:0:0:
329,192,227780,1,0,0:0:0:0:
109,192,227833,1,0,0:0:0:0:
36,192,227833,1,0,0:0:0:0:
402,192,227833,1,0,0:0:0:0:
475,192,227833,1,0,0:0:0:0:
256,192,227833,1,0,0:0:0:0:
182,192,227886,1,0,0:0:0:0:
329,192,227940,1,0,0:0:0:0:
402,192,227993,1,0,0:0:0:0:
475,192,227993,1,0,0:0:0:0:
109,192,227993,1,0,0:0:0:0:
36,192,227993,1,0,0:0:0:0:
256,192,228046,1,0,0:0:0:0:
182,192,228100,1,0,0:0:0:0:
109,192,228100,1,0,0:0:0:0:
36,192,228100,1,0,0:0:0:0:
329,192,228100,1,0,0:0:0:0:
402,192,228100,1,0,0:0:0:0:
475,192,228100,1,0,0:0:0:0:
256,192,228207,1,0,0:0:0:0:
182,192,228313,1,0,0:0:0:0:
402,192,228313,1,0,0:0:0:0:
109,192,228420,1,0,0:0:0:0:
329,192,228474,1,0,0:0:0:0:
36,192,228527,1,0,0:0:0:0:
475,192,228527,1,0,0:0:0:0:
256,192,228580,1,0,0:0:0:0:
109,192,228634,1,0,0:0:0:0:
402,192,228634,1,0,0:0:0:0:
329,192,228687,1,0,0:0:0:0:
182,192,228740,1,0,0:0:0:0:
36,192,228740,1,0,0:0:0:0:
475,192,228794,1,0,0:0:0:0:
329,192,228847,1,0,0:0:0:0:
256,192,228901,1,0,0:0:0:0:
475,192,228954,1,0,0:0:0:0:
109,192,228954,1,0,0:0:0:0:
36,192,228954,1,0,0:0:0:0:
402,192,228954,1,0,0:0:0:0:
182,192,228954,1,0,0:0:0:0:
329,192,229061,1,0,0:0:0:0:
182,192,229167,1,0,0:0:0:0:
36,192,229167,1,0,0:0:0:0:
256,192,229274,1,0,0:0:0:0:
402,192,229274,1,0,0:0:0:0:
329,192,229381,1,0,0:0:0:0:
182,192,229488,1,0,0:0:0:0:
36,192,229488,1,0,0:0:0:0:
329,192,229594,1,0,0:0:0:0:
475,192,229594,1,0,0:0:0:0:
109,192,229701,1,0,0:0:0:0:
256,192,229755,1,0,0:0:0:0:
36,192,229808,1,0,0:0:0:0:
402,192,229808,1,0,0:0:0:0:
256,192,229915,1,0,0:0:0:0:
475,192,229915,1,0,0:0:0:0:
109,192,230075,1,0,0:0:0:0:
329,192,230128,1,0,0:0:0:0:
475,192,230128,1,0,0:0:0:0:
182,192,230182,1,0,0:0:0:0:
36,192,230235,1,0,0:0:0:0:
402,192,230235,1,0,0:0:0:0:
256,192,230288,1,0,0:0:0:0:
109,192,230342,1,0,0:0:0:0:
329,192,230342,1,0,0:0:0:0:
475,192,230395,1,0,0:0:0:0:
256,192,230449,1,0,0:0:0:0:
182,192,230555,1,0,0:0:0:0:
329,192,230555,1,0,0:0:0:0:
36,192,230662,1,0,0:0:0:0:
475,192,230662,1,0,0:0:0:0:
256,192,230662,1,0,0:0:0:0:
329,192,230876,1,0,0:0:0:0:
256,192,230876,1,0,0:0:0:0:
182,192,230876,1,0,0:0:0:0:
182,192,230982,1,0,0:0:0:0:
329,192,230982,1,0,0:0:0:0:
256,192,230982,1,0,0:0:0:0:
402,192,231036,1,0,0:0:0:0:
475,192,231036,1,0,0:0:0:0:
36,192,231089,1,0,0:0:0:0:
109,192,231089,1,0,0:0:0:0:
256,192,231143,1,0,0:0:0:0:
475,192,231196,1,0,0:0:0:0:
329,192,231196,1,0,0:0:0:0:
256,192,231303,1,0,0:0:0:0:
402,192,231303,1,0,0:0:0:0:
329,192,231409,1,0,0:0:0:0:
182,192,231409,1,0,0:0:0:0:
109,192,231463,1,0,0:0:0:0:
36,192,231516,1,0,0:0:0:0:
256,192,231516,1,0,0:0:0:0:
329,192,231623,1,0,0:0:0:0:
109,192,231623,1,0,0:0:0:0:
402,192,231730,1,0,0:0:0:0:
182,192,231730,1,0,0:0:0:0:
36,192,231783,1,0,0:0:0:0:
256,192,231836,1,0,0:0:0:0:
475,192,231836,1,0,0:0:0:0:
329,192,231943,1,0,0:0:0:0:
109,192,231943,1,0,0:0:0:0:
182,192,231997,1,0,0:0:0:0:
329,192,232050,1,0,0:0:0:0:
475,192,232050,1,0,0:0:0:0:
182,192,232103,1,0,0:0:0:0:
109,192,232157,1,0,0:0:0:0:
402,192,232157,1,0,0:0:0:0:
109,192,232264,1,0,0:0:0:0:
402,192,232264,1,0,0:0:0:0:
329,192,232370,1,0,0:0:0:0:
256,192,232370,1,0,0:0:0:0:
182,192,232370,1,0,0:0:0:0:
402,192,232424,1,0,0:0:0:0:
475,192,232424,1,0,0:0:0:0:
109,192,232477,1,0,0:0:0:0:
36,192,232477,1,0,0:0:0:0:
182,192,232530,1,0,0:0:0:0:
329,192,232530,1,0,0:0:0:0:
402,192,232584,1,0,0:0:0:0:
475,192,232584,1,0,0:0:0:0:
256,192,232584,1,0,0:0:0:0:
109,192,232637,1,0,0:0:0:0:
36,192,232637,1,0,0:0:0:0:
402,192,232691,1,0,0:0:0:0:
475,192,232691,1,0,0:0:0:0:
329,192,232744,1,0,0:0:0:0:
182,192,232744,1,0,0:0:0:0:
109,192,232797,1,0,0:0:0:0:
36,192,232797,1,0,0:0:0:0:
256,192,232851,1,0,0:0:0:0:
402,192,232851,1,0,0:0:0:0:
182,192,232904,1,0,0:0:0:0:
109,192,232904,1,0,0:0:0:0:
475,192,232957,1,0,0:0:0:0:
329,192,232957,1,0,0:0:0:0:
256,192,233011,1,0,0:0:0:0:
182,192,233011,1,0,0:0:0:0:
109,192,233064,1,0,0:0:0:0:
36,192,233064,1,0,0:0:0:0:
256,192,233118,1,0,0:0:0:0:
329,192,233118,1,0,0:0:0:0:
402,192,233171,1,0,0:0:0:0:
475,192,233171,1,0,0:0:0:0:
109,192,233224,1,0,0:0:0:0:
36,192,233224,1,0,0:0:0:0:
182,192,233278,1,0,0:0:0:0:
329,192,233278,1,0,0:0:0:0:
402,192,233331,1,0,0:0:0:0:
475,192,233331,1,0,0:0:0:0:
256,192,233385,1,0,0:0:0:0:
109,192,233385,1,0,0:0:0:0:
329,192,233438,1,0,0:0:0:0:
402,192,233438,1,0,0:0:0:0:
182,192,233491,1,0,0:0:0:0:
36,192,233491,1,0,0:0:0:0:
256,192,233545,1,0,0:0:0:0:
329,192,233545,1,0,0:0:0:0:
402,192,233598,1,0,0:0:0:0:
475,192,233598,1,0,0:0:0:0:
256,192,233651,1,0,0:0:0:0:
182,192,233651,1,0,0:0:0:0:
109,192,233705,1,0,0:0:0:0:
36,192,233705,1,0,0:0:0:0:
402,192,233758,1,0,0:0:0:0:
329,192,233758,1,0,0:0:0:0:
256,192,233812,1,0,0:0:0:0:
182,192,233812,1,0,0:0:0:0:
109,192,233865,1,0,0:0:0:0:
36,192,233865,1,0,0:0:0:0:
475,192,233918,1,0,0:0:0:0:
402,192,233918,1,0,0:0:0:0:
329,192,233972,1,0,0:0:0:0:
182,192,233972,1,0,0:0:0:0:
36,192,234025,1,0,0:0:0:0:
109,192,234025,1,0,0:0:0:0:
475,192,234078,1,0,0:0:0:0:
402,192,234078,1,0,0:0:0:0:
256,192,234078,1,0,0:0:0:0:
329,192,234078,1,0,0:0:0:0:
256,192,234292,1,0,0:0:0:0:
109,192,234506,1,0,0:0:0:0:
402,192,234559,1,0,0:0:0:0:
109,192,234612,1,0,0:0:0:0:
402,192,234666,1,0,0:0:0:0:
256,192,234719,1,0,0:0:0:0:
182,192,234826,1,0,0:0:0:0:
36,192,234853,1,0,0:0:0:0:
109,192,234933,1,0,0:0:0:0:
256,192,235039,1,0,0:0:0:0:
402,192,235146,1,0,0:0:0:0:
256,192,235253,1,0,0:0:0:0:
475,192,235306,1,0,0:0:0:0:
329,192,235360,1,0,0:0:0:0:
182,192,235360,1,0,0:0:0:0:
256,192,235466,1,0,0:0:0:0:
109,192,235466,1,0,0:0:0:0:
475,192,235573,1,0,0:0:0:0:
182,192,235573,1,0,0:0:0:0:
329,192,235573,1,0,0:0:0:0:
36,192,235573,1,0,0:0:0:0:
402,192,235573,1,0,0:0:0:0:
182,192,235787,1,0,0:0:0:0:
109,192,235787,1,0,0:0:0:0:
36,192,235787,1,0,0:0:0:0:
329,192,235787,1,0,0:0:0:0:
402,192,235787,1,0,0:0:0:0:
475,192,235787,1,0,0:0:0:0:
402,192,236000,1,0,0:0:0:0:
182,192,236000,1,0,0:0:0:0:
256,192,236000,1,0,0:0:0:0:
475,192,236000,1,0,0:0:0:0:
109,192,236027,1,0,0:0:0:0:
36,192,236054,1,0,0:0:0:0:
256,192,236160,1,0,0:0:0:0:
329,192,236160,1,0,0:0:0:0:
402,192,236160,1,0,0:0:0:0:
475,192,236160,1,0,0:0:0:0:
182,192,236187,1,0,0:0:0:0:
109,192,236214,1,0,0:0:0:0:
402,192,236320,1,0,0:0:0:0:
329,192,236320,1,0,0:0:0:0:
475,192,236320,1,0,0:0:0:0:
36,192,236320,1,0,0:0:0:0:
256,192,236347,1,0,0:0:0:0:
182,192,236374,1,0,0:0:0:0:
36,192,236481,1,0,0:0:0:0:
402,192,236481,1,0,0:0:0:0:
475,192,236481,1,0,0:0:0:0:
109,192,236481,1,0,0:0:0:0:
329,192,236507,1,0,0:0:0:0:
256,192,236534,1,0,0:0:0:0:
475,192,236641,1,0,0:0:0:0:
109,192,236641,1,0,0:0:0:0:
36,192,236641,1,0,0:0:0:0:
182,192,236641,1,0,0:0:0:0:
402,192,236667,1,0,0:0:0:0:
329,192,236694,1,0,0:0:0:0:
256,192,236801,1,0,0:0:0:0:
182,192,236801,1,0,0:0:0:0:
36,192,236801,1,0,0:0:0:0:
109,192,236801,1,0,0:0:0:0:
329,192,236828,1,0,0:0:0:0:
402,192,236854,1,0,0:0:0:0:
182,192,236961,1,0,0:0:0:0:
109,192,236961,1,0,0:0:0:0:
36,192,236961,1,0,0:0:0:0:
475,192,236961,1,0,0:0:0:0:
329,192,236961,1,0,0:0:0:0:
256,192,237014,1,0,0:0:0:0:
109,192,237068,1,0,0:0:0:0:
36,192,237068,1,0,0:0:0:0:
475,192,237068,1,0,0:0:0:0:
402,192,237068,1,0,0:0:0:0:
329,192,237068,1,0,0:0:0:0:
182,192,237068,1,0,0:0:0:0:
182,192,237228,1,0,0:0:0:0:
256,192,237281,1,0,0:0:0:0:
329,192,237308,1,0,0:0:0:0:
402,192,237335,1,0,0:0:0:0:
475,192,237361,1,0,0:0:0:0:
109,192,237388,1,0,0:0:0:0:
182,192,237415,1,0,0:0:0:0:
256,192,237441,1,0,0:0:0:0:
329,192,237468,1,0,0:0:0:0:
402,192,237495,1,0,0:0:0:0:
475,192,237495,1,0,0:0:0:0:
109,192,237495,1,0,0:0:0:0:
36,192,237495,1,0,0:0:0:0:
109,192,237708,1,0,0:0:0:0:
329,192,237708,1,0,0:0:0:0:
256,192,237708,1,0,0:0:0:0:
36,192,237708,1,0,0:0:0:0:
402,192,237735,1,0,0:0:0:0:
475,192,237762,1,0,0:0:0:0:
256,192,237869,1,0,0:0:0:0:
182,192,237869,1,0,0:0:0:0:
109,192,237869,1,0,0:0:0:0:
36,192,237869,1,0,0:0:0:0:
329,192,237895,1,0,0:0:0:0:
402,192,237922,1,0,0:0:0:0:
109,192,238029,1,0,0:0:0:0:
182,192,238029,1,0,0:0:0:0:
36,192,238029,1,0,0:0:0:0:
475,192,238029,1,0,0:0:0:0:
256,192,238055,1,0,0:0:0:0:
329,192,238082,1,0,0:0:0:0:
475,192,238189,1,0,0:0:0:0:
109,192,238189,1,0,0:0:0:0:
36,192,238189,1,0,0:0:0:0:
402,192,238189,1,0,0:0:0:0:
182,192,238215,1,0,0:0:0:0:
256,192,238242,1,0,0:0:0:0:
36,192,238349,1,0,0:0:0:0:
402,192,238349,1,0,0:0:0:0:
475,192,238349,1,0,0:0:0:0:
329,192,238349,1,0,0:0:0:0:
109,192,238376,1,0,0:0:0:0:
182,192,238402,1,0,0:0:0:0:
256,192,238509,1,0,0:0:0:0:
329,192,238509,1,0,0:0:0:0:
475,192,238509,1,0,0:0:0:0:
402,192,238509,1,0,0:0:0:0:
182,192,238536,1,0,0:0:0:0:
109,192,238562,1,0,0:0:0:0:
329,192,238669,1,0,0:0:0:0:
475,192,238669,1,0,0:0:0:0:
36,192,238669,1,0,0:0:0:0:
182,192,238669,1,0,0:0:0:0:
402,192,238669,1,0,0:0:0:0:
256,192,238723,1,0,0:0:0:0:
402,192,238776,1,0,0:0:0:0:
475,192,238776,1,0,0:0:0:0:
36,192,238776,1,0,0:0:0:0:
109,192,238776,1,0,0:0:0:0:
329,192,238776,1,0,0:0:0:0:
182,192,238776,1,0,0:0:0:0:
256,192,238990,1,0,0:0:0:0:
256,192,239096,1,0,0:0:0:0:
182,192,239203,1,0,0:0:0:0:
475,192,239203,1,0,0:0:0:0:
36,192,239203,1,0,0:0:0:0:
402,192,239239,1,0,0:0:0:0:
109,192,239256,1,0,0:0:0:0:
329,192,239274,1,0,0:0:0:0:
256,192,239310,1,0,0:0:0:0:
182,192,239345,1,0,0:0:0:0:
402,192,239363,1,0,0:0:0:0:
109,192,239381,1,0,0:0:0:0:
475,192,239417,1,0,0:0:0:0:
36,192,239417,1,0,0:0:0:0:
329,192,239417,1,0,0:0:0:0:
256,192,239417,1,0,0:0:0:0:
182,192,239470,1,0,0:0:0:0:
402,192,239523,1,0,0:0:0:0:
182,192,239577,1,0,0:0:0:0:
109,192,239577,1,0,0:0:0:0:
36,192,239577,1,0,0:0:0:0:
329,192,239577,1,0,0:0:0:0:
475,192,239630,1,0,0:0:0:0:
402,192,239683,1,0,0:0:0:0:
109,192,239737,1,0,0:0:0:0:
256,192,239737,1,0,0:0:0:0:
36,192,239737,1,0,0:0:0:0:
475,192,239737,1,0,0:0:0:0:
329,192,239790,1,0,0:0:0:0:
182,192,239844,1,0,0:0:0:0:
475,192,239897,1,0,0:0:0:0:
36,192,239897,1,0,0:0:0:0:
256,192,239897,1,0,0:0:0:0:
402,192,239897,1,0,0:0:0:0:
109,192,239950,1,0,0:0:0:0:
329,192,240004,1,0,0:0:0:0:
256,192,240057,1,0,0:0:0:0:
182,192,240057,1,0,0:0:0:0:
402,192,240057,1,0,0:0:0:0:
36,192,240057,1,0,0:0:0:0:
109,192,240111,1,0,0:0:0:0:
329,192,240164,1,0,0:0:0:0:
256,192,240217,1,0,0:0:0:0:
36,192,240217,1,0,0:0:0:0:
475,192,240217,1,0,0:0:0:0:
402,192,240217,1,0,0:0:0:0:
182,192,240271,1,0,0:0:0:0:
329,192,240324,1,0,0:0:0:0:
109,192,240377,1,0,0:0:0:0:
475,192,240377,1,0,0:0:0:0:
402,192,240377,1,0,0:0:0:0:
36,192,240377,1,0,0:0:0:0:
256,192,240431,1,0,0:0:0:0:
182,192,240484,1,0,0:0:0:0:
109,192,240484,1,0,0:0:0:0:
329,192,240484,1,0,0:0:0:0:
36,192,240484,1,0,0:0:0:0:
475,192,240484,1,0,0:0:0:0:
329,192,240698,1,0,0:0:0:0:
182,192,240724,1,0,0:0:0:0:
109,192,240751,1,0,0:0:0:0:
36,192,240778,1,0,0:0:0:0:
402,192,240804,1,0,0:0:0:0:
256,192,240831,1,0,0:0:0:0:
182,192,240858,1,0,0:0:0:0:
109,192,240885,1,0,0:0:0:0:
36,192,240911,1,0,0:0:0:0:
475,192,240911,1,0,0:0:0:0:
329,192,240911,1,0,0:0:0:0:
402,192,240965,1,0,0:0:0:0:
182,192,240982,1,0,0:0:0:0:
256,192,241018,1,0,0:0:0:0:
329,192,241054,1,0,0:0:0:0:
109,192,241071,1,0,0:0:0:0:
402,192,241089,1,0,0:0:0:0:
36,192,241125,1,0,0:0:0:0:
475,192,241125,1,0,0:0:0:0:
182,192,241125,1,0,0:0:0:0:
256,192,241125,1,0,0:0:0:0:
329,192,241178,1,0,0:0:0:0:
109,192,241232,1,0,0:0:0:0:
402,192,241285,1,0,0:0:0:0:
475,192,241285,1,0,0:0:0:0:
182,192,241285,1,0,0:0:0:0:
256,192,241285,1,0,0:0:0:0:
36,192,241338,1,0,0:0:0:0:
329,192,241392,1,0,0:0:0:0:
402,192,241445,1,0,0:0:0:0:
256,192,241445,1,0,0:0:0:0:
475,192,241445,1,0,0:0:0:0:
109,192,241445,1,0,0:0:0:0:
182,192,241498,1,0,0:0:0:0:
329,192,241552,1,0,0:0:0:0:
36,192,241605,1,0,0:0:0:0:
475,192,241605,1,0,0:0:0:0:
256,192,241605,1,0,0:0:0:0:
109,192,241605,1,0,0:0:0:0:
402,192,241659,1,0,0:0:0:0:
182,192,241712,1,0,0:0:0:0:
256,192,241765,1,0,0:0:0:0:
329,192,241765,1,0,0:0:0:0:
109,192,241765,1,0,0:0:0:0:
475,192,241765,1,0,0:0:0:0:
402,192,241819,1,0,0:0:0:0:
182,192,241872,1,0,0:0:0:0:
256,192,241925,1,0,0:0:0:0:
475,192,241925,1,0,0:0:0:0:
36,192,241925,1,0,0:0:0:0:
109,192,241925,1,0,0:0:0:0:
329,192,241979,1,0,0:0:0:0:
182,192,242032,1,0,0:0:0:0:
402,192,242086,1,0,0:0:0:0:
36,192,242086,1,0,0:0:0:0:
109,192,242086,1,0,0:0:0:0:
475,192,242086,1,0,0:0:0:0:
256,192,242139,1,0,0:0:0:0:
329,192,242192,1,0,0:0:0:0:
402,192,242192,1,0,0:0:0:0:
182,192,242192,1,0,0:0:0:0:
475,192,242192,1,0,0:0:0:0:
36,192,242192,1,0,0:0:0:0:
109,192,242246,1,0,0:0:0:0:
256,192,242299,1,0,0:0:0:0:
329,192,242353,1,0,0:0:0:0:
475,192,242353,1,0,0:0:0:0:
182,192,242353,1,0,0:0:0:0:
36,192,242353,1,0,0:0:0:0:
402,192,242406,1,0,0:0:0:0:
256,192,242459,1,0,0:0:0:0:
475,192,242513,1,0,0:0:0:0:
36,192,242513,1,0,0:0:0:0:
329,192,242513,1,0,0:0:0:0:
182,192,242513,1,0,0:0:0:0:
402,192,242566,1,0,0:0:0:0:
256,192,242566,1,0,0:0:0:0:
109,192,242566,1,0,0:0:0:0:
182,192,242833,1,0,0:0:0:0:
36,192,242833,1,0,0:0:0:0:
109,192,242833,1,0,0:0:0:0:
256,192,242833,1,0,0:0:0:0:
329,192,242833,1,0,0:0:0:0:
402,192,242833,1,0,0:0:0:0:
475,192,242833,1,0,0:0:0:0:
