osu file format v14

[General]
AudioFilename: audio.mp3
AudioLeadIn: 0
PreviewTime: 105015
Countdown: 0
SampleSet: None
StackLeniency: 0.2
Mode: 0
LetterboxInBreaks: 0
WidescreenStoryboard: 1

[Editor]
Bookmarks: 22400,47169,66861,106246,126246
DistanceSpacing: 1.4
BeatDivisor: 4
GridSize: 16
TimelineZoom: 2.7

[Metadata]
Title:Azul (Remix)
TitleUnicode:Azul (Remix)
Artist:celas
ArtistUnicode:celas
Creator:fufu-
Version:CS3,HP0
Source:
Tags:
BeatmapID:1608655
BeatmapSetID:765054

[Difficulty]
HPDrainRate:0
CircleSize:3
OverallDifficulty:9
ApproachRate:9.4
SliderMultiplier:1.6
SliderTickRate:1

[Events]
//Background and Video events
0,0,"Anime-Girl-Looking-At-Stars.jpg",0,0
//Break Periods
2,42446,45953
2,86753,88415
2,89215,90876
//Storyboard Layer 0 (Background)
//Storyboard Layer 1 (Fail)
//Storyboard Layer 2 (Pass)
//Storyboard Layer 3 (Foreground)
//Storyboard Sound Samples

[TimingPoints]
400,307.692307692308,4,2,1,50,1,0
32400,-66.6666666666667,4,2,1,50,0,0
66861,-66.6666666666667,4,2,1,50,0,1
86553,-133.333333333333,4,2,1,50,0,0
105938,-66.6666666666667,4,2,1,50,0,0
106246,-66.6666666666667,4,2,1,50,0,1
126246,-66.6666666666667,4,2,1,50,0,0

[Colours]
Combo1 : 0,82,164
Combo2 : 0,128,255
Combo3 : 0,128,192
Combo4 : 62,62,255

[HitObjects]
376,162,22400,5,0,0:0:0:0:
245,62,22553,2,0,B|287:103|202:168|278:233,1,160,4|8,0:0|0:0,0:0:0:0:
479,68,23015,2,0,B|438:110|373:25|308:101,1,160
172,137,23476,1,8,0:0:0:0:
294,232,23630,1,0,0:0:0:0:
294,232,23784,1,0,0:0:0:0:
158,124,23938,5,0,0:0:0:0:
307,252,24092,1,8,0:0:0:0:
114,307,24246,1,0,0:0:0:0:
188,216,24400,5,0,0:0:0:0:
231,349,24553,1,0,0:0:0:0:
275,145,24707,5,8,0:0:0:0:
318,278,24860,1,0,0:0:0:0:
357,75,25015,6,0,B|292:120|292:120|208:99,1,160,0|8,0:0|0:0,0:0:0:0:
141,74,25476,1,0,0:0:0:0:
203,23,25630,1,0,0:0:0:0:
218,126,25784,5,0,0:0:0:0:
59,58,25938,1,8,0:0:0:0:
59,58,26092,1,0,0:0:0:0:
126,238,26246,5,0,0:0:0:0:
172,47,26400,1,0,0:0:0:0:
236,315,26553,5,8,0:0:0:0:
196,122,26707,1,0,0:0:0:0:
367,337,26861,5,0,0:0:0:0:
250,178,27015,1,0,0:0:0:0:
260,302,27169,1,8,0:0:0:0:
358,226,27323,1,0,0:0:0:0:
149,132,27476,6,0,L|163:299,1,160,0|8,0:0|0:0,0:0:0:0:
224,331,27938,1,0,0:0:0:0:
291,300,28092,1,0,0:0:0:0:
336,119,28246,5,0,0:0:0:0:
301,320,28400,1,8,0:0:0:0:
230,353,28553,1,0,0:0:0:0:
161,317,28707,1,0,0:0:0:0:
33,370,28860,5,0,0:0:0:0:
161,286,29015,1,8,0:0:0:0:
311,342,29169,1,0,0:0:0:0:
311,342,29323,1,0,0:0:0:0:
273,176,29476,5,0,0:0:0:0:
133,303,29630,1,8,0:0:0:0:
326,365,29784,1,0,0:0:0:0:
205,138,29938,6,0,L|43:121,1,160,0|8,0:0|0:0,0:0:0:0:
107,157,30400,1,0,0:0:0:0:
130,230,30553,1,0,0:0:0:0:
53,347,30707,5,0,0:0:0:0:
45,121,30861,1,8,0:0:0:0:
107,157,31015,1,0,0:0:0:0:
121,309,31169,5,0,0:0:0:0:
39,93,31323,1,0,0:0:0:0:
195,167,31476,1,8,0:0:0:0:
12,241,31630,1,0,0:0:0:0:
151,57,31784,6,0,L|204:66,1,40
130,328,31938,2,0,L|91:319,1,40
209,142,32092,2,0,L|250:152,1,40,8|0,0:0|0:0,0:0:0:0:
73,242,32246,2,0,L|30:233,1,40
310,223,32400,6,0,P|342:213|421:268,1,120.000004577637,2|0,0:0|0:0,0:0:0:0:
413,263,32630,1,0,0:0:0:0:
406,273,32707,2,0,P|354:228|348:152,1,120.000004577637,10|0,0:0|0:0,0:0:0:0:
347,169,32938,1,0,0:0:0:0:
355,160,33015,2,0,P|386:93|364:37,1,120.000004577637,2|0,0:0|0:0,0:0:0:0:
364,43,33246,1,0,0:0:0:0:
352,41,33323,2,0,P|377:108|451:137,1,120.000004577637,10|0,0:0|0:0,0:0:0:0:
427,132,33553,1,0,0:0:0:0:
438,129,33630,5,2,0:0:0:0:
462,112,33707,1,0,0:0:0:0:
477,86,33784,1,0,0:0:0:0:
476,55,33861,1,0,0:0:0:0:
451,20,33938,1,8,0:0:0:0:
410,9,34015,1,0,0:0:0:0:
369,20,34092,1,0,0:0:0:0:
330,57,34169,1,0,0:0:0:0:
278,72,34246,5,0,0:0:0:0:
214,53,34323,1,0,0:0:0:0:
149,38,34400,1,0,0:0:0:0:
90,66,34476,1,0,0:0:0:0:
59,124,34553,1,8,0:0:0:0:
73,194,34630,1,0,0:0:0:0:
129,247,34707,1,0,0:0:0:0:
206,252,34784,1,0,0:0:0:0:
265,201,34861,6,0,P|278:135|143:40,1,240.000009155274,6|8,0:0|0:0,0:0:0:0:
174,144,35323,1,0,0:0:0:0:
287,209,35476,1,0,0:0:0:0:
449,55,35630,5,0,0:0:0:0:
413,171,35784,1,8,0:0:0:0:
287,209,35938,1,0,0:0:0:0:
336,26,36092,6,0,L|326:160,1,120.000004577637,2|0,0:0|0:0,0:0:0:0:
266,353,36400,1,8,0:0:0:0:
437,189,36553,1,0,0:0:0:0:
198,129,36707,1,0,0:0:0:0:
394,309,36861,6,0,L|459:294,1,60.0000022888184
224,124,37015,1,8,0:0:0:0:
237,343,37169,1,0,0:0:0:0:
333,115,37323,5,2,0:0:0:0:
354,65,37400,1,0,0:0:0:0:
332,22,37476,1,0,0:0:0:0:
291,11,37553,1,0,0:0:0:0:
258,26,37630,1,8,0:0:0:0:
246,53,37707,1,0,0:0:0:0:
244,76,37784,1,0,0:0:0:0:
250,92,37861,1,0,0:0:0:0:
256,102,37938,5,2,0:0:0:0:
210,72,38015,1,0,0:0:0:0:
163,84,38092,1,0,0:0:0:0:
129,109,38169,1,0,0:0:0:0:
93,115,38246,1,8,0:0:0:0:
64,106,38323,1,0,0:0:0:0:
46,89,38400,1,0,0:0:0:0:
41,71,38476,1,0,0:0:0:0:
44,59,38553,5,2,0:0:0:0:
82,96,38630,1,0,0:0:0:0:
101,133,38707,1,0,0:0:0:0:
103,162,38784,1,0,0:0:0:0:
97,179,38861,5,10,0:0:0:0:
96,197,38938,1,0,0:0:0:0:
105,225,39015,1,0,0:0:0:0:
133,255,39092,1,0,0:0:0:0:
184,271,39169,5,2,0:0:0:0:
235,256,39246,1,0,0:0:0:0:
269,223,39323,1,0,0:0:0:0:
296,191,39400,1,0,0:0:0:0:
328,176,39476,1,8,0:0:0:0:
357,172,39553,1,0,0:0:0:0:
380,174,39630,1,0,0:0:0:0:
396,180,39707,1,0,0:0:0:0:
411,189,39784,6,0,B|471:216|478:293|467:329|467:329|486:246|496:159|471:98|414:17|414:17|406:65|342:106|249:71|249:71|190:47|127:52|81:78,1,840.000032043458,6|0,0:0|0:0,0:0:0:0:
61,329,41015,6,0,B|97:308|134:236|113:143|113:143|190:219|196:302|196:302|206:256|262:213|339:228|380:299,1,600.000022888184,6|0,0:0|0:0,0:0:0:0:
286,325,41938,5,0,0:0:0:0:
276,310,42015,1,0,0:0:0:0:
272,292,42092,1,0,0:0:0:0:
271,273,42169,1,0,0:0:0:0:
274,255,42246,5,4,0:0:0:0:
298,45,46553,5,0,0:0:0:0:
300,62,46630,1,0,0:0:0:0:
303,85,46707,1,0,0:0:0:0:
307,114,46784,1,0,0:0:0:0:
311,149,46861,1,0,0:0:0:0:
317,190,46938,1,0,0:0:0:0:
323,237,47015,1,0,0:0:0:0:
330,290,47092,1,0,0:0:0:0:
338,349,47169,5,0,0:0:0:0:
178,241,47323,2,0,L|319:269,1,120.000004577637,0|8,0:0|0:0,0:0:0:0:
450,216,47630,1,0,0:0:0:0:
461,236,47938,5,0,0:0:0:0:
352,49,48092,2,0,L|338:195,1,120.000004577637,8|0,0:0|0:0,0:0:0:0:
355,162,48553,5,0,0:0:0:0:
246,349,48707,2,0,L|232:203,1,120.000004577637,8|0,0:0|0:0,0:0:0:0:
243,242,49169,5,0,0:0:0:0:
134,55,49323,2,0,L|120:201,1,120.000004577637,8|0,0:0|0:0,0:0:0:0:
96,347,49630,5,0,0:0:0:0:
242,207,49784,2,0,L|107:203,1,120.000004577637,0|8,0:0|0:0,0:0:0:0:
226,221,50400,5,0,0:0:0:0:
372,81,50554,2,0,L|237:77,1,120.000004577637,8|0,0:0|0:0,0:0:0:0:
392,230,50861,5,0,0:0:0:0:
231,59,51015,1,0,0:0:0:0:
394,62,51169,1,8,0:0:0:0:
215,232,51323,1,0,0:0:0:0:
203,250,51630,5,0,0:0:0:0:
409,207,51784,2,0,L|380:73,1,120.000004577637,8|0,0:0|0:0,0:0:0:0:
170,44,52092,6,0,L|186:132,1,60.0000022888184,2|2,0:0|0:0,0:0:0:0:
208,270,52246,1,2,0:0:0:0:
170,44,52400,1,8,0:0:0:0:
295,341,52707,6,0,L|311:253,1,60.0000022888184,2|2,0:0|0:0,0:0:0:0:
333,115,52861,1,2,0:0:0:0:
295,341,53015,1,8,0:0:0:0:
42,214,53323,6,0,L|130:198,1,60.0000022888184,2|2,0:0|0:0,0:0:0:0:
268,176,53477,1,2,0:0:0:0:
42,214,53631,1,8,0:0:0:0:
427,202,53938,6,0,L|339:218,1,60.0000022888184,2|2,0:0|0:0,0:0:0:0:
201,240,54092,1,2,0:0:0:0:
427,202,54246,1,8,0:0:0:0:
128,47,54553,6,0,L|117:120,1,60.0000022888184,2|2,0:0|0:0,0:0:0:0:
83,299,54707,1,2,0:0:0:0:
289,179,54861,1,8,0:0:0:0:
141,131,55015,1,0,0:0:0:0:
298,350,55169,6,0,L|309:277,1,60.0000022888184,2|2,0:0|0:0,0:0:0:0:
343,98,55323,1,2,0:0:0:0:
137,218,55476,1,8,0:0:0:0:
285,266,55631,1,0,0:0:0:0:
221,23,55784,6,0,L|210:96,1,60.0000022888184,2|2,0:0|0:0,0:0:0:0:
176,275,55938,1,2,0:0:0:0:
382,155,56092,1,8,0:0:0:0:
234,107,56246,1,0,0:0:0:0:
397,319,56400,6,0,L|408:246,1,60.0000022888184,2|2,0:0|0:0,0:0:0:0:
442,67,56554,1,2,0:0:0:0:
236,187,56708,1,8,0:0:0:0:
384,235,56861,2,0,L|392:167,1,60.0000022888184
415,36,57015,6,0,P|371:22|290:76,1,120.000004577637,2|0,0:0|0:0,0:0:0:0:
301,67,57246,1,0,0:0:0:0:
296,84,57323,2,0,P|261:121|167:122,1,120.000004577637,10|0,0:0|0:0,0:0:0:0:
178,124,57553,1,0,0:0:0:0:
188,109,57630,2,0,P|255:122|303:184,1,120.000004577637,2|0,0:0|0:0,0:0:0:0:
295,174,57861,1,0,0:0:0:0:
299,191,57938,2,0,P|287:239|228:283,1,120.000004577637,10|0,0:0|0:0,0:0:0:0:
215,283,58169,1,0,0:0:0:0:
197,280,58246,5,2,0:0:0:0:
224,268,58323,1,0,0:0:0:0:
253,266,58400,1,0,0:0:0:0:
281,273,58476,1,0,0:0:0:0:
316,295,58553,1,8,0:0:0:0:
355,308,58630,1,0,0:0:0:0:
396,302,58707,1,0,0:0:0:0:
440,271,58784,1,0,0:0:0:0:
461,221,58861,5,0,0:0:0:0:
449,155,58938,1,0,0:0:0:0:
401,109,59015,1,0,0:0:0:0:
335,97,59092,1,0,0:0:0:0:
280,134,59169,1,8,0:0:0:0:
212,160,59246,1,0,0:0:0:0:
135,143,59323,1,0,0:0:0:0:
78,89,59400,1,0,0:0:0:0:
63,13,59476,6,0,B|28:87|39:254|127:343|127:343|129:278|161:229|161:229|188:306|252:340|335:343|431:319|448:207,1,840.000032043458,6|0,0:0|0:0,0:0:0:0:
439,54,60707,6,0,B|350:42|317:54|265:109|265:109|230:142|181:290|375:304|421:205|389:87|265:110|265:110|211:163|144:179|48:112,1,840.000032043458,2|0,0:0|0:0,0:0:0:0:
387,26,61938,5,2,0:0:0:0:
406,76,62015,1,0,0:0:0:0:
407,124,62092,1,0,0:0:0:0:
393,163,62169,1,0,0:0:0:0:
373,193,62246,1,8,0:0:0:0:
347,208,62323,1,0,0:0:0:0:
323,212,62400,1,0,0:0:0:0:
305,209,62476,1,0,0:0:0:0:
294,203,62553,5,2,0:0:0:0:
341,178,62630,1,0,0:0:0:0:
388,187,62707,1,0,0:0:0:0:
419,214,62784,1,0,0:0:0:0:
436,245,62861,1,8,0:0:0:0:
438,274,62938,1,0,0:0:0:0:
431,297,63015,1,0,0:0:0:0:
421,312,63092,1,0,0:0:0:0:
411,319,63169,5,2,0:0:0:0:
382,273,63246,1,0,0:0:0:0:
378,231,63323,1,0,0:0:0:0:
385,201,63400,1,0,0:0:0:0:
395,186,63476,5,10,0:0:0:0:
404,170,63553,1,0,0:0:0:0:
411,140,63630,1,0,0:0:0:0:
405,98,63707,1,0,0:0:0:0:
374,53,63784,5,2,0:0:0:0:
321,41,63861,1,0,0:0:0:0:
279,64,63938,1,0,0:0:0:0:
260,101,64015,1,0,0:0:0:0:
234,126,64092,1,8,0:0:0:0:
205,135,64169,1,0,0:0:0:0:
181,132,64246,1,0,0:0:0:0:
165,122,64323,1,0,0:0:0:0:
159,111,64400,6,0,B|141:225|141:225|202:349,1,240.000009155274,6|8,0:0|0:0,0:0:0:0:
271,205,64861,1,0,0:0:0:0:
61,175,65015,1,0,0:0:0:0:
299,210,65169,5,0,0:0:0:0:
61,266,65323,1,8,0:0:0:0:
206,63,65476,1,0,0:0:0:0:
192,357,65630,6,0,L|126:228,1,120.000004577637,6|0,0:0|0:0,0:0:0:0:
226,41,65938,1,8,0:0:0:0:
323,202,66092,1,0,0:0:0:0:
108,95,66246,5,0,0:0:0:0:
233,71,66400,1,0,0:0:0:0:
358,47,66553,1,8,0:0:0:0:
466,108,66707,2,0,L|453:172,1,60.0000022888184
361,283,66861,5,6,0:0:0:0:
354,293,66938,1,0,0:0:0:0:
334,306,67015,1,0,0:0:0:0:
298,313,67092,1,0,0:0:0:0:
258,298,67169,5,6,0:0:0:0:
301,278,67246,1,0,0:0:0:0:
354,293,67323,1,0,0:0:0:0:
413,301,67400,1,0,0:0:0:0:
473,277,67476,5,6,0:0:0:0:
413,249,67553,1,0,0:0:0:0:
354,293,67630,1,0,0:0:0:0:
294,334,67707,1,0,0:0:0:0:
227,305,67784,5,6,0:0:0:0:
292,262,67861,1,0,0:0:0:0:
369,251,67938,1,0,0:0:0:0:
442,276,68015,1,0,0:0:0:0:
503,324,68092,5,6,0:0:0:0:
465,255,68169,1,0,0:0:0:0:
457,183,68246,1,0,0:0:0:0:
468,117,68323,1,0,0:0:0:0:
496,64,68400,5,6,0:0:0:0:
451,93,68476,1,0,0:0:0:0:
403,102,68553,1,0,0:0:0:0:
361,97,68630,1,0,0:0:0:0:
327,83,68707,5,6,0:0:0:0:
348,62,68784,1,0,0:0:0:0:
370,52,68861,1,0,0:0:0:0:
387,48,68938,1,0,0:0:0:0:
398,47,69015,5,6,0:0:0:0:
394,52,69092,1,0,0:0:0:0:
388,54,69169,1,0,0:0:0:0:
382,54,69246,1,0,0:0:0:0:
376,53,69323,5,6,0:0:0:0:
370,51,69400,1,0,0:0:0:0:
358,47,69476,1,0,0:0:0:0:
341,39,69553,1,0,0:0:0:0:
319,28,69630,1,0,0:0:0:0:
289,20,69707,1,0,0:0:0:0:
253,16,69784,1,0,0:0:0:0:
211,22,69861,1,0,0:0:0:0:
169,46,69938,5,0,0:0:0:0:
155,98,70015,1,0,0:0:0:0:
181,151,70092,1,0,0:0:0:0:
243,171,70169,1,0,0:0:0:0:
312,151,70246,1,0,0:0:0:0:
382,184,70323,1,0,0:0:0:0:
403,265,70400,1,0,0:0:0:0:
344,332,70476,1,0,0:0:0:0:
250,308,70553,5,2,0:0:0:0:
202,281,70630,1,0,0:0:0:0:
155,269,70707,1,0,0:0:0:0:
112,269,70784,1,0,0:0:0:0:
78,282,70861,1,0,0:0:0:0:
56,302,70938,1,0,0:0:0:0:
44,323,71015,1,0,0:0:0:0:
38,340,71092,1,0,0:0:0:0:
37,351,71169,5,2,0:0:0:0:
66,358,71246,1,2,0:0:0:0:
44,323,71323,5,2,0:0:0:0:
91,320,71400,1,2,0:0:0:0:
44,293,71476,5,2,0:0:0:0:
99,271,71553,1,2,0:0:0:0:
33,265,71630,5,2,0:0:0:0:
92,223,71707,1,2,0:0:0:0:
15,237,71784,5,2,0:0:0:0:
9,183,71861,1,0,0:0:0:0:
30,140,71938,1,2,0:0:0:0:
66,118,72015,1,0,0:0:0:0:
102,119,72092,5,2,0:0:0:0:
129,131,72169,1,0,0:0:0:0:
152,133,72246,1,2,0:0:0:0:
169,130,72323,1,0,0:0:0:0:
180,125,72400,5,2,0:0:0:0:
189,118,72476,1,0,0:0:0:0:
197,109,72553,1,2,0:0:0:0:
203,98,72630,1,0,0:0:0:0:
208,87,72707,5,2,0:0:0:0:
210,81,72784,1,0,0:0:0:0:
211,75,72861,1,2,0:0:0:0:
213,69,72938,1,0,0:0:0:0:
213,62,73015,5,2,0:0:0:0:
228,113,73092,1,0,0:0:0:0:
263,145,73169,1,2,0:0:0:0:
302,159,73246,1,0,0:0:0:0:
338,158,73323,5,2,0:0:0:0:
366,147,73400,1,0,0:0:0:0:
386,135,73476,1,2,0:0:0:0:
399,123,73553,1,0,0:0:0:0:
406,113,73630,5,2,0:0:0:0:
407,124,73707,1,0,0:0:0:0:
408,135,73784,1,2,0:0:0:0:
409,146,73861,1,0,0:0:0:0:
410,157,73938,5,2,0:0:0:0:
412,163,74015,1,0,0:0:0:0:
412,168,74092,1,2,0:0:0:0:
412,173,74169,1,0,0:0:0:0:
414,178,74246,6,2,B|449:187|449:187|506:177,2,80.0000030517579
189,150,74553,2,2,B|154:141|154:141|97:151,2,80.0000030517579
370,264,74861,5,2,0:0:0:0:
370,264,74964,2,2,P|383:291|391:351,1,80.0000030517579
260,89,75169,1,2,0:0:0:0:
260,89,75272,2,2,P|247:62|239:2,1,80.0000030517579
252,256,75476,5,2,0:0:0:0:
252,256,75580,2,2,L|231:333,1,80.0000030517579
351,98,75784,1,2,0:0:0:0:
351,98,75887,2,2,L|430:106,1,80.0000030517579
471,267,76092,5,2,0:0:0:0:
471,267,76194,2,2,L|450:344,1,80.0000030517579
41,117,76400,1,2,0:0:0:0:
41,117,76502,2,2,L|61:39,1,80.0000030517579
373,316,76707,5,2,0:0:0:0:
391,278,76784,1,0,0:0:0:0:
389,235,76861,1,0,0:0:0:0:
372,196,76938,1,0,0:0:0:0:
342,165,77015,5,10,0:0:0:0:
382,152,77092,1,0,0:0:0:0:
424,152,77169,1,0,0:0:0:0:
462,168,77246,1,0,0:0:0:0:
490,198,77323,5,2,0:0:0:0:
451,215,77400,1,0,0:0:0:0:
409,213,77476,1,0,0:0:0:0:
372,196,77553,1,0,0:0:0:0:
342,165,77630,5,10,0:0:0:0:
322,202,77707,1,0,0:0:0:0:
284,221,77784,1,0,0:0:0:0:
241,219,77861,1,0,0:0:0:0:
201,205,77938,5,2,0:0:0:0:
227,172,78015,1,0,0:0:0:0:
236,131,78092,1,0,0:0:0:0:
229,89,78169,1,0,0:0:0:0:
211,50,78246,5,10,0:0:0:0:
174,70,78323,1,0,0:0:0:0:
150,105,78400,1,0,0:0:0:0:
143,145,78476,1,0,0:0:0:0:
147,186,78553,5,2,0:0:0:0:
108,203,78630,1,0,0:0:0:0:
76,230,78707,1,0,0:0:0:0:
53,265,78784,1,0,0:0:0:0:
43,305,78861,5,10,0:0:0:0:
88,275,78938,1,0,0:0:0:0:
103,223,79015,1,0,0:0:0:0:
94,169,79092,1,0,0:0:0:0:
63,124,79169,5,2,0:0:0:0:
102,138,79246,1,0,0:0:0:0:
143,144,79323,1,0,0:0:0:0:
185,142,79400,1,0,0:0:0:0:
224,130,79476,5,10,0:0:0:0:
259,107,79553,1,0,0:0:0:0:
299,94,79630,1,0,0:0:0:0:
341,92,79707,1,0,0:0:0:0:
381,104,79784,5,2,0:0:0:0:
366,143,79861,1,0,0:0:0:0:
364,185,79938,1,0,0:0:0:0:
375,225,80015,1,0,0:0:0:0:
396,261,80092,5,10,0:0:0:0:
430,219,80169,1,2,0:0:0:0:
406,267,80246,5,2,0:0:0:0:
457,249,80323,1,2,0:0:0:0:
413,280,80400,5,2,0:0:0:0:
393,316,80476,1,0,0:0:0:0:
353,329,80553,1,0,0:0:0:0:
311,320,80630,1,0,0:0:0:0:
279,292,80707,5,10,0:0:0:0:
260,329,80784,1,0,0:0:0:0:
222,348,80861,1,0,0:0:0:0:
179,348,80938,1,0,0:0:0:0:
143,325,81015,5,2,0:0:0:0:
204,277,81092,1,2,0:0:0:0:
126,284,81169,5,2,0:0:0:0:
202,267,81246,1,2,0:0:0:0:
127,242,81323,5,10,0:0:0:0:
203,255,81400,1,2,0:0:0:0:
144,205,81476,5,2,0:0:0:0:
210,245,81553,1,2,0:0:0:0:
172,176,81630,5,2,0:0:0:0:
213,167,81707,1,0,0:0:0:0:
253,177,81784,1,0,0:0:0:0:
281,208,81861,1,0,0:0:0:0:
291,248,81938,5,10,0:0:0:0:
295,206,82015,1,0,0:0:0:0:
300,164,82092,1,0,0:0:0:0:
305,122,82169,1,0,0:0:0:0:
310,80,82246,5,2,0:0:0:0:
334,114,82323,1,0,0:0:0:0:
374,126,82400,1,0,0:0:0:0:
415,128,82476,1,0,0:0:0:0:
453,111,82553,5,10,0:0:0:0:
428,76,82630,1,0,0:0:0:0:
391,56,82707,1,0,0:0:0:0:
349,58,82784,1,0,0:0:0:0:
310,80,82861,5,2,0:0:0:0:
271,97,82938,1,0,0:0:0:0:
229,101,83015,1,0,0:0:0:0:
189,87,83092,1,0,0:0:0:0:
160,56,83169,5,10,0:0:0:0:
147,96,83246,1,0,0:0:0:0:
147,138,83323,1,0,0:0:0:0:
166,175,83400,1,0,0:0:0:0:
192,207,83476,5,2,0:0:0:0:
237,223,83553,1,0,0:0:0:0:
284,219,83630,1,0,0:0:0:0:
327,197,83707,1,0,0:0:0:0:
359,161,83784,5,10,0:0:0:0:
313,131,83861,1,0,0:0:0:0:
259,126,83938,1,0,0:0:0:0:
206,140,84015,1,0,0:0:0:0:
166,175,84092,5,2,0:0:0:0:
283,346,84246,2,2,P|295:316|300:276,3,60.0000022888184,2|2|10|2,0:0|0:0|0:0|0:0,0:0:0:0:
166,319,84553,2,2,P|195:307|227:282,3,60.0000022888184
102,219,84861,2,2,P|132:231|172:236,3,60.0000022888184,2|2|10|2,0:0|0:0|0:0|0:0,0:0:0:0:
128,102,85169,2,2,P|140:131|165:163,1,60.0000022888184
98,248,85323,5,2,0:0:0:0:
123,295,85400,1,0,0:0:0:0:
168,322,85476,1,0,0:0:0:0:
220,335,85553,1,0,0:0:0:0:
274,333,85630,5,10,0:0:0:0:
324,313,85707,1,0,0:0:0:0:
363,275,85784,1,0,0:0:0:0:
384,225,85861,1,0,0:0:0:0:
382,170,85938,5,2,0:0:0:0:
356,102,86015,1,2,0:0:0:0:
355,174,86092,5,2,0:0:0:0:
351,95,86169,1,2,0:0:0:0:
325,168,86246,5,10,0:0:0:0:
349,87,86323,1,2,0:0:0:0:
297,153,86400,5,2,0:0:0:0:
345,78,86476,1,2,0:0:0:0:
272,131,86553,5,6,0:0:0:0:
272,131,89015,5,8,0:0:0:0:
129,111,91476,5,0,0:0:0:0:
129,111,91553,1,0,0:0:0:0:
129,111,91630,1,0,0:0:0:0:
325,88,91784,1,2,0:0:0:0:
414,167,92092,5,0,0:0:0:0:
414,167,92169,1,0,0:0:0:0:
414,167,92246,1,0,0:0:0:0:
218,144,92400,1,2,0:0:0:0:
120,224,92707,5,0,0:0:0:0:
120,224,92784,1,0,0:0:0:0:
120,224,92861,1,0,0:0:0:0:
316,201,93015,1,2,0:0:0:0:
405,280,93323,5,0,0:0:0:0:
405,280,93400,1,0,0:0:0:0:
405,280,93477,1,0,0:0:0:0:
209,257,93631,1,2,0:0:0:0:
63,337,93938,5,0,0:0:0:0:
63,337,94015,1,0,0:0:0:0:
63,337,94092,1,0,0:0:0:0:
40,141,94246,1,2,0:0:0:0:
119,52,94554,5,0,0:0:0:0:
119,52,94631,1,0,0:0:0:0:
119,52,94708,1,0,0:0:0:0:
96,248,94861,1,2,0:0:0:0:
176,346,95169,5,0,0:0:0:0:
176,346,95246,1,0,0:0:0:0:
176,346,95323,1,0,0:0:0:0:
153,150,95477,1,2,0:0:0:0:
232,61,95785,5,0,0:0:0:0:
232,61,95862,1,0,0:0:0:0:
232,61,95939,1,0,0:0:0:0:
209,257,96093,1,10,0:0:0:0:
264,139,96246,1,0,0:0:0:0:
246,328,96400,5,8,0:0:0:0:
246,328,96553,2,0,L|367:315,1,120.000004577637
365,315,97015,5,0,0:0:0:0:
367,300,97630,1,0,0:0:0:0:
368,285,98246,1,0,0:0:0:0:
349,63,98861,5,8,0:0:0:0:
333,61,99476,1,0,0:0:0:0:
318,60,100092,2,0,L|273:54,3,30.0000011444092,2|0|0|0,0:0|0:0|0:0|0:0,0:0:0:0:
288,56,100400,2,0,L|260:91,3,30.0000011444092,2|0|0|0,0:0|0:0|0:0|0:0,0:0:0:0:
269,79,100707,2,0,L|286:120,3,30.0000011444092,2|0|0|0,0:0|0:0|0:0|0:0,0:0:0:0:
280,106,101015,2,0,L|325:111,3,30.0000011444092,2|0|0|0,0:0|0:0|0:0|0:0,0:0:0:0:
309,109,101323,6,0,L|354:114,1,30.0000011444092,10|2,0:0|0:0,0:0:0:0:
419,122,101476,1,2,0:0:0:0:
419,122,101630,1,2,0:0:0:0:
308,186,101938,6,0,L|353:191,1,30.0000011444092,10|2,0:0|0:0,0:0:0:0:
418,199,102092,1,2,0:0:0:0:
418,199,102245,1,2,0:0:0:0:
315,263,102553,6,0,L|360:269,1,30.0000011444092,10|2,0:0|0:0,0:0:0:0:
425,276,102706,1,2,0:0:0:0:
425,276,102860,1,2,0:0:0:0:
314,340,103169,6,0,L|359:346,1,30.0000011444092,10|2,0:0|0:0,0:0:0:0:
424,353,103323,1,2,0:0:0:0:
424,353,103475,1,2,0:0:0:0:
212,325,103784,5,10,0:0:0:0:
212,325,103861,1,2,0:0:0:0:
212,325,103938,2,0,L|163:317,1,30.0000011444092,2|2,0:0|0:0,0:0:0:0:
58,300,104092,1,10,0:0:0:0:
160,216,104246,1,2,0:0:0:0:
85,356,104400,5,10,0:0:0:0:
85,356,104476,1,2,0:0:0:0:
85,356,104553,2,0,L|78:313,1,30.0000011444092,2|2,0:0|0:0,0:0:0:0:
58,134,104707,1,10,0:0:0:0:
181,237,104861,1,2,0:0:0:0:
8,181,105015,5,10,0:0:0:0:
8,181,105092,1,2,0:0:0:0:
8,181,105169,2,0,L|56:170,1,30.0000011444092,10|2,0:0|0:0,0:0:0:0:
252,121,105323,2,0,L|246:160,1,30.0000011444092,10|2,0:0|0:0,0:0:0:0:
191,343,105476,2,0,L|182:308,1,30.0000011444092,10|2,0:0|0:0,0:0:0:0:
127,75,105630,6,8,L|128:50,1,15.0000005722046
150,56,105707,2,8,L|157:34,1,15.0000005722046
178,47,105784,2,8,L|192:29,1,15.0000005722046
207,44,105861,2,8,L|229:28,1,15.0000005722046
236,50,105938,6,8,P|245:73|257:89,1,30.0000011444092
277,66,106015,2,8,P|288:81|314:98,1,30.0000011444092
322,67,106092,2,8,P|342:78|364:79,1,30.0000011444092
366,61,106169,2,8,P|380:63|401:60,1,30.0000011444092
411,42,106246,5,6,0:0:0:0:
394,87,106323,1,0,0:0:0:0:
404,140,106400,1,0,0:0:0:0:
442,184,106476,1,0,0:0:0:0:
503,208,106553,5,14,0:0:0:0:
457,152,106630,1,0,0:0:0:0:
387,134,106707,1,0,0:0:0:0:
320,162,106784,1,0,0:0:0:0:
283,224,106861,5,6,0:0:0:0:
358,203,106938,1,0,0:0:0:0:
387,134,107015,1,0,0:0:0:0:
366,61,107092,1,0,0:0:0:0:
293,33,107169,5,14,0:0:0:0:
302,116,107246,1,0,0:0:0:0:
366,169,107323,1,0,0:0:0:0:
450,165,107400,1,0,0:0:0:0:
508,106,107476,5,6,0:0:0:0:
464,85,107553,1,0,0:0:0:0:
410,93,107630,1,0,0:0:0:0:
371,139,107707,1,0,0:0:0:0:
375,204,107784,5,14,0:0:0:0:
355,267,107861,1,0,0:0:0:0:
287,291,107938,1,0,0:0:0:0:
219,264,108015,1,0,0:0:0:0:
191,197,108092,5,6,0:0:0:0:
195,119,108169,1,0,0:0:0:0:
161,48,108246,1,0,0:0:0:0:
86,23,108323,1,0,0:0:0:0:
18,61,108400,5,14,0:0:0:0:
89,102,108476,1,0,0:0:0:0:
169,77,108553,1,0,0:0:0:0:
249,52,108630,1,0,0:0:0:0:
328,78,108707,5,6,0:0:0:0:
335,87,108784,1,0,0:0:0:0:
342,103,108861,1,0,0:0:0:0:
345,126,108938,1,0,0:0:0:0:
340,155,109015,1,8,0:0:0:0:
318,184,109092,1,0,0:0:0:0:
279,201,109169,1,0,0:0:0:0:
232,190,109246,1,0,0:0:0:0:
177,188,109323,5,2,0:0:0:0:
223,226,109400,1,0,0:0:0:0:
287,233,109476,1,0,0:0:0:0:
356,215,109553,1,0,0:0:0:0:
418,167,109630,1,8,0:0:0:0:
345,126,109707,1,0,0:0:0:0:
261,159,109784,1,0,0:0:0:0:
236,251,109861,1,0,0:0:0:0:
290,337,109938,5,2,0:0:0:0:
326,297,110015,1,0,0:0:0:0:
334,249,110092,1,0,0:0:0:0:
330,207,110169,1,0,0:0:0:0:
315,173,110246,1,8,0:0:0:0:
295,150,110323,1,0,0:0:0:0:
274,137,110400,1,0,0:0:0:0:
257,131,110476,1,0,0:0:0:0:
245,128,110553,5,2,0:0:0:0:
274,123,110630,1,2,0:0:0:0:
223,103,110707,5,2,0:0:0:0:
281,93,110784,1,2,0:0:0:0:
204,76,110861,5,10,0:0:0:0:
291,61,110938,1,2,0:0:0:0:
180,51,111015,5,2,0:0:0:0:
307,29,111092,1,2,0:0:0:0:
148,33,111169,5,6,0:0:0:0:
108,78,111246,1,0,0:0:0:0:
88,134,111323,1,2,0:0:0:0:
103,192,111400,1,0,0:0:0:0:
145,233,111476,5,10,0:0:0:0:
146,184,111553,1,0,0:0:0:0:
127,139,111630,1,2,0:0:0:0:
89,109,111707,1,0,0:0:0:0:
41,103,111784,5,2,0:0:0:0:
68,126,111861,1,0,0:0:0:0:
102,136,111938,1,2,0:0:0:0:
138,134,112015,1,0,0:0:0:0:
172,122,112092,5,10,0:0:0:0:
192,110,112169,1,0,0:0:0:0:
215,104,112246,1,2,0:0:0:0:
239,104,112323,1,0,0:0:0:0:
262,110,112400,5,6,0:0:0:0:
206,87,112476,1,0,0:0:0:0:
146,79,112553,1,2,0:0:0:0:
87,94,112630,1,0,0:0:0:0:
42,134,112707,5,10,0:0:0:0:
90,135,112784,1,0,0:0:0:0:
130,109,112861,1,2,0:0:0:0:
162,73,112938,1,0,0:0:0:0:
179,28,113015,5,2,0:0:0:0:
183,63,113092,1,0,0:0:0:0:
188,98,113169,1,2,0:0:0:0:
193,133,113246,1,0,0:0:0:0:
198,168,113323,5,10,0:0:0:0:
216,152,113400,1,0,0:0:0:0:
238,144,113476,1,2,0:0:0:0:
262,143,113553,1,0,0:0:0:0:
285,146,113630,6,2,P|314:151|375:143,2,80.0000030517579
79,36,113938,2,2,P|50:31|-11:39,2,80.0000030517579
167,255,114246,5,2,0:0:0:0:
179,284,114348,2,2,L|271:303,1,80.0000030517579
261,66,114553,5,2,0:0:0:0:
249,37,114656,2,2,L|157:25,1,80.0000030517579
361,234,114861,5,2,0:0:0:0:
89,119,114964,2,2,L|102:213,1,80.0000030517579
354,110,115169,5,2,0:0:0:0:
31,247,115272,2,2,L|20:167,1,80.0000030517579
225,22,115476,5,2,0:0:0:0:
181,357,115579,2,2,L|288:344,1,80.0000030517579
309,26,115784,5,2,0:0:0:0:
383,357,115887,2,2,L|289:346,1,80.0000030517579
91,269,116092,5,6,0:0:0:0:
55,228,116169,1,0,0:0:0:0:
50,174,116246,1,0,0:0:0:0:
83,131,116323,1,0,0:0:0:0:
123,95,116400,1,8,0:0:0:0:
112,42,116476,1,0,0:0:0:0:
60,26,116553,1,0,0:0:0:0:
23,65,116630,1,0,0:0:0:0:
32,118,116707,5,2,0:0:0:0:
84,131,116784,1,0,0:0:0:0:
135,113,116861,1,0,0:0:0:0:
182,86,116938,1,0,0:0:0:0:
235,76,117015,1,8,0:0:0:0:
288,86,117092,1,0,0:0:0:0:
329,120,117169,1,0,0:0:0:0:
347,170,117246,1,0,0:0:0:0:
334,222,117323,5,2,0:0:0:0:
305,162,117400,1,0,0:0:0:0:
326,100,117476,1,0,0:0:0:0:
384,69,117553,1,0,0:0:0:0:
446,91,117630,1,8,0:0:0:0:
473,151,117707,1,0,0:0:0:0:
458,215,117784,1,0,0:0:0:0:
399,245,117861,1,0,0:0:0:0:
336,223,117938,5,2,0:0:0:0:
288,176,118015,1,0,0:0:0:0:
225,153,118092,1,0,0:0:0:0:
161,170,118169,1,0,0:0:0:0:
119,221,118246,1,8,0:0:0:0:
109,286,118323,1,0,0:0:0:0:
139,344,118400,1,0,0:0:0:0:
198,371,118476,1,0,0:0:0:0:
263,367,118553,5,2,0:0:0:0:
293,295,118630,1,0,0:0:0:0:
277,218,118707,1,0,0:0:0:0:
243,147,118784,1,0,0:0:0:0:
245,68,118861,1,8,0:0:0:0:
299,12,118938,1,0,0:0:0:0:
377,14,119015,1,0,0:0:0:0:
427,73,119092,1,0,0:0:0:0:
422,150,119169,5,2,0:0:0:0:
382,187,119246,1,0,0:0:0:0:
332,207,119323,1,0,0:0:0:0:
279,218,119400,1,0,0:0:0:0:
226,208,119476,5,10,0:0:0:0:
243,150,119553,1,2,0:0:0:0:
210,200,119630,5,2,0:0:0:0:
226,142,119707,1,2,0:0:0:0:
189,190,119784,5,2,0:0:0:0:
132,170,119861,1,0,0:0:0:0:
73,184,119938,1,0,0:0:0:0:
37,232,120015,1,0,0:0:0:0:
35,292,120092,1,8,0:0:0:0:
63,344,120169,1,0,0:0:0:0:
118,367,120246,1,0,0:0:0:0:
177,358,120323,1,0,0:0:0:0:
219,315,120400,5,2,0:0:0:0:
135,269,120476,1,2,0:0:0:0:
230,263,120553,5,2,0:0:0:0:
135,246,120630,1,2,0:0:0:0:
224,211,120707,5,10,0:0:0:0:
128,225,120784,1,2,0:0:0:0:
201,163,120861,5,2,0:0:0:0:
117,210,120938,1,2,0:0:0:0:
164,126,121015,5,2,0:0:0:0:
216,113,121092,1,0,0:0:0:0:
268,127,121169,1,0,0:0:0:0:
311,159,121246,1,0,0:0:0:0:
330,209,121323,1,8,0:0:0:0:
374,239,121400,1,0,0:0:0:0:
426,250,121476,1,0,0:0:0:0:
478,235,121553,1,0,0:0:0:0:
510,191,121630,5,2,0:0:0:0:
458,207,121707,1,0,0:0:0:0:
427,251,121784,1,0,0:0:0:0:
418,304,121861,1,0,0:0:0:0:
395,353,121938,1,8,0:0:0:0:
342,365,122015,1,0,0:0:0:0:
290,348,122092,1,0,0:0:0:0:
256,305,122169,1,0,0:0:0:0:
256,250,122246,5,2,0:0:0:0:
214,274,122323,1,0,0:0:0:0:
165,272,122400,1,0,0:0:0:0:
124,247,122476,1,0,0:0:0:0:
109,201,122553,1,8,0:0:0:0:
118,153,122630,1,0,0:0:0:0:
149,117,122707,1,0,0:0:0:0:
195,105,122784,1,0,0:0:0:0:
241,117,122861,5,2,0:0:0:0:
177,134,122938,1,0,0:0:0:0:
111,125,123015,1,0,0:0:0:0:
55,89,123092,1,0,0:0:0:0:
25,29,123169,5,8,0:0:0:0:
36,100,123246,1,0,0:0:0:0:
85,152,123323,1,0,0:0:0:0:
152,177,123400,1,0,0:0:0:0:
222,172,123476,5,2,0:0:0:0:
436,124,123630,2,2,L|353:107,3,60.0000022888184,2|2|10|2,0:0|0:0|0:0|0:0,0:0:0:0:
300,206,123938,2,2,L|383:189,3,60.0000022888184
474,274,124246,2,2,L|391:257,3,60.0000022888184,2|2|10|2,0:0|0:0|0:0|0:0,0:0:0:0:
338,356,124554,2,2,L|421:339,1,60.0000022888184
491,244,124707,5,2,0:0:0:0:
486,190,124784,1,0,0:0:0:0:
463,140,124861,1,0,0:0:0:0:
415,114,124938,1,0,0:0:0:0:
361,109,125015,1,8,0:0:0:0:
310,128,125092,1,0,0:0:0:0:
278,171,125169,1,0,0:0:0:0:
266,223,125246,1,0,0:0:0:0:
276,276,125323,5,6,0:0:0:0:
294,194,125400,1,6,0:0:0:0:
287,287,125476,5,6,0:0:0:0:
282,182,125553,1,6,0:0:0:0:
304,297,125630,5,14,0:0:0:0:
265,172,125707,1,6,0:0:0:0:
329,304,125784,5,6,0:0:0:0:
240,165,125861,1,6,0:0:0:0:
240,165,126246,5,14,0:0:0:0:
