osu file format v14

[General]
AudioFilename: audio.mp3
AudioLeadIn: 0
PreviewTime: -1
Countdown: 0
SampleSet: None
StackLeniency: 0.7
Mode: 0
LetterboxInBreaks: 0
WidescreenStoryboard: 0

[Editor]
DistanceSpacing: 1.5
BeatDivisor: 4
GridSize: 16
TimelineZoom: 1

[Metadata]
Title:Devil Town
TitleUnicode:Devil Town
Artist:cavetown
ArtistUnicode:cavetown
Creator:Sylvarus
Version:Summertime
Source:
Tags:
BeatmapID:1939008
BeatmapSetID:928314

[Difficulty]
HPDrainRate:5
CircleSize:4
OverallDifficulty:8
ApproachRate:9
SliderMultiplier:1.5
SliderTickRate:1

[Events]
//Background and Video events
0,0,"1100px-Ghost_Town_screen.jpg",0,0
//Break Periods
//Storyboard Layer 0 (Background)
//Storyboard Layer 1 (Fail)
//Storyboard Layer 2 (Pass)
//Storyboard Layer 3 (Foreground)
//Storyboard Sound Samples

[TimingPoints]
80,300,4,1,0,100,1,0
38480,-133.333333333333,4,1,0,100,0,0
57680,-83.3333333333333,4,1,0,100,0,1
76880,-100,4,1,0,100,0,0

[HitObjects]
131,90,19130,5,0,0:0:0:0:
131,90,19280,2,0,P|167:80|205:92,1,75
302,177,19580,1,0,0:0:0:0:
302,64,19730,1,0,0:0:0:0:
161,162,19880,2,0,L|161:249,1,75
89,356,20180,1,0,0:0:0:0:
35,258,20330,1,0,0:0:0:0:
89,160,20480,6,0,P|125:150|163:162,1,75
271,292,20780,1,0,0:0:0:0:
351,179,20930,1,0,0:0:0:0:
351,292,21080,1,0,0:0:0:0:
271,179,21230,1,0,0:0:0:0:
271,292,21380,1,0,0:0:0:0:
311,109,21530,1,0,0:0:0:0:
162,352,21680,6,0,P|125:359|88:355,1,75
139,164,21980,1,0,0:0:0:0:
122,275,22130,1,0,0:0:0:0:
35,205,22280,2,0,L|35:109,1,75
227,94,22580,1,0,0:0:0:0:
139,164,22730,1,0,0:0:0:0:
243,204,22880,6,0,L|338:204,1,75
408,81,23180,1,0,0:0:0:0:
408,233,23330,1,0,0:0:0:0:
318,110,23480,1,0,0:0:0:0:
463,157,23630,1,0,0:0:0:0:
318,204,23780,1,0,0:0:0:0:
463,157,23930,1,0,0:0:0:0:
431,306,24080,6,0,P|396:327|358:325,1,75
206,204,24380,1,0,0:0:0:0:
318,204,24530,1,0,0:0:0:0:
262,301,24680,2,0,L|174:301,1,75
84,259,24980,1,0,0:0:0:0:
7,176,25130,1,0,0:0:0:0:
84,259,25280,6,0,L|84:347,1,75
164,88,25580,1,0,0:0:0:0:
94,176,25730,1,0,0:0:0:0:
259,112,25880,2,0,P|321:112|370:144,1,112.5
395,183,26180,1,0,0:0:0:0:
354,24,26330,1,0,0:0:0:0:
290,213,26480,6,0,L|290:311,1,75
192,234,26780,1,0,0:0:0:0:
290,288,26930,1,0,0:0:0:0:
195,346,27080,2,0,P|135:353|114:346,1,75
40,240,27380,1,0,0:0:0:0:
121,162,27530,1,0,0:0:0:0:
121,274,27680,2,0,L|121:357,1,75
19,92,27980,5,0,0:0:0:0:
173,72,28130,1,0,0:0:0:0:
19,92,28280,1,0,0:0:0:0:
173,72,28430,1,0,0:0:0:0:
19,92,28580,1,0,0:0:0:0:
173,72,28730,1,0,0:0:0:0:
131,294,28880,6,0,P|167:303|205:291,1,75
302,207,29180,1,0,0:0:0:0:
302,320,29330,1,0,0:0:0:0:
161,222,29480,2,0,L|161:135,1,75
89,28,29780,1,0,0:0:0:0:
35,126,29930,1,0,0:0:0:0:
89,224,30080,6,0,P|125:233|163:221,1,75
271,92,30380,1,0,0:0:0:0:
351,205,30530,1,0,0:0:0:0:
351,92,30680,1,0,0:0:0:0:
271,205,30830,1,0,0:0:0:0:
271,92,30980,1,0,0:0:0:0:
311,275,31130,1,0,0:0:0:0:
162,32,31280,6,0,P|125:24|88:28,1,75
139,220,31580,1,0,0:0:0:0:
122,109,31730,1,0,0:0:0:0:
35,179,31880,2,0,L|35:275,1,75
227,290,32180,1,0,0:0:0:0:
139,220,32330,1,0,0:0:0:0:
243,180,32480,6,0,L|338:179,1,75
408,303,32780,1,0,0:0:0:0:
408,151,32930,1,0,0:0:0:0:
318,274,33080,1,0,0:0:0:0:
463,227,33230,1,0,0:0:0:0:
318,180,33380,1,0,0:0:0:0:
463,227,33530,1,0,0:0:0:0:
431,78,33680,6,0,P|396:57|358:59,1,75
206,180,33980,1,0,0:0:0:0:
318,180,34130,1,0,0:0:0:0:
262,83,34280,2,0,L|174:83,1,75
84,125,34580,1,0,0:0:0:0:
7,208,34730,1,0,0:0:0:0:
84,125,34880,6,0,L|84:37,1,75
164,296,35180,1,0,0:0:0:0:
94,208,35330,1,0,0:0:0:0:
259,272,35480,2,0,P|321:272|370:240,1,112.5
395,201,35780,1,0,0:0:0:0:
354,360,35930,1,0,0:0:0:0:
290,171,36080,6,0,L|290:73,1,75
192,150,36380,1,0,0:0:0:0:
290,96,36530,1,0,0:0:0:0:
195,38,36680,2,0,P|135:31|114:38,1,75
40,144,36980,1,0,0:0:0:0:
121,222,37130,1,0,0:0:0:0:
121,110,37280,2,0,L|121:27,1,75
19,292,37580,5,0,0:0:0:0:
173,312,37730,1,0,0:0:0:0:
19,292,37880,1,0,0:0:0:0:
173,312,38030,1,0,0:0:0:0:
19,292,38180,1,0,0:0:0:0:
173,312,38330,1,0,0:0:0:0:
40,144,38480,6,0,P|34:94|37:65,1,56.2500021457673
121,110,38780,2,0,P|128:60|138:32,1,56.2500021457673
304,213,39080,6,0,P|310:163|307:134,1,56.2500021457673
223,179,39380,2,0,P|215:129|205:101,1,56.2500021457673
19,292,39680,6,0,P|13:242|16:213,1,56.2500021457673
100,258,39980,2,0,P|107:208|117:180,1,56.2500021457673
283,361,40280,6,0,P|289:311|286:282,1,56.2500021457673
202,327,40580,2,0,P|194:277|184:249,1,56.2500021457673
343,173,40880,6,0,L|416:179,1,56.2500021457673
382,96,41180,2,0,L|454:102,1,56.2500021457673
193,271,41480,6,0,L|136:275,1,56.2500021457673
218,188,41780,2,0,L|161:192,1,56.2500021457673
372,267,42080,2,0,P|421:280|483:260,1,112.500004291535
422,199,42530,1,0,0:0:0:0:
337,194,42680,1,0,0:0:0:0:
289,263,42830,1,0,0:0:0:0:
162,91,42980,5,0,0:0:0:0:
193,271,43130,1,0,0:0:0:0:
291,45,43280,6,0,P|334:34|348:35,1,56.2500021457673
387,120,43580,2,0,P|344:109|330:110,1,56.2500021457673
89,204,43880,6,0,P|100:161|108:149,1,56.2500021457673
201,158,44180,2,0,P|169:189|163:202,1,56.2500021457673
401,309,44480,6,0,P|389:266|381:254,1,56.2500021457673
289,263,44780,2,0,P|320:294|326:307,1,56.2500021457673
350,161,45080,6,0,P|381:129|387:116,1,56.2500021457673
333,41,45380,2,0,P|321:83|313:95,1,56.2500021457673
143,263,45680,6,0,L|70:256,1,56.2500021457673
104,340,45980,2,0,L|31:333,1,56.2500021457673
293,165,46280,6,0,L|349:160,1,56.2500021457673
268,248,46580,2,0,L|324:243,1,56.2500021457673
114,169,46880,2,0,P|65:156|3:176,1,112.500004291535
62,237,47330,1,0,0:0:0:0:
121,297,47480,1,0,0:0:0:0:
204,287,47630,1,0,0:0:0:0:
378,370,47780,5,0,0:0:0:0:
314,166,47930,1,0,0:0:0:0:
476,273,48080,6,0,P|479:240|474:211,1,56.2500021457673
437,96,48380,2,0,P|434:129|439:157,1,56.2500021457673
335,297,48680,6,0,P|321:266|302:244,1,56.2500021457673
212,163,48980,2,0,P|225:193|244:215,1,56.2500021457673
240,82,49280,6,0,P|207:78|177:83,1,56.2500021457673
62,121,49580,2,0,P|95:124|124:119,1,56.2500021457673
355,39,49880,6,0,P|352:72|357:101,1,56.2500021457673
394,217,50180,2,0,P|397:184|392:155,1,56.2500021457673
96,56,50480,6,0,L|91:0,1,56.2500021457673
184,82,50780,2,0,L|179:25,1,56.2500021457673
306,243,51080,6,0,L|301:299,1,56.2500021457673
394,217,51380,2,0,L|389:273,1,56.2500021457673
136,350,51680,2,0,P|87:363|25:343,1,112.500004291535
11,263,52130,1,0,0:0:0:0:
38,183,52280,1,0,0:0:0:0:
10,103,52430,1,0,0:0:0:0:
243,146,52580,5,0,0:0:0:0:
101,247,52730,1,0,0:0:0:0:
199,67,52880,6,0,P|197:30|189:8,1,56.2500021457673
274,22,53180,2,0,P|276:59|284:81,1,56.2500021457673
388,279,53480,6,0,P|390:242|398:220,1,56.2500021457673
313,234,53780,2,0,P|311:271|303:293,1,56.2500021457673
117,166,54080,6,0,P|80:163|49:172,1,56.2500021457673
96,243,54380,2,0,P|133:246|164:237,1,56.2500021457673
406,36,54680,6,0,P|369:33|338:42,1,56.2500021457673
385,113,54980,2,0,P|422:116|453:107,1,56.2500021457673
227,77,55280,6,0,P|225:112|228:136,1,56.2500021457673
282,197,55580,1,0,0:0:0:0:
238,269,55730,1,0,0:0:0:0:
175,211,55880,6,0,P|140:209|116:212,1,56.2500021457673
53,265,56180,1,0,0:0:0:0:
43,181,56330,1,0,0:0:0:0:
146,298,56480,6,0,B|149:327|149:327|144:343|144:343|146:361,1,56.2500021457673
408,223,56780,6,0,B|406:244|406:244|411:267|411:267|408:286,1,56.2500021457673
146,298,57080,6,0,B|142:316|142:316|146:327|146:327|141:340|141:340|146:349|146:349|146:361,1,56.2500021457673
408,223,57380,6,0,B|404:241|404:241|408:252|408:252|403:265|403:265|408:274|408:274|408:286,1,56.2500021457673
92,87,57680,6,0,L|92:198,1,89.9999972534181
233,85,57980,1,0,0:0:0:0:
92,177,58130,1,0,0:0:0:0:
321,223,58280,6,0,P|386:231|416:220,1,89.9999972534181
487,3,58580,1,0,0:0:0:0:
368,68,58730,2,0,L|368:179,2,89.9999972534181
408,223,59180,6,0,P|364:233|321:223,1,89.9999972534181
176,99,59480,5,0,0:0:0:0:
206,302,59630,1,0,0:0:0:0:
200,13,59780,5,0,0:0:0:0:
170,216,59930,1,0,0:0:0:0:
66,59,60080,6,0,B|54:27|54:27|54:152,1,134.999995880127
54,164,60380,2,0,P|47:230|23:277,1,89.9999972534181
298,156,60680,1,0,0:0:0:0:
206,302,60830,1,0,0:0:0:0:
378,308,60980,1,0,0:0:0:0:
217,202,61130,2,0,P|210:151|220:109,1,89.9999972534181
305,15,61430,1,0,0:0:0:0:
128,239,61580,5,0,0:0:0:0:
298,156,61730,1,0,0:0:0:0:
77,176,61880,5,0,0:0:0:0:
299,132,62030,1,0,0:0:0:0:
29,91,62180,5,0,0:0:0:0:
299,107,62330,1,0,0:0:0:0:
503,45,62480,6,0,P|503:22|466:61,1,134.999995880127
484,96,62780,2,0,P|495:146|489:189,1,89.9999972534181
326,352,63080,1,0,0:0:0:0:
387,140,63230,1,0,0:0:0:0:
250,215,63380,1,0,0:0:0:0:
462,276,63530,1,0,0:0:0:0:
197,322,63680,6,0,P|151:328|97:319,1,89.9999972534181
197,105,63980,2,0,P|151:99|97:108,1,89.9999972534181
25,322,64280,5,0,0:0:0:0:
108,104,64430,1,0,0:0:0:0:
108,322,64580,5,0,0:0:0:0:
25,104,64730,1,0,0:0:0:0:
250,215,64880,6,0,P|304:161|313:90,1,134.999995880127
249,41,65180,2,0,P|300:52|351:37,1,89.9999972534181
446,10,65480,5,0,0:0:0:0:
407,208,65630,1,0,0:0:0:0:
445,22,65780,5,0,0:0:0:0:
491,259,65930,1,0,0:0:0:0:
116,207,66080,5,0,0:0:0:0:
509,130,66230,1,0,0:0:0:0:
258,80,66380,2,0,P|253:52|253:29,1,44.999998626709
176,70,66530,2,0,P|171:42|171:19,1,44.999998626709
93,57,66680,5,0,0:0:0:0:
160,352,66830,1,0,0:0:0:0:
160,352,66905,1,0,0:0:0:0:
160,352,66980,1,0,0:0:0:0:
258,80,67130,1,0,0:0:0:0:
