osu file format v14

[General]
AudioFilename: audio.mp3
AudioLeadIn: 0
PreviewTime: 94508
Countdown: 0
SampleSet: Drum
StackLeniency: 0.7
Mode: 3
LetterboxInBreaks: 0
SpecialStyle: 0
WidescreenStoryboard: 1

[Editor]
DistanceSpacing: 1.2
BeatDivisor: 8
GridSize: 8
TimelineZoom: 1.859999

[Metadata]
Title:me & u (succducc bootleg)
TitleUnicode:me & u (succducc bootleg)
Artist:cassie
ArtistUnicode:cassie
Creator:Herarudo
Version:6K // i adore you.
Source:
Tags:electronic future bass me and you english edm dnb d&b sv ln handstream hs jumpstream js bracket jersey club me and u airuei drum n bass electropop bad boy records dance remix WPCR-12448 CD 83981 ryan leslie NextSelection atlanta club cassie ventura Casandra Elizabeth Ventura Fine
BeatmapID:2423664
BeatmapSetID:1161093

[Difficulty]
HPDrainRate:8.3
CircleSize:6
OverallDifficulty:8.1
ApproachRate:5
SliderMultiplier:1.4
SliderTickRate:1

[Events]
//Background and Video events
0,0,"Background.jpg",0,0
//Break Periods
//Storyboard Layer 0 (Background)
//Storyboard Layer 1 (Fail)
//Storyboard Layer 2 (Pass)
//Storyboard Layer 3 (Foreground)
//Storyboard Layer 4 (Overlay)
//Storyboard Sound Samples
Sample,130190,0,"Hat Dry 1.wav",60

[TimingPoints]
159,375,4,3,1,35,1,0
18159,-76.9230769230769,4,3,1,35,0,0
18205,-142.857142857143,4,3,1,35,0,0
18252,-100,4,3,1,35,0,0
18534,-62.5,4,3,1,35,0,0
18580,-250,4,3,1,35,0,0
18627,-100,4,3,1,35,0,0
18909,-76.9230769230769,4,3,1,35,0,0
18955,-142.857142857143,4,3,1,35,0,0
19002,-100,4,3,1,35,0,0
19284,-62.5,4,3,1,35,0,0
19330,-250,4,3,1,35,0,0
19377,-100,4,3,1,35,0,0
19659,-76.9230769230769,4,3,1,35,0,0
19705,-142.857142857143,4,3,1,35,0,0
19752,-100,4,3,1,35,0,0
20034,-62.5,4,3,1,35,0,0
20080,-250,4,3,1,35,0,0
20127,-100,4,3,1,35,0,0
20409,-76.9230769230769,4,3,1,35,0,0
20455,-142.857142857143,4,3,1,35,0,0
20502,-100,4,3,1,35,0,0
20784,-62.5,4,3,1,35,0,0
20830,-250,4,3,1,35,0,0
20877,-100,4,3,1,35,0,0
21159,-76.9230769230769,4,3,1,35,0,0
21205,-142.857142857143,4,3,1,35,0,0
21252,-100,4,3,1,35,0,0
21346,-76.9230769230769,4,3,1,35,0,0
21392,-142.857142857143,4,3,1,35,0,0
21439,-100,4,3,1,35,0,0
21534,-62.5,4,3,1,35,0,0
21580,-250,4,3,1,35,0,0
21627,-100,4,3,1,35,0,0
21721,-76.9230769230769,4,3,1,35,0,0
21767,-142.857142857143,4,3,1,35,0,0
21814,-100,4,3,1,35,0,0
21909,-76.9230769230769,4,3,1,35,0,0
21955,-142.857142857143,4,3,1,35,0,0
22002,-100,4,3,1,35,0,0
22096,-76.9230769230769,4,3,1,35,0,0
22142,-142.857142857143,4,3,1,35,0,0
22189,-100,4,3,1,35,0,0
22284,-62.5,4,3,1,35,0,0
22330,-250,4,3,1,35,0,0
22377,-100,4,3,1,35,0,0
22471,-76.9230769230769,4,3,1,35,0,0
22517,-142.857142857143,4,3,1,35,0,0
22564,-100,4,3,1,35,0,0
22659,-76.9230769230769,4,3,1,35,0,0
22705,-142.857142857143,4,3,1,35,0,0
22752,-76.9230769230769,4,3,1,35,0,0
22798,-142.857142857143,4,3,1,35,0,0
22846,-76.9230769230769,4,3,1,35,0,0
22892,-142.857142857143,4,3,1,35,0,0
22940,-76.9230769230769,4,3,1,35,0,0
22986,-142.857142857143,4,3,1,35,0,0
23034,-76.9230769230769,4,3,1,35,0,0
23080,-142.857142857143,4,3,1,35,0,0
23127,-76.9230769230769,4,3,1,35,0,0
23173,-142.857142857143,4,3,1,35,0,0
23221,-76.9230769230769,4,3,1,35,0,0
23267,-142.857142857143,4,3,1,35,0,0
23315,-76.9230769230769,4,3,1,35,0,0
23361,-142.857142857143,4,3,1,35,0,0
23409,-76.9230769230769,4,3,1,35,0,0
23455,-142.857142857143,4,3,1,35,0,0
23502,-76.9230769230769,4,3,1,35,0,0
23548,-142.857142857143,4,3,1,35,0,0
23596,-76.9230769230769,4,3,1,35,0,0
23642,-142.857142857143,4,3,1,35,0,0
23690,-76.9230769230769,4,3,1,35,0,0
23736,-142.857142857143,4,3,1,35,0,0
23784,-76.9230769230769,4,3,1,35,0,0
23830,-142.857142857143,4,3,1,35,0,0
23877,-76.9230769230769,4,3,1,35,0,0
23923,-142.857142857143,4,3,1,35,0,0
23971,-76.9230769230769,4,3,1,35,0,0
24017,-142.857142857143,4,3,1,35,0,0
24065,-76.9230769230769,4,3,1,35,0,0
24111,-142.857142857143,4,3,1,35,0,0
24159,-80,4,3,1,35,0,1
24252,-133.333333333333,4,3,1,35,0,1
24346,-100,4,3,1,35,0,1
24534,-80,4,3,1,35,0,1
24627,-133.333333333333,4,3,1,35,0,1
24721,-100,4,3,1,35,0,1
24909,-80,4,3,1,35,0,1
25002,-133.333333333333,4,3,1,35,0,1
25096,-100,4,3,1,35,0,1
25659,-80,4,3,1,35,0,1
25752,-133.333333333333,4,3,1,35,0,1
25846,-100,4,3,1,35,0,1
26034,-80,4,3,1,35,0,1
26127,-133.333333333333,4,3,1,35,0,1
26221,-100,4,3,1,35,0,1
26409,-80,4,3,1,35,0,1
26502,-133.333333333333,4,3,1,35,0,1
26596,-100,4,3,1,35,0,1
27159,-80,4,3,1,35,0,1
27252,-133.333333333333,4,3,1,35,0,1
27346,-100,4,3,1,35,0,1
27534,-80,4,3,1,35,0,1
27627,-133.333333333333,4,3,1,35,0,1
27721,-100,4,3,1,35,0,1
27909,-83.3333333333333,4,3,1,35,0,1
28002,-166.666666666667,4,3,1,35,0,1
28049,-100,4,3,1,35,0,1
28659,-83.3333333333333,4,3,1,35,0,1
28752,-166.666666666667,4,3,1,35,0,1
28799,-100,4,3,1,35,0,1
29034,-80,4,3,1,35,0,1
29127,-133.333333333333,4,3,1,35,0,1
29221,-100,4,3,1,35,0,1
29409,-80,4,3,1,35,0,1
29502,-133.333333333333,4,3,1,35,0,1
29596,-100,4,3,1,35,0,1
29971,-62.5,4,3,1,35,0,1
30017,-250,4,3,1,35,0,1
30065,-62.5,4,3,1,35,0,1
30111,-250,4,3,1,35,0,1
30159,-100,4,3,1,35,0,1
35784,-27.10027100271,4,3,1,35,0,1
35807,-909.090909090909,4,3,1,35,0,1
35877,-27.10027100271,4,3,1,35,0,1
35900,-909.090909090909,4,3,1,35,0,1
35971,-27.10027100271,4,3,1,35,0,1
35994,-909.090909090909,4,3,1,35,0,1
36065,-27.10027100271,4,3,1,35,0,1
36088,-909.090909090909,4,3,1,35,0,1
36159,-100,4,3,1,35,0,1
36346,-62.5,4,3,1,35,0,0
36393,-250,4,3,1,35,0,0
36440,-62.5,4,3,1,35,0,0
36487,-250,4,3,1,35,0,0
36534,-100,4,3,1,35,0,0
36721,-62.5,4,3,1,35,0,0
36768,-250,4,3,1,35,0,0
36815,-62.5,4,3,1,35,0,0
36862,-250,4,3,1,35,0,0
36909,-100,4,3,1,35,0,0
37846,-62.5,4,3,1,35,0,0
37893,-250,4,3,1,35,0,0
37940,-62.5,4,3,1,35,0,0
37987,-250,4,3,1,35,0,0
38034,-100,4,3,1,35,0,0
38221,-62.5,4,3,1,35,0,0
38268,-250,4,3,1,35,0,0
38315,-62.5,4,3,1,35,0,0
38362,-250,4,3,1,35,0,0
38409,-100,4,3,1,35,0,0
39346,-62.5,4,3,1,35,0,0
39393,-250,4,3,1,35,0,0
39440,-62.5,4,3,1,35,0,0
39487,-250,4,3,1,35,0,0
39534,-100,4,3,1,35,0,0
39721,-62.5,4,3,1,35,0,0
39768,-250,4,3,1,35,0,0
39815,-62.5,4,3,1,35,0,0
39862,-250,4,3,1,35,0,0
39909,-100,4,3,1,35,0,0
40846,-62.5,4,3,1,35,0,0
40893,-250,4,3,1,35,0,0
40940,-62.5,4,3,1,35,0,0
40987,-250,4,3,1,35,0,0
41034,-100,4,3,1,35,0,0
41221,-62.5,4,3,1,35,0,0
41268,-250,4,3,1,35,0,0
41315,-62.5,4,3,1,35,0,0
41362,-250,4,3,1,35,0,0
41409,-100,4,3,1,35,0,0
42346,-62.5,4,3,1,35,0,0
42393,-250,4,3,1,35,0,0
42440,-62.5,4,3,1,35,0,0
42487,-250,4,3,1,35,0,0
42534,-100,4,3,1,35,0,0
42721,-62.5,4,3,1,35,0,0
42768,-250,4,3,1,35,0,0
42815,-62.5,4,3,1,35,0,0
42862,-250,4,3,1,35,0,0
42909,-100,4,3,1,35,0,0
43846,-62.5,4,3,1,35,0,0
43893,-250,4,3,1,35,0,0
43940,-62.5,4,3,1,35,0,0
43987,-250,4,3,1,35,0,0
44034,-100,4,3,1,35,0,0
44221,-62.5,4,3,1,35,0,0
44268,-250,4,3,1,35,0,0
44315,-62.5,4,3,1,35,0,0
44362,-250,4,3,1,35,0,0
44409,-100,4,3,1,35,0,0
45346,-62.5,4,3,1,35,0,0
45393,-250,4,3,1,35,0,0
45440,-62.5,4,3,1,35,0,0
45487,-250,4,3,1,35,0,0
45534,-100,4,3,1,35,0,0
45721,-62.5,4,3,1,35,0,0
45768,-250,4,3,1,35,0,0
45815,-62.5,4,3,1,35,0,0
45862,-250,4,3,1,35,0,0
45909,-100,4,3,1,35,0,0
46846,-62.5,4,3,1,35,0,0
46893,-250,4,3,1,35,0,0
46940,-62.5,4,3,1,35,0,0
46987,-250,4,3,1,35,0,0
47034,-100,4,3,1,35,0,0
47221,-62.5,4,3,1,35,0,0
47268,-250,4,3,1,35,0,0
47315,-62.5,4,3,1,35,0,0
47362,-250,4,3,1,35,0,0
47409,-100,4,3,1,35,0,0
60159,-111.111111111111,4,3,1,35,0,0
63159,-108.695652173913,4,3,1,35,0,0
66159,-105.263157894737,4,3,1,35,0,0
69159,-103.092783505155,4,3,1,35,0,0
71409,-100,4,3,1,35,0,0
72159,-102.040816326531,4,3,1,35,0,0
72221,-105.263157894737,4,3,1,35,0,0
72284,-107.52688172043,4,3,1,35,0,0
72346,-109.89010989011,4,3,1,35,0,0
73284,-108.695652173913,4,3,1,35,0,0
75159,-107.52688172043,4,3,1,35,0,0
77409,-106.382978723404,4,3,1,35,0,0
78159,-105.263157894737,4,3,1,35,0,0
94659,-102.040816326531,4,3,1,35,0,0
96159,-80,4,3,1,35,0,1
96252,-133.333333333333,4,3,1,35,0,1
96346,-100,4,3,1,35,0,1
96534,-80,4,3,1,35,0,1
96627,-133.333333333333,4,3,1,35,0,1
96721,-100,4,3,1,35,0,1
96909,-80,4,3,1,35,0,1
97002,-133.333333333333,4,3,1,35,0,1
97096,-100,4,3,1,35,0,1
98034,-62.5,4,3,1,35,0,1
98080,-250,4,3,1,35,0,1
98127,-62.5,4,3,1,35,0,1
98173,-250,4,3,1,35,0,1
98221,-62.5,4,3,1,35,0,1
98267,-250,4,3,1,35,0,1
98315,-62.5,4,3,1,35,0,1
98361,-250,4,3,1,35,0,1
98409,-100,4,3,1,35,0,1
102159,-66.6666666666667,4,3,1,35,0,1
102205,-200,4,3,1,35,0,1
102252,-100,4,3,1,35,0,1
103096,-66.6666666666667,4,3,1,35,0,1
103142,-200,4,3,1,35,0,1
103189,-100,4,3,1,35,0,1
103284,-66.6666666666667,4,3,1,35,0,1
103330,-200,4,3,1,35,0,1
103377,-100,4,3,1,35,0,1
104221,-66.6666666666667,4,3,1,35,0,1
104267,-200,4,3,1,35,0,1
104314,-100,4,3,1,35,0,1
105159,-66.6666666666667,4,3,1,35,0,1
105205,-200,4,3,1,35,0,1
105252,-100,4,3,1,35,0,1
105721,-66.6666666666667,4,3,1,35,0,1
105767,-200,4,3,1,35,0,1
105814,-100,4,3,1,35,0,1
106659,-66.6666666666667,4,3,1,35,0,1
106705,-200,4,3,1,35,0,1
106752,-100,4,3,1,35,0,1
107034,-66.6666666666667,4,3,1,35,0,1
107080,-200,4,3,1,35,0,1
107127,-100,4,3,1,35,0,1
107596,-66.6666666666667,4,3,1,35,0,1
107642,-200,4,3,1,35,0,1
107689,-100,4,3,1,35,0,1
108909,-58.8235294117647,4,3,1,35,0,1
108955,-333.333333333333,4,3,1,35,0,1
109002,-100,4,3,1,35,0,1
110409,-58.8235294117647,4,3,1,35,0,1
110455,-333.333333333333,4,3,1,35,0,1
110502,-100,4,3,1,35,0,1
111909,-58.8235294117647,4,3,1,35,0,1
111955,-333.333333333333,4,3,1,35,0,1
112002,-100,4,3,1,35,0,1
113409,-58.8235294117647,4,3,1,35,0,1
113455,-333.333333333333,4,3,1,35,0,1
113502,-100,4,3,1,35,0,1
114909,-58.8235294117647,4,3,1,35,0,1
114955,-333.333333333333,4,3,1,35,0,1
115002,-100,4,3,1,35,0,1
116409,-58.8235294117647,4,3,1,35,0,1
116455,-333.333333333333,4,3,1,35,0,1
116502,-100,4,3,1,35,0,1
117159,-66.6666666666667,4,3,1,35,0,1
117205,-200,4,3,1,35,0,1
117252,-100,4,3,1,35,0,1
117534,-66.6666666666667,4,3,1,35,0,1
117580,-200,4,3,1,35,0,1
117627,-100,4,3,1,35,0,1
117909,-66.6666666666667,4,3,1,35,0,1
117955,-200,4,3,1,35,0,1
118002,-100,4,3,1,35,0,1
118284,-66.6666666666667,4,3,1,35,0,1
118330,-200,4,3,1,35,0,1
118377,-100,4,3,1,35,0,1
118659,-62.5,4,3,1,35,0,1
118752,-250,4,3,1,35,0,1
118846,-62.5,4,3,1,35,0,1
118939,-250,4,3,1,35,0,1
119034,-62.5,4,3,1,35,0,1
119127,-250,4,3,1,35,0,1
119221,-62.5,4,3,1,35,0,1
119314,-250,4,3,1,35,0,1
119409,-58.8235294117647,4,3,1,35,0,1
119455,-333.333333333333,4,3,1,35,0,1
119502,-58.8235294117647,4,3,1,35,0,1
119548,-333.333333333333,4,3,1,35,0,1
119596,-58.8235294117647,4,3,1,35,0,1
119642,-333.333333333333,4,3,1,35,0,1
119690,-58.8235294117647,4,3,1,35,0,1
119736,-333.333333333333,4,3,1,35,0,1
119784,-100,4,3,1,35,0,0
120182,-40,4,3,1,35,0,0
120205,-125,4,3,1,35,0,0
120252,-100,4,3,1,35,0,0
120557,-40,4,3,1,35,0,0
120580,-125,4,3,1,35,0,0
120627,-100,4,3,1,35,0,0
120909,-55.5555555555556,4,3,1,35,0,0
120955,-500,4,3,1,35,0,0
121002,-100,4,3,1,35,0,0
121307,-40,4,3,1,35,0,0
121330,-125,4,3,1,35,0,0
121377,-100,4,3,1,35,0,0
121682,-40,4,3,1,35,0,0
121705,-125,4,3,1,35,0,0
121752,-100,4,3,1,35,0,0
122057,-40,4,3,1,35,0,0
122080,-125,4,3,1,35,0,0
122127,-100,4,3,1,35,0,0
122409,-55.5555555555556,4,3,1,35,0,0
122455,-500,4,3,1,35,0,0
122502,-100,4,3,1,35,0,0
122807,-37.037037037037,4,3,1,35,0,0
122830,-666.666666666667,4,3,1,35,0,0
122877,-100,4,3,1,35,0,0
123182,-40,4,3,1,35,0,0
123205,-125,4,3,1,35,0,0
123252,-100,4,3,1,35,0,0
123557,-40,4,3,1,35,0,0
123580,-125,4,3,1,35,0,0
123627,-100,4,3,1,35,0,0
123909,-62.5,4,3,1,35,0,0
123955,-250,4,3,1,35,0,0
124002,-100,4,3,1,35,0,0
124096,-62.5,4,3,1,35,0,0
124142,-250,4,3,1,35,0,0
124190,-62.5,4,3,1,35,0,0
124236,-250,4,3,1,35,0,0
124284,-100,4,3,1,35,0,0
124682,-40,4,3,1,35,0,0
124705,-125,4,3,1,35,0,0
124752,-100,4,3,1,35,0,0
125057,-40,4,3,1,35,0,0
125080,-125,4,3,1,35,0,0
125127,-100,4,3,1,35,0,0
125409,-76.9230769230769,4,3,1,35,0,0
125455,-142.857142857143,4,3,1,35,0,0
125502,-76.9230769230769,4,3,1,35,0,0
125548,-142.857142857143,4,3,1,35,0,0
125596,-76.9230769230769,4,3,1,35,0,0
125642,-142.857142857143,4,3,1,35,0,0
125690,-76.9230769230769,4,3,1,35,0,0
125736,-142.857142857143,4,3,1,35,0,0
125784,-100,4,3,1,35,0,0
125807,-37.037037037037,4,3,1,35,0,0
125830,-666.666666666667,4,3,1,35,0,0
125877,-76.9230769230769,4,3,1,35,0,0
125923,-142.857142857143,4,3,1,35,0,0
125971,-62.5,4,3,1,35,0,0
126017,-250,4,3,1,35,0,0
126065,-62.5,4,3,1,35,0,0
126111,-250,4,3,1,35,0,0
126159,-58.8235294117647,4,3,1,35,0,0
126205,-333.333333333333,4,3,1,35,0,0
126252,-100,4,3,1,35,0,0
126557,-37.037037037037,4,3,1,35,0,0
126580,-666.666666666667,4,3,1,35,0,0
126627,-100,4,3,1,35,0,0
126909,-58.8235294117647,4,3,1,35,0,0
126955,-333.333333333333,4,3,1,35,0,0
127002,-100,4,3,1,35,0,0
127307,-37.037037037037,4,3,1,35,0,0
127330,-666.666666666667,4,3,1,35,0,0
127377,-100,4,3,1,35,0,0
127682,-37.037037037037,4,3,1,35,0,0
127705,-666.666666666667,4,3,1,35,0,0
127752,-100,4,3,1,35,0,0
128057,-37.037037037037,4,3,1,35,0,0
128080,-666.666666666667,4,3,1,35,0,0
128127,-100,4,3,1,35,0,0
128409,-58.8235294117647,4,3,1,35,0,0
128455,-333.333333333333,4,3,1,35,0,0
128502,-100,4,3,1,35,0,0
128807,-37.037037037037,4,3,1,35,0,0
128830,-666.666666666667,4,3,1,35,0,0
128877,-76.9230769230769,4,3,1,35,0,0
128923,-142.857142857143,4,3,1,35,0,0
128971,-76.9230769230769,4,3,1,35,0,0
129017,-142.857142857143,4,3,1,35,0,0
129065,-76.9230769230769,4,3,1,35,0,0
129111,-142.857142857143,4,3,1,35,0,0
129159,-58.8235294117647,4,3,1,35,0,0
129205,-333.333333333333,4,3,1,35,0,0
129252,-100,4,3,1,35,0,0
129346,-52.6315789473684,4,3,1,35,0,0
129392,-1000,4,3,1,35,0,0
129440,-100,4,3,1,35,0,0
129557,-37.037037037037,4,3,1,35,0,0
129580,-666.666666666667,4,3,1,35,0,0
129627,-100,4,3,1,35,0,0
129721,-52.6315789473684,4,3,1,35,0,0
129767,-1000,4,3,1,35,0,0
129815,-100,4,3,1,35,0,0
129932,-37.037037037037,4,3,1,35,0,0
129955,-666.666666666667,4,3,1,35,0,0
130002,-100,4,3,1,35,0,0
130096,-52.6315789473684,4,3,1,35,0,0
130142,-1000,4,3,1,35,0,0
130190,-66.6666666666667,4,3,1,35,0,0
130236,-200,4,3,1,35,0,0
130284,-58.8235294117647,4,3,1,35,0,0
130330,-333.333333333333,4,3,1,35,0,0
130377,-100,4,3,1,35,0,0
130659,-62.5,4,3,1,35,0,0
130705,-250,4,3,1,35,0,0
130752,-62.5,4,3,1,35,0,0
130798,-250,4,3,1,35,0,0
130846,-62.5,4,3,1,35,0,0
130892,-250,4,3,1,35,0,0
130940,-62.5,4,3,1,35,0,0
130986,-250,4,3,1,35,0,0
131034,-62.5,4,3,1,35,0,0
131080,-250,4,3,1,35,0,0
131127,-62.5,4,3,1,35,0,0
131173,-250,4,3,1,35,0,0
131221,-27.10027100271,4,3,1,35,0,0
131244,-909.090909090909,4,3,1,35,0,0
131315,-27.10027100271,4,3,1,35,0,0
131338,-909.090909090909,4,3,1,35,0,0
131409,-27.10027100271,4,3,1,35,0,0
131432,-909.090909090909,4,3,1,35,0,0
131502,-27.10027100271,4,3,1,35,0,0
131525,-909.090909090909,4,3,1,35,0,0
131596,-27.10027100271,4,3,1,35,0,0
131619,-909.090909090909,4,3,1,35,0,0
131690,-27.10027100271,4,3,1,35,0,0
131713,-909.090909090909,4,3,1,35,0,0
131784,-27.10027100271,4,3,1,35,0,0
131807,-909.090909090909,4,3,1,35,0,0
131877,-27.10027100271,4,3,1,35,0,0
131900,-909.090909090909,4,3,1,35,0,0
131971,-27.10027100271,4,3,1,35,0,0
131994,-909.090909090909,4,3,1,35,0,0
132065,-27.10027100271,4,3,1,35,0,0
132088,-909.090909090909,4,3,1,35,0,0
132159,-83.3333333333333,4,3,1,35,0,0
132205,-125,4,3,1,35,0,0
132252,-100,4,3,1,35,0,0
132534,-83.3333333333333,4,3,1,35,0,0
132580,-125,4,3,1,35,0,0
132627,-100,4,3,1,35,0,0
132909,-83.3333333333333,4,3,1,35,0,0
132955,-125,4,3,1,35,0,0
133002,-100,4,3,1,35,0,0
133190,-83.3333333333333,4,3,1,35,0,0
133236,-125,4,3,1,35,0,0
133283,-100,4,3,1,35,0,0
133471,-83.3333333333333,4,3,1,35,0,0
133517,-125,4,3,1,35,0,0
133564,-100,4,3,1,35,0,0
133659,-83.3333333333333,4,3,1,35,0,0
133705,-125,4,3,1,35,0,0
133752,-100,4,3,1,35,0,0
134034,-83.3333333333333,4,3,1,35,0,0
134080,-125,4,3,1,35,0,0
134127,-100,4,3,1,35,0,0
134409,-83.3333333333333,4,3,1,35,0,0
134455,-125,4,3,1,35,0,0
134502,-100,4,3,1,35,0,0
134690,-83.3333333333333,4,3,1,35,0,0
134736,-125,4,3,1,35,0,0
134783,-100,4,3,1,35,0,0
134971,-83.3333333333333,4,3,1,35,0,0
135017,-125,4,3,1,35,0,0
135064,-100,4,3,1,35,0,0
135159,-83.3333333333333,4,3,1,35,0,0
135205,-125,4,3,1,35,0,0
135252,-100,4,3,1,35,0,0
135534,-83.3333333333333,4,3,1,35,0,0
135580,-125,4,3,1,35,0,0
135627,-100,4,3,1,35,0,0
135909,-83.3333333333333,4,3,1,35,0,0
135955,-125,4,3,1,35,0,0
136002,-100,4,3,1,35,0,0
136190,-83.3333333333333,4,3,1,35,0,0
136236,-125,4,3,1,35,0,0
136283,-100,4,3,1,35,0,0
136471,-83.3333333333333,4,3,1,35,0,0
136517,-125,4,3,1,35,0,0
136564,-100,4,3,1,35,0,0
136659,-83.3333333333333,4,3,1,35,0,0
136705,-125,4,3,1,35,0,0
136752,-100,4,3,1,35,0,0
137034,-83.3333333333333,4,3,1,35,0,0
137080,-125,4,3,1,35,0,0
137127,-100,4,3,1,35,0,0
137409,-83.3333333333333,4,3,1,35,0,0
137455,-125,4,3,1,35,0,0
137502,-100,4,3,1,35,0,0
137690,-83.3333333333333,4,3,1,35,0,0
137736,-125,4,3,1,35,0,0
137784,-27.10027100271,4,3,1,35,0,0
137807,-909.090909090909,4,3,1,35,0,0
137878,-27.10027100271,4,3,1,35,0,0
137901,-909.090909090909,4,3,1,35,0,0
137971,-27.10027100271,4,3,1,35,0,0
137994,-909.090909090909,4,3,1,35,0,0
138065,-27.10027100271,4,3,1,35,0,0
138088,-909.090909090909,4,3,1,35,0,0
138159,-62.5,4,3,1,35,0,0
138205,-250,4,3,1,35,0,0
138252,-62.5,4,3,1,35,0,0
138298,-250,4,3,1,35,0,0
138346,-62.5,4,3,1,35,0,0
138392,-250,4,3,1,35,0,0
138439,-62.5,4,3,1,35,0,0
138485,-250,4,3,1,35,0,0
138534,-62.5,4,3,1,35,0,0
138580,-250,4,3,1,35,0,0
138627,-62.5,4,3,1,35,0,0
138673,-250,4,3,1,35,0,0
138721,-62.5,4,3,1,35,0,0
138767,-250,4,3,1,35,0,0
138814,-62.5,4,3,1,35,0,0
138860,-250,4,3,1,35,0,0
138909,-62.5,4,3,1,35,0,0
138955,-250,4,3,1,35,0,0
139002,-62.5,4,3,1,35,0,0
139048,-250,4,3,1,35,0,0
139096,-62.5,4,3,1,35,0,0
139142,-250,4,3,1,35,0,0
139189,-62.5,4,3,1,35,0,0
139235,-250,4,3,1,35,0,0
139284,-62.5,4,3,1,35,0,0
139330,-250,4,3,1,35,0,0
139377,-62.5,4,3,1,35,0,0
139423,-250,4,3,1,35,0,0
139471,-62.5,4,3,1,35,0,0
139517,-250,4,3,1,35,0,0
139564,-62.5,4,3,1,35,0,0
139610,-250,4,3,1,35,0,0
139659,-62.5,4,3,1,35,0,0
139705,-250,4,3,1,35,0,0
139752,-62.5,4,3,1,35,0,0
139798,-250,4,3,1,35,0,0
139846,-62.5,4,3,1,35,0,0
139892,-250,4,3,1,35,0,0
139939,-62.5,4,3,1,35,0,0
139985,-250,4,3,1,35,0,0
140034,-62.5,4,3,1,35,0,0
140080,-250,4,3,1,35,0,0
140127,-62.5,4,3,1,35,0,0
140173,-250,4,3,1,35,0,0
140221,-62.5,4,3,1,35,0,0
140267,-250,4,3,1,35,0,0
140314,-62.5,4,3,1,35,0,0
140360,-250,4,3,1,35,0,0
140409,-27.10027100271,4,3,1,35,0,0
140432,-909.090909090909,4,3,1,35,0,0
140502,-27.10027100271,4,3,1,35,0,0
140525,-909.090909090909,4,3,1,35,0,0
140596,-27.10027100271,4,3,1,35,0,0
140619,-909.090909090909,4,3,1,35,0,0
140690,-27.10027100271,4,3,1,35,0,0
140713,-909.090909090909,4,3,1,35,0,0
140784,-27.10027100271,4,3,1,35,0,0
140807,-909.090909090909,4,3,1,35,0,0
140877,-27.10027100271,4,3,1,35,0,0
140900,-909.090909090909,4,3,1,35,0,0
140971,-27.10027100271,4,3,1,35,0,0
140994,-909.090909090909,4,3,1,35,0,0
141065,-27.10027100271,4,3,1,35,0,0
141088,-909.090909090909,4,3,1,35,0,0
141159,-62.5,4,3,1,35,0,0
141205,-250,4,3,1,35,0,0
141252,-62.5,4,3,1,35,0,0
141298,-250,4,3,1,35,0,0
141346,-62.5,4,3,1,35,0,0
141392,-250,4,3,1,35,0,0
141439,-62.5,4,3,1,35,0,0
141485,-250,4,3,1,35,0,0
141534,-62.5,4,3,1,35,0,0
141580,-250,4,3,1,35,0,0
141627,-62.5,4,3,1,35,0,0
141673,-250,4,3,1,35,0,0
141721,-27.10027100271,4,3,1,35,0,0
141744,-909.090909090909,4,3,1,35,0,0
141815,-27.10027100271,4,3,1,35,0,0
141838,-909.090909090909,4,3,1,35,0,0
141909,-62.5,4,3,1,35,0,0
141955,-250,4,3,1,35,0,0
142002,-62.5,4,3,1,35,0,0
142048,-250,4,3,1,35,0,0
142096,-62.5,4,3,1,35,0,0
142142,-250,4,3,1,35,0,0
142189,-62.5,4,3,1,35,0,0
142235,-250,4,3,1,35,0,0
142284,-62.5,4,3,1,35,0,0
142330,-250,4,3,1,35,0,0
142377,-62.5,4,3,1,35,0,0
142423,-250,4,3,1,35,0,0
142471,-62.5,4,3,1,35,0,0
142517,-250,4,3,1,35,0,0
142564,-62.5,4,3,1,35,0,0
142610,-250,4,3,1,35,0,0
142659,-27.10027100271,4,3,1,35,0,0
142682,-909.090909090909,4,3,1,35,0,0
142752,-62.5,4,3,1,35,0,0
142798,-250,4,3,1,35,0,0
142846,-62.5,4,3,1,35,0,0
142892,-250,4,3,1,35,0,0
142939,-62.5,4,3,1,35,0,0
142985,-250,4,3,1,35,0,0
143034,-62.5,4,3,1,35,0,0
143080,-250,4,3,1,35,0,0
143127,-62.5,4,3,1,35,0,0
143173,-250,4,3,1,35,0,0
143221,-62.5,4,3,1,35,0,0
143267,-250,4,3,1,35,0,0
143314,-62.5,4,3,1,35,0,0
143360,-250,4,3,1,35,0,0
143409,-62.5,4,3,1,35,0,0
143455,-250,4,3,1,35,0,0
143502,-62.5,4,3,1,35,0,0
143548,-250,4,3,1,35,0,0
143596,-62.5,4,3,1,35,0,0
143642,-250,4,3,1,35,0,0
143689,-62.5,4,3,1,35,0,0
143735,-250,4,3,1,35,0,0
143784,-62.5,4,3,1,35,0,0
143830,-250,4,3,1,35,0,0
143877,-62.5,4,3,1,35,0,0
143923,-250,4,3,1,35,0,0
143971,-62.5,4,3,1,35,0,0
144017,-250,4,3,1,35,0,0
144064,-62.5,4,3,1,35,0,0
144110,-250,4,3,1,35,0,0
144159,-100,4,3,1,35,0,1
168159,-111.111111111111,4,3,1,35,0,0

[HitObjects]
128,192,159,128,0,721:0:0:0:0:
384,192,159,128,0,534:0:0:0:0:
298,192,534,1,0,0:0:0:0:
384,192,627,1,0,0:0:0:0:
42,192,721,128,0,909:0:0:0:0:
298,192,721,1,0,0:0:0:0:
384,192,815,1,0,0:0:0:0:
128,192,909,128,0,1096:0:0:0:0:
213,192,1096,128,0,1284:0:0:0:0:
448,192,1096,128,0,1284:0:0:0:0:
128,192,1284,128,0,1471:0:0:0:0:
298,192,1284,1,0,0:0:0:0:
469,192,1377,1,0,0:0:0:0:
64,192,1471,128,0,1846:0:0:0:0:
384,192,1471,128,0,1659:0:0:0:0:
213,192,1659,1,0,0:0:0:0:
213,192,1846,1,0,0:0:0:0:
469,192,1846,128,0,2034:0:0:0:0:
384,192,1940,1,0,0:0:0:0:
298,192,2034,128,0,2221:0:0:0:0:
42,192,2221,128,0,2409:0:0:0:0:
128,192,2221,1,0,0:0:0:0:
469,192,2315,1,0,0:0:0:0:
213,192,2409,128,0,2596:0:0:0:0:
384,192,2409,128,0,2690:0:0:0:0:
128,192,2596,128,0,2784:0:0:0:0:
42,192,2784,128,0,3159:0:0:0:0:
384,192,2784,128,0,3159:0:0:0:0:
298,192,3159,128,0,3346:0:0:0:0:
469,192,3159,128,0,3721:0:0:0:0:
213,192,3346,1,0,0:0:0:0:
298,192,3440,1,0,0:0:0:0:
128,192,3534,128,0,3909:0:0:0:0:
213,192,3721,128,0,3909:0:0:0:0:
298,192,3909,128,0,4096:0:0:0:0:
128,192,4096,128,0,4284:0:0:0:0:
384,192,4096,128,0,4284:0:0:0:0:
213,192,4284,128,0,4471:0:0:0:0:
42,192,4471,128,0,4846:0:0:0:0:
469,192,4471,128,0,4659:0:0:0:0:
298,192,4659,128,0,4846:0:0:0:0:
128,192,4846,128,0,5034:0:0:0:0:
213,192,4846,1,0,0:0:0:0:
298,192,4940,128,0,5127:0:0:0:0:
42,192,5034,128,0,5221:0:0:0:0:
213,192,5127,1,0,0:0:0:0:
298,192,5221,128,0,5409:0:0:0:0:
469,192,5221,128,0,5409:0:0:0:0:
42,192,5409,128,0,5596:0:0:0:0:
213,192,5409,128,0,5690:0:0:0:0:
384,192,5596,128,0,5784:0:0:0:0:
213,192,5784,128,0,6159:0:0:0:0:
298,192,5784,128,0,6159:0:0:0:0:
42,192,6159,1,0,0:0:0:0:
128,192,6159,128,0,6440:0:0:0:0:
384,192,6159,1,0,0:0:0:0:
469,192,6159,128,0,6721:0:0:0:0:
42,192,6534,1,0,0:0:0:0:
128,192,6534,128,0,6815:0:0:0:0:
384,192,6534,1,0,0:0:0:0:
298,192,6721,128,0,6909:0:0:0:0:
64,192,6909,1,0,0:0:0:0:
128,192,6909,1,0,0:0:0:0:
213,192,6909,128,0,7096:0:0:0:0:
384,192,7096,128,0,7284:0:0:0:0:
64,192,7284,1,0,0:0:0:0:
128,192,7284,1,0,0:0:0:0:
469,192,7284,128,0,7471:0:0:0:0:
213,192,7471,128,0,7846:0:0:0:0:
298,192,7659,1,0,0:0:0:0:
448,192,7659,1,0,0:0:0:0:
42,192,7846,128,0,8034:0:0:0:0:
128,192,8034,1,0,0:0:0:0:
298,192,8034,128,0,8221:0:0:0:0:
384,192,8034,1,0,0:0:0:0:
384,192,8221,128,0,8409:0:0:0:0:
42,192,8409,1,0,0:0:0:0:
128,192,8409,128,0,8690:0:0:0:0:
192,192,8409,128,0,8596:0:0:0:0:
469,192,8596,128,0,8784:0:0:0:0:
128,192,8784,128,0,9159:0:0:0:0:
320,192,8784,128,0,9159:0:0:0:0:
384,192,8784,1,0,0:0:0:0:
42,192,9159,1,0,0:0:0:65:Kick 3.wav
192,192,9159,128,0,9721:0:0:0:80:Cymbals.wav
384,192,9159,128,0,9909:0:0:0:0:
469,192,9159,1,0,0:0:0:0:
42,192,9721,128,0,9909:0:0:0:0:
128,192,9909,128,0,10659:0:0:0:65:Kick 3.wav
213,192,9909,128,0,10096:0:0:0:80:Cymbals.wav
298,192,9909,1,0,0:0:0:0:
448,192,9909,1,0,0:0:0:0:
384,192,10096,128,0,10284:0:0:0:0:
469,192,10284,128,0,10565:0:0:0:0:
64,192,10659,128,0,11409:0:0:0:65:Kick 3.wav
213,192,10659,1,0,0:0:0:80:Cymbals.wav
384,192,10659,1,0,0:0:0:0:
469,192,10659,128,0,10940:0:0:0:0:
128,192,11034,1,0,0:0:0:65:Kick 3.wav
298,192,11034,1,0,0:0:0:0:
469,192,11034,128,0,11221:0:0:0:0:
213,192,11221,128,0,11409:0:0:0:0:
128,192,11409,1,0,0:0:0:65:Kick 3.wav
298,192,11409,1,0,0:0:0:80:Cymbals.wav
384,192,11409,128,0,12159:0:0:0:0:
469,192,11409,128,0,11596:0:0:0:0:
42,192,11596,128,0,11784:0:0:0:0:
128,192,11784,1,0,0:0:0:65:Kick 3.wav
213,192,11784,128,0,11971:0:0:0:0:
298,192,11784,1,0,0:0:0:0:
469,192,11971,128,0,12159:0:0:0:0:
42,192,12159,1,0,0:0:0:65:Kick 3.wav
128,192,12159,1,0,0:0:0:80:Cymbals.wav
213,192,12159,1,0,0:0:0:0:
320,192,12252,1,0,0:0:0:0:
384,192,12346,1,0,0:0:0:0:
128,192,12440,1,0,0:0:0:0:
42,192,12534,1,0,0:0:0:70:Clap1.wav
469,192,12534,1,0,0:0:0:0:
384,192,12627,1,0,0:0:0:0:
192,192,12721,1,0,0:0:0:0:
128,192,12815,1,0,0:0:0:0:
384,192,12909,1,0,0:0:0:0:
128,192,13002,1,0,0:0:0:0:
192,192,13096,1,0,0:0:0:0:
64,192,13190,1,0,0:0:0:0:
298,192,13284,1,0,0:0:0:70:Clap1.wav
384,192,13284,1,0,0:0:0:0:
448,192,13377,1,0,0:0:0:0:
64,192,13471,1,0,0:0:0:0:
192,192,13471,1,0,0:0:0:0:
64,192,13565,1,0,0:0:0:0:
192,192,13565,1,0,0:0:0:0:
469,192,13659,1,0,0:0:0:0:
298,192,13752,1,0,0:0:0:0:
213,192,13846,1,0,0:0:0:0:
384,192,13940,1,0,0:0:0:0:
42,192,14034,1,0,0:0:0:70:Clap1.wav
128,192,14034,1,0,0:0:0:0:
469,192,14034,128,0,14409:0:0:0:0:
213,192,14127,1,0,0:0:0:0:
384,192,14221,1,0,0:0:0:0:
298,192,14315,1,0,0:0:0:0:
213,192,14409,128,0,14784:0:0:0:0:
128,192,14502,1,0,0:0:0:0:
298,192,14596,1,0,0:0:0:70:Clap1.wav
384,192,14596,1,0,0:0:0:0:
42,192,14690,1,0,0:0:0:0:
128,192,14784,1,0,0:0:0:70:Clap1.wav
384,192,14784,1,0,0:0:0:0:
469,192,14784,128,0,15159:0:0:0:0:
298,192,14877,1,0,0:0:0:0:
213,192,14971,1,0,0:0:0:0:
298,192,15065,1,0,0:0:0:0:
42,192,15159,128,0,15534:0:0:0:0:
384,192,15159,1,0,0:0:0:0:
192,192,15252,1,0,0:0:0:0:
128,192,15346,1,0,0:0:0:0:
384,192,15440,1,0,0:0:0:0:
448,192,15534,1,0,0:0:0:0:
213,192,15627,1,0,0:0:0:0:
42,192,15721,1,0,0:0:0:70:Clap1.wav
384,192,15721,1,0,0:0:0:0:
298,192,15815,1,0,0:0:0:0:
469,192,15909,1,0,0:0:0:0:
128,192,16002,1,0,0:0:0:0:
384,192,16096,1,0,0:0:0:0:
298,192,16190,1,0,0:0:0:0:
64,192,16284,1,0,0:0:0:70:Clap1.wav
128,192,16284,1,0,0:0:0:0:
192,192,16377,1,0,0:0:0:0:
320,192,16471,1,0,0:0:0:70:Clap1.wav
448,192,16471,1,0,0:0:0:0:
320,192,16565,1,0,0:0:0:0:
448,192,16565,1,0,0:0:0:0:
298,192,16659,1,0,0:0:0:0:
469,192,16659,1,0,0:0:0:0:
42,192,16752,1,0,0:0:0:0:
213,192,16846,1,0,0:0:0:0:
298,192,16940,1,0,0:0:0:0:
42,192,17034,128,0,17409:0:0:0:70:Clap1.wav
384,192,17034,1,0,0:0:0:0:
469,192,17034,1,0,0:0:0:0:
128,192,17127,1,0,0:0:0:0:
213,192,17221,1,0,0:0:0:0:
384,192,17315,1,0,0:0:0:0:
298,192,17409,128,0,17784:0:0:0:0:
213,192,17502,1,0,0:0:0:0:
128,192,17596,1,0,0:0:0:0:
384,192,17690,1,0,0:0:0:0:
42,192,17784,1,0,0:0:0:70:Clap1.wav
128,192,17784,1,0,0:0:0:0:
213,192,17784,128,0,18159:0:0:0:0:
298,192,17877,1,0,0:0:0:0:
469,192,17971,1,0,0:0:0:0:
384,192,18065,1,0,0:0:0:0:
64,192,18159,1,0,0:0:0:65:Kick 3.wav
128,192,18159,1,0,0:0:0:0:
469,192,18159,128,0,18534:0:0:0:0:
213,192,18252,1,0,0:0:0:0:
384,192,18346,1,0,0:0:0:0:
298,192,18440,1,0,0:0:0:0:
64,192,18534,1,0,0:0:0:65:Kick 3.wav
128,192,18534,1,0,0:0:0:90:Clap.wav
213,192,18534,1,0,0:0:0:0:
384,192,18534,1,0,0:0:0:0:
298,192,18627,1,0,0:0:0:0:
128,192,18721,1,0,0:0:0:0:
213,192,18815,1,0,0:0:0:0:
42,192,18909,1,0,0:0:0:65:Kick 3.wav
469,192,18909,1,0,0:0:0:0:
128,192,19002,1,0,0:0:0:0:
384,192,19096,1,0,0:0:0:0:
298,192,19190,1,0,0:0:0:0:
64,192,19284,1,0,0:0:0:65:Kick 3.wav
128,192,19284,1,0,0:0:0:90:Clap.wav
192,192,19284,1,0,0:0:0:0:
448,192,19284,1,0,0:0:0:0:
384,192,19377,1,0,0:0:0:0:
298,192,19471,1,0,0:0:0:0:
213,192,19565,1,0,0:0:0:0:
42,192,19659,1,0,0:0:0:65:Kick 3.wav
448,192,19659,1,0,0:0:0:0:
128,192,19752,1,0,0:0:0:0:
213,192,19846,1,0,0:0:0:0:
320,192,19940,1,0,0:0:0:0:
64,192,20034,1,0,0:0:0:65:Kick 3.wav
128,192,20034,1,0,0:0:0:90:Clap.wav
384,192,20034,1,0,0:0:0:0:
448,192,20034,1,0,0:0:0:0:
213,192,20127,1,0,0:0:0:0:
298,192,20221,1,0,0:0:0:0:
448,192,20315,1,0,0:0:0:0:
64,192,20409,1,0,0:0:0:65:Kick 3.wav
320,192,20409,1,0,0:0:0:0:
128,192,20502,1,0,0:0:0:0:
448,192,20596,1,0,0:0:0:0:
384,192,20690,1,0,0:0:0:0:
64,192,20784,1,0,0:0:0:65:Kick 3.wav
128,192,20784,1,0,0:0:0:90:Clap.wav
320,192,20784,1,0,0:0:0:0:
448,192,20784,1,0,0:0:0:0:
192,192,20877,1,0,0:0:0:0:
128,192,20971,1,0,0:0:0:0:
42,192,21065,1,0,0:0:0:0:
298,192,21159,1,0,0:0:0:65:Kick 3.wav
448,192,21159,1,0,0:0:0:0:
384,192,21252,1,0,0:0:0:0:
64,192,21346,1,0,0:0:0:65:Kick 3.wav
213,192,21346,1,0,0:0:0:0:
384,192,21440,1,0,0:0:0:0:
64,192,21534,1,0,0:0:0:65:Kick 3.wav
128,192,21534,1,0,0:0:0:90:Clap.wav
213,192,21534,1,0,0:0:0:0:
448,192,21534,1,0,0:0:0:0:
320,192,21627,1,0,0:0:0:0:
128,192,21721,1,0,0:0:0:65:Kick 3.wav
384,192,21721,1,0,0:0:0:0:
213,192,21815,1,0,0:0:0:0:
298,192,21815,1,0,0:0:0:0:
128,192,21909,1,0,0:0:0:65:Kick 3.wav
384,192,21909,1,0,0:0:0:0:
42,192,22002,1,0,0:0:0:0:
213,192,22096,1,0,0:0:0:65:Kick 3.wav
469,192,22096,1,0,0:0:0:0:
298,192,22190,1,0,0:0:0:0:
64,192,22284,1,0,0:0:0:65:Kick 3.wav
192,192,22284,1,0,0:0:0:90:Clap.wav
384,192,22284,1,0,0:0:0:0:
469,192,22284,1,0,0:0:0:0:
298,192,22377,1,0,0:0:0:0:
64,192,22471,1,0,0:0:0:65:Kick 3.wav
128,192,22471,1,0,0:0:0:0:
213,192,22565,1,0,0:0:0:0:
298,192,22659,1,0,0:0:0:65:Kick 3.wav
384,192,22659,1,0,0:0:0:0:
448,192,22659,1,0,0:0:0:0:
42,192,22752,1,0,0:0:0:65:Kick 3.wav
128,192,22752,1,0,0:0:0:0:
213,192,22752,1,0,0:0:0:0:
298,192,22846,1,0,0:0:0:65:Kick 3.wav
384,192,22846,1,0,0:0:0:0:
469,192,22846,1,0,0:0:0:0:
42,192,22940,1,0,0:0:0:65:Kick 3.wav
128,192,22940,1,0,0:0:0:0:
213,192,22940,1,0,0:0:0:0:
298,192,23034,1,0,0:0:0:65:Kick 3.wav
384,192,23034,1,0,0:0:0:90:Clap.wav
448,192,23034,1,0,0:0:0:0:
42,192,23127,1,0,0:0:0:65:Kick 3.wav
128,192,23127,1,0,0:0:0:0:
213,192,23127,1,0,0:0:0:0:
298,192,23221,1,0,0:0:0:65:Kick 3.wav
384,192,23221,1,0,0:0:0:0:
469,192,23221,1,0,0:0:0:0:
42,192,23315,1,0,0:0:0:65:Kick 3.wav
128,192,23315,1,0,0:0:0:0:
213,192,23315,1,0,0:0:0:0:
298,192,23409,1,0,0:0:0:75:Kick 2.wav
384,192,23409,1,0,0:0:0:0:
448,192,23409,1,0,0:0:0:0:
298,192,23502,1,0,0:0:0:75:Kick 2.wav
384,192,23502,1,0,0:0:0:0:
469,192,23502,1,0,0:0:0:0:
42,192,23596,1,0,0:0:0:75:Kick 2.wav
128,192,23596,1,0,0:0:0:0:
213,192,23596,1,0,0:0:0:0:
42,192,23690,1,0,0:0:0:75:Kick 2.wav
128,192,23690,1,0,0:0:0:0:
213,192,23690,1,0,0:0:0:0:
298,192,23784,1,0,0:0:0:75:Kick 2.wav
384,192,23784,128,0,23877:0:0:0:0:
469,192,23784,1,0,0:0:0:0:
42,192,23877,1,0,0:0:0:75:Kick 2.wav
128,192,23877,128,0,23971:0:0:0:0:
213,192,23877,1,0,0:0:0:0:
298,192,23971,1,0,0:0:0:75:Kick 2.wav
384,192,23971,1,0,0:0:0:0:
469,192,23971,128,0,24065:0:0:0:0:
42,192,24065,128,0,24159:0:0:0:75:Kick 2.wav
128,192,24065,1,0,0:0:0:0:
213,192,24065,1,0,0:0:0:0:
298,192,24159,1,0,0:0:0:65:Kick 3.wav
384,192,24159,128,0,24346:0:0:0:0:
469,192,24159,128,0,24440:0:0:0:0:
64,192,24534,1,0,0:0:0:65:Kick 3.wav
128,192,24534,1,0,0:0:0:0:
213,192,24534,128,0,24721:0:0:0:0:
213,192,24909,1,0,0:0:0:65:Kick 3.wav
298,192,24909,1,0,0:0:0:0:
384,192,24909,128,0,25190:0:0:0:0:
320,192,25190,1,0,0:0:0:65:Kick 3.wav
448,192,25190,1,0,0:0:0:0:
42,192,25284,128,0,25424:0:0:0:0:
213,192,25377,128,0,25471:0:0:0:0:
128,192,25471,1,0,0:0:0:65:Kick 3.wav
384,192,25471,128,0,25565:0:0:0:0:
469,192,25471,1,0,0:0:0:0:
298,192,25565,128,0,25659:0:0:0:0:
42,192,25659,1,0,0:0:0:65:Kick 3.wav
128,192,25659,128,0,25846:0:0:0:0:
469,192,25659,1,0,0:0:0:0:
192,192,26034,1,0,0:0:0:65:Kick 3.wav
320,192,26034,128,0,26221:0:0:0:0:
384,192,26034,1,0,0:0:0:0:
42,192,26409,1,0,0:0:0:65:Kick 3.wav
128,192,26409,1,0,0:0:0:0:
298,192,26409,128,0,26690:0:0:0:0:
384,192,26409,128,0,26690:0:0:0:0:
42,192,26690,1,0,0:0:0:65:Kick 3.wav
469,192,26690,1,0,0:0:0:0:
213,192,26784,128,0,26924:0:0:0:0:
320,192,26877,1,0,0:0:0:0:
128,192,26971,1,0,0:0:0:65:Kick 3.wav
384,192,26971,1,0,0:0:0:60:Hat Dry 1.wav
448,192,26971,1,0,0:0:0:0:
384,192,27065,1,0,0:0:0:60:Hat Dry 1.wav
448,192,27065,1,0,0:0:0:0:
42,192,27159,128,0,27440:0:0:0:75:Kick 2.wav
128,192,27159,1,0,0:0:0:0:
213,192,27159,128,0,27346:0:0:0:0:
320,192,27534,1,0,0:0:0:75:Kick 2.wav
384,192,27534,128,0,27721:0:0:0:0:
448,192,27534,1,0,0:0:0:0:
42,192,27909,1,0,0:0:0:75:Kick 2.wav
128,192,27909,1,0,0:0:0:0:
448,192,27909,128,0,28049:0:0:0:0:
213,192,28096,128,0,28143:0:0:0:0:
384,192,28096,128,0,28143:0:0:0:0:
42,192,28190,1,0,0:0:0:75:Kick 2.wav
128,192,28190,128,0,28237:0:0:0:0:
298,192,28190,1,0,0:0:0:0:
469,192,28284,128,0,28471:0:0:0:0:
384,192,28330,128,0,28471:0:0:0:0:
298,192,28377,128,0,28471:0:0:0:0:
42,192,28471,1,0,0:0:0:75:Kick 2.wav
213,192,28471,1,0,0:0:0:0:
128,192,28659,1,0,0:0:0:60:Kick 4.wav
213,192,28659,128,0,28799:0:0:0:0:
469,192,28659,1,0,0:0:0:0:
42,192,29034,1,0,0:0:0:60:Kick 4.wav
298,192,29034,128,0,29221:0:0:0:0:
469,192,29034,1,0,0:0:0:0:
42,192,29409,1,0,0:0:0:75:Kick 2.wav
128,192,29409,128,0,29596:0:0:0:0:
213,192,29409,128,0,29596:0:0:0:0:
384,192,29409,1,0,0:0:0:0:
298,192,29690,1,0,0:0:0:75:Kick 2.wav
448,192,29690,1,0,0:0:0:0:
42,192,29784,128,0,29924:0:0:0:0:
384,192,29784,1,0,0:0:0:0:
192,192,29877,1,0,0:0:0:0:
128,192,29971,1,0,0:0:0:75:Kick 2.wav
320,192,29971,1,0,0:0:0:60:Hat Dry 1.wav
213,192,30065,1,0,0:0:0:60:Hat Dry 1.wav
448,192,30065,1,0,0:0:0:0:
64,192,30159,128,0,30346:0:0:0:85:Kick 1.wav
128,192,30159,128,0,30346:0:0:0:0:
298,192,30159,1,0,0:0:0:0:
384,192,30159,1,0,0:0:0:0:
298,192,30346,1,0,0:0:0:0:
128,192,30534,128,0,30721:0:0:0:85:Kick 1.wav
213,192,30534,1,0,0:0:0:0:
448,192,30534,1,0,0:0:0:0:
448,192,30721,1,0,0:0:0:0:
42,192,30909,1,0,0:0:0:85:Kick 1.wav
192,192,30909,1,0,0:0:0:0:
384,192,30909,128,0,31143:0:0:0:0:
192,192,31096,1,0,0:0:0:0:
64,192,31190,1,0,0:0:0:85:Kick 1.wav
128,192,31190,1,0,0:0:0:0:
298,192,31284,1,0,0:0:0:0:
384,192,31284,128,0,31471:0:0:0:0:
469,192,31284,128,0,31471:0:0:0:0:
128,192,31471,1,0,0:0:0:85:Kick 1.wav
298,192,31471,1,0,0:0:0:0:
128,192,31565,1,0,0:0:0:0:
64,192,31659,1,0,0:0:0:85:Kick 1.wav
213,192,31659,128,0,31846:0:0:0:0:
384,192,31659,1,0,0:0:0:0:
384,192,31846,1,0,0:0:0:0:
42,192,32034,128,0,32268:0:0:0:85:Kick 1.wav
213,192,32034,1,0,0:0:0:0:
469,192,32034,1,0,0:0:0:0:
213,192,32221,1,0,0:0:0:0:
42,192,32409,128,0,32596:0:0:0:85:Kick 1.wav
320,192,32409,1,0,0:0:0:0:
384,192,32409,128,0,32596:0:0:0:0:
469,192,32409,1,0,0:0:0:0:
128,192,32596,128,0,32690:0:0:0:0:
298,192,32596,1,0,0:0:0:0:
192,192,32690,1,0,0:0:0:85:Kick 1.wav
384,192,32690,1,0,0:0:0:0:
64,192,32784,128,0,32877:0:0:0:0:
448,192,32784,128,0,32971:0:0:0:0:
192,192,32877,128,0,32971:0:0:0:0:
64,192,32971,1,0,0:0:0:85:Kick 1.wav
320,192,32971,128,0,33065:0:0:0:60:Hat Dry 1.wav
384,192,32971,1,0,0:0:0:0:
42,192,33065,1,0,0:0:0:60:Hat Dry 1.wav
448,192,33065,128,0,33159:0:0:0:0:
128,192,33159,1,0,0:0:0:65:Kick 3.wav
213,192,33159,128,0,33346:0:0:0:0:
298,192,33159,128,0,33440:0:0:0:0:
384,192,33159,1,0,0:0:0:0:
128,192,33346,1,0,0:0:0:0:
42,192,33534,1,0,0:0:0:65:Kick 3.wav
298,192,33534,1,0,0:0:0:0:
384,192,33534,128,0,33721:0:0:0:0:
298,192,33721,1,0,0:0:0:0:
42,192,33909,128,0,34096:0:0:0:65:Kick 3.wav
128,192,33909,128,0,34190:0:0:0:0:
213,192,33909,1,0,0:0:0:0:
469,192,33909,1,0,0:0:0:0:
213,192,34096,1,0,0:0:0:0:
384,192,34190,1,0,0:0:0:65:Kick 3.wav
448,192,34190,1,0,0:0:0:0:
64,192,34284,128,0,34409:0:0:0:0:
213,192,34346,128,0,34471:0:0:0:0:
320,192,34471,1,0,0:0:0:65:Kick 3.wav
448,192,34471,1,0,0:0:0:0:
298,192,34565,1,0,0:0:0:0:
42,192,34659,1,0,0:0:0:75:Kick 2.wav
128,192,34659,1,0,0:0:0:0:
384,192,34659,128,0,34846:0:0:0:0:
448,192,34659,128,0,34940:0:0:0:0:
192,192,34752,1,0,0:0:0:0:
320,192,34846,1,0,0:0:0:0:
128,192,34940,1,0,0:0:0:0:
42,192,35034,128,0,35221:0:0:0:75:Kick 2.wav
213,192,35034,1,0,0:0:0:0:
298,192,35034,1,0,0:0:0:0:
469,192,35034,1,0,0:0:0:0:
384,192,35127,1,0,0:0:0:0:
320,192,35221,1,0,0:0:0:0:
192,192,35315,1,0,0:0:0:0:
64,192,35409,1,0,0:0:0:85:Kick 1.wav
128,192,35409,1,0,0:0:0:0:
384,192,35409,1,0,0:0:0:0:
469,192,35409,128,0,35596:0:0:0:0:
213,192,35502,1,0,0:0:0:0:
298,192,35596,1,0,0:0:0:0:
448,192,35690,1,0,0:0:0:0:
64,192,35784,1,0,0:0:0:60:Hat Dry 1.wav
128,192,35784,1,0,0:0:0:0:
64,192,35877,1,0,0:0:0:60:Hat Dry 1.wav
128,192,35877,1,0,0:0:0:0:
384,192,35971,1,0,0:0:0:60:Hat Dry 1.wav
448,192,35971,1,0,0:0:0:0:
384,192,36065,1,0,0:0:0:60:Hat Dry 1.wav
448,192,36065,1,0,0:0:0:0:
64,192,36159,1,0,0:0:0:65:Kick 3.wav
128,192,36159,1,0,0:0:0:90:Clap.wav
192,192,36159,1,0,0:0:0:0:
298,192,36159,1,0,0:0:0:0:
128,192,36346,1,0,0:0:0:0:
298,192,36346,1,0,0:0:0:0:
42,192,36440,1,0,0:0:0:0:
213,192,36534,1,0,0:0:0:65:Kick 3.wav
298,192,36534,1,0,0:0:0:90:Clap.wav
384,192,36534,1,0,0:0:0:0:
469,192,36534,1,0,0:0:0:0:
213,192,36721,1,0,0:0:0:0:
384,192,36721,1,0,0:0:0:0:
469,192,36815,1,0,0:0:0:0:
42,192,36909,1,0,0:0:0:65:Kick 3.wav
128,192,36909,1,0,0:0:0:90:Clap.wav
213,192,36909,1,0,0:0:0:0:
298,192,36909,1,0,0:0:0:0:
128,192,37096,1,0,0:0:0:0:
448,192,37096,1,0,0:0:0:0:
192,192,37190,1,0,0:0:0:65:Kick 3.wav
320,192,37190,1,0,0:0:0:0:
64,192,37284,1,0,0:0:0:90:Clap.wav
128,192,37284,1,0,0:0:0:0:
448,192,37284,1,0,0:0:0:0:
213,192,37471,1,0,0:0:0:65:Kick 3.wav
384,192,37471,1,0,0:0:0:0:
128,192,37565,1,0,0:0:0:0:
298,192,37565,1,0,0:0:0:0:
42,192,37659,1,0,0:0:0:65:Kick 3.wav
192,192,37659,1,0,0:0:0:90:Clap.wav
384,192,37659,1,0,0:0:0:0:
469,192,37659,1,0,0:0:0:0:
128,192,37846,1,0,0:0:0:0:
298,192,37846,1,0,0:0:0:0:
42,192,37940,1,0,0:0:0:0:
213,192,38034,1,0,0:0:0:65:Kick 3.wav
298,192,38034,1,0,0:0:0:90:Clap.wav
384,192,38034,1,0,0:0:0:0:
469,192,38034,1,0,0:0:0:0:
213,192,38221,1,0,0:0:0:0:
384,192,38221,1,0,0:0:0:0:
448,192,38315,1,0,0:0:0:0:
64,192,38409,1,0,0:0:0:65:Kick 3.wav
128,192,38409,1,0,0:0:0:90:Clap.wav
192,192,38409,1,0,0:0:0:0:
320,192,38409,1,0,0:0:0:0:
384,192,38596,1,0,0:0:0:0:
42,192,38690,1,0,0:0:0:65:Kick 3.wav
320,192,38690,1,0,0:0:0:0:
128,192,38784,1,0,0:0:0:90:Clap.wav
213,192,38784,1,0,0:0:0:0:
469,192,38784,1,0,0:0:0:0:
384,192,38846,1,0,0:0:0:0:
298,192,38909,1,0,0:0:0:0:
42,192,38971,1,0,0:0:0:65:Kick 3.wav
213,192,38971,1,0,0:0:0:0:
384,192,39065,1,0,0:0:0:0:
42,192,39159,1,0,0:0:0:65:Kick 3.wav
128,192,39159,1,0,0:0:0:90:Clap.wav
320,192,39159,1,0,0:0:0:0:
448,192,39159,1,0,0:0:0:0:
213,192,39346,1,0,0:0:0:0:
384,192,39346,1,0,0:0:0:0:
298,192,39440,1,0,0:0:0:0:
42,192,39534,1,0,0:0:0:65:Kick 3.wav
128,192,39534,1,0,0:0:0:90:Clap.wav
213,192,39534,1,0,0:0:0:0:
469,192,39534,1,0,0:0:0:0:
128,192,39721,1,0,0:0:0:0:
298,192,39721,1,0,0:0:0:0:
213,192,39815,1,0,0:0:0:0:
64,192,39909,1,0,0:0:0:65:Kick 3.wav
298,192,39909,1,0,0:0:0:90:Clap.wav
384,192,39909,1,0,0:0:0:0:
448,192,39909,1,0,0:0:0:0:
42,192,40096,1,0,0:0:0:0:
469,192,40096,1,0,0:0:0:0:
128,192,40190,1,0,0:0:0:65:Kick 3.wav
384,192,40190,1,0,0:0:0:0:
42,192,40284,128,0,40471:0:0:0:90:Clap.wav
213,192,40284,128,0,40424:0:0:0:0:
298,192,40284,128,0,40377:0:0:0:0:
469,192,40284,1,0,0:0:0:0:
128,192,40471,1,0,0:0:0:65:Kick 3.wav
384,192,40471,1,0,0:0:0:0:
469,192,40471,1,0,0:0:0:0:
213,192,40565,1,0,0:0:0:0:
298,192,40565,1,0,0:0:0:0:
42,192,40659,1,0,0:0:0:65:Kick 3.wav
128,192,40659,1,0,0:0:0:90:Clap.wav
384,192,40659,1,0,0:0:0:0:
448,192,40659,1,0,0:0:0:0:
213,192,40846,1,0,0:0:0:0:
384,192,40846,1,0,0:0:0:0:
298,192,40940,1,0,0:0:0:0:
42,192,41034,1,0,0:0:0:65:Kick 3.wav
128,192,41034,1,0,0:0:0:90:Clap.wav
213,192,41034,1,0,0:0:0:0:
469,192,41034,1,0,0:0:0:0:
128,192,41221,1,0,0:0:0:0:
298,192,41221,1,0,0:0:0:0:
213,192,41315,1,0,0:0:0:0:
64,192,41409,1,0,0:0:0:65:Kick 3.wav
298,192,41409,1,0,0:0:0:90:Clap.wav
384,192,41409,1,0,0:0:0:0:
448,192,41409,1,0,0:0:0:0:
213,192,41596,1,0,0:0:0:0:
298,192,41690,1,0,0:0:0:65:Kick 3.wav
384,192,41690,1,0,0:0:0:0:
64,192,41784,1,0,0:0:0:90:Clap.wav
128,192,41784,1,0,0:0:0:0:
213,192,41784,1,0,0:0:0:0:
469,192,41784,1,0,0:0:0:0:
320,192,41877,1,0,0:0:0:0:
64,192,41971,1,0,0:0:0:65:Kick 3.wav
128,192,41971,1,0,0:0:0:90:Clap.wav
192,192,41971,1,0,0:0:0:0:
448,192,41971,1,0,0:0:0:0:
320,192,42065,1,0,0:0:0:0:
64,192,42159,1,0,0:0:0:65:Kick 3.wav
128,192,42159,1,0,0:0:0:90:Clap.wav
192,192,42159,1,0,0:0:0:0:
448,192,42159,1,0,0:0:0:0:
128,192,42346,1,0,0:0:0:0:
384,192,42346,1,0,0:0:0:0:
298,192,42440,1,0,0:0:0:0:
42,192,42534,1,0,0:0:0:65:Kick 3.wav
213,192,42534,1,0,0:0:0:90:Clap.wav
384,192,42534,1,0,0:0:0:0:
469,192,42534,1,0,0:0:0:0:
128,192,42721,1,0,0:0:0:0:
384,192,42721,1,0,0:0:0:0:
213,192,42815,1,0,0:0:0:0:
64,192,42909,1,0,0:0:0:65:Kick 3.wav
128,192,42909,1,0,0:0:0:90:Clap.wav
320,192,42909,1,0,0:0:0:0:
448,192,42909,1,0,0:0:0:0:
128,192,43096,1,0,0:0:0:0:
298,192,43096,1,0,0:0:0:0:
213,192,43190,1,0,0:0:0:65:Kick 3.wav
384,192,43190,1,0,0:0:0:0:
42,192,43284,1,0,0:0:0:90:Clap.wav
298,192,43284,1,0,0:0:0:0:
469,192,43284,1,0,0:0:0:0:
42,192,43471,1,0,0:0:0:65:Kick 3.wav
213,192,43471,1,0,0:0:0:0:
469,192,43471,1,0,0:0:0:0:
128,192,43565,1,0,0:0:0:0:
384,192,43565,1,0,0:0:0:0:
64,192,43659,1,0,0:0:0:65:Kick 3.wav
192,192,43659,1,0,0:0:0:90:Clap.wav
298,192,43659,1,0,0:0:0:0:
448,192,43659,1,0,0:0:0:0:
128,192,43846,1,0,0:0:0:0:
384,192,43846,1,0,0:0:0:0:
298,192,43940,1,0,0:0:0:0:
42,192,44034,1,0,0:0:0:65:Kick 3.wav
213,192,44034,1,0,0:0:0:90:Clap.wav
384,192,44034,1,0,0:0:0:0:
469,192,44034,1,0,0:0:0:0:
128,192,44221,1,0,0:0:0:0:
384,192,44221,1,0,0:0:0:0:
213,192,44315,1,0,0:0:0:0:
42,192,44409,1,0,0:0:0:65:Kick 3.wav
128,192,44409,1,0,0:0:0:90:Clap.wav
298,192,44409,1,0,0:0:0:0:
469,192,44409,1,0,0:0:0:0:
64,192,44596,1,0,0:0:0:0:
192,192,44690,1,0,0:0:0:65:Kick 3.wav
384,192,44690,1,0,0:0:0:0:
42,192,44784,1,0,0:0:0:90:Clap.wav
298,192,44784,1,0,0:0:0:60:Hat Dry 1.wav
469,192,44784,1,0,0:0:0:0:
128,192,44877,1,0,0:0:0:60:Hat Dry 1.wav
213,192,44971,1,0,0:0:0:65:Kick 3.wav
320,192,44971,1,0,0:0:0:60:Hat Dry 1.wav
384,192,45065,1,0,0:0:0:60:Hat Dry 1.wav
64,192,45159,1,0,0:0:0:65:Kick 3.wav
213,192,45159,1,0,0:0:0:100:Clap.wav
448,192,45159,1,0,0:0:0:0:
128,192,45159,1,0,0:0:0:0:
128,192,45346,1,0,0:0:0:0:
298,192,45346,1,0,0:0:0:0:
384,192,45440,1,0,0:0:0:0:
42,192,45534,1,0,0:0:0:65:Kick 3.wav
128,192,45534,1,0,0:0:0:100:Clap.wav
213,192,45534,1,0,0:0:0:0:
469,192,45534,1,0,0:0:0:0:
213,192,45721,1,0,0:0:0:0:
384,192,45721,1,0,0:0:0:0:
128,192,45815,1,0,0:0:0:0:
42,192,45909,1,0,0:0:0:65:Kick 3.wav
298,192,45909,1,0,0:0:0:100:Clap.wav
384,192,45909,1,0,0:0:0:0:
469,192,45909,1,0,0:0:0:0:
213,192,46096,1,0,0:0:0:0:
298,192,46096,1,0,0:0:0:0:
128,192,46190,1,0,0:0:0:65:Kick 3.wav
384,192,46190,1,0,0:0:0:0:
64,192,46284,1,0,0:0:0:90:Clap.wav
192,192,46284,128,0,46377:0:0:0:0:
320,192,46284,128,0,46424:0:0:0:0:
448,192,46284,128,0,46471:0:0:0:0:
64,192,46471,1,0,0:0:0:65:Kick 3.wav
128,192,46471,1,0,0:0:0:0:
384,192,46471,1,0,0:0:0:0:
213,192,46565,1,0,0:0:0:0:
320,192,46565,1,0,0:0:0:0:
64,192,46659,1,0,0:0:0:65:Kick 3.wav
128,192,46659,1,0,0:0:0:100:Clap.wav
384,192,46659,1,0,0:0:0:0:
448,192,46659,1,0,0:0:0:0:
213,192,46846,1,0,0:0:0:0:
298,192,46846,1,0,0:0:0:0:
42,192,46940,1,0,0:0:0:0:
128,192,47034,1,0,0:0:0:65:Kick 3.wav
213,192,47034,1,0,0:0:0:100:Clap.wav
384,192,47034,1,0,0:0:0:0:
469,192,47034,1,0,0:0:0:0:
213,192,47221,1,0,0:0:0:0:
298,192,47221,1,0,0:0:0:0:
448,192,47315,1,0,0:0:0:0:
64,192,47409,1,0,0:0:0:75:Kick 2.wav
128,192,47409,1,0,0:0:0:100:Clap.wav
320,192,47409,1,0,0:0:0:0:
384,192,47409,1,0,0:0:0:0:
64,192,47596,1,0,0:0:0:0:
192,192,47690,1,0,0:0:0:75:Kick 2.wav
384,192,47690,1,0,0:0:0:0:
42,192,47784,1,0,0:0:0:70:Clap.wav
128,192,47784,1,0,0:0:0:0:
298,192,47784,1,0,0:0:0:0:
213,192,47877,1,0,0:0:0:0:
384,192,47971,1,0,0:0:0:75:Kick 2.wav
469,192,47971,1,0,0:0:0:0:
298,192,48065,1,0,0:0:0:0:
42,192,48159,128,0,48534:0:0:0:65:Kick 3.wav
213,192,48159,128,0,48534:0:0:0:0:
469,192,48159,1,0,0:0:0:0:
213,192,48721,128,0,48815:0:0:0:0:
384,192,48721,128,0,48909:0:0:0:0:
213,192,48909,128,0,49190:0:0:0:0:
469,192,48909,128,0,49096:0:0:0:0:
298,192,49096,128,0,49284:0:0:0:0:
213,192,49284,128,0,49377:0:0:0:0:
384,192,49284,128,0,49471:0:0:0:0:
213,192,49471,1,0,0:0:0:0:
469,192,49471,128,0,49846:0:0:0:0:
128,192,49565,1,0,0:0:0:0:
213,192,49846,128,0,50034:0:0:0:0:
128,192,50034,128,0,50221:0:0:0:0:
384,192,50034,128,0,50315:0:0:0:0:
42,192,50221,128,0,50409:0:0:0:0:
128,192,50409,128,0,50596:0:0:0:0:
469,192,50409,128,0,50596:0:0:0:0:
213,192,50596,128,0,50784:0:0:0:0:
469,192,50690,128,0,50877:0:0:0:0:
42,192,50784,128,0,51159:0:0:0:0:
469,192,50971,128,0,51159:0:0:0:0:
128,192,51159,128,0,51440:0:0:0:0:
298,192,51159,128,0,51534:0:0:0:0:
128,192,51534,1,0,0:0:0:0:
213,192,51627,1,0,0:0:0:0:
128,192,51721,1,0,0:0:0:0:
469,192,51721,128,0,51909:0:0:0:0:
213,192,51815,1,0,0:0:0:0:
298,192,51909,128,0,52096:0:0:0:0:
42,192,52096,128,0,52284:0:0:0:0:
469,192,52096,1,0,0:0:0:0:
384,192,52190,128,0,52377:0:0:0:0:
128,192,52284,128,0,52471:0:0:0:0:
213,192,52471,128,0,52846:0:0:0:0:
384,192,52471,128,0,52659:0:0:0:0:
42,192,52659,128,0,52940:0:0:0:0:
384,192,52846,128,0,53034:0:0:0:0:
42,192,53034,128,0,53127:0:0:0:0:
469,192,53034,128,0,53221:0:0:0:0:
42,192,53221,1,0,0:0:0:0:
298,192,53221,128,0,53409:0:0:0:0:
128,192,53315,1,0,0:0:0:0:
384,192,53409,128,0,53596:0:0:0:0:
128,192,53596,1,0,0:0:0:0:
469,192,53596,128,0,53784:0:0:0:0:
298,192,53690,1,0,0:0:0:0:
42,192,53784,1,0,0:0:0:0:
213,192,53784,128,0,54159:0:0:0:0:
128,192,53877,1,0,0:0:0:0:
384,192,53971,1,0,0:0:0:0:
298,192,54065,1,0,0:0:0:0:
64,192,54159,1,0,0:0:0:65:Kick 3.wav
384,192,54159,1,0,0:0:0:0:
448,192,54159,1,0,0:0:0:0:
128,192,54346,1,0,0:0:0:60:Hat Dry 1.wav
192,192,54534,1,0,0:0:0:70:Clap1.wav
298,192,54534,1,0,0:0:0:0:
469,192,54721,1,0,0:0:0:60:Hat Dry 1.wav
298,192,54815,1,0,0:0:0:60:Hat Dry 1.wav
384,192,54909,1,0,0:0:0:60:Hat Dry 1.wav
213,192,55002,1,0,0:0:0:60:Hat Dry 1.wav
42,192,55096,1,0,0:0:0:70:Clap1.wav
128,192,55096,1,0,0:0:0:0:
213,192,55284,1,0,0:0:0:60:Hat Dry 1.wav
298,192,55377,1,0,0:0:0:60:Hat Dry 1.wav
469,192,55471,1,0,0:0:0:60:Hat Dry 1.wav
469,192,55565,1,0,0:0:0:60:Hat Dry 1.wav
213,192,55659,1,0,0:0:0:70:Clap1.wav
384,192,55659,1,0,0:0:0:0:
42,192,55846,1,0,0:0:0:60:Hat Dry 1.wav
128,192,55940,1,0,0:0:0:60:Hat Dry 1.wav
192,192,56034,1,0,0:0:0:60:Hat Dry 1.wav
448,192,56127,1,0,0:0:0:60:Hat Dry 1.wav
298,192,56221,1,0,0:0:0:70:Clap1.wav
384,192,56221,1,0,0:0:0:0:
213,192,56409,1,0,0:0:0:60:Hat Dry 1.wav
298,192,56502,1,0,0:0:0:60:Hat Dry 1.wav
128,192,56596,1,0,0:0:0:60:Hat Dry 1.wav
64,192,56690,1,0,0:0:0:60:Hat Dry 1.wav
298,192,56784,1,0,0:0:0:70:Clap1.wav
384,192,56784,1,0,0:0:0:0:
384,192,56877,1,0,0:0:0:0:
128,192,56971,1,0,0:0:0:0:
128,192,57065,1,0,0:0:0:0:
320,192,57159,1,0,0:0:0:50:Hat Dry 2.wav
469,192,57159,128,0,57346:0:0:0:0:
384,192,57252,1,0,0:0:0:50:Hat Dry 2.wav
320,192,57346,1,0,0:0:0:50:Hat Dry 2.wav
128,192,57440,1,0,0:0:0:50:Hat Dry 2.wav
42,192,57534,128,0,57721:0:0:0:50:Hat Dry 2.wav
469,192,57534,1,0,0:0:0:0:
320,192,57627,1,0,0:0:0:50:Hat Dry 2.wav
128,192,57721,1,0,0:0:0:50:Hat Dry 2.wav
128,192,57815,1,0,0:0:0:50:Hat Dry 2.wav
320,192,57909,1,0,0:0:0:50:Hat Dry 2.wav
469,192,57909,128,0,58096:0:0:0:0:
192,192,58002,1,0,0:0:0:50:Hat Dry 2.wav
384,192,58096,1,0,0:0:0:50:Hat Dry 2.wav
320,192,58190,1,0,0:0:0:50:Hat Dry 2.wav
469,192,58190,128,0,58284:0:0:0:0:
192,192,58284,1,0,0:0:0:50:Hat Dry 2.wav
64,192,58377,1,0,0:0:0:50:Hat Dry 2.wav
469,192,58471,1,0,0:0:0:50:Hat Dry 2.wav
469,192,58565,1,0,0:0:0:50:Hat Dry 2.wav
213,192,58659,128,0,58846:0:0:0:50:Hat Dry 2.wav
320,192,58659,1,0,0:0:0:0:
128,192,58752,1,0,0:0:0:50:Hat Dry 2.wav
64,192,58846,1,0,0:0:0:50:Hat Dry 2.wav
298,192,58940,1,0,0:0:0:50:Hat Dry 2.wav
213,192,59034,128,0,59127:0:0:0:50:Hat Dry 2.wav
469,192,59034,1,0,0:0:0:0:
64,192,59127,1,0,0:0:0:50:Hat Dry 2.wav
320,192,59221,1,0,0:0:0:50:Hat Dry 2.wav
298,192,59315,1,0,0:0:0:50:Hat Dry 2.wav
64,192,59409,1,0,0:0:0:50:Hat Dry 2.wav
128,192,59455,1,0,0:0:0:50:Hat Dry 2.wav
213,192,59502,1,0,0:0:0:50:Hat Dry 2.wav
298,192,59549,1,0,0:0:0:50:Hat Dry 2.wav
384,192,59596,1,0,0:0:0:50:Hat Dry 2.wav
469,192,59643,1,0,0:0:0:50:Hat Dry 2.wav
42,192,59690,1,0,0:0:0:50:Hat Dry 2.wav
128,192,59737,1,0,0:0:0:50:Hat Dry 2.wav
213,192,59784,1,0,0:0:0:50:Hat Dry 2.wav
469,192,59830,1,0,0:0:0:50:Hat Dry 2.wav
384,192,59877,1,0,0:0:0:50:Hat Dry 2.wav
298,192,59924,1,0,0:0:0:50:Hat Dry 2.wav
128,192,59971,1,0,0:0:0:50:Hat Dry 2.wav
213,192,60018,1,0,0:0:0:50:Hat Dry 2.wav
298,192,60065,1,0,0:0:0:50:Hat Dry 2.wav
384,192,60112,1,0,0:0:0:50:Hat Dry 2.wav
64,192,60159,128,0,63159:0:0:0:0:
469,192,60159,128,0,60721:0:0:0:0:
128,192,60721,128,0,60909:0:0:0:0:
384,192,60909,128,0,61096:0:0:0:0:
192,192,61096,128,0,61284:0:0:0:0:
448,192,61284,128,0,61471:0:0:0:0:
384,192,61471,128,0,61846:0:0:0:0:
128,192,61846,128,0,62034:0:0:0:0:
320,192,62034,128,0,62221:0:0:0:0:
448,192,62221,128,0,62409:0:0:0:0:
128,192,62409,128,0,62784:0:0:0:70:Clap1.wav
384,192,62409,1,0,0:0:0:0:
213,192,62596,1,0,0:0:0:50:Hat Dry 2.wav
384,192,62690,1,0,0:0:0:50:Hat Dry 2.wav
448,192,62784,128,0,63159:0:0:0:50:Hat Dry 2.wav
320,192,62877,1,0,0:0:0:50:Hat Dry 2.wav
128,192,62971,1,0,0:0:0:70:Clap1.wav
213,192,63159,128,0,63534:0:0:0:0:
384,192,63159,128,0,66159:0:0:0:0:
320,192,63721,128,0,63909:0:0:0:0:
64,192,63909,128,0,64096:0:0:0:0:
213,192,64096,128,0,64284:0:0:0:0:
320,192,64284,128,0,64471:0:0:0:0:
448,192,64471,128,0,64846:0:0:0:0:
213,192,64659,1,0,0:0:0:70:Clap1.wav
298,192,64659,1,0,0:0:0:0:
64,192,64846,128,0,65034:0:0:0:50:Hat Dry 2.wav
128,192,64940,1,0,0:0:0:50:Hat Dry 2.wav
320,192,65034,128,0,65221:0:0:0:50:Hat Dry 2.wav
213,192,65127,1,0,0:0:0:50:Hat Dry 2.wav
128,192,65221,1,0,0:0:0:70:Clap1.wav
448,192,65221,128,0,65409:0:0:0:0:
213,192,65409,128,0,65596:0:0:0:50:Hat Dry 2.wav
128,192,65502,1,0,0:0:0:50:Hat Dry 2.wav
42,192,65596,128,0,65784:0:0:0:50:Hat Dry 2.wav
469,192,65690,1,0,0:0:0:50:Hat Dry 2.wav
128,192,65784,128,0,65971:0:0:0:70:Clap1.wav
298,192,65784,1,0,0:0:0:0:
213,192,65971,1,0,0:0:0:70:Clap1.wav
469,192,65971,128,0,66159:0:0:0:0:
128,192,66159,128,0,68315:0:0:0:0:
298,192,66159,128,0,66534:0:0:0:0:
213,192,66721,128,0,66909:0:0:0:0:
384,192,66909,128,0,67096:0:0:0:0:
469,192,67096,128,0,67284:0:0:0:0:
42,192,67284,128,0,67471:0:0:0:0:
213,192,67471,128,0,67846:0:0:0:0:
384,192,67846,128,0,68034:0:0:0:0:
298,192,68034,128,0,68221:0:0:0:0:
469,192,68221,128,0,68409:0:0:0:0:
42,192,68409,128,0,68596:0:0:0:0:
128,192,68409,128,0,69159:0:0:0:0:
384,192,68502,1,0,0:0:0:0:
213,192,68596,128,0,68784:0:0:0:0:
298,192,68690,1,0,0:0:0:0:
469,192,68784,128,0,69159:0:0:0:50:Hat Dry 2.wav
42,192,68877,1,0,0:0:0:50:Hat Dry 2.wav
298,192,68971,1,0,0:0:0:50:Hat Dry 2.wav
213,192,69065,1,0,0:0:0:50:Hat Dry 2.wav
298,192,69159,128,0,69346:0:0:0:0:
384,192,69159,128,0,70284:0:0:0:0:
128,192,69346,128,0,69534:0:0:0:0:
213,192,69534,128,0,69721:0:0:0:0:
42,192,69721,128,0,69815:0:0:0:0:
128,192,69815,128,0,69909:0:0:0:0:
469,192,69909,128,0,70096:0:0:0:0:
298,192,70096,128,0,70284:0:0:0:0:
42,192,70284,128,0,71409:0:0:0:0:
128,192,70284,128,0,70659:0:0:0:0:
469,192,70659,128,0,70752:0:0:0:60:Hat Dry 1.wav
384,192,70752,128,0,70846:0:0:0:60:Hat Dry 1.wav
298,192,70846,128,0,70940:0:0:0:60:Hat Dry 1.wav
128,192,70940,128,0,71034:0:0:0:60:Hat Dry 1.wav
213,192,70940,128,0,71034:0:0:0:0:
469,192,71034,128,0,71221:0:0:0:60:Hat Dry 1.wav
384,192,71127,128,0,71221:0:0:0:60:Hat Dry 1.wav
128,192,71221,128,0,71409:0:0:0:60:Hat Dry 1.wav
213,192,71315,128,0,71409:0:0:0:60:Hat Dry 1.wav
298,192,71409,128,0,71596:0:0:0:60:Hat Dry 1.wav
448,192,71409,128,0,72159:0:0:0:0:
128,192,71502,128,0,71596:0:0:0:0:
384,192,71596,128,0,71784:0:0:0:60:Hat Dry 1.wav
213,192,71690,128,0,71784:0:0:0:0:
42,192,71784,128,0,71971:0:0:0:60:Hat Dry 1.wav
298,192,71877,128,0,71971:0:0:0:0:
128,192,71971,128,0,72159:0:0:0:60:Hat Dry 1.wav
384,192,72065,128,0,72159:0:0:0:0:
42,192,72159,1,0,0:0:0:80:Cymbals.wav
192,192,72159,1,0,0:0:0:0:
298,192,72159,1,0,0:0:0:0:
128,192,72252,1,0,0:0:0:0:
213,192,72346,1,0,0:0:0:0:
298,192,72440,1,0,0:0:0:0:
213,192,72534,1,0,0:0:0:0:
298,192,72627,1,0,0:0:0:0:
384,192,72721,1,0,0:0:0:0:
469,192,72815,1,0,0:0:0:0:
128,192,72909,1,0,0:0:0:0:
42,192,73002,1,0,0:0:0:0:
213,192,73096,1,0,0:0:0:0:
384,192,73190,1,0,0:0:0:0:
298,192,73284,1,0,0:0:0:0:
128,192,73377,1,0,0:0:0:0:
213,192,73471,1,0,0:0:0:0:
298,192,73565,1,0,0:0:0:0:
213,192,73659,1,0,0:0:0:0:
298,192,73752,1,0,0:0:0:0:
469,192,73846,1,0,0:0:0:0:
128,192,73940,1,0,0:0:0:0:
298,192,74034,1,0,0:0:0:0:
384,192,74127,1,0,0:0:0:0:
128,192,74221,1,0,0:0:0:0:
213,192,74315,1,0,0:0:0:0:
384,192,74409,1,0,0:0:0:0:
469,192,74502,1,0,0:0:0:0:
128,192,74596,1,0,0:0:0:0:
298,192,74690,1,0,0:0:0:0:
469,192,74784,1,0,0:0:0:0:
42,192,74877,1,0,0:0:0:0:
213,192,74971,1,0,0:0:0:0:
384,192,75065,1,0,0:0:0:0:
298,192,75159,1,0,0:0:0:0:
42,192,75252,1,0,0:0:0:0:
128,192,75346,1,0,0:0:0:0:
213,192,75440,1,0,0:0:0:0:
298,192,75534,1,0,0:0:0:0:
384,192,75627,1,0,0:0:0:0:
469,192,75721,1,0,0:0:0:0:
298,192,75815,1,0,0:0:0:0:
42,192,75909,1,0,0:0:0:0:
128,192,76002,1,0,0:0:0:0:
213,192,76096,1,0,0:0:0:0:
298,192,76190,1,0,0:0:0:0:
384,192,76284,1,0,0:0:0:0:
469,192,76377,1,0,0:0:0:0:
213,192,76471,128,0,76565:0:0:0:0:
298,192,76565,128,0,76659:0:0:0:0:
384,192,76659,128,0,76752:0:0:0:0:
213,192,76752,128,0,76846:0:0:0:0:
128,192,76846,128,0,76940:0:0:0:0:
42,192,76940,128,0,77034:0:0:0:0:
298,192,77034,128,0,77221:0:0:0:0:
128,192,77127,1,0,0:0:0:0:
213,192,77221,128,0,77409:0:0:0:0:
42,192,77315,1,0,0:0:0:0:
384,192,77409,128,0,77502:0:0:0:0:
469,192,77502,128,0,77596:0:0:0:0:
298,192,77596,128,0,77690:0:0:0:0:
213,192,77690,128,0,77784:0:0:0:0:
384,192,77784,128,0,77877:0:0:0:0:
128,192,77877,128,0,78065:0:0:0:0:
298,192,77971,1,0,0:0:0:0:
42,192,78065,128,0,78159:0:0:0:0:
213,192,78159,128,0,78252:0:0:0:0:
384,192,78159,128,0,79284:0:0:0:0:
298,192,78182,128,0,78252:0:0:0:0:
42,192,78346,128,0,78440:0:0:0:0:
128,192,78369,128,0,78440:0:0:0:0:
42,192,78534,128,0,78627:0:0:0:0:
213,192,78557,128,0,78627:0:0:0:0:
128,192,78721,128,0,78815:0:0:0:0:
298,192,78744,128,0,78815:0:0:0:0:
469,192,79096,128,0,79190:0:0:0:0:
213,192,79190,128,0,79284:0:0:0:0:
128,192,79284,128,0,80409:0:0:0:0:
298,192,79284,128,0,79377:0:0:0:0:
469,192,79377,128,0,79471:0:0:0:0:
42,192,79471,128,0,79659:0:0:0:0:
213,192,79659,128,0,79846:0:0:0:0:
384,192,79846,128,0,80034:0:0:0:0:
298,192,80034,128,0,80221:0:0:0:0:
469,192,80034,128,0,80409:0:0:0:0:
42,192,80221,128,0,80409:0:0:0:0:
213,192,80409,128,0,80502:0:0:0:0:
384,192,80409,128,0,81159:0:0:0:0:
298,192,80432,128,0,80502:0:0:0:0:
128,192,80596,128,0,80690:0:0:0:0:
298,192,80619,128,0,80690:0:0:0:0:
42,192,80784,128,0,80877:0:0:0:0:
469,192,80807,128,0,80877:0:0:0:0:
213,192,80971,128,0,81065:0:0:0:0:
469,192,80994,128,0,81065:0:0:0:0:
128,192,81159,128,0,81346:0:0:0:0:
298,192,81159,128,0,81909:0:0:0:0:
213,192,81346,128,0,81534:0:0:0:0:
469,192,81534,128,0,81909:0:0:0:0:
42,192,81815,128,0,81909:0:0:0:0:
213,192,81909,128,0,82659:0:0:0:0:
384,192,81909,128,0,82002:0:0:0:0:
298,192,82002,128,0,82096:0:0:0:0:
128,192,82096,128,0,82284:0:0:0:0:
469,192,82284,128,0,82377:0:0:0:0:
384,192,82307,128,0,82377:0:0:0:0:
298,192,82471,128,0,82565:0:0:0:0:
42,192,82494,128,0,82565:0:0:0:0:
128,192,82659,128,0,83409:0:0:0:0:
384,192,82659,128,0,82752:0:0:0:0:
469,192,82752,128,0,82846:0:0:0:0:
64,192,82846,128,0,82940:0:0:0:0:
192,192,82940,128,0,83034:0:0:0:0:
298,192,83034,128,0,83127:0:0:0:0:
384,192,83057,128,0,83127:0:0:0:0:
213,192,83221,128,0,83315:0:0:0:0:
469,192,83244,128,0,83315:0:0:0:0:
64,192,83409,128,0,84159:0:0:0:0:
384,192,83409,128,0,83502:0:0:0:0:
298,192,83432,128,0,83502:0:0:0:0:
128,192,83596,128,0,83690:0:0:0:0:
213,192,83619,128,0,83690:0:0:0:0:
469,192,83784,128,0,83877:0:0:0:0:
298,192,83807,128,0,83877:0:0:0:0:
128,192,83971,128,0,84065:0:0:0:0:
384,192,83994,128,0,84065:0:0:0:0:
213,192,84159,128,0,84534:0:0:0:0:
448,192,84159,128,0,85284:0:0:0:0:
298,192,84534,1,0,0:0:0:0:
128,192,84909,128,0,85096:0:0:0:0:
64,192,85096,128,0,85284:0:0:0:0:
128,192,85284,1,0,0:0:0:0:
192,192,85284,128,0,86409:0:0:0:0:
384,192,85284,128,0,85471:0:0:0:0:
448,192,85471,128,0,85846:0:0:0:0:
298,192,85846,128,0,86221:0:0:0:0:
42,192,86034,1,0,0:0:0:0:
384,192,86221,128,0,86596:0:0:0:0:
64,192,86409,128,0,87159:0:0:0:0:
469,192,86596,1,0,0:0:0:0:
298,192,86784,1,0,0:0:0:0:
128,192,86971,1,0,0:0:0:0:
213,192,87034,1,0,0:0:0:0:
384,192,87159,128,0,87346:0:0:0:0:
448,192,87159,128,0,88659:0:0:0:0:
298,192,87346,128,0,87534:0:0:0:0:
128,192,87534,128,0,87721:0:0:0:0:
64,192,87721,128,0,88096:0:0:0:0:
384,192,87721,1,0,0:0:0:0:
128,192,88096,128,0,88284:0:0:0:0:
213,192,88284,1,0,0:0:0:0:
213,192,88471,1,0,0:0:0:0:
384,192,88471,128,0,88659:0:0:0:0:
42,192,88659,128,0,88846:0:0:0:0:
128,192,88659,128,0,90159:0:0:0:0:
298,192,88846,128,0,89034:0:0:0:0:
384,192,89034,128,0,89221:0:0:0:0:
469,192,89034,1,0,0:0:0:0:
192,192,89221,128,0,89409:0:0:0:0:
298,192,89409,128,0,89596:0:0:0:0:
384,192,89596,128,0,89784:0:0:0:0:
42,192,89784,1,0,0:0:0:0:
448,192,89784,128,0,90159:0:0:0:0:
64,192,90159,128,0,92409:0:0:0:90:Clap.wav
213,192,90159,1,0,0:0:0:0:
298,192,90159,128,0,90534:0:0:0:0:
213,192,90534,1,0,0:0:0:90:Clap.wav
384,192,90721,128,0,90909:0:0:0:0:
192,192,90909,1,0,0:0:0:90:Clap.wav
448,192,90909,128,0,91096:0:0:0:0:
384,192,91096,128,0,91284:0:0:0:0:
128,192,91284,128,0,91471:0:0:0:90:Clap.wav
213,192,91284,1,0,0:0:0:0:
298,192,91471,128,0,91846:0:0:0:0:
213,192,91659,1,0,0:0:0:90:Clap.wav
469,192,91846,128,0,91940:0:0:0:0:
384,192,91940,128,0,92034:0:0:0:0:
128,192,92034,128,0,92221:0:0:0:90:Clap.wav
213,192,92034,1,0,0:0:0:0:
320,192,92221,128,0,92409:0:0:0:0:
192,192,92409,1,0,0:0:0:90:Clap.wav
448,192,92409,128,0,94565:0:0:0:0:
64,192,92784,128,0,92971:0:0:0:90:Clap.wav
213,192,92784,1,0,0:0:0:0:
128,192,92971,128,0,93159:0:0:0:90:Clap.wav
213,192,92971,1,0,0:0:0:0:
320,192,93159,128,0,93534:0:0:0:90:Clap.wav
384,192,93159,1,0,0:0:0:0:
384,192,93534,1,0,0:0:0:90:Clap.wav
128,192,93721,128,0,93909:0:0:0:0:
320,192,93909,128,0,94096:0:0:0:90:Clap.wav
384,192,93909,1,0,0:0:0:0:
213,192,94096,128,0,94284:0:0:0:0:
128,192,94284,128,0,94471:0:0:0:90:Clap.wav
384,192,94284,1,0,0:0:0:0:
213,192,94471,128,0,94565:0:0:0:0:
42,192,94659,1,0,0:0:0:60:Kick 4.wav
469,192,94659,1,0,0:0:0:0:
384,192,94690,1,0,0:0:0:0:
298,192,94721,1,0,0:0:0:0:
213,192,94752,1,0,0:0:0:0:
128,192,94784,1,0,0:0:0:0:
42,192,94815,1,0,0:0:0:0:
469,192,94846,1,0,0:0:0:0:
384,192,94893,1,0,0:0:0:0:
298,192,94940,1,0,0:0:0:0:
128,192,95034,1,0,0:0:0:0:
213,192,95080,1,0,0:0:0:0:
298,192,95127,1,0,0:0:0:0:
42,192,95221,1,0,0:0:0:0:
469,192,95221,1,0,0:0:0:0:
128,192,95268,1,0,0:0:0:0:
213,192,95315,1,0,0:0:0:0:
384,192,95409,1,0,0:0:0:0:
298,192,95455,1,0,0:0:0:0:
213,192,95502,1,0,0:0:0:0:
469,192,95596,1,0,0:0:0:0:
384,192,95643,1,0,0:0:0:0:
298,192,95690,1,0,0:0:0:0:
42,192,95784,1,0,0:0:0:0:
469,192,95784,1,0,0:0:0:0:
128,192,95830,1,0,0:0:0:0:
213,192,95877,1,0,0:0:0:0:
42,192,95971,1,0,0:0:0:0:
469,192,95971,1,0,0:0:0:0:
384,192,96018,1,0,0:0:0:0:
298,192,96065,1,0,0:0:0:0:
64,192,96159,128,0,96346:0:0:0:65:Kick 3.wav
128,192,96159,128,0,96346:0:0:0:0:
213,192,96159,128,0,96346:0:0:0:0:
64,192,96534,128,0,96721:0:0:0:65:Kick 3.wav
298,192,96534,128,0,96721:0:0:0:0:
469,192,96534,128,0,96721:0:0:0:0:
128,192,96909,128,0,97096:0:0:0:65:Kick 3.wav
213,192,96909,128,0,97096:0:0:0:0:
448,192,96909,128,0,97096:0:0:0:0:
384,192,97190,1,0,0:0:0:65:Kick 3.wav
469,192,97190,1,0,0:0:0:0:
42,192,97284,1,0,0:0:0:0:
128,192,97315,1,0,0:0:0:0:
213,192,97346,1,0,0:0:0:0:
298,192,97377,1,0,0:0:0:0:
384,192,97409,1,0,0:0:0:0:
469,192,97440,1,0,0:0:0:0:
42,192,97471,1,0,0:0:0:65:Kick 3.wav
128,192,97471,1,0,0:0:0:0:
213,192,97565,1,0,0:0:0:0:
298,192,97565,1,0,0:0:0:0:
42,192,97659,1,0,0:0:0:65:Kick 3.wav
469,192,97659,1,0,0:0:0:0:
384,192,97705,1,0,0:0:0:0:
298,192,97752,1,0,0:0:0:0:
213,192,97799,1,0,0:0:0:0:
42,192,97846,1,0,0:0:0:70:Clap1.wav
128,192,97846,1,0,0:0:0:0:
469,192,97846,1,0,0:0:0:0:
42,192,98034,128,0,98127:0:0:0:0:
469,192,98034,1,0,0:0:0:0:
128,192,98127,128,0,98221:0:0:0:0:
384,192,98127,1,0,0:0:0:0:
213,192,98221,1,0,0:0:0:0:
298,192,98221,128,0,98315:0:0:0:0:
384,192,98315,1,0,0:0:0:0:
469,192,98315,128,0,98409:0:0:0:0:
42,192,98409,128,0,98784:0:0:0:90:Clap.wav
128,192,98409,128,0,98721:0:0:0:0:
213,192,98409,128,0,98659:0:0:0:0:
469,192,98596,128,0,98909:0:0:0:0:
384,192,98659,128,0,98909:0:0:0:0:
298,192,98721,128,0,98909:0:0:0:0:
213,192,98784,128,0,98909:0:0:0:0:
128,192,98846,128,0,98909:0:0:0:0:
42,192,98909,1,0,0:0:0:0:
298,192,98971,1,0,0:0:0:65:Kick 3.wav
384,192,98971,1,0,0:0:0:0:
469,192,98971,1,0,0:0:0:0:
42,192,99159,128,0,99815:0:0:0:65:Kick 3.wav
213,192,99159,128,0,99815:0:0:0:80:Cymbals.wav
298,192,99159,128,0,99440:0:0:0:0:
384,192,99159,128,0,99815:0:0:0:0:
469,192,99159,128,0,99815:0:0:0:0:
298,192,99534,128,0,99815:0:0:0:0:
64,192,99909,1,0,0:0:0:90:Clap.wav
213,192,99909,1,0,0:0:0:0:
298,192,99909,128,0,100190:0:0:0:0:
384,192,99909,1,0,0:0:0:0:
448,192,99909,1,0,0:0:0:0:
128,192,100096,1,0,0:0:0:65:Kick 3.wav
213,192,100096,1,0,0:0:0:0:
469,192,100096,1,0,0:0:0:0:
64,192,100284,128,0,100752:0:0:0:65:Kick 3.wav
128,192,100284,128,0,100752:0:0:0:80:Cymbals.wav
213,192,100284,128,0,100565:0:0:0:0:
384,192,100284,128,0,100752:0:0:0:0:
448,192,100284,128,0,100752:0:0:0:0:
213,192,100659,128,0,100940:0:0:0:0:
64,192,100846,1,0,0:0:0:90:Clap.wav
128,192,100846,1,0,0:0:0:0:
384,192,100846,1,0,0:0:0:0:
448,192,100846,1,0,0:0:0:0:
213,192,101034,128,0,101315:0:0:0:0:
298,192,101034,1,0,0:0:0:0:
42,192,101221,1,0,0:0:0:65:Kick 3.wav
128,192,101221,1,0,0:0:0:0:
448,192,101221,1,0,0:0:0:0:
64,192,101409,1,0,0:0:0:80:Cymbals.wav
213,192,101409,128,0,101690:0:0:0:90:Clap.wav
298,192,101409,1,0,0:0:0:0:
384,192,101409,1,0,0:0:0:0:
448,192,101409,1,0,0:0:0:0:
64,192,101784,1,0,0:0:0:65:Kick 3.wav
213,192,101784,128,0,102065:0:0:0:0:
320,192,101784,1,0,0:0:0:0:
448,192,101784,1,0,0:0:0:0:
64,192,102159,1,0,0:0:0:65:Kick 3.wav
213,192,102159,1,0,0:0:0:80:Cymbals.wav
448,192,102159,1,0,0:0:0:0:
64,192,102346,1,0,0:0:0:0:
128,192,102369,1,0,0:0:0:0:
320,192,102393,1,0,0:0:0:0:
448,192,102416,1,0,0:0:0:0:
42,192,102534,1,0,0:0:0:0:
128,192,102557,1,0,0:0:0:0:
298,192,102580,1,0,0:0:0:0:
469,192,102604,1,0,0:0:0:0:
64,192,102721,1,0,0:0:0:0:
128,192,102744,1,0,0:0:0:0:
320,192,102768,1,0,0:0:0:0:
448,192,102791,1,0,0:0:0:0:
64,192,102909,1,0,0:0:0:100:Clap.wav
128,192,102932,1,0,0:0:0:0:
320,192,102955,1,0,0:0:0:0:
448,192,102979,1,0,0:0:0:0:
64,192,103096,1,0,0:0:0:65:Kick 3.wav
128,192,103096,1,0,0:0:0:0:
384,192,103096,1,0,0:0:0:0:
64,192,103284,1,0,0:0:0:65:Kick 3.wav
298,192,103284,1,0,0:0:0:0:
448,192,103284,1,0,0:0:0:0:
448,192,103471,1,0,0:0:0:100:Clap.wav
298,192,103494,1,0,0:0:0:0:
128,192,103518,1,0,0:0:0:0:
64,192,103541,1,0,0:0:0:0:
448,192,103659,1,0,0:0:0:0:
320,192,103682,1,0,0:0:0:0:
128,192,103705,1,0,0:0:0:0:
64,192,103729,1,0,0:0:0:0:
448,192,103846,1,0,0:0:0:0:
320,192,103869,1,0,0:0:0:0:
128,192,103893,1,0,0:0:0:0:
64,192,103916,1,0,0:0:0:0:
448,192,104034,1,0,0:0:0:0:
320,192,104057,1,0,0:0:0:0:
128,192,104080,1,0,0:0:0:0:
64,192,104104,1,0,0:0:0:0:
64,192,104221,1,0,0:0:0:65:Kick 3.wav
213,192,104221,1,0,0:0:0:0:
448,192,104221,1,0,0:0:0:0:
64,192,104409,1,0,0:0:0:100:Clap.wav
298,192,104432,1,0,0:0:0:0:
384,192,104455,1,0,0:0:0:0:
469,192,104479,1,0,0:0:0:0:
64,192,104596,1,0,0:0:0:0:
298,192,104619,1,0,0:0:0:0:
384,192,104643,1,0,0:0:0:0:
469,192,104666,1,0,0:0:0:0:
64,192,104784,1,0,0:0:0:0:
298,192,104807,1,0,0:0:0:0:
384,192,104830,1,0,0:0:0:0:
469,192,104854,1,0,0:0:0:0:
64,192,104971,1,0,0:0:0:0:
298,192,104994,1,0,0:0:0:0:
384,192,105018,1,0,0:0:0:0:
469,192,105041,1,0,0:0:0:0:
64,192,105159,1,0,0:0:0:65:Kick 3.wav
128,192,105159,1,0,0:0:0:0:
448,192,105159,1,0,0:0:0:0:
384,192,105346,1,0,0:0:0:0:
298,192,105369,1,0,0:0:0:0:
128,192,105393,1,0,0:0:0:0:
64,192,105416,1,0,0:0:0:0:
384,192,105534,1,0,0:0:0:0:
298,192,105557,1,0,0:0:0:0:
128,192,105580,1,0,0:0:0:0:
64,192,105604,1,0,0:0:0:0:
128,192,105721,1,0,0:0:0:65:Kick 3.wav
320,192,105721,1,0,0:0:0:0:
448,192,105721,1,0,0:0:0:0:
384,192,105909,1,0,0:0:0:100:Clap.wav
298,192,105932,1,0,0:0:0:0:
192,192,105955,1,0,0:0:0:0:
64,192,105979,1,0,0:0:0:0:
384,192,106096,1,0,0:0:0:0:
298,192,106119,1,0,0:0:0:0:
192,192,106143,1,0,0:0:0:0:
64,192,106166,1,0,0:0:0:0:
469,192,106284,1,0,0:0:0:0:
384,192,106307,1,0,0:0:0:0:
128,192,106330,1,0,0:0:0:0:
469,192,106471,1,0,0:0:0:0:
384,192,106494,1,0,0:0:0:0:
128,192,106518,1,0,0:0:0:0:
64,192,106659,1,0,0:0:0:65:Kick 3.wav
320,192,106659,1,0,0:0:0:0:
448,192,106659,1,0,0:0:0:0:
128,192,106846,1,0,0:0:0:0:
213,192,106869,1,0,0:0:0:0:
298,192,106893,1,0,0:0:0:0:
64,192,107034,1,0,0:0:0:65:Kick 3.wav
192,192,107034,1,0,0:0:0:0:
448,192,107034,1,0,0:0:0:0:
64,192,107221,1,0,0:0:0:0:
128,192,107244,1,0,0:0:0:0:
298,192,107268,1,0,0:0:0:0:
64,192,107409,1,0,0:0:0:100:Clap.wav
128,192,107432,1,0,0:0:0:0:
298,192,107455,1,0,0:0:0:0:
64,192,107596,1,0,0:0:0:65:Kick 3.wav
384,192,107596,1,0,0:0:0:0:
469,192,107596,1,0,0:0:0:0:
384,192,107784,1,0,0:0:0:0:
298,192,107807,1,0,0:0:0:0:
128,192,107830,1,0,0:0:0:0:
384,192,107971,1,0,0:0:0:0:
298,192,107994,1,0,0:0:0:0:
128,192,108018,1,0,0:0:0:0:
42,192,108159,1,0,0:0:0:60:Kick 4.wav
213,192,108159,1,0,0:0:0:0:
469,192,108159,1,0,0:0:0:0:
298,192,108252,1,0,0:0:0:0:
384,192,108252,1,0,0:0:0:0:
128,192,108346,1,0,0:0:0:0:
213,192,108346,1,0,0:0:0:0:
298,192,108440,1,0,0:0:0:0:
384,192,108440,1,0,0:0:0:0:
42,192,108534,128,0,108627:0:0:0:0:
128,192,108534,128,0,108627:0:0:0:0:
213,192,108721,128,0,108815:0:0:0:0:
298,192,108721,128,0,108815:0:0:0:0:
42,192,108909,128,0,109002:0:0:0:100:Clap.wav
128,192,108909,128,0,109002:0:0:0:0:
298,192,108909,1,0,0:0:0:0:
384,192,108909,1,0,0:0:0:0:
469,192,108909,1,0,0:0:0:0:
298,192,109096,128,0,109190:0:0:0:0:
469,192,109096,128,0,109190:0:0:0:0:
42,192,109284,128,0,109377:0:0:0:60:Kick 4.wav
128,192,109284,128,0,109377:0:0:0:0:
384,192,109284,1,0,0:0:0:0:
469,192,109284,1,0,0:0:0:0:
128,192,109471,1,0,0:0:0:0:
298,192,109471,1,0,0:0:0:0:
42,192,109565,1,0,0:0:0:0:
213,192,109565,1,0,0:0:0:0:
298,192,109659,1,0,0:0:0:0:
469,192,109659,1,0,0:0:0:0:
213,192,109752,1,0,0:0:0:0:
384,192,109752,1,0,0:0:0:0:
42,192,109846,1,0,0:0:0:60:Kick 4.wav
298,192,109846,1,0,0:0:0:0:
469,192,109846,1,0,0:0:0:0:
128,192,109940,1,0,0:0:0:0:
213,192,109940,1,0,0:0:0:0:
42,192,110034,1,0,0:0:0:60:Kick 4.wav
298,192,110034,128,0,110127:0:0:0:0:
384,192,110034,1,0,0:0:0:0:
469,192,110034,128,0,110127:0:0:0:0:
128,192,110221,128,0,110315:0:0:0:0:
384,192,110221,128,0,110315:0:0:0:0:
42,192,110409,128,0,110502:0:0:0:100:Clap.wav
213,192,110409,128,0,110502:0:0:0:0:
298,192,110409,1,0,0:0:0:0:
384,192,110409,1,0,0:0:0:0:
469,192,110409,1,0,0:0:0:0:
128,192,110596,128,0,110690:0:0:0:0:
298,192,110596,128,0,110690:0:0:0:0:
42,192,110784,1,0,0:0:0:60:Kick 4.wav
213,192,110784,128,0,110877:0:0:0:0:
384,192,110784,1,0,0:0:0:0:
469,192,110784,128,0,110877:0:0:0:0:
128,192,110971,1,0,0:0:0:0:
213,192,110971,1,0,0:0:0:0:
298,192,111065,1,0,0:0:0:0:
469,192,111065,1,0,0:0:0:0:
42,192,111159,1,0,0:0:0:60:Kick 4.wav
213,192,111159,1,0,0:0:0:0:
384,192,111159,1,0,0:0:0:0:
128,192,111252,1,0,0:0:0:0:
298,192,111252,1,0,0:0:0:0:
213,192,111346,1,0,0:0:0:0:
384,192,111346,1,0,0:0:0:0:
298,192,111440,1,0,0:0:0:0:
469,192,111440,1,0,0:0:0:0:
42,192,111534,128,0,111627:0:0:0:0:
213,192,111534,128,0,111627:0:0:0:0:
128,192,111721,1,0,0:0:0:60:Kick 4.wav
213,192,111721,1,0,0:0:0:0:
298,192,111721,128,0,111815:0:0:0:0:
469,192,111721,128,0,111815:0:0:0:0:
42,192,111909,128,0,112002:0:0:0:100:Clap.wav
128,192,111909,1,0,0:0:0:0:
298,192,111909,1,0,0:0:0:0:
384,192,111909,128,0,112002:0:0:0:0:
469,192,111909,1,0,0:0:0:0:
128,192,112096,128,0,112190:0:0:0:0:
213,192,112096,128,0,112190:0:0:0:0:
42,192,112284,1,0,0:0:0:60:Kick 4.wav
298,192,112284,128,0,112377:0:0:0:0:
384,192,112284,1,0,0:0:0:0:
469,192,112284,128,0,112377:0:0:0:0:
128,192,112471,128,0,112565:0:0:0:0:
213,192,112471,128,0,112565:0:0:0:0:
213,192,112659,1,0,0:0:0:60:Kick 4.wav
298,192,112659,128,0,112846:0:0:0:0:
384,192,112659,1,0,0:0:0:0:
469,192,112659,128,0,112846:0:0:0:0:
42,192,112846,128,0,113034:0:0:0:0:
128,192,112846,128,0,113034:0:0:0:0:
213,192,113034,1,0,0:0:0:60:Kick 4.wav
298,192,113034,128,0,113221:0:0:0:0:
384,192,113034,1,0,0:0:0:0:
469,192,113034,128,0,113221:0:0:0:0:
42,192,113221,128,0,113409:0:0:0:0:
128,192,113221,128,0,113409:0:0:0:0:
213,192,113409,1,0,0:0:0:100:Clap.wav
298,192,113409,1,0,0:0:0:0:
384,192,113409,1,0,0:0:0:0:
469,192,113409,1,0,0:0:0:0:
42,192,113596,1,0,0:0:0:60:Kick 4.wav
128,192,113596,128,0,113690:0:0:0:0:
213,192,113596,1,0,0:0:0:0:
298,192,113596,128,0,113690:0:0:0:0:
469,192,113596,128,0,113690:0:0:0:0:
42,192,113784,128,0,113877:0:0:0:0:
213,192,113784,128,0,113877:0:0:0:0:
384,192,113784,128,0,113877:0:0:0:0:
128,192,113971,128,0,114065:0:0:0:0:
298,192,113971,128,0,114065:0:0:0:0:
469,192,113971,128,0,114065:0:0:0:0:
42,192,114159,1,0,0:0:0:60:Kick 4.wav
213,192,114159,1,0,0:0:0:0:
384,192,114159,1,0,0:0:0:0:
128,192,114252,1,0,0:0:0:0:
298,192,114252,1,0,0:0:0:0:
213,192,114346,1,0,0:0:0:0:
469,192,114346,1,0,0:0:0:0:
298,192,114440,1,0,0:0:0:0:
384,192,114440,1,0,0:0:0:0:
42,192,114534,128,0,114627:0:0:0:60:Kick 4.wav
128,192,114534,1,0,0:0:0:0:
213,192,114534,128,0,114627:0:0:0:0:
469,192,114534,1,0,0:0:0:0:
298,192,114721,128,0,114815:0:0:0:0:
469,192,114721,128,0,114815:0:0:0:0:
42,192,114909,1,0,0:0:0:100:Clap.wav
128,192,114909,128,0,115002:0:0:0:0:
213,192,114909,1,0,0:0:0:0:
298,192,114909,1,0,0:0:0:0:
384,192,114909,128,0,115002:0:0:0:0:
42,192,115096,1,0,0:0:0:60:Kick 4.wav
213,192,115096,128,0,115190:0:0:0:0:
298,192,115096,1,0,0:0:0:0:
469,192,115096,128,0,115190:0:0:0:0:
42,192,115284,128,0,115377:0:0:0:0:
298,192,115284,128,0,115377:0:0:0:0:
42,192,115471,1,0,0:0:0:60:Kick 4.wav
213,192,115471,1,0,0:0:0:0:
384,192,115471,1,0,0:0:0:0:
128,192,115565,1,0,0:0:0:0:
298,192,115565,1,0,0:0:0:0:
213,192,115659,1,0,0:0:0:0:
469,192,115659,1,0,0:0:0:0:
42,192,115752,1,0,0:0:0:0:
384,192,115752,1,0,0:0:0:0:
213,192,115846,1,0,0:0:0:60:Kick 4.wav
298,192,115846,1,0,0:0:0:0:
469,192,115846,1,0,0:0:0:0:
42,192,115940,1,0,0:0:0:0:
384,192,115940,1,0,0:0:0:0:
128,192,116034,128,0,116127:0:0:0:0:
213,192,116034,128,0,116127:0:0:0:0:
213,192,116221,1,0,0:0:0:60:Kick 4.wav
298,192,116221,128,0,116315:0:0:0:0:
384,192,116221,1,0,0:0:0:0:
469,192,116221,128,0,116315:0:0:0:0:
42,192,116409,1,0,0:0:0:100:Clap.wav
128,192,116409,128,0,116502:0:0:0:0:
213,192,116409,128,0,116502:0:0:0:0:
298,192,116409,1,0,0:0:0:0:
469,192,116409,1,0,0:0:0:0:
42,192,116596,1,0,0:0:0:60:Kick 4.wav
128,192,116596,1,0,0:0:0:0:
384,192,116596,128,0,116690:0:0:0:0:
469,192,116596,128,0,116690:0:0:0:0:
213,192,116784,128,0,116877:0:0:0:0:
469,192,116784,128,0,116877:0:0:0:0:
128,192,116971,1,0,0:0:0:0:
384,192,116971,1,0,0:0:0:0:
42,192,117065,1,0,0:0:0:0:
298,192,117065,1,0,0:0:0:0:
128,192,117159,1,0,0:0:0:60:Kick 4.wav
384,192,117159,1,0,0:0:0:0:
469,192,117159,1,0,0:0:0:0:
213,192,117252,1,0,0:0:0:0:
298,192,117252,1,0,0:0:0:0:
42,192,117346,1,0,0:0:0:0:
384,192,117346,1,0,0:0:0:0:
128,192,117440,1,0,0:0:0:0:
213,192,117440,1,0,0:0:0:0:
42,192,117534,1,0,0:0:0:60:Kick 4.wav
298,192,117534,1,0,0:0:0:0:
384,192,117534,128,0,117627:0:0:0:0:
469,192,117534,128,0,117627:0:0:0:0:
128,192,117721,128,0,117815:0:0:0:0:
298,192,117721,128,0,117815:0:0:0:0:
42,192,117909,1,0,0:0:0:60:Kick 4.wav
128,192,117909,1,0,0:0:0:0:
384,192,117909,128,0,118002:0:0:0:0:
469,192,117909,128,0,118002:0:0:0:0:
42,192,118096,128,0,118190:0:0:0:0:
213,192,118096,128,0,118190:0:0:0:0:
42,192,118284,128,0,118377:0:0:0:60:Kick 4.wav
213,192,118284,128,0,118377:0:0:0:0:
298,192,118284,1,0,0:0:0:0:
469,192,118284,1,0,0:0:0:0:
128,192,118471,128,0,118565:0:0:0:0:
384,192,118471,128,0,118565:0:0:0:0:
42,192,118659,1,0,0:0:0:60:Kick 4.wav
213,192,118659,128,0,118846:0:0:0:0:
469,192,118659,128,0,118846:0:0:0:0:
128,192,118846,128,0,119034:0:0:0:60:Kick 4.wav
298,192,118846,1,0,0:0:0:0:
384,192,118846,128,0,119034:0:0:0:0:
42,192,119034,1,0,0:0:0:60:Kick 4.wav
298,192,119034,128,0,119221:0:0:0:0:
469,192,119034,128,0,119221:0:0:0:0:
42,192,119221,128,0,119409:0:0:0:60:Kick 4.wav
128,192,119221,128,0,119409:0:0:0:0:
213,192,119221,1,0,0:0:0:0:
298,192,119409,1,0,0:0:0:60:Kick 4.wav
384,192,119409,1,0,0:0:0:0:
469,192,119409,1,0,0:0:0:0:
42,192,119502,1,0,0:0:0:60:Kick 4.wav
128,192,119502,1,0,0:0:0:0:
213,192,119502,1,0,0:0:0:0:
298,192,119596,1,0,0:0:0:60:Kick 4.wav
384,192,119596,1,0,0:0:0:0:
469,192,119596,1,0,0:0:0:0:
42,192,119690,1,0,0:0:0:60:Kick 4.wav
128,192,119690,1,0,0:0:0:0:
213,192,119690,1,0,0:0:0:0:
384,192,119784,128,0,120159:0:0:0:0:
448,192,119784,128,0,120159:0:0:0:0:
64,192,119971,128,0,120159:0:0:0:0:
128,192,119971,128,0,120159:0:0:0:0:
192,192,120159,1,0,0:0:0:65:Kick 3.wav
298,192,120182,128,0,120252:0:0:0:0:
192,192,120534,128,0,120627:0:0:0:65:Kick 3.wav
448,192,120557,128,0,120627:0:0:0:0:
128,192,120909,128,0,121002:0:0:0:65:Kick 3.wav
298,192,120909,128,0,121002:0:0:0:0:
192,192,121284,128,0,121377:0:0:0:0:
448,192,121307,128,0,121377:0:0:0:0:
192,192,121659,128,0,121752:0:0:0:65:Kick 3.wav
448,192,121682,128,0,121752:0:0:0:0:
192,192,122034,128,0,122127:0:0:0:65:Kick 3.wav
448,192,122057,128,0,122127:0:0:0:0:
128,192,122409,128,0,122502:0:0:0:65:Kick 3.wav
192,192,122409,128,0,122502:0:0:0:0:
42,192,122596,128,0,122690:0:0:0:0:
128,192,122784,1,0,0:0:0:0:
192,192,122784,128,0,122877:0:0:0:0:
448,192,122807,128,0,122877:0:0:0:0:
298,192,122877,1,0,0:0:0:0:
384,192,122971,1,0,0:0:0:65:Kick 3.wav
469,192,123065,1,0,0:0:0:0:
192,192,123159,1,0,0:0:0:75:Kick 2.wav
320,192,123182,128,0,123252:0:0:0:0:
192,192,123534,128,0,123627:0:0:0:75:Kick 2.wav
448,192,123557,128,0,123627:0:0:0:0:
128,192,123909,128,0,124002:0:0:0:75:Kick 2.wav
384,192,123909,128,0,124002:0:0:0:0:
384,192,124096,128,0,124190:0:0:0:0:
298,192,124190,128,0,124284:0:0:0:75:Kick 2.wav
42,192,124284,128,0,124409:0:0:0:0:
128,192,124346,128,0,124471:0:0:0:0:
192,192,124659,128,0,124752:0:0:0:60:Kick 4.wav
448,192,124682,128,0,124752:0:0:0:0:
192,192,125034,128,0,125127:0:0:0:60:Kick 4.wav
448,192,125057,128,0,125127:0:0:0:0:
128,192,125409,128,0,125502:0:0:0:75:Kick 2.wav
213,192,125409,128,0,125502:0:0:0:0:
384,192,125409,1,0,0:0:0:0:
298,192,125502,1,0,0:0:0:0:
384,192,125596,1,0,0:0:0:0:
42,192,125690,1,0,0:0:0:75:Kick 2.wav
298,192,125690,1,0,0:0:0:0:
128,192,125784,1,0,0:0:0:0:
213,192,125784,128,0,125877:0:0:0:0:
448,192,125807,128,0,125877:0:0:0:0:
42,192,125877,1,0,0:0:0:0:
320,192,125971,1,0,0:0:0:75:Kick 2.wav
384,192,125971,1,0,0:0:0:60:Hat Dry 1.wav
192,192,126065,1,0,0:0:0:60:Hat Dry 1.wav
64,192,126159,128,0,126252:0:0:0:85:Kick 1.wav
128,192,126159,128,0,126440:0:0:0:70:Clap1.wav
448,192,126159,128,0,126252:0:0:0:0:
320,192,126346,1,0,0:0:0:0:
192,192,126534,128,0,126627:0:0:0:85:Kick 1.wav
448,192,126557,128,0,126627:0:0:0:0:
384,192,126721,1,0,0:0:0:0:
64,192,126909,128,0,127002:0:0:0:85:Kick 1.wav
192,192,126909,128,0,127002:0:0:0:0:
384,192,127096,1,0,0:0:0:60:Hat Dry 1.wav
298,192,127190,1,0,0:0:0:85:Kick 1.wav
42,192,127284,128,0,127471:0:0:0:70:Clap1.wav
192,192,127284,128,0,127377:0:0:0:0:
448,192,127307,128,0,127377:0:0:0:0:
320,192,127471,1,0,0:0:0:85:Kick 1.wav
192,192,127659,128,0,127752:0:0:0:85:Kick 1.wav
448,192,127682,128,0,127752:0:0:0:0:
128,192,127846,1,0,0:0:0:0:
192,192,128034,128,0,128127:0:0:0:85:Kick 1.wav
448,192,128057,128,0,128127:0:0:0:0:
320,192,128221,1,0,0:0:0:0:
64,192,128409,128,0,128502:0:0:0:85:Kick 1.wav
192,192,128409,128,0,128502:0:0:0:70:Clap1.wav
384,192,128409,128,0,128596:0:0:0:0:
128,192,128596,1,0,0:0:0:0:
298,192,128690,1,0,0:0:0:75:Kick 2.wav
42,192,128784,1,0,0:0:0:0:
192,192,128784,128,0,128877:0:0:0:0:
448,192,128807,128,0,128877:0:0:0:0:
128,192,128877,1,0,0:0:0:0:
320,192,128971,1,0,0:0:0:75:Kick 2.wav
384,192,129065,1,0,0:0:0:0:
64,192,129159,128,0,129252:0:0:0:65:Kick 3.wav
128,192,129159,128,0,129346:0:0:0:70:Clap1.wav
448,192,129159,128,0,129252:0:0:0:0:
320,192,129346,1,0,0:0:0:0:
192,192,129534,128,0,129627:0:0:0:65:Kick 3.wav
448,192,129557,128,0,129627:0:0:0:0:
298,192,129721,1,0,0:0:0:0:
64,192,129909,128,0,130002:0:0:0:65:Kick 3.wav
213,192,129909,128,0,130002:0:0:0:0:
469,192,129909,128,0,130096:0:0:0:0:
320,192,130096,1,0,0:0:0:60:Hat Dry 1.wav
384,192,130190,1,0,0:0:0:65:Kick 3.wav
64,192,130284,128,0,130377:0:0:0:70:Clap1.wav
128,192,130284,1,0,0:0:0:0:
192,192,130284,128,0,130377:0:0:0:0:
320,192,130471,1,0,0:0:0:65:Kick 3.wav
64,192,130659,1,0,0:0:0:0:
384,192,130659,128,0,130846:0:0:0:0:
448,192,130659,1,0,0:0:0:0:
128,192,130752,1,0,0:0:0:0:
213,192,130846,1,0,0:0:0:0:
320,192,130846,1,0,0:0:0:0:
448,192,130940,1,0,0:0:0:0:
64,192,131034,1,0,0:0:0:0:
128,192,131034,1,0,0:0:0:0:
384,192,131127,1,0,0:0:0:0:
64,192,131221,1,0,0:0:0:0:
192,192,131221,1,0,0:0:0:0:
64,192,131315,1,0,0:0:0:0:
192,192,131315,1,0,0:0:0:0:
320,192,131409,1,0,0:0:0:0:
448,192,131409,1,0,0:0:0:0:
320,192,131502,1,0,0:0:0:0:
448,192,131502,1,0,0:0:0:0:
64,192,131596,1,0,0:0:0:0:
128,192,131596,1,0,0:0:0:0:
64,192,131690,1,0,0:0:0:0:
128,192,131690,1,0,0:0:0:0:
384,192,131784,1,0,0:0:0:60:Hat Dry 1.wav
448,192,131784,1,0,0:0:0:0:
384,192,131877,1,0,0:0:0:60:Hat Dry 1.wav
448,192,131877,1,0,0:0:0:0:
128,192,131971,1,0,0:0:0:60:Hat Dry 1.wav
192,192,131971,1,0,0:0:0:0:
128,192,132065,1,0,0:0:0:60:Hat Dry 1.wav
192,192,132065,1,0,0:0:0:0:
42,192,132159,1,0,0:0:0:65:Kick 3.wav
298,192,132159,1,0,0:0:0:0:
384,192,132159,128,0,132346:0:0:0:0:
448,192,132159,128,0,132346:0:0:0:0:
298,192,132346,1,0,0:0:0:0:
64,192,132534,1,0,0:0:0:65:Kick 3.wav
128,192,132534,1,0,0:0:0:0:
128,192,132721,1,0,0:0:0:0:
298,192,132721,128,0,132909:0:0:0:0:
384,192,132721,128,0,132909:0:0:0:0:
213,192,132909,1,0,0:0:0:65:Kick 3.wav
469,192,132909,1,0,0:0:0:0:
213,192,133096,1,0,0:0:0:0:
384,192,133190,1,0,0:0:0:65:Kick 3.wav
448,192,133190,1,0,0:0:0:0:
42,192,133284,128,0,133471:0:0:0:60:Hat Dry 1.wav
128,192,133284,128,0,133471:0:0:0:0:
298,192,133284,1,0,0:0:0:0:
298,192,133377,1,0,0:0:0:60:Hat Dry 1.wav
213,192,133471,1,0,0:0:0:65:Kick 3.wav
469,192,133471,1,0,0:0:0:60:Hat Dry 1.wav
214,192,133565,1,0,0:0:0:60:Hat Dry 1.wav
64,192,133659,128,0,133846:0:0:0:65:Kick 3.wav
128,192,133659,1,0,0:0:0:0:
298,192,133659,1,0,0:0:0:0:
469,192,133659,128,0,133846:0:0:0:0:
298,192,133846,1,0,0:0:0:0:
213,192,134034,1,0,0:0:0:65:Kick 3.wav
384,192,134034,1,0,0:0:0:0:
128,192,134221,128,0,134409:0:0:0:0:
213,192,134221,1,0,0:0:0:0:
469,192,134221,128,0,134409:0:0:0:0:
42,192,134409,1,0,0:0:0:65:Kick 3.wav
384,192,134409,1,0,0:0:0:0:
213,192,134502,1,0,0:0:0:0:
298,192,134596,1,0,0:0:0:0:
128,192,134690,1,0,0:0:0:65:Kick 3.wav
213,192,134690,1,0,0:0:0:0:
64,192,134784,128,0,134971:0:0:0:60:Hat Dry 1.wav
384,192,134784,1,0,0:0:0:0:
469,192,134784,1,0,0:0:0:0:
384,192,134877,1,0,0:0:0:60:Hat Dry 1.wav
469,192,134877,1,0,0:0:0:0:
128,192,134971,1,0,0:0:0:65:Kick 3.wav
298,192,134971,1,0,0:0:0:60:Hat Dry 1.wav
128,192,135065,1,0,0:0:0:60:Hat Dry 1.wav
298,192,135065,1,0,0:0:0:0:
42,192,135159,128,0,135346:0:0:0:65:Kick 3.wav
213,192,135159,1,0,0:0:0:70:Clap1.wav
384,192,135159,1,0,0:0:0:0:
448,192,135159,128,0,135346:0:0:0:0:
384,192,135346,1,0,0:0:0:0:
213,192,135534,1,0,0:0:0:65:Kick 3.wav
469,192,135534,1,0,0:0:0:0:
42,192,135721,128,0,135909:0:0:0:0:
128,192,135721,128,0,135909:0:0:0:0:
192,192,135721,1,0,0:0:0:0:
320,192,135909,1,0,0:0:0:65:Kick 3.wav
384,192,135909,1,0,0:0:0:0:
320,192,136096,1,0,0:0:0:60:Hat Dry 1.wav
42,192,136190,1,0,0:0:0:65:Kick 3.wav
213,192,136190,1,0,0:0:0:0:
384,192,136284,128,0,136471:0:0:0:70:Clap1.wav
448,192,136284,128,0,136471:0:0:0:0:
64,192,136471,1,0,0:0:0:65:Kick 3.wav
192,192,136471,1,0,0:0:0:0:
320,192,136565,1,0,0:0:0:0:
64,192,136659,128,0,136846:0:0:0:65:Kick 3.wav
213,192,136659,128,0,136846:0:0:0:0:
384,192,136659,1,0,0:0:0:0:
469,192,136659,1,0,0:0:0:0:
469,192,136846,1,0,0:0:0:0:
128,192,137034,1,0,0:0:0:65:Kick 3.wav
384,192,137034,1,0,0:0:0:0:
128,192,137221,1,0,0:0:0:0:
213,192,137221,128,0,137409:0:0:0:0:
469,192,137221,128,0,137409:0:0:0:0:
42,192,137409,1,0,0:0:0:65:Kick 3.wav
298,192,137409,1,0,0:0:0:0:
298,192,137596,1,0,0:0:0:0:
42,192,137690,1,0,0:0:0:65:Kick 3.wav
128,192,137690,1,0,0:0:0:0:
384,192,137784,1,0,0:0:0:60:Hat Dry 1.wav
448,192,137784,1,0,0:0:0:0:
384,192,137877,1,0,0:0:0:60:Hat Dry 1.wav
448,192,137877,1,0,0:0:0:0:
64,192,137971,1,0,0:0:0:65:Kick 3.wav
213,192,137971,1,0,0:0:0:60:Hat Dry 1.wav
64,192,138065,1,0,0:0:0:60:Hat Dry 1.wav
213,192,138065,1,0,0:0:0:0:
298,192,138159,1,0,0:0:0:60:Kick 4.wav
384,192,138159,1,0,0:0:0:70:Clap1.wav
448,192,138159,1,0,0:0:0:0:
384,192,138252,1,0,0:0:0:0:
448,192,138252,1,0,0:0:0:0:
42,192,138346,1,0,0:0:0:0:
192,192,138346,1,0,0:0:0:0:
42,192,138440,1,0,0:0:0:0:
192,192,138440,1,0,0:0:0:0:
320,192,138534,1,0,0:0:0:60:Kick 4.wav
384,192,138534,1,0,0:0:0:0:
320,192,138627,1,0,0:0:0:0:
384,192,138627,1,0,0:0:0:0:
64,192,138721,1,0,0:0:0:0:
128,192,138721,1,0,0:0:0:0:
64,192,138815,1,0,0:0:0:0:
128,192,138815,1,0,0:0:0:0:
192,192,138909,1,0,0:0:0:60:Kick 4.wav
298,192,138909,1,0,0:0:0:0:
192,192,139002,1,0,0:0:0:0:
298,192,139002,1,0,0:0:0:0:
384,192,139096,1,0,0:0:0:0:
448,192,139096,1,0,0:0:0:0:
384,192,139190,1,0,0:0:0:60:Kick 4.wav
448,192,139190,1,0,0:0:0:0:
64,192,139284,1,0,0:0:0:0:
213,192,139284,1,0,0:0:0:0:
64,192,139377,1,0,0:0:0:0:
213,192,139377,1,0,0:0:0:0:
320,192,139471,1,0,0:0:0:60:Kick 4.wav
384,192,139471,1,0,0:0:0:0:
320,192,139565,1,0,0:0:0:0:
384,192,139565,1,0,0:0:0:0:
128,192,139659,1,0,0:0:0:60:Kick 4.wav
448,192,139659,1,0,0:0:0:0:
128,192,139752,1,0,0:0:0:0:
448,192,139752,1,0,0:0:0:0:
192,192,139846,1,0,0:0:0:0:
384,192,139846,1,0,0:0:0:0:
192,192,139940,1,0,0:0:0:0:
384,192,139940,1,0,0:0:0:0:
64,192,140034,1,0,0:0:0:60:Kick 4.wav
128,192,140034,1,0,0:0:0:0:
64,192,140127,1,0,0:0:0:0:
128,192,140127,1,0,0:0:0:0:
320,192,140221,1,0,0:0:0:0:
469,192,140221,1,0,0:0:0:0:
320,192,140315,1,0,0:0:0:0:
469,192,140315,1,0,0:0:0:0:
64,192,140409,1,0,0:0:0:60:Kick 4.wav
128,192,140409,1,0,0:0:0:60:Hat Dry 1.wav
192,192,140409,1,0,0:0:0:0:
64,192,140502,1,0,0:0:0:60:Hat Dry 1.wav
128,192,140502,1,0,0:0:0:0:
192,192,140502,1,0,0:0:0:0:
320,192,140596,1,0,0:0:0:60:Hat Dry 1.wav
384,192,140596,1,0,0:0:0:0:
448,192,140596,1,0,0:0:0:0:
320,192,140690,1,0,0:0:0:60:Kick 4.wav
384,192,140690,1,0,0:0:0:60:Hat Dry 1.wav
448,192,140690,1,0,0:0:0:0:
64,192,140784,1,0,0:0:0:60:Hat Dry 1.wav
128,192,140784,1,0,0:0:0:0:
192,192,140784,1,0,0:0:0:0:
64,192,140877,1,0,0:0:0:60:Hat Dry 1.wav
128,192,140877,1,0,0:0:0:0:
192,192,140877,1,0,0:0:0:0:
320,192,140971,1,0,0:0:0:60:Kick 4.wav
384,192,140971,1,0,0:0:0:60:Hat Dry 1.wav
448,192,140971,1,0,0:0:0:0:
320,192,141065,1,0,0:0:0:60:Hat Dry 1.wav
384,192,141065,1,0,0:0:0:0:
448,192,141065,1,0,0:0:0:0:
64,192,141159,1,0,0:0:0:60:Kick 4.wav
128,192,141159,1,0,0:0:0:70:Clap1.wav
213,192,141159,1,0,0:0:0:0:
64,192,141252,1,0,0:0:0:0:
128,192,141252,1,0,0:0:0:0:
298,192,141346,1,0,0:0:0:0:
448,192,141346,1,0,0:0:0:0:
298,192,141440,1,0,0:0:0:0:
448,192,141440,1,0,0:0:0:0:
128,192,141534,1,0,0:0:0:60:Kick 4.wav
192,192,141534,1,0,0:0:0:0:
128,192,141627,1,0,0:0:0:0:
192,192,141627,1,0,0:0:0:0:
298,192,141721,1,0,0:0:0:60:Hat Dry 1.wav
384,192,141721,1,0,0:0:0:0:
448,192,141721,1,0,0:0:0:0:
298,192,141815,1,0,0:0:0:60:Hat Dry 1.wav
384,192,141815,1,0,0:0:0:0:
448,192,141815,1,0,0:0:0:0:
42,192,141909,1,0,0:0:0:65:Kick 3.wav
128,192,141909,1,0,0:0:0:70:Clap1.wav
213,192,141909,1,0,0:0:0:0:
42,192,142002,1,0,0:0:0:0:
213,192,142002,1,0,0:0:0:0:
298,192,142096,1,0,0:0:0:0:
384,192,142096,1,0,0:0:0:0:
298,192,142190,1,0,0:0:0:65:Kick 3.wav
384,192,142190,1,0,0:0:0:0:
42,192,142284,1,0,0:0:0:0:
448,192,142284,1,0,0:0:0:0:
42,192,142377,1,0,0:0:0:0:
448,192,142377,1,0,0:0:0:0:
213,192,142471,1,0,0:0:0:65:Kick 3.wav
320,192,142471,1,0,0:0:0:0:
213,192,142565,1,0,0:0:0:0:
320,192,142565,1,0,0:0:0:0:
64,192,142659,1,0,0:0:0:70:Clap1.wav
128,192,142659,1,0,0:0:0:0:
469,192,142659,1,0,0:0:0:0:
64,192,142752,1,0,0:0:0:0:
128,192,142752,1,0,0:0:0:0:
298,192,142846,1,0,0:0:0:0:
298,192,142940,1,0,0:0:0:0:
128,192,143034,1,0,0:0:0:0:
213,192,143034,1,0,0:0:0:0:
213,192,143127,1,0,0:0:0:0:
469,192,143221,1,0,0:0:0:0:
469,192,143315,1,0,0:0:0:0:
42,192,143409,1,0,0:0:0:0:
128,192,143409,1,0,0:0:0:0:
42,192,143502,1,0,0:0:0:0:
384,192,143596,1,0,0:0:0:0:
384,192,143690,1,0,0:0:0:0:
42,192,143784,1,0,0:0:0:0:
128,192,143784,1,0,0:0:0:0:
128,192,143877,1,0,0:0:0:0:
298,192,143971,1,0,0:0:0:75:Kick 2.wav
298,192,144065,1,0,0:0:0:0:
64,192,144159,1,0,0:0:0:65:Kick 3.wav
384,192,144159,1,0,0:0:0:80:Clap1.wav
448,192,144159,1,0,0:0:0:0:
128,192,144252,1,0,0:0:0:0:
192,192,144252,1,0,0:0:0:0:
320,192,144252,1,0,0:0:0:0:
64,192,144346,1,0,0:0:0:0:
384,192,144346,1,0,0:0:0:0:
448,192,144346,1,0,0:0:0:0:
192,192,144440,1,0,0:0:0:0:
298,192,144534,1,0,0:0:0:65:Kick 3.wav
384,192,144534,1,0,0:0:0:0:
448,192,144534,1,0,0:0:0:0:
192,192,144627,1,0,0:0:0:0:
64,192,144721,1,0,0:0:0:0:
128,192,144721,1,0,0:0:0:0:
448,192,144815,1,0,0:0:0:0:
128,192,144909,1,0,0:0:0:65:Kick 3.wav
192,192,144909,1,0,0:0:0:0:
320,192,144909,1,0,0:0:0:0:
64,192,145002,1,0,0:0:0:0:
384,192,145096,1,0,0:0:0:0:
448,192,145096,1,0,0:0:0:0:
192,192,145190,1,0,0:0:0:65:Kick 3.wav
298,192,145190,1,0,0:0:0:0:
64,192,145284,1,0,0:0:0:0:
128,192,145284,1,0,0:0:0:0:
469,192,145284,1,0,0:0:0:0:
213,192,145377,1,0,0:0:0:0:
384,192,145471,1,0,0:0:0:65:Kick 3.wav
469,192,145471,1,0,0:0:0:0:
320,192,145565,1,0,0:0:0:0:
64,192,145659,1,0,0:0:0:65:Kick 3.wav
128,192,145659,1,0,0:0:0:0:
213,192,145659,1,0,0:0:0:0:
320,192,145752,1,0,0:0:0:0:
384,192,145752,1,0,0:0:0:0:
448,192,145752,1,0,0:0:0:0:
64,192,145846,1,0,0:0:0:0:
128,192,145846,1,0,0:0:0:0:
213,192,145846,1,0,0:0:0:0:
320,192,145940,1,0,0:0:0:0:
128,192,146034,1,0,0:0:0:65:Kick 3.wav
384,192,146034,1,0,0:0:0:0:
448,192,146034,1,0,0:0:0:0:
213,192,146127,1,0,0:0:0:0:
64,192,146221,1,0,0:0:0:0:
298,192,146221,1,0,0:0:0:0:
213,192,146315,1,0,0:0:0:0:
128,192,146409,1,0,0:0:0:65:Kick 3.wav
384,192,146409,1,0,0:0:0:0:
448,192,146409,1,0,0:0:0:0:
42,192,146502,1,0,0:0:0:0:
298,192,146596,1,0,0:0:0:0:
448,192,146596,1,0,0:0:0:0:
64,192,146690,1,0,0:0:0:65:Kick 3.wav
213,192,146690,1,0,0:0:0:0:
128,192,146784,1,0,0:0:0:80:Clap1.wav
320,192,146784,1,0,0:0:0:0:
384,192,146784,1,0,0:0:0:0:
448,192,146877,1,0,0:0:0:0:
64,192,146971,1,0,0:0:0:65:Kick 3.wav
320,192,146971,1,0,0:0:0:0:
192,192,147065,1,0,0:0:0:0:
64,192,147159,1,0,0:0:0:75:Kick 2.wav
320,192,147159,1,0,0:0:0:80:Clap1.wav
469,192,147159,1,0,0:0:0:0:
128,192,147252,1,0,0:0:0:0:
213,192,147252,1,0,0:0:0:0:
384,192,147252,1,0,0:0:0:0:
42,192,147346,1,0,0:0:0:0:
320,192,147346,1,0,0:0:0:0:
469,192,147346,1,0,0:0:0:0:
213,192,147440,1,0,0:0:0:0:
64,192,147534,1,0,0:0:0:75:Kick 2.wav
128,192,147534,1,0,0:0:0:0:
469,192,147534,1,0,0:0:0:0:
384,192,147627,1,0,0:0:0:0:
128,192,147721,1,0,0:0:0:0:
213,192,147721,1,0,0:0:0:0:
298,192,147815,1,0,0:0:0:0:
64,192,147909,1,0,0:0:0:75:Kick 2.wav
213,192,147909,1,0,0:0:0:0:
448,192,147909,1,0,0:0:0:0:
320,192,148002,1,0,0:0:0:0:
64,192,148096,1,0,0:0:0:0:
384,192,148096,1,0,0:0:0:0:
128,192,148190,1,0,0:0:0:75:Kick 2.wav
213,192,148190,1,0,0:0:0:0:
64,192,148284,1,0,0:0:0:0:
298,192,148284,1,0,0:0:0:0:
448,192,148284,1,0,0:0:0:0:
384,192,148377,1,0,0:0:0:0:
128,192,148471,1,0,0:0:0:75:Kick 2.wav
213,192,148471,1,0,0:0:0:0:
298,192,148565,1,0,0:0:0:0:
42,192,148659,1,0,0:0:0:65:Kick 3.wav
384,192,148659,1,0,0:0:0:0:
448,192,148659,1,0,0:0:0:0:
213,192,148752,1,0,0:0:0:0:
42,192,148846,1,0,0:0:0:0:
128,192,148846,1,0,0:0:0:0:
448,192,148940,1,0,0:0:0:0:
192,192,149034,1,0,0:0:0:65:Kick 3.wav
320,192,149034,1,0,0:0:0:0:
384,192,149034,1,0,0:0:0:0:
64,192,149127,1,0,0:0:0:0:
128,192,149221,1,0,0:0:0:0:
448,192,149221,1,0,0:0:0:0:
213,192,149315,1,0,0:0:0:0:
64,192,149409,1,0,0:0:0:75:Kick 2.wav
384,192,149409,1,0,0:0:0:0:
448,192,149409,1,0,0:0:0:0:
128,192,149502,1,0,0:0:0:0:
320,192,149596,1,0,0:0:0:0:
448,192,149596,1,0,0:0:0:0:
192,192,149690,1,0,0:0:0:75:Kick 2.wav
384,192,149690,1,0,0:0:0:0:
64,192,149784,1,0,0:0:0:80:Clap1.wav
128,192,149784,1,0,0:0:0:0:
298,192,149784,1,0,0:0:0:0:
448,192,149877,1,0,0:0:0:0:
64,192,149971,1,0,0:0:0:75:Kick 2.wav
213,192,149971,1,0,0:0:0:80:Clap1.wav
298,192,149971,1,0,0:0:0:0:
384,192,150065,1,0,0:0:0:0:
42,192,150159,1,0,0:0:0:85:Kick 1.wav
128,192,150159,1,0,0:0:0:80:Clap1.wav
448,192,150159,128,0,150346:0:0:0:0:
320,192,150252,1,0,0:0:0:0:
384,192,150252,1,0,0:0:0:0:
42,192,150346,1,0,0:0:0:0:
128,192,150346,1,0,0:0:0:0:
192,192,150346,1,0,0:0:0:0:
320,192,150440,1,0,0:0:0:0:
64,192,150534,1,0,0:0:0:85:Kick 1.wav
128,192,150534,1,0,0:0:0:0:
469,192,150534,1,0,0:0:0:0:
384,192,150627,1,0,0:0:0:0:
298,192,150721,1,0,0:0:0:0:
448,192,150721,1,0,0:0:0:0:
64,192,150815,1,0,0:0:0:0:
128,192,150909,1,0,0:0:0:85:Kick 1.wav
384,192,150909,1,0,0:0:0:0:
448,192,150909,1,0,0:0:0:0:
213,192,151002,1,0,0:0:0:0:
298,192,151002,1,0,0:0:0:0:
64,192,151096,1,0,0:0:0:0:
448,192,151096,1,0,0:0:0:0:
320,192,151190,1,0,0:0:0:85:Kick 1.wav
384,192,151190,1,0,0:0:0:0:
64,192,151284,128,0,151471:0:0:0:80:Clap1.wav
128,192,151284,1,0,0:0:0:0:
469,192,151284,1,0,0:0:0:0:
384,192,151377,1,0,0:0:0:0:
192,192,151471,1,0,0:0:0:85:Kick 1.wav
298,192,151471,1,0,0:0:0:0:
64,192,151565,1,0,0:0:0:0:
320,192,151659,1,0,0:0:0:85:Kick 1.wav
384,192,151659,1,0,0:0:0:0:
469,192,151659,1,0,0:0:0:0:
64,192,151752,1,0,0:0:0:0:
128,192,151752,1,0,0:0:0:0:
213,192,151752,1,0,0:0:0:0:
320,192,151846,1,0,0:0:0:0:
384,192,151846,1,0,0:0:0:0:
469,192,151846,1,0,0:0:0:0:
64,192,151940,1,0,0:0:0:0:
213,192,152034,1,0,0:0:0:85:Kick 1.wav
384,192,152034,1,0,0:0:0:0:
448,192,152034,1,0,0:0:0:0:
128,192,152127,1,0,0:0:0:0:
64,192,152221,1,0,0:0:0:0:
320,192,152221,1,0,0:0:0:0:
384,192,152315,1,0,0:0:0:0:
128,192,152409,1,0,0:0:0:85:Kick 1.wav
192,192,152409,128,0,152596:0:0:0:80:Clap1.wav
469,192,152409,1,0,0:0:0:0:
298,192,152502,1,0,0:0:0:0:
42,192,152596,1,0,0:0:0:0:
384,192,152596,1,0,0:0:0:0:
298,192,152690,1,0,0:0:0:75:Kick 2.wav
448,192,152690,1,0,0:0:0:0:
64,192,152784,1,0,0:0:0:60:Hat Dry 1.wav
128,192,152784,1,0,0:0:0:0:
213,192,152784,1,0,0:0:0:0:
298,192,152877,1,0,0:0:0:60:Hat Dry 1.wav
384,192,152877,1,0,0:0:0:0:
469,192,152877,1,0,0:0:0:0:
64,192,152971,1,0,0:0:0:75:Kick 2.wav
128,192,152971,1,0,0:0:0:60:Hat Dry 1.wav
213,192,152971,1,0,0:0:0:0:
298,192,153065,1,0,0:0:0:60:Hat Dry 1.wav
384,192,153065,1,0,0:0:0:0:
128,192,153159,1,0,0:0:0:65:Kick 3.wav
213,192,153159,1,0,0:0:0:80:Clap1.wav
448,192,153159,128,0,153346:0:0:0:0:
64,192,153252,1,0,0:0:0:0:
298,192,153252,1,0,0:0:0:0:
213,192,153346,1,0,0:0:0:0:
384,192,153346,1,0,0:0:0:0:
128,192,153440,1,0,0:0:0:0:
64,192,153534,1,0,0:0:0:65:Kick 3.wav
384,192,153534,1,0,0:0:0:0:
448,192,153534,1,0,0:0:0:0:
213,192,153627,1,0,0:0:0:0:
64,192,153721,1,0,0:0:0:0:
298,192,153721,1,0,0:0:0:0:
384,192,153815,1,0,0:0:0:0:
128,192,153909,1,0,0:0:0:65:Kick 3.wav
192,192,153909,1,0,0:0:0:0:
448,192,153909,1,0,0:0:0:0:
320,192,154002,1,0,0:0:0:0:
64,192,154096,1,0,0:0:0:0:
448,192,154096,1,0,0:0:0:0:
128,192,154190,1,0,0:0:0:65:Kick 3.wav
192,192,154190,1,0,0:0:0:0:
64,192,154284,128,0,154471:0:0:0:80:Clap1.wav
320,192,154284,1,0,0:0:0:0:
384,192,154284,1,0,0:0:0:0:
448,192,154284,1,0,0:0:0:0:
192,192,154377,1,0,0:0:0:0:
128,192,154471,1,0,0:0:0:65:Kick 3.wav
320,192,154471,1,0,0:0:0:0:
384,192,154565,1,0,0:0:0:0:
64,192,154659,1,0,0:0:0:60:Hat Dry 1.wav
213,192,154659,1,0,0:0:0:0:
128,192,154752,1,0,0:0:0:60:Hat Dry 1.wav
298,192,154846,1,0,0:0:0:60:Hat Dry 1.wav
469,192,154846,1,0,0:0:0:0:
384,192,154940,1,0,0:0:0:60:Hat Dry 1.wav
42,192,155034,1,0,0:0:0:60:Hat Dry 1.wav
213,192,155034,1,0,0:0:0:0:
128,192,155127,1,0,0:0:0:60:Hat Dry 1.wav
298,192,155221,1,0,0:0:0:60:Hat Dry 1.wav
469,192,155221,1,0,0:0:0:0:
384,192,155315,1,0,0:0:0:60:Hat Dry 1.wav
42,192,155409,1,0,0:0:0:60:Hat Dry 1.wav
213,192,155409,1,0,0:0:0:0:
298,192,155502,1,0,0:0:0:60:Hat Dry 1.wav
469,192,155502,1,0,0:0:0:0:
42,192,155596,1,0,0:0:0:60:Hat Dry 1.wav
128,192,155596,1,0,0:0:0:0:
384,192,155690,1,0,0:0:0:60:Hat Dry 1.wav
469,192,155690,1,0,0:0:0:0:
213,192,155784,1,0,0:0:0:80:Clap1.wav
298,192,155784,1,0,0:0:0:0:
42,192,155877,1,0,0:0:0:60:Hat Dry 1.wav
128,192,155877,1,0,0:0:0:0:
213,192,155971,1,0,0:0:0:60:Hat Dry 1.wav
298,192,155971,1,0,0:0:0:0:
384,192,156065,1,0,0:0:0:60:Hat Dry 1.wav
469,192,156065,1,0,0:0:0:0:
42,192,156159,1,0,0:0:0:65:Kick 3.wav
213,192,156159,1,0,0:0:0:60:Hat Dry 1.wav
298,192,156159,1,0,0:0:0:0:
128,192,156252,1,0,0:0:0:0:
298,192,156346,1,0,0:0:0:0:
384,192,156346,1,0,0:0:0:0:
213,192,156440,1,0,0:0:0:0:
42,192,156534,1,0,0:0:0:65:Kick 3.wav
384,192,156534,1,0,0:0:0:0:
469,192,156534,1,0,0:0:0:0:
298,192,156627,1,0,0:0:0:0:
128,192,156721,1,0,0:0:0:0:
469,192,156721,1,0,0:0:0:0:
213,192,156815,1,0,0:0:0:0:
42,192,156909,1,0,0:0:0:65:Kick 3.wav
128,192,156909,1,0,0:0:0:0:
384,192,156909,1,0,0:0:0:0:
298,192,157002,1,0,0:0:0:0:
128,192,157096,1,0,0:0:0:0:
213,192,157096,1,0,0:0:0:0:
384,192,157190,1,0,0:0:0:65:Kick 3.wav
469,192,157190,1,0,0:0:0:0:
42,192,157284,1,0,0:0:0:0:
213,192,157284,1,0,0:0:0:0:
298,192,157284,1,0,0:0:0:0:
128,192,157377,1,0,0:0:0:0:
298,192,157471,1,0,0:0:0:65:Kick 3.wav
384,192,157471,1,0,0:0:0:0:
298,192,157565,1,0,0:0:0:0:
384,192,157565,1,0,0:0:0:0:
42,192,157659,1,0,0:0:0:65:Kick 3.wav
213,192,157659,1,0,0:0:0:0:
469,192,157659,1,0,0:0:0:0:
298,192,157752,1,0,0:0:0:0:
128,192,157846,1,0,0:0:0:0:
384,192,157846,1,0,0:0:0:0:
213,192,157940,1,0,0:0:0:0:
42,192,158034,1,0,0:0:0:65:Kick 3.wav
298,192,158034,1,0,0:0:0:0:
469,192,158034,1,0,0:0:0:0:
213,192,158127,1,0,0:0:0:0:
128,192,158221,1,0,0:0:0:0:
469,192,158221,1,0,0:0:0:0:
384,192,158315,1,0,0:0:0:0:
42,192,158409,1,0,0:0:0:65:Kick 3.wav
128,192,158409,1,0,0:0:0:0:
298,192,158409,1,0,0:0:0:0:
213,192,158502,1,0,0:0:0:0:
298,192,158596,1,0,0:0:0:0:
384,192,158596,1,0,0:0:0:0:
42,192,158690,1,0,0:0:0:65:Kick 3.wav
213,192,158690,1,0,0:0:0:0:
128,192,158784,1,0,0:0:0:95:Clap.wav
384,192,158784,1,0,0:0:0:0:
469,192,158784,1,0,0:0:0:0:
298,192,158877,1,0,0:0:0:0:
128,192,158971,1,0,0:0:0:65:Kick 3.wav
384,192,158971,1,0,0:0:0:95:Clap.wav
469,192,158971,1,0,0:0:0:0:
298,192,159065,1,0,0:0:0:0:
42,192,159159,1,0,0:0:0:65:Kick 3.wav
128,192,159159,1,0,0:0:0:80:Clap1.wav
213,192,159159,1,0,0:0:0:0:
469,192,159159,1,0,0:0:0:0:
384,192,159252,1,0,0:0:0:0:
42,192,159346,1,0,0:0:0:0:
298,192,159346,1,0,0:0:0:0:
128,192,159440,1,0,0:0:0:0:
213,192,159534,1,0,0:0:0:65:Kick 3.wav
384,192,159534,1,0,0:0:0:0:
469,192,159534,1,0,0:0:0:0:
298,192,159627,1,0,0:0:0:0:
42,192,159721,1,0,0:0:0:0:
469,192,159721,1,0,0:0:0:0:
213,192,159815,1,0,0:0:0:0:
128,192,159909,1,0,0:0:0:65:Kick 3.wav
298,192,159909,1,0,0:0:0:0:
384,192,159909,1,0,0:0:0:0:
42,192,160002,1,0,0:0:0:0:
213,192,160096,1,0,0:0:0:0:
469,192,160096,1,0,0:0:0:0:
128,192,160190,1,0,0:0:0:65:Kick 3.wav
298,192,160190,1,0,0:0:0:0:
42,192,160284,1,0,0:0:0:80:Clap1.wav
213,192,160284,1,0,0:0:0:0:
384,192,160284,1,0,0:0:0:0:
469,192,160284,1,0,0:0:0:0:
298,192,160377,1,0,0:0:0:0:
128,192,160471,1,0,0:0:0:65:Kick 3.wav
213,192,160471,1,0,0:0:0:0:
128,192,160565,1,0,0:0:0:0:
213,192,160565,1,0,0:0:0:0:
298,192,160659,1,0,0:0:0:65:Kick 3.wav
384,192,160659,1,0,0:0:0:0:
469,192,160659,1,0,0:0:0:0:
42,192,160752,1,0,0:0:0:0:
128,192,160846,1,0,0:0:0:0:
469,192,160846,1,0,0:0:0:0:
213,192,160940,1,0,0:0:0:0:
42,192,161034,1,0,0:0:0:65:Kick 3.wav
298,192,161034,1,0,0:0:0:0:
384,192,161034,1,0,0:0:0:0:
213,192,161127,1,0,0:0:0:0:
128,192,161221,1,0,0:0:0:0:
469,192,161221,1,0,0:0:0:0:
298,192,161315,1,0,0:0:0:0:
42,192,161409,1,0,0:0:0:65:Kick 3.wav
213,192,161409,1,0,0:0:0:0:
469,192,161409,1,0,0:0:0:0:
384,192,161502,1,0,0:0:0:0:
128,192,161596,1,0,0:0:0:0:
298,192,161596,1,0,0:0:0:0:
213,192,161690,1,0,0:0:0:65:Kick 3.wav
384,192,161690,1,0,0:0:0:0:
42,192,161784,1,0,0:0:0:60:Hat Dry 1.wav
469,192,161784,1,0,0:0:0:0:
213,192,161877,1,0,0:0:0:60:Hat Dry 1.wav
298,192,161877,1,0,0:0:0:0:
128,192,161971,1,0,0:0:0:65:Kick 3.wav
384,192,161971,1,0,0:0:0:60:Hat Dry 1.wav
213,192,162065,1,0,0:0:0:60:Hat Dry 1.wav
298,192,162065,1,0,0:0:0:0:
42,192,162159,1,0,0:0:0:75:Kick 2.wav
128,192,162159,1,0,0:0:0:80:Clap1.wav
384,192,162159,1,0,0:0:0:0:
469,192,162159,1,0,0:0:0:0:
213,192,162252,1,0,0:0:0:0:
298,192,162346,1,0,0:0:0:0:
469,192,162346,1,0,0:0:0:0:
213,192,162440,1,0,0:0:0:0:
42,192,162534,1,0,0:0:0:75:Kick 2.wav
298,192,162534,1,0,0:0:0:0:
384,192,162534,1,0,0:0:0:0:
469,192,162627,1,0,0:0:0:0:
128,192,162721,1,0,0:0:0:0:
213,192,162721,1,0,0:0:0:0:
298,192,162815,1,0,0:0:0:0:
42,192,162909,1,0,0:0:0:75:Kick 2.wav
128,192,162909,1,0,0:0:0:0:
469,192,162909,1,0,0:0:0:0:
213,192,163002,1,0,0:0:0:0:
298,192,163096,1,0,0:0:0:0:
469,192,163096,1,0,0:0:0:0:
42,192,163190,1,0,0:0:0:75:Kick 2.wav
213,192,163190,1,0,0:0:0:0:
128,192,163284,1,0,0:0:0:80:Clap1.wav
298,192,163284,1,0,0:0:0:0:
384,192,163284,1,0,0:0:0:0:
469,192,163284,1,0,0:0:0:0:
42,192,163377,1,0,0:0:0:0:
298,192,163471,1,0,0:0:0:75:Kick 2.wav
384,192,163471,1,0,0:0:0:0:
298,192,163565,1,0,0:0:0:0:
384,192,163565,1,0,0:0:0:0:
42,192,163659,1,0,0:0:0:75:Kick 2.wav
128,192,163659,1,0,0:0:0:0:
213,192,163659,1,0,0:0:0:0:
469,192,163752,1,0,0:0:0:0:
128,192,163846,1,0,0:0:0:0:
384,192,163846,1,0,0:0:0:0:
213,192,163940,1,0,0:0:0:0:
42,192,164034,1,0,0:0:0:75:Kick 2.wav
384,192,164034,1,0,0:0:0:0:
469,192,164034,1,0,0:0:0:0:
128,192,164127,1,0,0:0:0:0:
298,192,164221,1,0,0:0:0:0:
384,192,164221,1,0,0:0:0:0:
213,192,164315,1,0,0:0:0:0:
42,192,164409,1,0,0:0:0:75:Kick 2.wav
128,192,164409,1,0,0:0:0:0:
298,192,164409,1,0,0:0:0:0:
469,192,164502,1,0,0:0:0:0:
42,192,164596,1,0,0:0:0:0:
213,192,164596,1,0,0:0:0:0:
298,192,164690,1,0,0:0:0:75:Kick 2.wav
384,192,164690,1,0,0:0:0:0:
128,192,164784,1,0,0:0:0:60:Hat Dry 1.wav
469,192,164784,1,0,0:0:0:0:
213,192,164877,1,0,0:0:0:60:Hat Dry 1.wav
298,192,164877,1,0,0:0:0:0:
42,192,164971,1,0,0:0:0:75:Kick 2.wav
384,192,164971,1,0,0:0:0:60:Hat Dry 1.wav
128,192,165065,1,0,0:0:0:60:Hat Dry 1.wav
213,192,165065,1,0,0:0:0:0:
42,192,165159,1,0,0:0:0:85:Kick 1.wav
298,192,165159,1,0,0:0:0:80:Clap1.wav
384,192,165159,1,0,0:0:0:0:
469,192,165159,128,0,165252:0:0:0:0:
213,192,165252,1,0,0:0:0:0:
128,192,165346,1,0,0:0:0:0:
384,192,165346,1,0,0:0:0:0:
213,192,165440,1,0,0:0:0:0:
128,192,165534,128,0,165627:0:0:0:85:Kick 1.wav
298,192,165534,1,0,0:0:0:0:
469,192,165534,1,0,0:0:0:0:
384,192,165627,1,0,0:0:0:0:
42,192,165721,1,0,0:0:0:80:Clap1.wav
213,192,165721,1,0,0:0:0:0:
469,192,165721,1,0,0:0:0:0:
298,192,165815,1,0,0:0:0:0:
42,192,165909,1,0,0:0:0:85:Kick 1.wav
128,192,165909,128,0,166002:0:0:0:0:
384,192,165909,1,0,0:0:0:0:
213,192,166002,1,0,0:0:0:0:
384,192,166096,1,0,0:0:0:0:
469,192,166096,1,0,0:0:0:0:
213,192,166190,1,0,0:0:0:85:Kick 1.wav
298,192,166190,1,0,0:0:0:0:
42,192,166284,1,0,0:0:0:80:Clap1.wav
128,192,166284,128,0,166377:0:0:0:0:
384,192,166284,1,0,0:0:0:0:
469,192,166284,1,0,0:0:0:0:
298,192,166377,1,0,0:0:0:0:
42,192,166471,1,0,0:0:0:85:Kick 1.wav
213,192,166471,1,0,0:0:0:0:
42,192,166565,1,0,0:0:0:0:
213,192,166565,1,0,0:0:0:0:
128,192,166659,1,0,0:0:0:0:
384,192,166659,1,0,0:0:0:0:
469,192,166659,128,0,166752:0:0:0:0:
213,192,166752,1,0,0:0:0:0:
298,192,166846,1,0,0:0:0:0:
384,192,166846,1,0,0:0:0:0:
42,192,166940,1,0,0:0:0:0:
213,192,167034,128,0,167127:0:0:0:0:
384,192,167034,1,0,0:0:0:0:
469,192,167034,1,0,0:0:0:0:
128,192,167127,1,0,0:0:0:0:
298,192,167221,1,0,0:0:0:0:
384,192,167221,1,0,0:0:0:0:
42,192,167315,1,0,0:0:0:0:
128,192,167409,1,0,0:0:0:80:Clap1.wav
213,192,167409,128,0,167502:0:0:0:0:
384,192,167409,1,0,0:0:0:0:
469,192,167409,1,0,0:0:0:0:
298,192,167502,1,0,0:0:0:0:
42,192,167596,1,0,0:0:0:0:
469,192,167596,1,0,0:0:0:0:
128,192,167690,1,0,0:0:0:0:
213,192,167784,128,0,167877:0:0:0:0:
298,192,167784,1,0,0:0:0:0:
384,192,167784,1,0,0:0:0:0:
42,192,167877,1,0,0:0:0:0:
298,192,167971,1,0,0:0:0:65:Kick 3.wav
469,192,167971,1,0,0:0:0:0:
298,192,168065,1,0,0:0:0:0:
469,192,168065,1,0,0:0:0:0:
64,192,168159,1,0,0:0:0:65:Kick 3.wav
128,192,168159,128,0,168721:0:0:0:0:
213,192,168159,128,0,170409:0:0:0:0:
384,192,168159,128,0,170409:0:0:0:0:
298,192,168721,128,0,168909:0:0:0:0:
469,192,168909,128,0,169096:0:0:0:0:
128,192,169096,128,0,169284:0:0:0:0:
298,192,169284,128,0,169471:0:0:0:0:
42,192,169471,128,0,169846:0:0:0:0:
128,192,169846,128,0,170034:0:0:0:0:
298,192,170034,128,0,170221:0:0:0:0:
469,192,170221,128,0,170409:0:0:0:0:
42,192,170409,128,0,170596:0:0:0:0:
128,192,170409,128,0,171159:0:0:0:0:
298,192,170409,128,0,171159:0:0:0:0:
213,192,170596,128,0,170784:0:0:0:0:
469,192,170784,128,0,171159:0:0:0:0:
42,192,171159,128,0,172565:0:0:0:0:
213,192,171159,128,0,172659:0:0:0:0:
384,192,171159,128,0,171721:0:0:0:0:
469,192,171721,128,0,171909:0:0:0:0:
298,192,171909,128,0,172096:0:0:0:0:
128,192,172096,128,0,172284:0:0:0:0:
384,192,172284,128,0,172471:0:0:0:0:
469,192,172471,128,0,172846:0:0:0:0:
42,192,172659,128,0,174159:0:0:0:0:
128,192,172659,128,0,174065:0:0:0:0:
384,192,172846,128,0,173034:0:0:0:0:
298,192,173034,128,0,173221:0:0:0:0:
469,192,173221,128,0,173409:0:0:0:0:
213,192,173409,128,0,173596:0:0:0:0:
384,192,173409,128,0,174159:0:0:0:0:
298,192,173596,128,0,173784:0:0:0:0:
469,192,173784,128,0,174159:0:0:0:0:
128,192,174159,128,0,176034:0:0:0:0:
213,192,174159,128,0,174721:0:0:0:0:
298,192,174159,128,0,176034:0:0:0:0:
469,192,174721,128,0,174909:0:0:0:0:
384,192,174909,128,0,175096:0:0:0:0:
42,192,175096,128,0,175284:0:0:0:0:
469,192,175284,128,0,175471:0:0:0:0:
213,192,175471,128,0,175846:0:0:0:0:
384,192,175846,128,0,176034:0:0:0:0:
42,192,176034,128,0,176221:0:0:0:0:
213,192,176034,128,0,177159:0:0:0:0:
469,192,176034,128,0,177159:0:0:0:0:
128,192,176221,128,0,176409:0:0:0:0:
384,192,176409,128,0,176596:0:0:0:0:
42,192,176596,128,0,176784:0:0:0:0:
128,192,176784,128,0,177159:0:0:0:0:
42,192,177159,128,0,177721:0:0:0:0:
298,192,177159,128,0,178284:0:0:0:0:
384,192,177159,128,0,178284:0:0:0:0:
213,192,177721,128,0,177909:0:0:0:0:
128,192,177909,128,0,178190:0:0:0:0:
213,192,178190,128,0,178284:0:0:0:0:
42,192,178284,128,0,179409:0:0:0:0:
128,192,178284,128,0,178846:0:0:0:0:
469,192,178284,128,0,179409:0:0:0:0:
213,192,179221,128,0,179409:0:0:0:0:
128,192,179409,128,0,179596:0:0:0:0:
298,192,179409,128,0,180159:0:0:0:0:
384,192,179409,128,0,180159:0:0:0:0:
469,192,179596,128,0,179784:0:0:0:0:
42,192,179784,128,0,179971:0:0:0:0:
128,192,179971,128,0,180159:0:0:0:0:
42,192,180159,128,0,183159:0:0:0:0:
213,192,180159,128,0,183159:0:0:0:0:
469,192,180159,128,0,180721:0:0:0:0:
298,192,180721,128,0,180909:0:0:0:0:
128,192,180909,128,0,181096:0:0:0:0:
384,192,181096,128,0,181284:0:0:0:0:
298,192,181284,128,0,181471:0:0:0:0:
469,192,181471,128,0,181846:0:0:0:0:
384,192,181846,128,0,182034:0:0:0:0:
128,192,182034,128,0,182221:0:0:0:0:
469,192,182221,128,0,182409:0:0:0:0:
298,192,182409,128,0,182596:0:0:0:0:
128,192,182596,128,0,182784:0:0:0:0:
469,192,182784,128,0,183159:0:0:0:0:
128,192,183159,128,0,184659:0:0:0:0:
298,192,183159,128,0,183721:0:0:0:0:
384,192,183159,128,0,184659:0:0:0:0:
42,192,183721,128,0,183885:0:0:0:0:
469,192,183909,128,0,184049:0:0:0:0:
213,192,184096,128,0,184237:0:0:0:0:
42,192,184284,128,0,184377:0:0:0:0:
469,192,184471,128,0,184752:0:0:0:0:
213,192,184659,128,0,186159:0:0:0:0:
298,192,184659,128,0,186159:0:0:0:0:
128,192,184846,128,0,184940:0:0:0:0:
42,192,185034,128,0,185127:0:0:0:0:
469,192,185221,128,0,185315:0:0:0:0:
384,192,185409,128,0,185502:0:0:0:0:
42,192,185596,128,0,185690:0:0:0:0:
469,192,185784,128,0,186065:0:0:0:0:
128,192,186159,128,0,189065:0:0:0:0:
213,192,186315,128,0,189065:0:0:0:0:
384,192,186346,128,0,189065:0:0:0:0:
469,192,186377,128,0,189065:0:0:0:0:
42,192,189159,128,0,191784:0:0:0:0:
128,192,189205,128,0,191784:0:0:0:0:
213,192,189252,128,0,191502:0:0:0:0:
298,192,189299,128,0,191315:0:0:0:0:
384,192,189346,128,0,191784:0:0:0:0:
469,192,189393,128,0,191784:0:0:0:0:
298,192,191409,128,0,191784:0:0:0:0:
213,192,191596,128,0,191784:0:0:0:0:
