osu file format v14

[General]
AudioFilename: audio.mp3
AudioLeadIn: 0
PreviewTime: 94508
Countdown: 0
SampleSet: Drum
StackLeniency: 0.7
Mode: 3
LetterboxInBreaks: 0
SpecialStyle: 0
WidescreenStoryboard: 1

[Editor]
DistanceSpacing: 1.2
BeatDivisor: 2
GridSize: 8
TimelineZoom: 1.44

[Metadata]
Title:me & u (succducc bootleg)
TitleUnicode:me & u (succducc bootleg)
Artist:cassie
ArtistUnicode:cassie
Creator:Herarudo
Version:6K // HD
Source:
Tags:electronic future bass me and you english edm dnb d&b sv ln handstream hs jumpstream js bracket jersey club me and u airuei drum n bass electropop bad boy records dance remix WPCR-12448 CD 83981 ryan leslie NextSelection atlanta club cassie ventura Casandra Elizabeth Ventura Fine
BeatmapID:2580932
BeatmapSetID:1161093

[Difficulty]
HPDrainRate:7.4
CircleSize:6
OverallDifficulty:7.1
ApproachRate:5
SliderMultiplier:1.4
SliderTickRate:1

[Events]
//Background and Video events
0,0,"Background.jpg",0,0
//Break Periods
//Storyboard Layer 0 (Background)
//Storyboard Layer 1 (Fail)
//Storyboard Layer 2 (Pass)
//Storyboard Layer 3 (Foreground)
//Storyboard Layer 4 (Overlay)
//Storyboard Sound Samples
Sample,23034,0,"Clap.wav",90
Sample,26971,0,"Hat Dry 1.wav",60
Sample,29971,0,"Hat Dry 1.wav",60
Sample,32971,0,"Hat Dry 1.wav",60
Sample,44971,0,"Hat Dry 1.wav",60
Sample,125971,0,"Hat Dry 1.wav",60
Sample,130190,0,"Hat Dry 1.wav",60
Sample,133471,0,"Hat Dry 1.wav",60
Sample,134971,0,"Hat Dry 1.wav",60
Sample,137971,0,"Hat Dry 1.wav",60
Sample,140409,0,"Hat Dry 1.wav",60
Sample,140690,0,"Hat Dry 1.wav",60
Sample,140971,0,"Hat Dry 1.wav",60
Sample,141159,0,"Clap1.wav",70
Sample,141909,0,"Clap1.wav",70
Sample,152971,0,"Hat Dry 1.wav",60
Sample,161971,0,"Hat Dry 1.wav",60
Sample,164971,0,"Hat Dry 1.wav",60

[TimingPoints]
159,375,4,3,1,35,1,0
21159,-76.9230769230769,4,3,1,35,0,0
21205,-142.857142857143,4,3,1,35,0,0
21252,-100,4,3,1,35,0,0
21346,-76.9230769230769,4,3,1,35,0,0
21392,-142.857142857143,4,3,1,35,0,0
21439,-100,4,3,1,35,0,0
21534,-76.9230769230769,4,3,1,35,0,0
21580,-142.857142857143,4,3,1,35,0,0
21627,-100,4,3,1,35,0,0
21721,-76.9230769230769,4,3,1,35,0,0
21767,-142.857142857143,4,3,1,35,0,0
21814,-100,4,3,1,35,0,0
21909,-76.9230769230769,4,3,1,35,0,0
21955,-142.857142857143,4,3,1,35,0,0
22002,-100,4,3,1,35,0,0
22096,-76.9230769230769,4,3,1,35,0,0
22142,-142.857142857143,4,3,1,35,0,0
22189,-100,4,3,1,35,0,0
22284,-76.9230769230769,4,3,1,35,0,0
22330,-142.857142857143,4,3,1,35,0,0
22377,-100,4,3,1,35,0,0
22471,-76.9230769230769,4,3,1,35,0,0
22517,-142.857142857143,4,3,1,35,0,0
22564,-100,4,3,1,35,0,0
22659,-74.0740740740741,4,3,1,35,0,0
22705,-153.846153846154,4,3,1,35,0,0
22752,-74.0740740740741,4,3,1,35,0,0
22798,-153.846153846154,4,3,1,35,0,0
22846,-74.0740740740741,4,3,1,35,0,0
22892,-153.846153846154,4,3,1,35,0,0
22940,-74.0740740740741,4,3,1,35,0,0
22986,-153.846153846154,4,3,1,35,0,0
23034,-74.0740740740741,4,3,1,35,0,0
23080,-153.846153846154,4,3,1,35,0,0
23127,-74.0740740740741,4,3,1,35,0,0
23173,-153.846153846154,4,3,1,35,0,0
23221,-74.0740740740741,4,3,1,35,0,0
23267,-153.846153846154,4,3,1,35,0,0
23315,-74.0740740740741,4,3,1,35,0,0
23361,-153.846153846154,4,3,1,35,0,0
23409,-74.0740740740741,4,3,1,35,0,0
23455,-153.846153846154,4,3,1,35,0,0
23502,-74.0740740740741,4,3,1,35,0,0
23548,-153.846153846154,4,3,1,35,0,0
23596,-74.0740740740741,4,3,1,35,0,0
23642,-153.846153846154,4,3,1,35,0,0
23690,-74.0740740740741,4,3,1,35,0,0
23736,-153.846153846154,4,3,1,35,0,0
23784,-74.0740740740741,4,3,1,35,0,0
23830,-153.846153846154,4,3,1,35,0,0
23877,-74.0740740740741,4,3,1,35,0,0
23923,-153.846153846154,4,3,1,35,0,0
23971,-74.0740740740741,4,3,1,35,0,0
24017,-153.846153846154,4,3,1,35,0,0
24065,-74.0740740740741,4,3,1,35,0,0
24111,-153.846153846154,4,3,1,35,0,0
24159,-100,4,3,1,35,0,1
35784,-66.6666666666667,4,3,1,35,0,1
35830,-200,4,3,1,35,0,1
35877,-66.6666666666667,4,3,1,35,0,1
35923,-200,4,3,1,35,0,1
35971,-66.6666666666667,4,3,1,35,0,1
36017,-200,4,3,1,35,0,1
36065,-66.6666666666667,4,3,1,35,0,1
36111,-200,4,3,1,35,0,1
36159,-100,4,3,1,35,0,0
60159,-111.111111111111,4,3,1,35,0,0
63159,-108.695652173913,4,3,1,35,0,0
66159,-105.263157894737,4,3,1,35,0,0
69159,-103.092783505155,4,3,1,35,0,0
72159,-100,4,3,1,35,0,0
72221,-103.092783505155,4,3,1,35,0,0
72284,-107.52688172043,4,3,1,35,0,0
72346,-109.89010989011,4,3,1,35,0,0
73284,-108.695652173913,4,3,1,35,0,0
75159,-107.52688172043,4,3,1,35,0,0
77409,-106.382978723404,4,3,1,35,0,0
78159,-105.263157894737,4,3,1,35,0,0
94659,-102.040816326531,4,3,1,35,0,0
96159,-80,4,3,1,35,0,1
96252,-133.333333333333,4,3,1,35,0,1
96346,-100,4,3,1,35,0,1
96534,-80,4,3,1,35,0,1
96627,-133.333333333333,4,3,1,35,0,1
96721,-100,4,3,1,35,0,1
96909,-80,4,3,1,35,0,1
97002,-133.333333333333,4,3,1,35,0,1
97096,-100,4,3,1,35,0,1
98034,-62.5,4,3,1,35,0,1
98080,-250,4,3,1,35,0,1
98127,-62.5,4,3,1,35,0,1
98173,-250,4,3,1,35,0,1
98221,-62.5,4,3,1,35,0,1
98267,-250,4,3,1,35,0,1
98315,-62.5,4,3,1,35,0,1
98361,-250,4,3,1,35,0,1
98409,-100,4,3,1,35,0,1
119784,-100,4,3,1,35,0,0
120159,-55.5555555555556,4,3,1,35,0,0
120205,-500,4,3,1,35,0,0
120252,-100,4,3,1,35,0,0
120534,-55.5555555555556,4,3,1,35,0,0
120580,-500,4,3,1,35,0,0
120627,-100,4,3,1,35,0,0
120909,-55.5555555555556,4,3,1,35,0,0
120955,-500,4,3,1,35,0,0
121002,-100,4,3,1,35,0,0
121284,-55.5555555555556,4,3,1,35,0,0
121330,-500,4,3,1,35,0,0
121377,-100,4,3,1,35,0,0
121659,-55.5555555555556,4,3,1,35,0,0
121705,-500,4,3,1,35,0,0
121752,-100,4,3,1,35,0,0
122034,-55.5555555555556,4,3,1,35,0,0
122080,-500,4,3,1,35,0,0
122127,-100,4,3,1,35,0,0
122409,-55.5555555555556,4,3,1,35,0,0
122455,-500,4,3,1,35,0,0
122502,-100,4,3,1,35,0,0
122596,-83.3333333333333,4,3,1,35,0,0
122643,-125,4,3,1,35,0,0
122689,-100,4,3,1,35,0,0
123159,-55.5555555555556,4,3,1,35,0,0
123205,-500,4,3,1,35,0,0
123252,-100,4,3,1,35,0,0
123534,-55.5555555555556,4,3,1,35,0,0
123580,-500,4,3,1,35,0,0
123627,-100,4,3,1,35,0,0
123909,-55.5555555555556,4,3,1,35,0,0
123955,-500,4,3,1,35,0,0
124002,-100,4,3,1,35,0,0
124659,-55.5555555555556,4,3,1,35,0,0
124705,-500,4,3,1,35,0,0
124752,-100,4,3,1,35,0,0
125034,-55.5555555555556,4,3,1,35,0,0
125080,-500,4,3,1,35,0,0
125127,-100,4,3,1,35,0,0
126159,-66.6666666666667,4,3,1,35,0,0
126205,-200,4,3,1,35,0,0
126252,-100,4,3,1,35,0,0
127284,-66.6666666666667,4,3,1,35,0,0
127330,-200,4,3,1,35,0,0
127377,-100,4,3,1,35,0,0
128409,-66.6666666666667,4,3,1,35,0,0
128455,-200,4,3,1,35,0,0
128502,-100,4,3,1,35,0,0
129159,-66.6666666666667,4,3,1,35,0,0
129205,-200,4,3,1,35,0,0
129252,-100,4,3,1,35,0,0
130096,-62.5,4,3,1,35,0,0
130143,-250,4,3,1,35,0,0
130190,-62.5,4,3,1,35,0,0
130237,-250,4,3,1,35,0,0
130284,-66.6666666666667,4,3,1,35,0,0
130330,-200,4,3,1,35,0,0
130377,-100,4,3,1,35,0,0
130659,-71.4285714285714,4,3,1,35,0,0
130705,-166.666666666667,4,3,1,35,0,0
130752,-71.4285714285714,4,3,1,35,0,0
130798,-166.666666666667,4,3,1,35,0,0
130846,-71.4285714285714,4,3,1,35,0,0
130892,-166.666666666667,4,3,1,35,0,0
130940,-71.4285714285714,4,3,1,35,0,0
130986,-166.666666666667,4,3,1,35,0,0
131034,-71.4285714285714,4,3,1,35,0,0
131080,-166.666666666667,4,3,1,35,0,0
131127,-71.4285714285714,4,3,1,35,0,0
131173,-166.666666666667,4,3,1,35,0,0
131221,-71.4285714285714,4,3,1,35,0,0
131267,-166.666666666667,4,3,1,35,0,0
131314,-71.4285714285714,4,3,1,35,0,0
131360,-166.666666666667,4,3,1,35,0,0
131409,-71.4285714285714,4,3,1,35,0,0
131455,-166.666666666667,4,3,1,35,0,0
131502,-71.4285714285714,4,3,1,35,0,0
131548,-166.666666666667,4,3,1,35,0,0
131596,-71.4285714285714,4,3,1,35,0,0
131642,-166.666666666667,4,3,1,35,0,0
131689,-71.4285714285714,4,3,1,35,0,0
131735,-166.666666666667,4,3,1,35,0,0
131783,-58.8235294117647,4,3,1,35,0,0
131830,-333.333333333333,4,3,1,35,0,0
131877,-58.8235294117647,4,3,1,35,0,0
131924,-333.333333333333,4,3,1,35,0,0
131971,-58.8235294117647,4,3,1,35,0,0
132018,-333.333333333333,4,3,1,35,0,0
132064,-58.8235294117647,4,3,1,35,0,0
132111,-333.333333333333,4,3,1,35,0,0
132158,-100,4,3,1,35,0,0
138159,-62.5,4,3,1,35,0,0
138205,-250,4,3,1,35,0,0
138252,-62.5,4,3,1,35,0,0
138298,-250,4,3,1,35,0,0
138346,-62.5,4,3,1,35,0,0
138392,-250,4,3,1,35,0,0
138439,-62.5,4,3,1,35,0,0
138485,-250,4,3,1,35,0,0
138534,-62.5,4,3,1,35,0,0
138580,-250,4,3,1,35,0,0
138627,-62.5,4,3,1,35,0,0
138673,-250,4,3,1,35,0,0
138721,-62.5,4,3,1,35,0,0
138767,-250,4,3,1,35,0,0
138814,-62.5,4,3,1,35,0,0
138860,-250,4,3,1,35,0,0
138909,-62.5,4,3,1,35,0,0
138955,-250,4,3,1,35,0,0
139002,-62.5,4,3,1,35,0,0
139048,-250,4,3,1,35,0,0
139096,-62.5,4,3,1,35,0,0
139142,-250,4,3,1,35,0,0
139189,-62.5,4,3,1,35,0,0
139235,-250,4,3,1,35,0,0
139284,-62.5,4,3,1,35,0,0
139330,-250,4,3,1,35,0,0
139377,-62.5,4,3,1,35,0,0
139423,-250,4,3,1,35,0,0
139471,-62.5,4,3,1,35,0,0
139517,-250,4,3,1,35,0,0
139564,-62.5,4,3,1,35,0,0
139610,-250,4,3,1,35,0,0
139659,-62.5,4,3,1,35,0,0
139705,-250,4,3,1,35,0,0
139752,-62.5,4,3,1,35,0,0
139798,-250,4,3,1,35,0,0
139846,-62.5,4,3,1,35,0,0
139892,-250,4,3,1,35,0,0
139939,-62.5,4,3,1,35,0,0
139985,-250,4,3,1,35,0,0
140034,-62.5,4,3,1,35,0,0
140080,-250,4,3,1,35,0,0
140127,-62.5,4,3,1,35,0,0
140173,-250,4,3,1,35,0,0
140221,-62.5,4,3,1,35,0,0
140267,-250,4,3,1,35,0,0
140314,-62.5,4,3,1,35,0,0
140360,-250,4,3,1,35,0,0
140409,-55.5555555555556,4,3,1,35,0,0
140455,-500,4,3,1,35,0,0
140502,-55.5555555555556,4,3,1,35,0,0
140548,-500,4,3,1,35,0,0
140596,-55.5555555555556,4,3,1,35,0,0
140642,-500,4,3,1,35,0,0
140690,-55.5555555555556,4,3,1,35,0,0
140736,-500,4,3,1,35,0,0
140784,-55.5555555555556,4,3,1,35,0,0
140830,-500,4,3,1,35,0,0
140877,-55.5555555555556,4,3,1,35,0,0
140923,-500,4,3,1,35,0,0
140971,-55.5555555555556,4,3,1,35,0,0
141017,-500,4,3,1,35,0,0
141065,-55.5555555555556,4,3,1,35,0,0
141111,-500,4,3,1,35,0,0
141159,-62.5,4,3,1,35,0,0
141205,-250,4,3,1,35,0,0
141252,-62.5,4,3,1,35,0,0
141298,-250,4,3,1,35,0,0
141346,-62.5,4,3,1,35,0,0
141392,-250,4,3,1,35,0,0
141439,-62.5,4,3,1,35,0,0
141485,-250,4,3,1,35,0,0
141534,-62.5,4,3,1,35,0,0
141580,-250,4,3,1,35,0,0
141627,-62.5,4,3,1,35,0,0
141673,-250,4,3,1,35,0,0
141721,-55.5555555555556,4,3,1,35,0,0
141768,-500,4,3,1,35,0,0
141815,-55.5555555555556,4,3,1,35,0,0
141862,-500,4,3,1,35,0,0
141909,-62.5,4,3,1,35,0,0
141955,-250,4,3,1,35,0,0
142002,-62.5,4,3,1,35,0,0
142048,-250,4,3,1,35,0,0
142096,-62.5,4,3,1,35,0,0
142142,-250,4,3,1,35,0,0
142189,-62.5,4,3,1,35,0,0
142235,-250,4,3,1,35,0,0
142284,-62.5,4,3,1,35,0,0
142330,-250,4,3,1,35,0,0
142377,-62.5,4,3,1,35,0,0
142423,-250,4,3,1,35,0,0
142471,-62.5,4,3,1,35,0,0
142517,-250,4,3,1,35,0,0
142564,-62.5,4,3,1,35,0,0
142610,-250,4,3,1,35,0,0
142659,-62.5,4,3,1,35,0,0
142705,-250,4,3,1,35,0,0
142752,-62.5,4,3,1,35,0,0
142798,-250,4,3,1,35,0,0
142846,-62.5,4,3,1,35,0,0
142892,-250,4,3,1,35,0,0
142939,-62.5,4,3,1,35,0,0
142985,-250,4,3,1,35,0,0
143034,-62.5,4,3,1,35,0,0
143080,-250,4,3,1,35,0,0
143127,-62.5,4,3,1,35,0,0
143173,-250,4,3,1,35,0,0
143221,-62.5,4,3,1,35,0,0
143267,-250,4,3,1,35,0,0
143314,-62.5,4,3,1,35,0,0
143360,-250,4,3,1,35,0,0
143409,-62.5,4,3,1,35,0,0
143455,-250,4,3,1,35,0,0
143502,-62.5,4,3,1,35,0,0
143548,-250,4,3,1,35,0,0
143596,-62.5,4,3,1,35,0,0
143642,-250,4,3,1,35,0,0
143689,-62.5,4,3,1,35,0,0
143735,-250,4,3,1,35,0,0
143784,-62.5,4,3,1,35,0,0
143830,-250,4,3,1,35,0,0
143877,-62.5,4,3,1,35,0,0
143923,-250,4,3,1,35,0,0
143971,-62.5,4,3,1,35,0,0
144017,-250,4,3,1,35,0,0
144064,-62.5,4,3,1,35,0,0
144110,-250,4,3,1,35,0,0
144159,-100,4,3,1,35,0,1
161784,-62.5,4,3,1,35,0,1
161830,-250,4,3,1,35,0,1
161877,-62.5,4,3,1,35,0,1
161923,-250,4,3,1,35,0,1
161971,-62.5,4,3,1,35,0,1
162017,-250,4,3,1,35,0,1
162064,-62.5,4,3,1,35,0,1
162110,-250,4,3,1,35,0,1
162159,-100,4,3,1,35,0,1
164784,-62.5,4,3,1,35,0,1
164830,-250,4,3,1,35,0,1
164877,-62.5,4,3,1,35,0,1
164923,-250,4,3,1,35,0,1
164971,-62.5,4,3,1,35,0,1
165017,-250,4,3,1,35,0,1
165064,-62.5,4,3,1,35,0,1
165110,-250,4,3,1,35,0,1
165159,-100,4,3,1,35,0,1
168159,-111.111111111111,4,3,1,35,0,0

[HitObjects]
384,192,159,128,0,534:0:0:0:0:
128,192,534,1,0,0:0:0:0:
384,192,627,1,0,0:0:0:0:
128,192,721,1,0,0:0:0:0:
384,192,815,1,0,0:0:0:0:
384,192,1096,128,0,1284:0:0:0:0:
128,192,1284,1,0,0:0:0:0:
384,192,1377,1,0,0:0:0:0:
298,192,1471,128,0,1659:0:0:0:0:
213,192,1659,1,0,0:0:0:0:
213,192,1846,1,0,0:0:0:0:
128,192,1940,1,0,0:0:0:0:
384,192,2221,1,0,0:0:0:0:
64,192,2315,1,0,0:0:0:0:
298,192,2409,128,0,2596:0:0:0:0:
213,192,2596,128,0,2784:0:0:0:0:
298,192,2784,128,0,3159:0:0:0:0:
128,192,3159,128,0,3346:0:0:0:0:
469,192,3346,1,0,0:0:0:0:
384,192,3440,1,0,0:0:0:0:
42,192,3534,128,0,3909:0:0:0:0:
298,192,4096,128,0,4284:0:0:0:0:
298,192,4471,128,0,4659:0:0:0:0:
469,192,4659,128,0,4846:0:0:0:0:
128,192,4846,1,0,0:0:0:0:
469,192,4940,128,0,5127:0:0:0:0:
213,192,5127,1,0,0:0:0:0:
448,192,5221,128,0,5409:0:0:0:0:
298,192,5409,128,0,5596:0:0:0:0:
42,192,5596,128,0,5784:0:0:0:0:
298,192,5784,128,0,6159:0:0:0:0:
213,192,6159,1,0,0:0:0:0:
448,192,6159,128,0,6440:0:0:0:0:
213,192,6534,1,0,0:0:0:0:
448,192,6534,128,0,6815:0:0:0:0:
213,192,6909,1,0,0:0:0:0:
213,192,7284,1,0,0:0:0:0:
448,192,7659,1,0,0:0:0:0:
298,192,8034,1,0,0:0:0:0:
42,192,8409,128,0,8596:0:0:0:0:
213,192,8409,1,0,0:0:0:0:
384,192,8596,128,0,8784:0:0:0:0:
42,192,8784,128,0,9159:0:0:0:0:
213,192,8784,1,0,0:0:0:0:
298,192,9159,1,0,0:0:0:65:Kick 3.wav
448,192,9159,128,0,9721:0:0:0:80:Cymbals.wav
384,192,9721,128,0,9909:0:0:0:0:
128,192,9909,128,0,10096:0:0:0:65:Kick 3.wav
213,192,9909,1,0,0:0:0:80:Cymbals.wav
298,192,10096,128,0,10284:0:0:0:0:
42,192,10284,128,0,10659:0:0:0:0:
298,192,10659,1,0,0:0:0:65:Kick 3.wav
384,192,10659,1,0,0:0:0:80:Cymbals.wav
128,192,11034,1,0,0:0:0:65:Kick 3.wav
213,192,11034,1,0,0:0:0:0:
469,192,11221,128,0,11409:0:0:0:0:
213,192,11409,128,0,11596:0:0:0:65:Kick 3.wav
298,192,11409,1,0,0:0:0:80:Cymbals.wav
128,192,11596,128,0,11784:0:0:0:0:
298,192,11784,128,0,11971:0:0:0:65:Kick 3.wav
384,192,11784,1,0,0:0:0:0:
213,192,11971,128,0,12159:0:0:0:0:
42,192,12159,1,0,0:0:0:65:Kick 3.wav
469,192,12159,1,0,0:0:0:80:Cymbals.wav
384,192,12252,1,0,0:0:0:0:
213,192,12346,1,0,0:0:0:0:
298,192,12440,1,0,0:0:0:0:
384,192,12534,1,0,0:0:0:70:Clap1.wav
42,192,12627,1,0,0:0:0:0:
128,192,12721,1,0,0:0:0:0:
298,192,12815,1,0,0:0:0:0:
469,192,12909,1,0,0:0:0:0:
384,192,13002,1,0,0:0:0:0:
42,192,13096,1,0,0:0:0:0:
213,192,13190,1,0,0:0:0:0:
384,192,13284,1,0,0:0:0:70:Clap1.wav
298,192,13377,1,0,0:0:0:0:
64,192,13471,1,0,0:0:0:0:
213,192,13565,1,0,0:0:0:0:
42,192,13659,1,0,0:0:0:0:
384,192,13752,1,0,0:0:0:0:
213,192,13846,1,0,0:0:0:0:
128,192,13940,1,0,0:0:0:0:
298,192,14034,1,0,0:0:0:70:Clap1.wav
384,192,14127,1,0,0:0:0:0:
213,192,14221,1,0,0:0:0:0:
448,192,14315,1,0,0:0:0:0:
42,192,14409,1,0,0:0:0:0:
128,192,14502,1,0,0:0:0:0:
384,192,14596,1,0,0:0:0:70:Clap1.wav
298,192,14690,1,0,0:0:0:0:
213,192,14784,1,0,0:0:0:70:Clap1.wav
448,192,14877,1,0,0:0:0:0:
298,192,14971,1,0,0:0:0:0:
42,192,15065,1,0,0:0:0:0:
469,192,15159,1,0,0:0:0:0:
213,192,15252,1,0,0:0:0:0:
298,192,15346,1,0,0:0:0:0:
384,192,15440,1,0,0:0:0:0:
42,192,15534,1,0,0:0:0:0:
213,192,15627,1,0,0:0:0:0:
384,192,15721,1,0,0:0:0:70:Clap1.wav
128,192,15815,1,0,0:0:0:0:
298,192,15909,1,0,0:0:0:0:
469,192,16002,1,0,0:0:0:0:
128,192,16096,1,0,0:0:0:0:
213,192,16190,1,0,0:0:0:0:
298,192,16284,1,0,0:0:0:70:Clap1.wav
42,192,16377,1,0,0:0:0:0:
448,192,16471,1,0,0:0:0:70:Clap1.wav
298,192,16565,1,0,0:0:0:0:
469,192,16659,1,0,0:0:0:0:
213,192,16752,1,0,0:0:0:0:
128,192,16846,1,0,0:0:0:0:
384,192,16940,1,0,0:0:0:0:
298,192,17034,1,0,0:0:0:70:Clap1.wav
42,192,17127,1,0,0:0:0:0:
128,192,17221,1,0,0:0:0:0:
213,192,17315,1,0,0:0:0:0:
384,192,17409,1,0,0:0:0:0:
448,192,17502,1,0,0:0:0:0:
298,192,17596,1,0,0:0:0:0:
213,192,17690,1,0,0:0:0:0:
42,192,17784,1,0,0:0:0:70:Clap1.wav
128,192,17877,1,0,0:0:0:0:
384,192,17971,1,0,0:0:0:0:
213,192,18065,1,0,0:0:0:0:
42,192,18159,1,0,0:0:0:65:Kick 3.wav
469,192,18159,1,0,0:0:0:0:
384,192,18252,1,0,0:0:0:0:
213,192,18346,1,0,0:0:0:0:
298,192,18440,1,0,0:0:0:0:
42,192,18534,1,0,0:0:0:65:Kick 3.wav
128,192,18534,1,0,0:0:0:90:Clap.wav
469,192,18627,1,0,0:0:0:0:
298,192,18721,1,0,0:0:0:0:
213,192,18815,1,0,0:0:0:0:
42,192,18909,1,0,0:0:0:65:Kick 3.wav
384,192,18909,1,0,0:0:0:0:
298,192,19002,1,0,0:0:0:0:
128,192,19096,1,0,0:0:0:0:
213,192,19190,1,0,0:0:0:0:
64,192,19284,1,0,0:0:0:65:Kick 3.wav
469,192,19284,1,0,0:0:0:90:Clap.wav
384,192,19377,1,0,0:0:0:0:
298,192,19471,1,0,0:0:0:0:
128,192,19565,1,0,0:0:0:0:
213,192,19659,1,0,0:0:0:65:Kick 3.wav
469,192,19659,1,0,0:0:0:0:
298,192,19752,1,0,0:0:0:0:
42,192,19846,1,0,0:0:0:0:
128,192,19940,1,0,0:0:0:0:
213,192,20034,1,0,0:0:0:65:Kick 3.wav
469,192,20034,1,0,0:0:0:90:Clap.wav
384,192,20127,1,0,0:0:0:0:
298,192,20221,1,0,0:0:0:0:
42,192,20315,1,0,0:0:0:0:
128,192,20409,1,0,0:0:0:65:Kick 3.wav
384,192,20409,1,0,0:0:0:0:
298,192,20502,1,0,0:0:0:0:
213,192,20596,1,0,0:0:0:0:
469,192,20690,1,0,0:0:0:0:
64,192,20784,1,0,0:0:0:65:Kick 3.wav
298,192,20784,1,0,0:0:0:90:Clap.wav
384,192,20877,1,0,0:0:0:0:
128,192,20971,1,0,0:0:0:0:
213,192,21065,1,0,0:0:0:0:
298,192,21159,1,0,0:0:0:65:Kick 3.wav
469,192,21159,1,0,0:0:0:0:
128,192,21346,1,0,0:0:0:65:Kick 3.wav
384,192,21346,1,0,0:0:0:0:
42,192,21534,1,0,0:0:0:65:Kick 3.wav
213,192,21534,1,0,0:0:0:90:Clap.wav
298,192,21721,1,0,0:0:0:65:Kick 3.wav
469,192,21721,1,0,0:0:0:0:
42,192,21909,1,0,0:0:0:65:Kick 3.wav
128,192,21909,1,0,0:0:0:0:
213,192,22096,1,0,0:0:0:65:Kick 3.wav
384,192,22096,1,0,0:0:0:0:
298,192,22284,1,0,0:0:0:65:Kick 3.wav
469,192,22284,1,0,0:0:0:90:Clap.wav
42,192,22471,1,0,0:0:0:65:Kick 3.wav
213,192,22471,1,0,0:0:0:0:
384,192,22659,1,0,0:0:0:65:Kick 3.wav
298,192,22752,1,0,0:0:0:65:Kick 3.wav
213,192,22846,1,0,0:0:0:65:Kick 3.wav
128,192,22940,1,0,0:0:0:65:Kick 3.wav
384,192,23034,1,0,0:0:0:65:Kick 3.wav
298,192,23127,1,0,0:0:0:65:Kick 3.wav
213,192,23221,1,0,0:0:0:65:Kick 3.wav
128,192,23315,1,0,0:0:0:65:Kick 3.wav
469,192,23409,1,0,0:0:0:75:Kick 2.wav
42,192,23502,1,0,0:0:0:75:Kick 2.wav
384,192,23596,1,0,0:0:0:75:Kick 2.wav
128,192,23690,1,0,0:0:0:75:Kick 2.wav
298,192,23784,1,0,0:0:0:75:Kick 2.wav
213,192,23877,1,0,0:0:0:75:Kick 2.wav
298,192,23971,1,0,0:0:0:75:Kick 2.wav
213,192,24065,1,0,0:0:0:75:Kick 2.wav
42,192,24159,128,0,24346:0:0:0:65:Kick 3.wav
469,192,24159,128,0,24346:0:0:0:0:
128,192,24534,1,0,0:0:0:65:Kick 3.wav
298,192,24534,128,0,24721:0:0:0:0:
42,192,24909,1,0,0:0:0:65:Kick 3.wav
213,192,24909,128,0,25096:0:0:0:0:
384,192,25190,1,0,0:0:0:65:Kick 3.wav
469,192,25190,1,0,0:0:0:0:
42,192,25284,128,0,25471:0:0:0:0:
298,192,25377,1,0,0:0:0:0:
128,192,25471,1,0,0:0:0:65:Kick 3.wav
213,192,25565,1,0,0:0:0:0:
298,192,25659,1,0,0:0:0:65:Kick 3.wav
469,192,25659,128,0,25846:0:0:0:0:
213,192,26034,128,0,26221:0:0:0:65:Kick 3.wav
384,192,26034,1,0,0:0:0:0:
42,192,26409,128,0,26596:0:0:0:65:Kick 3.wav
298,192,26409,128,0,26596:0:0:0:0:
384,192,26690,1,0,0:0:0:65:Kick 3.wav
448,192,26690,1,0,0:0:0:0:
128,192,26784,128,0,26971:0:0:0:0:
213,192,26877,1,0,0:0:0:0:
469,192,26971,1,0,0:0:0:65:Kick 3.wav
298,192,27065,1,0,0:0:0:60:Hat Dry 1.wav
42,192,27159,128,0,27346:0:0:0:75:Kick 2.wav
213,192,27159,128,0,27346:0:0:0:0:
128,192,27534,1,0,0:0:0:75:Kick 2.wav
298,192,27534,128,0,27721:0:0:0:0:
384,192,27909,1,0,0:0:0:75:Kick 2.wav
469,192,27909,128,0,28096:0:0:0:0:
213,192,28096,1,0,0:0:0:0:
128,192,28190,1,0,0:0:0:75:Kick 2.wav
469,192,28284,128,0,28377:0:0:0:0:
384,192,28377,128,0,28471:0:0:0:0:
42,192,28471,1,0,0:0:0:75:Kick 2.wav
213,192,28471,1,0,0:0:0:0:
298,192,28659,128,0,28846:0:0:0:60:Kick 4.wav
384,192,28659,1,0,0:0:0:0:
42,192,29034,1,0,0:0:0:60:Kick 4.wav
213,192,29034,128,0,29221:0:0:0:0:
298,192,29409,128,0,29596:0:0:0:75:Kick 2.wav
384,192,29409,128,0,29596:0:0:0:0:
42,192,29690,1,0,0:0:0:75:Kick 2.wav
213,192,29690,1,0,0:0:0:0:
469,192,29784,1,0,0:0:0:0:
298,192,29877,1,0,0:0:0:0:
42,192,29971,1,0,0:0:0:75:Kick 2.wav
213,192,30065,1,0,0:0:0:60:Hat Dry 1.wav
384,192,30159,1,0,0:0:0:85:Kick 1.wav
469,192,30159,128,0,30346:0:0:0:0:
128,192,30346,1,0,0:0:0:0:
42,192,30534,128,0,30721:0:0:0:85:Kick 1.wav
298,192,30534,1,0,0:0:0:0:
384,192,30721,1,0,0:0:0:0:
128,192,30909,128,0,31096:0:0:0:85:Kick 1.wav
298,192,30909,1,0,0:0:0:0:
192,192,31096,1,0,0:0:0:0:
384,192,31190,1,0,0:0:0:85:Kick 1.wav
469,192,31190,1,0,0:0:0:0:
298,192,31284,128,0,31471:0:0:0:0:
128,192,31471,1,0,0:0:0:85:Kick 1.wav
213,192,31565,1,0,0:0:0:0:
42,192,31659,128,0,31846:0:0:0:85:Kick 1.wav
298,192,31659,1,0,0:0:0:0:
213,192,31846,1,0,0:0:0:0:
384,192,32034,1,0,0:0:0:85:Kick 1.wav
469,192,32034,128,0,32221:0:0:0:0:
298,192,32221,1,0,0:0:0:0:
128,192,32409,1,0,0:0:0:85:Kick 1.wav
384,192,32409,128,0,32596:0:0:0:0:
298,192,32596,1,0,0:0:0:0:
213,192,32690,1,0,0:0:0:85:Kick 1.wav
42,192,32784,128,0,32971:0:0:0:0:
469,192,32784,1,0,0:0:0:0:
298,192,32877,1,0,0:0:0:0:
128,192,32971,1,0,0:0:0:85:Kick 1.wav
213,192,33065,1,0,0:0:0:60:Hat Dry 1.wav
298,192,33159,128,0,33346:0:0:0:65:Kick 3.wav
469,192,33159,1,0,0:0:0:0:
42,192,33346,1,0,0:0:0:0:
128,192,33534,128,0,33721:0:0:0:65:Kick 3.wav
384,192,33534,1,0,0:0:0:0:
213,192,33721,1,0,0:0:0:0:
42,192,33909,1,0,0:0:0:65:Kick 3.wav
469,192,33909,128,0,34096:0:0:0:0:
298,192,34096,1,0,0:0:0:0:
42,192,34190,1,0,0:0:0:65:Kick 3.wav
213,192,34190,1,0,0:0:0:0:
384,192,34284,128,0,34471:0:0:0:0:
298,192,34471,1,0,0:0:0:65:Kick 3.wav
213,192,34565,1,0,0:0:0:0:
42,192,34659,128,0,34846:0:0:0:75:Kick 2.wav
469,192,34659,1,0,0:0:0:0:
298,192,34752,1,0,0:0:0:0:
128,192,34846,1,0,0:0:0:0:
213,192,34940,1,0,0:0:0:0:
384,192,35034,1,0,0:0:0:75:Kick 2.wav
469,192,35034,128,0,35221:0:0:0:0:
298,192,35127,1,0,0:0:0:0:
128,192,35221,1,0,0:0:0:0:
213,192,35315,1,0,0:0:0:0:
42,192,35409,128,0,35596:0:0:0:85:Kick 1.wav
469,192,35409,1,0,0:0:0:0:
384,192,35502,1,0,0:0:0:0:
213,192,35596,1,0,0:0:0:0:
298,192,35690,1,0,0:0:0:0:
42,192,35784,1,0,0:0:0:60:Hat Dry 1.wav
213,192,35877,1,0,0:0:0:60:Hat Dry 1.wav
298,192,35971,1,0,0:0:0:60:Hat Dry 1.wav
469,192,36065,1,0,0:0:0:60:Hat Dry 1.wav
42,192,36159,1,0,0:0:0:65:Kick 3.wav
213,192,36159,1,0,0:0:0:90:Clap.wav
298,192,36346,1,0,0:0:0:0:
384,192,36440,1,0,0:0:0:0:
128,192,36534,1,0,0:0:0:65:Kick 3.wav
192,192,36534,1,0,0:0:0:90:Clap.wav
298,192,36721,1,0,0:0:0:0:
384,192,36815,1,0,0:0:0:0:
42,192,36909,1,0,0:0:0:65:Kick 3.wav
213,192,36909,1,0,0:0:0:90:Clap.wav
469,192,37096,1,0,0:0:0:0:
384,192,37190,1,0,0:0:0:65:Kick 3.wav
42,192,37284,1,0,0:0:0:90:Clap.wav
128,192,37284,1,0,0:0:0:0:
384,192,37471,1,0,0:0:0:65:Kick 3.wav
213,192,37565,1,0,0:0:0:0:
42,192,37659,1,0,0:0:0:65:Kick 3.wav
469,192,37659,1,0,0:0:0:90:Clap.wav
213,192,37846,1,0,0:0:0:0:
128,192,37940,1,0,0:0:0:0:
384,192,38034,1,0,0:0:0:65:Kick 3.wav
469,192,38034,1,0,0:0:0:90:Clap.wav
213,192,38221,1,0,0:0:0:0:
128,192,38315,1,0,0:0:0:0:
298,192,38409,1,0,0:0:0:65:Kick 3.wav
469,192,38409,1,0,0:0:0:90:Clap.wav
128,192,38596,1,0,0:0:0:0:
213,192,38690,1,0,0:0:0:65:Kick 3.wav
469,192,38784,1,0,0:0:0:90:Clap.wav
298,192,38846,1,0,0:0:0:0:
42,192,38909,1,0,0:0:0:0:
213,192,38971,1,0,0:0:0:65:Kick 3.wav
469,192,39065,1,0,0:0:0:0:
42,192,39159,1,0,0:0:0:65:Kick 3.wav
298,192,39159,1,0,0:0:0:90:Clap.wav
384,192,39346,1,0,0:0:0:0:
128,192,39440,1,0,0:0:0:0:
213,192,39534,1,0,0:0:0:65:Kick 3.wav
298,192,39534,1,0,0:0:0:90:Clap.wav
384,192,39721,1,0,0:0:0:0:
128,192,39815,1,0,0:0:0:0:
42,192,39909,1,0,0:0:0:65:Kick 3.wav
298,192,39909,1,0,0:0:0:90:Clap.wav
469,192,40096,1,0,0:0:0:0:
213,192,40190,1,0,0:0:0:65:Kick 3.wav
64,192,40284,128,0,40471:0:0:0:90:Clap.wav
384,192,40284,1,0,0:0:0:0:
213,192,40471,1,0,0:0:0:65:Kick 3.wav
298,192,40565,1,0,0:0:0:0:
384,192,40659,1,0,0:0:0:65:Kick 3.wav
469,192,40659,1,0,0:0:0:90:Clap.wav
128,192,40846,1,0,0:0:0:0:
42,192,40940,1,0,0:0:0:0:
298,192,41034,1,0,0:0:0:65:Kick 3.wav
384,192,41034,1,0,0:0:0:90:Clap.wav
128,192,41221,1,0,0:0:0:0:
42,192,41315,1,0,0:0:0:0:
384,192,41409,1,0,0:0:0:65:Kick 3.wav
469,192,41409,1,0,0:0:0:90:Clap.wav
128,192,41596,1,0,0:0:0:0:
213,192,41690,1,0,0:0:0:65:Kick 3.wav
298,192,41784,1,0,0:0:0:90:Clap.wav
469,192,41784,1,0,0:0:0:0:
42,192,41971,1,0,0:0:0:65:Kick 3.wav
213,192,41971,1,0,0:0:0:90:Clap.wav
298,192,42159,1,0,0:0:0:65:Kick 3.wav
469,192,42159,1,0,0:0:0:90:Clap.wav
384,192,42346,1,0,0:0:0:0:
128,192,42440,1,0,0:0:0:0:
42,192,42534,1,0,0:0:0:65:Kick 3.wav
298,192,42534,1,0,0:0:0:90:Clap.wav
384,192,42721,1,0,0:0:0:0:
128,192,42815,1,0,0:0:0:0:
213,192,42909,1,0,0:0:0:65:Kick 3.wav
298,192,42909,1,0,0:0:0:90:Clap.wav
42,192,43096,1,0,0:0:0:0:
298,192,43190,1,0,0:0:0:65:Kick 3.wav
213,192,43284,1,0,0:0:0:90:Clap.wav
469,192,43284,1,0,0:0:0:0:
42,192,43471,1,0,0:0:0:65:Kick 3.wav
128,192,43565,1,0,0:0:0:0:
213,192,43659,1,0,0:0:0:65:Kick 3.wav
298,192,43659,1,0,0:0:0:90:Clap.wav
469,192,43846,1,0,0:0:0:0:
298,192,43940,1,0,0:0:0:0:
42,192,44034,1,0,0:0:0:65:Kick 3.wav
128,192,44034,1,0,0:0:0:90:Clap.wav
469,192,44221,1,0,0:0:0:0:
298,192,44315,1,0,0:0:0:0:
128,192,44409,1,0,0:0:0:65:Kick 3.wav
213,192,44409,1,0,0:0:0:90:Clap.wav
298,192,44596,1,0,0:0:0:0:
384,192,44690,1,0,0:0:0:65:Kick 3.wav
42,192,44784,1,0,0:0:0:90:Clap.wav
469,192,44784,1,0,0:0:0:60:Hat Dry 1.wav
128,192,44877,1,0,0:0:0:60:Hat Dry 1.wav
298,192,44971,1,0,0:0:0:65:Kick 3.wav
213,192,45065,1,0,0:0:0:60:Hat Dry 1.wav
128,192,45159,1,0,0:0:0:65:Kick 3.wav
469,192,45159,1,0,0:0:0:100:Clap.wav
298,192,45346,1,0,0:0:0:0:
384,192,45440,1,0,0:0:0:0:
128,192,45534,1,0,0:0:0:65:Kick 3.wav
213,192,45534,1,0,0:0:0:100:Clap.wav
298,192,45721,1,0,0:0:0:0:
384,192,45815,1,0,0:0:0:0:
42,192,45909,1,0,0:0:0:65:Kick 3.wav
128,192,45909,1,0,0:0:0:100:Clap.wav
448,192,46096,1,0,0:0:0:0:
42,192,46190,1,0,0:0:0:65:Kick 3.wav
298,192,46284,128,0,46471:0:0:0:90:Clap.wav
384,192,46284,1,0,0:0:0:0:
128,192,46471,1,0,0:0:0:65:Kick 3.wav
213,192,46565,1,0,0:0:0:0:
384,192,46659,1,0,0:0:0:65:Kick 3.wav
469,192,46659,1,0,0:0:0:100:Clap.wav
42,192,46846,1,0,0:0:0:0:
128,192,46940,1,0,0:0:0:0:
298,192,47034,1,0,0:0:0:65:Kick 3.wav
384,192,47034,1,0,0:0:0:100:Clap.wav
42,192,47221,1,0,0:0:0:0:
128,192,47315,1,0,0:0:0:0:
213,192,47409,1,0,0:0:0:75:Kick 2.wav
384,192,47409,1,0,0:0:0:100:Clap.wav
469,192,47596,1,0,0:0:0:0:
298,192,47690,1,0,0:0:0:75:Kick 2.wav
42,192,47784,1,0,0:0:0:70:Clap.wav
128,192,47784,1,0,0:0:0:0:
384,192,47877,1,0,0:0:0:0:
213,192,47971,1,0,0:0:0:75:Kick 2.wav
298,192,48065,1,0,0:0:0:0:
42,192,48159,128,0,48534:0:0:0:65:Kick 3.wav
469,192,48159,1,0,0:0:0:0:
42,192,48721,128,0,48815:0:0:0:0:
42,192,48909,128,0,49190:0:0:0:0:
42,192,49284,128,0,49377:0:0:0:0:
42,192,49471,1,0,0:0:0:0:
213,192,49565,1,0,0:0:0:0:
469,192,50034,128,0,50315:0:0:0:0:
298,192,50409,128,0,50596:0:0:0:0:
298,192,50690,128,0,50877:0:0:0:0:
298,192,50971,128,0,51159:0:0:0:0:
213,192,51159,128,0,51440:0:0:0:0:
213,192,51534,1,0,0:0:0:0:
298,192,51627,1,0,0:0:0:0:
213,192,51721,1,0,0:0:0:0:
298,192,51815,1,0,0:0:0:0:
128,192,52096,1,0,0:0:0:0:
298,192,52190,128,0,52377:0:0:0:0:
298,192,52471,128,0,52659:0:0:0:0:
469,192,52659,128,0,52940:0:0:0:0:
469,192,53034,128,0,53127:0:0:0:0:
469,192,53221,1,0,0:0:0:0:
213,192,53315,1,0,0:0:0:0:
469,192,53596,1,0,0:0:0:0:
384,192,53690,1,0,0:0:0:0:
42,192,53784,1,0,0:0:0:0:
128,192,53877,1,0,0:0:0:0:
213,192,53971,1,0,0:0:0:0:
298,192,54065,1,0,0:0:0:0:
42,192,54159,1,0,0:0:0:65:Kick 3.wav
469,192,54159,1,0,0:0:0:0:
298,192,54346,1,0,0:0:0:60:Hat Dry 1.wav
213,192,54534,1,0,0:0:0:70:Clap1.wav
42,192,54721,1,0,0:0:0:60:Hat Dry 1.wav
298,192,54815,1,0,0:0:0:60:Hat Dry 1.wav
384,192,54909,1,0,0:0:0:60:Hat Dry 1.wav
213,192,55002,1,0,0:0:0:60:Hat Dry 1.wav
128,192,55096,1,0,0:0:0:70:Clap1.wav
298,192,55284,1,0,0:0:0:60:Hat Dry 1.wav
42,192,55377,1,0,0:0:0:60:Hat Dry 1.wav
469,192,55471,1,0,0:0:0:60:Hat Dry 1.wav
298,192,55565,1,0,0:0:0:60:Hat Dry 1.wav
469,192,55659,1,0,0:0:0:70:Clap1.wav
42,192,55846,1,0,0:0:0:60:Hat Dry 1.wav
384,192,55940,1,0,0:0:0:60:Hat Dry 1.wav
213,192,56034,1,0,0:0:0:60:Hat Dry 1.wav
128,192,56127,1,0,0:0:0:60:Hat Dry 1.wav
298,192,56221,1,0,0:0:0:70:Clap1.wav
384,192,56409,1,0,0:0:0:60:Hat Dry 1.wav
192,192,56502,1,0,0:0:0:60:Hat Dry 1.wav
128,192,56596,1,0,0:0:0:60:Hat Dry 1.wav
64,192,56690,1,0,0:0:0:60:Hat Dry 1.wav
469,192,56784,1,0,0:0:0:70:Clap1.wav
298,192,56877,1,0,0:0:0:0:
42,192,56971,1,0,0:0:0:0:
213,192,57065,1,0,0:0:0:0:
384,192,57159,1,0,0:0:0:50:Hat Dry 2.wav
298,192,57252,1,0,0:0:0:50:Hat Dry 2.wav
42,192,57346,1,0,0:0:0:50:Hat Dry 2.wav
213,192,57440,1,0,0:0:0:50:Hat Dry 2.wav
298,192,57534,1,0,0:0:0:50:Hat Dry 2.wav
384,192,57627,1,0,0:0:0:50:Hat Dry 2.wav
42,192,57721,1,0,0:0:0:50:Hat Dry 2.wav
213,192,57815,1,0,0:0:0:50:Hat Dry 2.wav
42,192,57909,1,0,0:0:0:50:Hat Dry 2.wav
469,192,58002,1,0,0:0:0:50:Hat Dry 2.wav
384,192,58096,1,0,0:0:0:50:Hat Dry 2.wav
42,192,58190,1,0,0:0:0:50:Hat Dry 2.wav
213,192,58284,1,0,0:0:0:50:Hat Dry 2.wav
128,192,58377,1,0,0:0:0:50:Hat Dry 2.wav
469,192,58471,1,0,0:0:0:50:Hat Dry 2.wav
298,192,58565,1,0,0:0:0:50:Hat Dry 2.wav
469,192,58659,1,0,0:0:0:50:Hat Dry 2.wav
213,192,58752,1,0,0:0:0:50:Hat Dry 2.wav
42,192,58846,1,0,0:0:0:50:Hat Dry 2.wav
128,192,58940,1,0,0:0:0:50:Hat Dry 2.wav
298,192,59034,1,0,0:0:0:50:Hat Dry 2.wav
213,192,59127,1,0,0:0:0:50:Hat Dry 2.wav
469,192,59221,1,0,0:0:0:50:Hat Dry 2.wav
384,192,59315,1,0,0:0:0:50:Hat Dry 2.wav
42,192,59409,1,0,0:0:0:50:Hat Dry 2.wav
213,192,59471,1,0,0:0:0:50:Hat Dry 2.wav
469,192,59534,1,0,0:0:0:50:Hat Dry 2.wav
298,192,59596,1,0,0:0:0:50:Hat Dry 2.wav
42,192,59659,1,0,0:0:0:50:Hat Dry 2.wav
213,192,59721,1,0,0:0:0:50:Hat Dry 2.wav
469,192,59784,1,0,0:0:0:50:Hat Dry 2.wav
384,192,59784,1,0,0:0:0:0:
128,192,59877,1,0,0:0:0:50:Hat Dry 2.wav
298,192,59971,1,0,0:0:0:50:Hat Dry 2.wav
213,192,60065,1,0,0:0:0:50:Hat Dry 2.wav
42,192,60159,128,0,63159:0:0:0:0:
128,192,60159,128,0,60721:0:0:0:0:
298,192,60721,128,0,60909:0:0:0:0:
213,192,60909,128,0,61096:0:0:0:0:
384,192,61096,128,0,61284:0:0:0:0:
469,192,61284,128,0,61471:0:0:0:0:
298,192,61471,128,0,61846:0:0:0:0:
213,192,61846,128,0,62034:0:0:0:0:
128,192,62034,128,0,62221:0:0:0:0:
469,192,62221,128,0,62409:0:0:0:0:
298,192,62409,128,0,62596:0:0:0:70:Clap1.wav
384,192,62596,128,0,62784:0:0:0:50:Hat Dry 2.wav
213,192,62784,128,0,63159:0:0:0:50:Hat Dry 2.wav
128,192,63159,128,0,63534:0:0:0:0:
469,192,63159,128,0,66159:0:0:0:0:
384,192,63721,128,0,63909:0:0:0:0:
298,192,63909,128,0,64096:0:0:0:0:
128,192,64096,128,0,64284:0:0:0:0:
213,192,64284,128,0,64471:0:0:0:0:
298,192,64471,128,0,64846:0:0:0:0:
128,192,64846,128,0,65034:0:0:0:50:Hat Dry 2.wav
213,192,65034,128,0,65221:0:0:0:50:Hat Dry 2.wav
42,192,65221,128,0,65409:0:0:0:70:Clap1.wav
298,192,65409,128,0,65596:0:0:0:50:Hat Dry 2.wav
213,192,65596,128,0,65784:0:0:0:50:Hat Dry 2.wav
384,192,65784,128,0,66159:0:0:0:70:Clap1.wav
128,192,66159,128,0,69159:0:0:0:0:
213,192,66159,128,0,66534:0:0:0:0:
384,192,66721,128,0,66909:0:0:0:0:
298,192,66909,128,0,67096:0:0:0:0:
469,192,67096,128,0,67284:0:0:0:0:
42,192,67284,128,0,67471:0:0:0:0:
213,192,67471,128,0,67846:0:0:0:0:
384,192,67846,128,0,68034:0:0:0:0:
298,192,68034,128,0,68221:0:0:0:0:
469,192,68221,128,0,68409:0:0:0:0:
213,192,68409,128,0,68596:0:0:0:0:
384,192,68596,128,0,68784:0:0:0:0:
42,192,68784,128,0,69159:0:0:0:50:Hat Dry 2.wav
298,192,69159,128,0,69346:0:0:0:0:
384,192,69159,128,0,70284:0:0:0:0:
128,192,69346,128,0,69534:0:0:0:0:
213,192,69534,128,0,69721:0:0:0:0:
42,192,69721,128,0,69909:0:0:0:0:
128,192,69909,128,0,70096:0:0:0:0:
213,192,70096,128,0,70284:0:0:0:0:
298,192,70284,128,0,71409:0:0:0:0:
448,192,70284,128,0,70940:0:0:0:0:
42,192,70940,128,0,71034:0:0:0:60:Hat Dry 1.wav
128,192,71034,128,0,71221:0:0:0:60:Hat Dry 1.wav
213,192,71221,128,0,71409:0:0:0:60:Hat Dry 1.wav
42,192,71409,128,0,71596:0:0:0:60:Hat Dry 1.wav
448,192,71409,128,0,72159:0:0:0:0:
384,192,71596,128,0,71784:0:0:0:60:Hat Dry 1.wav
128,192,71784,128,0,71971:0:0:0:60:Hat Dry 1.wav
298,192,71971,128,0,72159:0:0:0:60:Hat Dry 1.wav
42,192,72159,1,0,0:0:0:80:Cymbals.wav
213,192,72159,1,0,0:0:0:0:
298,192,72346,1,0,0:0:0:0:
42,192,72534,1,0,0:0:0:0:
298,192,72721,1,0,0:0:0:0:
42,192,72909,1,0,0:0:0:0:
298,192,73096,1,0,0:0:0:0:
128,192,73284,1,0,0:0:0:0:
384,192,73471,1,0,0:0:0:0:
128,192,73659,1,0,0:0:0:0:
384,192,73846,1,0,0:0:0:0:
128,192,74034,1,0,0:0:0:0:
384,192,74221,1,0,0:0:0:0:
128,192,74409,1,0,0:0:0:0:
384,192,74596,1,0,0:0:0:0:
128,192,74784,1,0,0:0:0:0:
384,192,74971,1,0,0:0:0:0:
213,192,75159,1,0,0:0:0:0:
469,192,75346,1,0,0:0:0:0:
213,192,75534,1,0,0:0:0:0:
469,192,75721,1,0,0:0:0:0:
213,192,75909,1,0,0:0:0:0:
469,192,76096,1,0,0:0:0:0:
213,192,76284,1,0,0:0:0:0:
469,192,76471,1,0,0:0:0:0:
213,192,76659,1,0,0:0:0:0:
469,192,76846,1,0,0:0:0:0:
213,192,77034,1,0,0:0:0:0:
469,192,77221,1,0,0:0:0:0:
128,192,77409,1,0,0:0:0:0:
298,192,77596,1,0,0:0:0:0:
128,192,77784,1,0,0:0:0:0:
384,192,77971,1,0,0:0:0:0:
42,192,78159,1,0,0:0:0:0:
213,192,78159,128,0,79284:0:0:0:0:
298,192,78346,1,0,0:0:0:0:
384,192,78534,1,0,0:0:0:0:
469,192,78721,1,0,0:0:0:0:
298,192,79284,128,0,80409:0:0:0:0:
42,192,80409,128,0,81159:0:0:0:0:
128,192,80409,1,0,0:0:0:0:
384,192,80596,1,0,0:0:0:0:
298,192,80784,1,0,0:0:0:0:
213,192,80971,1,0,0:0:0:0:
384,192,81159,128,0,81346:0:0:0:0:
469,192,81159,128,0,81909:0:0:0:0:
298,192,81346,128,0,81534:0:0:0:0:
42,192,81534,128,0,81815:0:0:0:0:
128,192,81909,1,0,0:0:0:0:
298,192,81909,128,0,82659:0:0:0:0:
213,192,82002,1,0,0:0:0:0:
469,192,82096,128,0,82284:0:0:0:0:
128,192,82284,128,0,82471:0:0:0:0:
213,192,82471,128,0,82659:0:0:0:0:
42,192,82659,128,0,83409:0:0:0:0:
469,192,82659,1,0,0:0:0:0:
384,192,82752,1,0,0:0:0:0:
298,192,82846,1,0,0:0:0:0:
213,192,82940,1,0,0:0:0:0:
128,192,83034,128,0,83221:0:0:0:0:
298,192,83221,128,0,83409:0:0:0:0:
213,192,83409,128,0,83596:0:0:0:0:
469,192,83409,128,0,84159:0:0:0:0:
128,192,83596,128,0,83784:0:0:0:0:
384,192,83784,128,0,83971:0:0:0:0:
128,192,83971,1,0,0:0:0:0:
213,192,84065,1,0,0:0:0:0:
42,192,84159,128,0,85284:0:0:0:0:
298,192,84159,128,0,84534:0:0:0:0:
128,192,84534,1,0,0:0:0:0:
469,192,84909,128,0,85096:0:0:0:0:
384,192,85096,128,0,85284:0:0:0:0:
128,192,85284,128,0,85471:0:0:0:0:
213,192,85284,128,0,86409:0:0:0:0:
298,192,85284,1,0,0:0:0:0:
469,192,85471,128,0,85846:0:0:0:0:
384,192,85846,128,0,86221:0:0:0:0:
128,192,86034,1,0,0:0:0:0:
298,192,86221,128,0,86596:0:0:0:0:
42,192,86409,128,0,87159:0:0:0:0:
128,192,86596,1,0,0:0:0:0:
384,192,86784,1,0,0:0:0:0:
213,192,86971,1,0,0:0:0:0:
384,192,87159,128,0,87346:0:0:0:0:
469,192,87159,128,0,88659:0:0:0:0:
213,192,87346,128,0,87534:0:0:0:0:
42,192,87534,128,0,87721:0:0:0:0:
298,192,87721,128,0,88096:0:0:0:0:
384,192,87721,1,0,0:0:0:0:
128,192,88096,128,0,88284:0:0:0:0:
384,192,88284,1,0,0:0:0:0:
42,192,88471,1,0,0:0:0:0:
213,192,88471,128,0,88659:0:0:0:0:
298,192,88659,128,0,88846:0:0:0:0:
384,192,88659,128,0,90159:0:0:0:0:
128,192,88846,128,0,89034:0:0:0:0:
213,192,89034,128,0,89221:0:0:0:0:
469,192,89034,1,0,0:0:0:0:
42,192,89221,128,0,89409:0:0:0:0:
128,192,89409,128,0,89596:0:0:0:0:
298,192,89596,128,0,89784:0:0:0:0:
213,192,89784,1,0,0:0:0:0:
469,192,89784,128,0,90159:0:0:0:0:
42,192,90159,128,0,92409:0:0:0:90:Clap.wav
128,192,90159,1,0,0:0:0:0:
213,192,90159,1,0,0:0:0:0:
128,192,90534,1,0,0:0:0:90:Clap.wav
213,192,90534,1,0,0:0:0:0:
128,192,90909,1,0,0:0:0:90:Clap.wav
213,192,90909,1,0,0:0:0:0:
128,192,91284,1,0,0:0:0:90:Clap.wav
213,192,91284,1,0,0:0:0:0:
128,192,91659,1,0,0:0:0:90:Clap.wav
213,192,91659,1,0,0:0:0:0:
128,192,92034,1,0,0:0:0:90:Clap.wav
213,192,92034,1,0,0:0:0:0:
128,192,92409,1,0,0:0:0:90:Clap.wav
213,192,92409,1,0,0:0:0:0:
469,192,92409,128,0,94659:0:0:0:0:
128,192,92784,1,0,0:0:0:90:Clap.wav
213,192,92784,1,0,0:0:0:0:
213,192,92971,1,0,0:0:0:90:Clap.wav
298,192,92971,1,0,0:0:0:0:
298,192,93159,1,0,0:0:0:90:Clap.wav
384,192,93159,1,0,0:0:0:0:
298,192,93534,1,0,0:0:0:90:Clap.wav
384,192,93534,1,0,0:0:0:0:
298,192,93909,1,0,0:0:0:90:Clap.wav
384,192,93909,1,0,0:0:0:0:
298,192,94284,1,0,0:0:0:90:Clap.wav
384,192,94284,1,0,0:0:0:0:
298,192,94659,1,0,0:0:0:60:Kick 4.wav
213,192,94721,1,0,0:0:0:0:
128,192,94784,1,0,0:0:0:0:
42,192,94846,128,0,95034:0:0:0:0:
384,192,94940,1,0,0:0:0:0:
213,192,95034,128,0,95409:0:0:0:0:
298,192,95127,1,0,0:0:0:0:
128,192,95221,1,0,0:0:0:0:
384,192,95315,1,0,0:0:0:0:
320,192,95409,128,0,95784:0:0:0:0:
213,192,95502,1,0,0:0:0:0:
128,192,95596,1,0,0:0:0:0:
42,192,95690,1,0,0:0:0:0:
469,192,95784,128,0,96159:0:0:0:0:
298,192,95877,1,0,0:0:0:0:
128,192,95971,1,0,0:0:0:0:
213,192,96065,1,0,0:0:0:0:
64,192,96159,128,0,96346:0:0:0:65:Kick 3.wav
384,192,96159,128,0,96346:0:0:0:0:
298,192,96534,128,0,96721:0:0:0:65:Kick 3.wav
469,192,96534,128,0,96721:0:0:0:0:
42,192,96909,128,0,97096:0:0:0:65:Kick 3.wav
128,192,96909,128,0,97096:0:0:0:0:
384,192,97190,128,0,97471:0:0:0:65:Kick 3.wav
469,192,97190,1,0,0:0:0:0:
128,192,97284,128,0,97471:0:0:0:0:
213,192,97471,1,0,0:0:0:65:Kick 3.wav
298,192,97471,1,0,0:0:0:0:
384,192,97565,1,0,0:0:0:0:
42,192,97659,1,0,0:0:0:65:Kick 3.wav
128,192,97721,1,0,0:0:0:0:
213,192,97784,1,0,0:0:0:0:
298,192,97846,1,0,0:0:0:70:Clap1.wav
469,192,97846,1,0,0:0:0:0:
128,192,98034,128,0,98127:0:0:0:0:
469,192,98127,128,0,98221:0:0:0:0:
384,192,98221,128,0,98315:0:0:0:0:
298,192,98315,128,0,98409:0:0:0:0:
42,192,98409,128,0,99159:0:0:0:90:Clap.wav
128,192,98409,1,0,0:0:0:0:
213,192,98409,1,0,0:0:0:0:
469,192,98596,128,0,98784:0:0:0:0:
298,192,98784,128,0,98971:0:0:0:0:
128,192,98971,1,0,0:0:0:65:Kick 3.wav
384,192,98971,1,0,0:0:0:0:
128,192,99159,128,0,99815:0:0:0:65:Kick 3.wav
298,192,99159,128,0,99815:0:0:0:80:Cymbals.wav
384,192,99159,128,0,99815:0:0:0:0:
128,192,99909,1,0,0:0:0:90:Clap.wav
320,192,99909,1,0,0:0:0:0:
469,192,99909,1,0,0:0:0:0:
64,192,100096,1,0,0:0:0:65:Kick 3.wav
384,192,100096,1,0,0:0:0:0:
128,192,100284,128,0,100752:0:0:0:65:Kick 3.wav
213,192,100284,128,0,100752:0:0:0:80:Cymbals.wav
384,192,100284,128,0,100752:0:0:0:0:
128,192,100846,1,0,0:0:0:90:Clap.wav
298,192,100846,1,0,0:0:0:0:
384,192,100846,1,0,0:0:0:0:
213,192,101034,1,0,0:0:0:0:
298,192,101221,1,0,0:0:0:65:Kick 3.wav
469,192,101221,1,0,0:0:0:0:
42,192,101409,1,0,0:0:0:80:Cymbals.wav
128,192,101409,1,0,0:0:0:90:Clap.wav
213,192,101409,1,0,0:0:0:0:
128,192,101784,1,0,0:0:0:65:Kick 3.wav
384,192,101784,1,0,0:0:0:0:
42,192,102159,1,0,0:0:0:65:Kick 3.wav
298,192,102159,1,0,0:0:0:80:Cymbals.wav
469,192,102346,1,0,0:0:0:0:
213,192,102369,1,0,0:0:0:0:
469,192,102534,1,0,0:0:0:0:
213,192,102557,1,0,0:0:0:0:
469,192,102721,1,0,0:0:0:0:
213,192,102744,1,0,0:0:0:0:
469,192,102909,1,0,0:0:0:100:Clap.wav
213,192,102932,1,0,0:0:0:0:
42,192,103096,1,0,0:0:0:65:Kick 3.wav
298,192,103096,1,0,0:0:0:0:
384,192,103284,1,0,0:0:0:65:Kick 3.wav
469,192,103284,1,0,0:0:0:0:
128,192,103471,1,0,0:0:0:100:Clap.wav
298,192,103494,1,0,0:0:0:0:
128,192,103659,1,0,0:0:0:0:
298,192,103682,1,0,0:0:0:0:
128,192,103846,1,0,0:0:0:0:
298,192,103869,1,0,0:0:0:0:
128,192,104034,1,0,0:0:0:0:
298,192,104057,1,0,0:0:0:0:
42,192,104221,1,0,0:0:0:65:Kick 3.wav
213,192,104221,1,0,0:0:0:0:
298,192,104409,1,0,0:0:0:100:Clap.wav
469,192,104432,1,0,0:0:0:0:
298,192,104596,1,0,0:0:0:0:
469,192,104619,1,0,0:0:0:0:
298,192,104784,1,0,0:0:0:0:
469,192,104807,1,0,0:0:0:0:
298,192,104971,1,0,0:0:0:0:
469,192,104994,1,0,0:0:0:0:
42,192,105159,1,0,0:0:0:65:Kick 3.wav
213,192,105159,1,0,0:0:0:0:
384,192,105346,1,0,0:0:0:0:
128,192,105369,1,0,0:0:0:0:
384,192,105534,1,0,0:0:0:0:
128,192,105557,1,0,0:0:0:0:
213,192,105721,1,0,0:0:0:65:Kick 3.wav
448,192,105721,1,0,0:0:0:0:
42,192,105909,1,0,0:0:0:100:Clap.wav
298,192,105932,1,0,0:0:0:0:
42,192,106096,1,0,0:0:0:0:
298,192,106119,1,0,0:0:0:0:
42,192,106284,1,0,0:0:0:0:
298,192,106307,1,0,0:0:0:0:
42,192,106471,1,0,0:0:0:0:
298,192,106494,1,0,0:0:0:0:
384,192,106659,1,0,0:0:0:65:Kick 3.wav
448,192,106659,1,0,0:0:0:0:
213,192,106846,1,0,0:0:0:0:
298,192,106869,1,0,0:0:0:0:
64,192,107034,1,0,0:0:0:65:Kick 3.wav
128,192,107034,1,0,0:0:0:0:
384,192,107221,1,0,0:0:0:0:
213,192,107244,1,0,0:0:0:0:
384,192,107409,1,0,0:0:0:100:Clap.wav
213,192,107432,1,0,0:0:0:0:
42,192,107596,1,0,0:0:0:65:Kick 3.wav
469,192,107596,1,0,0:0:0:0:
128,192,107784,1,0,0:0:0:0:
298,192,107807,1,0,0:0:0:0:
128,192,107971,1,0,0:0:0:0:
298,192,107994,1,0,0:0:0:0:
42,192,108159,128,0,108252:0:0:0:60:Kick 4.wav
469,192,108159,1,0,0:0:0:0:
128,192,108252,128,0,108346:0:0:0:0:
213,192,108346,128,0,108440:0:0:0:0:
384,192,108440,128,0,108534:0:0:0:0:
298,192,108534,128,0,108627:0:0:0:0:
128,192,108721,128,0,108815:0:0:0:0:
64,192,108909,1,0,0:0:0:100:Clap.wav
213,192,108909,128,0,109002:0:0:0:0:
384,192,108909,1,0,0:0:0:0:
469,192,109096,128,0,109190:0:0:0:0:
213,192,109284,1,0,0:0:0:60:Kick 4.wav
298,192,109284,128,0,109377:0:0:0:0:
42,192,109471,1,0,0:0:0:0:
213,192,109565,1,0,0:0:0:0:
469,192,109659,128,0,109752:0:0:0:0:
384,192,109752,128,0,109846:0:0:0:0:
298,192,109846,128,0,109940:0:0:0:60:Kick 4.wav
128,192,109940,128,0,110034:0:0:0:0:
213,192,110034,128,0,110127:0:0:0:60:Kick 4.wav
469,192,110034,1,0,0:0:0:0:
298,192,110221,128,0,110315:0:0:0:0:
42,192,110409,128,0,110502:0:0:0:100:Clap.wav
384,192,110409,1,0,0:0:0:0:
469,192,110409,1,0,0:0:0:0:
213,192,110596,128,0,110690:0:0:0:0:
384,192,110784,1,0,0:0:0:60:Kick 4.wav
469,192,110784,128,0,110877:0:0:0:0:
213,192,110971,1,0,0:0:0:0:
298,192,111065,1,0,0:0:0:0:
42,192,111159,128,0,111252:0:0:0:60:Kick 4.wav
469,192,111159,1,0,0:0:0:0:
128,192,111252,128,0,111346:0:0:0:0:
213,192,111346,128,0,111440:0:0:0:0:
384,192,111440,128,0,111534:0:0:0:0:
298,192,111534,128,0,111627:0:0:0:0:
42,192,111721,1,0,0:0:0:60:Kick 4.wav
213,192,111721,128,0,111815:0:0:0:0:
298,192,111909,1,0,0:0:0:100:Clap.wav
384,192,111909,1,0,0:0:0:0:
469,192,111909,128,0,112002:0:0:0:0:
213,192,112096,128,0,112190:0:0:0:0:
64,192,112284,128,0,112377:0:0:0:60:Kick 4.wav
298,192,112284,1,0,0:0:0:0:
469,192,112471,128,0,112565:0:0:0:0:
42,192,112659,128,0,112846:0:0:0:60:Kick 4.wav
213,192,112659,1,0,0:0:0:0:
298,192,112846,128,0,113034:0:0:0:0:
42,192,113034,128,0,113221:0:0:0:60:Kick 4.wav
469,192,113034,1,0,0:0:0:0:
298,192,113221,128,0,113409:0:0:0:0:
128,192,113409,1,0,0:0:0:100:Clap.wav
384,192,113409,1,0,0:0:0:0:
469,192,113409,1,0,0:0:0:0:
42,192,113596,128,0,113690:0:0:0:60:Kick 4.wav
213,192,113596,1,0,0:0:0:0:
384,192,113784,128,0,113877:0:0:0:0:
128,192,113971,128,0,114065:0:0:0:0:
42,192,114159,1,0,0:0:0:60:Kick 4.wav
469,192,114159,128,0,114252:0:0:0:0:
384,192,114252,128,0,114346:0:0:0:0:
298,192,114346,128,0,114440:0:0:0:0:
128,192,114440,128,0,114534:0:0:0:0:
213,192,114534,128,0,114627:0:0:0:60:Kick 4.wav
384,192,114534,1,0,0:0:0:0:
298,192,114721,128,0,114815:0:0:0:0:
64,192,114909,128,0,115002:0:0:0:100:Clap.wav
213,192,114909,1,0,0:0:0:0:
448,192,114909,1,0,0:0:0:0:
298,192,115096,1,0,0:0:0:60:Kick 4.wav
384,192,115096,128,0,115190:0:0:0:0:
128,192,115284,128,0,115377:0:0:0:0:
384,192,115471,1,0,0:0:0:60:Kick 4.wav
469,192,115471,1,0,0:0:0:0:
298,192,115565,1,0,0:0:0:0:
42,192,115659,128,0,115752:0:0:0:0:
128,192,115752,128,0,115846:0:0:0:0:
213,192,115846,128,0,115940:0:0:0:60:Kick 4.wav
469,192,115846,1,0,0:0:0:0:
384,192,115940,128,0,116034:0:0:0:0:
298,192,116034,128,0,116127:0:0:0:0:
128,192,116221,128,0,116315:0:0:0:60:Kick 4.wav
384,192,116221,1,0,0:0:0:0:
42,192,116409,1,0,0:0:0:100:Clap.wav
298,192,116409,128,0,116502:0:0:0:0:
469,192,116409,1,0,0:0:0:0:
213,192,116596,128,0,116690:0:0:0:60:Kick 4.wav
384,192,116596,1,0,0:0:0:0:
298,192,116784,128,0,116877:0:0:0:0:
42,192,116971,1,0,0:0:0:0:
128,192,117065,1,0,0:0:0:0:
213,192,117159,1,0,0:0:0:60:Kick 4.wav
469,192,117159,128,0,117252:0:0:0:0:
384,192,117252,128,0,117346:0:0:0:0:
298,192,117346,128,0,117440:0:0:0:0:
128,192,117440,128,0,117534:0:0:0:0:
42,192,117534,128,0,117627:0:0:0:60:Kick 4.wav
448,192,117534,1,0,0:0:0:0:
213,192,117721,128,0,117815:0:0:0:0:
384,192,117909,1,0,0:0:0:60:Kick 4.wav
469,192,117909,128,0,118002:0:0:0:0:
298,192,118096,128,0,118190:0:0:0:0:
42,192,118284,1,0,0:0:0:60:Kick 4.wav
128,192,118284,128,0,118377:0:0:0:0:
384,192,118471,128,0,118565:0:0:0:0:
42,192,118659,128,0,118752:0:0:0:60:Kick 4.wav
128,192,118659,1,0,0:0:0:0:
213,192,118659,1,0,0:0:0:0:
298,192,118846,1,0,0:0:0:60:Kick 4.wav
384,192,118846,1,0,0:0:0:0:
469,192,118846,128,0,118940:0:0:0:0:
42,192,119034,128,0,119127:0:0:0:60:Kick 4.wav
128,192,119034,1,0,0:0:0:0:
213,192,119034,1,0,0:0:0:0:
298,192,119221,1,0,0:0:0:60:Kick 4.wav
384,192,119221,1,0,0:0:0:0:
469,192,119221,128,0,119315:0:0:0:0:
128,192,119409,1,0,0:0:0:60:Kick 4.wav
384,192,119502,1,0,0:0:0:60:Kick 4.wav
213,192,119596,1,0,0:0:0:60:Kick 4.wav
298,192,119690,1,0,0:0:0:60:Kick 4.wav
42,192,119784,128,0,120159:0:0:0:0:
128,192,119784,1,0,0:0:0:0:
469,192,119971,128,0,120159:0:0:0:0:
213,192,120159,128,0,120252:0:0:0:65:Kick 3.wav
384,192,120534,128,0,120627:0:0:0:65:Kick 3.wav
128,192,120909,128,0,121002:0:0:0:65:Kick 3.wav
384,192,121284,128,0,121377:0:0:0:0:
384,192,121659,128,0,121752:0:0:0:65:Kick 3.wav
384,192,122034,128,0,122127:0:0:0:65:Kick 3.wav
128,192,122409,128,0,122502:0:0:0:65:Kick 3.wav
298,192,122596,128,0,122690:0:0:0:0:
42,192,122784,1,0,0:0:0:0:
384,192,122784,128,0,122877:0:0:0:0:
213,192,122877,1,0,0:0:0:0:
298,192,122971,1,0,0:0:0:65:Kick 3.wav
469,192,123065,1,0,0:0:0:0:
213,192,123159,128,0,123252:0:0:0:75:Kick 2.wav
384,192,123534,128,0,123627:0:0:0:75:Kick 2.wav
384,192,123909,128,0,124002:0:0:0:75:Kick 2.wav
213,192,124096,128,0,124190:0:0:0:0:
298,192,124190,128,0,124284:0:0:0:75:Kick 2.wav
42,192,124284,128,0,124471:0:0:0:0:
384,192,124659,128,0,124752:0:0:0:60:Kick 4.wav
384,192,125034,128,0,125127:0:0:0:60:Kick 4.wav
42,192,125409,128,0,125502:0:0:0:75:Kick 2.wav
298,192,125409,1,0,0:0:0:0:
213,192,125502,1,0,0:0:0:0:
128,192,125596,1,0,0:0:0:0:
42,192,125690,1,0,0:0:0:75:Kick 2.wav
213,192,125784,1,0,0:0:0:0:
469,192,125784,128,0,125877:0:0:0:0:
298,192,125877,1,0,0:0:0:0:
384,192,125971,1,0,0:0:0:75:Kick 2.wav
469,192,126065,1,0,0:0:0:60:Hat Dry 1.wav
42,192,126159,128,0,126440:0:0:0:85:Kick 1.wav
213,192,126159,128,0,126252:0:0:0:70:Clap1.wav
298,192,126346,1,0,0:0:0:0:
384,192,126534,128,0,126627:0:0:0:85:Kick 1.wav
128,192,126721,1,0,0:0:0:0:
298,192,126909,128,0,127002:0:0:0:85:Kick 1.wav
213,192,127096,1,0,0:0:0:60:Hat Dry 1.wav
128,192,127190,1,0,0:0:0:85:Kick 1.wav
42,192,127284,128,0,127471:0:0:0:70:Clap1.wav
384,192,127284,128,0,127377:0:0:0:0:
298,192,127471,1,0,0:0:0:85:Kick 1.wav
128,192,127659,128,0,127752:0:0:0:85:Kick 1.wav
469,192,127846,1,0,0:0:0:0:
42,192,128034,128,0,128127:0:0:0:85:Kick 1.wav
298,192,128221,1,0,0:0:0:0:
128,192,128409,128,0,128502:0:0:0:85:Kick 1.wav
469,192,128409,128,0,128596:0:0:0:70:Clap1.wav
298,192,128596,1,0,0:0:0:0:
213,192,128690,1,0,0:0:0:75:Kick 2.wav
42,192,128784,1,0,0:0:0:0:
384,192,128784,128,0,128877:0:0:0:0:
128,192,128877,1,0,0:0:0:0:
213,192,128971,1,0,0:0:0:75:Kick 2.wav
298,192,129065,1,0,0:0:0:0:
42,192,129159,128,0,129252:0:0:0:65:Kick 3.wav
469,192,129159,128,0,129346:0:0:0:70:Clap1.wav
213,192,129346,1,0,0:0:0:0:
384,192,129534,128,0,129627:0:0:0:65:Kick 3.wav
42,192,129721,1,0,0:0:0:0:
213,192,129909,128,0,130002:0:0:0:65:Kick 3.wav
469,192,130096,1,0,0:0:0:60:Hat Dry 1.wav
384,192,130190,1,0,0:0:0:65:Kick 3.wav
128,192,130284,128,0,130471:0:0:0:70:Clap1.wav
298,192,130284,128,0,130377:0:0:0:0:
213,192,130471,1,0,0:0:0:65:Kick 3.wav
64,192,130659,1,0,0:0:0:0:
213,192,130752,1,0,0:0:0:0:
469,192,130846,1,0,0:0:0:0:
384,192,130940,1,0,0:0:0:0:
42,192,131034,1,0,0:0:0:0:
128,192,131127,1,0,0:0:0:0:
384,192,131221,1,0,0:0:0:0:
213,192,131315,1,0,0:0:0:0:
469,192,131409,1,0,0:0:0:0:
42,192,131502,1,0,0:0:0:0:
298,192,131596,1,0,0:0:0:0:
213,192,131690,1,0,0:0:0:0:
469,192,131784,1,0,0:0:0:60:Hat Dry 1.wav
298,192,131877,1,0,0:0:0:60:Hat Dry 1.wav
42,192,131971,1,0,0:0:0:60:Hat Dry 1.wav
213,192,132065,1,0,0:0:0:60:Hat Dry 1.wav
298,192,132159,1,0,0:0:0:65:Kick 3.wav
448,192,132159,128,0,132346:0:0:0:0:
213,192,132346,1,0,0:0:0:0:
128,192,132534,1,0,0:0:0:65:Kick 3.wav
384,192,132534,1,0,0:0:0:0:
42,192,132721,128,0,132909:0:0:0:0:
213,192,132721,1,0,0:0:0:0:
298,192,132909,1,0,0:0:0:65:Kick 3.wav
469,192,132909,1,0,0:0:0:0:
128,192,133096,1,0,0:0:0:0:
298,192,133190,1,0,0:0:0:65:Kick 3.wav
42,192,133284,1,0,0:0:0:60:Hat Dry 1.wav
469,192,133284,128,0,133471:0:0:0:0:
213,192,133377,1,0,0:0:0:60:Hat Dry 1.wav
384,192,133471,1,0,0:0:0:65:Kick 3.wav
298,192,133565,1,0,0:0:0:60:Hat Dry 1.wav
42,192,133659,128,0,133846:0:0:0:65:Kick 3.wav
213,192,133659,1,0,0:0:0:0:
384,192,133846,1,0,0:0:0:0:
128,192,134034,1,0,0:0:0:65:Kick 3.wav
298,192,134034,1,0,0:0:0:0:
213,192,134221,128,0,134409:0:0:0:0:
469,192,134221,1,0,0:0:0:0:
42,192,134409,1,0,0:0:0:65:Kick 3.wav
384,192,134409,1,0,0:0:0:0:
213,192,134502,1,0,0:0:0:0:
298,192,134596,1,0,0:0:0:0:
469,192,134690,1,0,0:0:0:65:Kick 3.wav
64,192,134784,128,0,134971:0:0:0:60:Hat Dry 1.wav
213,192,134784,1,0,0:0:0:0:
384,192,134877,1,0,0:0:0:60:Hat Dry 1.wav
128,192,134971,1,0,0:0:0:65:Kick 3.wav
298,192,135065,1,0,0:0:0:60:Hat Dry 1.wav
42,192,135159,1,0,0:0:0:65:Kick 3.wav
448,192,135159,128,0,135346:0:0:0:70:Clap1.wav
213,192,135346,1,0,0:0:0:0:
384,192,135534,1,0,0:0:0:65:Kick 3.wav
469,192,135534,1,0,0:0:0:0:
42,192,135721,128,0,135909:0:0:0:0:
128,192,135721,1,0,0:0:0:0:
298,192,135909,1,0,0:0:0:65:Kick 3.wav
469,192,135909,1,0,0:0:0:0:
213,192,136096,1,0,0:0:0:60:Hat Dry 1.wav
128,192,136190,1,0,0:0:0:65:Kick 3.wav
298,192,136284,1,0,0:0:0:70:Clap1.wav
469,192,136284,128,0,136471:0:0:0:0:
128,192,136471,1,0,0:0:0:65:Kick 3.wav
213,192,136565,1,0,0:0:0:0:
384,192,136659,128,0,136846:0:0:0:65:Kick 3.wav
469,192,136659,1,0,0:0:0:0:
42,192,136846,1,0,0:0:0:0:
213,192,137034,1,0,0:0:0:65:Kick 3.wav
384,192,137034,1,0,0:0:0:0:
128,192,137221,128,0,137409:0:0:0:0:
298,192,137221,1,0,0:0:0:0:
42,192,137409,1,0,0:0:0:65:Kick 3.wav
469,192,137409,1,0,0:0:0:0:
298,192,137596,1,0,0:0:0:0:
42,192,137690,1,0,0:0:0:65:Kick 3.wav
128,192,137690,1,0,0:0:0:0:
384,192,137784,1,0,0:0:0:60:Hat Dry 1.wav
298,192,137877,1,0,0:0:0:60:Hat Dry 1.wav
213,192,137971,1,0,0:0:0:65:Kick 3.wav
128,192,138065,1,0,0:0:0:60:Hat Dry 1.wav
384,192,138159,1,0,0:0:0:60:Kick 4.wav
448,192,138159,1,0,0:0:0:70:Clap1.wav
298,192,138252,1,0,0:0:0:0:
42,192,138346,1,0,0:0:0:0:
213,192,138440,1,0,0:0:0:0:
320,192,138534,1,0,0:0:0:60:Kick 4.wav
384,192,138627,1,0,0:0:0:0:
64,192,138721,1,0,0:0:0:0:
128,192,138815,1,0,0:0:0:0:
384,192,138909,1,0,0:0:0:60:Kick 4.wav
298,192,139002,1,0,0:0:0:0:
128,192,139096,1,0,0:0:0:0:
213,192,139190,1,0,0:0:0:60:Kick 4.wav
469,192,139284,1,0,0:0:0:0:
384,192,139377,1,0,0:0:0:0:
213,192,139471,1,0,0:0:0:60:Kick 4.wav
128,192,139565,1,0,0:0:0:0:
469,192,139659,1,0,0:0:0:60:Kick 4.wav
384,192,139752,1,0,0:0:0:0:
42,192,139846,1,0,0:0:0:0:
128,192,139940,1,0,0:0:0:0:
469,192,140034,1,0,0:0:0:60:Kick 4.wav
298,192,140127,1,0,0:0:0:0:
42,192,140221,1,0,0:0:0:0:
213,192,140315,1,0,0:0:0:0:
384,192,140409,1,0,0:0:0:60:Kick 4.wav
128,192,140502,1,0,0:0:0:60:Hat Dry 1.wav
298,192,140596,1,0,0:0:0:60:Hat Dry 1.wav
213,192,140690,1,0,0:0:0:60:Kick 4.wav
384,192,140784,1,0,0:0:0:60:Hat Dry 1.wav
128,192,140877,1,0,0:0:0:60:Hat Dry 1.wav
469,192,140971,1,0,0:0:0:60:Kick 4.wav
42,192,141065,1,0,0:0:0:60:Hat Dry 1.wav
384,192,141159,1,0,0:0:0:60:Kick 4.wav
298,192,141252,1,0,0:0:0:0:
128,192,141346,1,0,0:0:0:0:
213,192,141440,1,0,0:0:0:0:
469,192,141534,1,0,0:0:0:60:Kick 4.wav
298,192,141627,1,0,0:0:0:0:
42,192,141721,1,0,0:0:0:60:Hat Dry 1.wav
213,192,141815,1,0,0:0:0:60:Hat Dry 1.wav
42,192,141909,1,0,0:0:0:65:Kick 3.wav
469,192,142002,1,0,0:0:0:0:
298,192,142096,1,0,0:0:0:0:
128,192,142190,1,0,0:0:0:65:Kick 3.wav
213,192,142284,1,0,0:0:0:0:
298,192,142377,1,0,0:0:0:0:
42,192,142471,1,0,0:0:0:65:Kick 3.wav
213,192,142565,1,0,0:0:0:0:
469,192,142659,1,0,0:0:0:70:Clap1.wav
384,192,142752,1,0,0:0:0:0:
192,192,142846,1,0,0:0:0:0:
128,192,142940,1,0,0:0:0:0:
320,192,143034,1,0,0:0:0:0:
384,192,143127,1,0,0:0:0:0:
128,192,143221,1,0,0:0:0:0:
42,192,143315,1,0,0:0:0:0:
384,192,143409,1,0,0:0:0:0:
448,192,143502,1,0,0:0:0:0:
42,192,143596,1,0,0:0:0:0:
213,192,143690,1,0,0:0:0:0:
469,192,143784,1,0,0:0:0:0:
384,192,143877,1,0,0:0:0:0:
213,192,143971,1,0,0:0:0:75:Kick 2.wav
298,192,144065,1,0,0:0:0:0:
64,192,144159,1,0,0:0:0:65:Kick 3.wav
128,192,144159,1,0,0:0:0:80:Clap1.wav
213,192,144252,1,0,0:0:0:0:
298,192,144346,1,0,0:0:0:0:
384,192,144534,1,0,0:0:0:65:Kick 3.wav
469,192,144534,1,0,0:0:0:0:
128,192,144721,1,0,0:0:0:0:
298,192,144721,1,0,0:0:0:0:
42,192,144909,1,0,0:0:0:65:Kick 3.wav
213,192,144909,1,0,0:0:0:0:
298,192,145096,1,0,0:0:0:0:
384,192,145096,1,0,0:0:0:0:
128,192,145284,1,0,0:0:0:0:
469,192,145284,1,0,0:0:0:0:
192,192,145471,1,0,0:0:0:65:Kick 3.wav
298,192,145471,1,0,0:0:0:0:
42,192,145659,1,0,0:0:0:65:Kick 3.wav
469,192,145659,1,0,0:0:0:0:
128,192,145752,1,0,0:0:0:0:
213,192,145846,1,0,0:0:0:0:
298,192,146034,1,0,0:0:0:65:Kick 3.wav
469,192,146034,1,0,0:0:0:0:
64,192,146221,1,0,0:0:0:0:
128,192,146221,1,0,0:0:0:0:
213,192,146409,1,0,0:0:0:65:Kick 3.wav
448,192,146409,1,0,0:0:0:0:
298,192,146596,1,0,0:0:0:0:
384,192,146596,1,0,0:0:0:0:
42,192,146784,1,0,0:0:0:80:Clap1.wav
128,192,146784,1,0,0:0:0:0:
213,192,146971,1,0,0:0:0:65:Kick 3.wav
469,192,146971,1,0,0:0:0:0:
42,192,147159,1,0,0:0:0:75:Kick 2.wav
384,192,147159,1,0,0:0:0:80:Clap1.wav
298,192,147252,1,0,0:0:0:0:
213,192,147346,1,0,0:0:0:0:
384,192,147440,1,0,0:0:0:0:
64,192,147534,1,0,0:0:0:75:Kick 2.wav
128,192,147534,1,0,0:0:0:0:
469,192,147721,1,0,0:0:0:0:
298,192,147815,1,0,0:0:0:0:
42,192,147909,1,0,0:0:0:75:Kick 2.wav
213,192,147909,1,0,0:0:0:0:
128,192,148096,1,0,0:0:0:0:
384,192,148096,1,0,0:0:0:0:
298,192,148284,1,0,0:0:0:0:
469,192,148284,1,0,0:0:0:0:
128,192,148471,1,0,0:0:0:75:Kick 2.wav
213,192,148471,1,0,0:0:0:0:
42,192,148659,1,0,0:0:0:65:Kick 3.wav
469,192,148659,1,0,0:0:0:0:
213,192,148846,1,0,0:0:0:0:
298,192,148846,1,0,0:0:0:0:
42,192,149034,1,0,0:0:0:65:Kick 3.wav
469,192,149034,1,0,0:0:0:0:
213,192,149221,1,0,0:0:0:0:
298,192,149221,1,0,0:0:0:0:
384,192,149409,1,0,0:0:0:75:Kick 2.wav
469,192,149409,1,0,0:0:0:0:
128,192,149596,1,0,0:0:0:0:
298,192,149596,1,0,0:0:0:0:
213,192,149784,1,0,0:0:0:80:Clap1.wav
384,192,149784,1,0,0:0:0:0:
64,192,149971,1,0,0:0:0:75:Kick 2.wav
128,192,149971,1,0,0:0:0:80:Clap1.wav
298,192,150159,1,0,0:0:0:85:Kick 1.wav
448,192,150159,128,0,150346:0:0:0:80:Clap1.wav
213,192,150252,1,0,0:0:0:0:
128,192,150346,1,0,0:0:0:0:
42,192,150534,1,0,0:0:0:85:Kick 1.wav
213,192,150534,1,0,0:0:0:0:
128,192,150721,1,0,0:0:0:0:
384,192,150721,1,0,0:0:0:0:
298,192,150909,1,0,0:0:0:85:Kick 1.wav
469,192,150909,1,0,0:0:0:0:
42,192,151002,1,0,0:0:0:0:
213,192,151096,1,0,0:0:0:0:
298,192,151190,1,0,0:0:0:85:Kick 1.wav
42,192,151284,128,0,151471:0:0:0:80:Clap1.wav
384,192,151284,1,0,0:0:0:0:
469,192,151284,1,0,0:0:0:0:
128,192,151471,1,0,0:0:0:85:Kick 1.wav
213,192,151471,1,0,0:0:0:0:
384,192,151659,1,0,0:0:0:85:Kick 1.wav
469,192,151659,1,0,0:0:0:0:
298,192,151752,1,0,0:0:0:0:
128,192,151846,1,0,0:0:0:0:
213,192,152034,1,0,0:0:0:85:Kick 1.wav
384,192,152034,1,0,0:0:0:0:
42,192,152221,1,0,0:0:0:0:
469,192,152221,1,0,0:0:0:0:
128,192,152409,128,0,152596:0:0:0:85:Kick 1.wav
213,192,152409,1,0,0:0:0:80:Clap1.wav
384,192,152409,1,0,0:0:0:0:
42,192,152596,1,0,0:0:0:0:
298,192,152596,1,0,0:0:0:0:
128,192,152784,1,0,0:0:0:60:Hat Dry 1.wav
469,192,152784,1,0,0:0:0:0:
298,192,152877,1,0,0:0:0:60:Hat Dry 1.wav
213,192,152971,1,0,0:0:0:75:Kick 2.wav
42,192,153159,1,0,0:0:0:65:Kick 3.wav
469,192,153159,128,0,153346:0:0:0:80:Clap1.wav
128,192,153252,1,0,0:0:0:0:
213,192,153346,1,0,0:0:0:0:
64,192,153534,1,0,0:0:0:65:Kick 3.wav
469,192,153534,1,0,0:0:0:0:
128,192,153721,1,0,0:0:0:0:
384,192,153721,1,0,0:0:0:0:
192,192,153909,1,0,0:0:0:65:Kick 3.wav
298,192,153909,1,0,0:0:0:0:
384,192,154096,1,0,0:0:0:0:
469,192,154096,1,0,0:0:0:0:
64,192,154284,128,0,154471:0:0:0:80:Clap1.wav
128,192,154284,1,0,0:0:0:0:
298,192,154284,1,0,0:0:0:0:
213,192,154471,1,0,0:0:0:65:Kick 3.wav
384,192,154471,1,0,0:0:0:0:
469,192,154659,1,0,0:0:0:60:Hat Dry 1.wav
213,192,154752,1,0,0:0:0:60:Hat Dry 1.wav
298,192,154846,1,0,0:0:0:60:Hat Dry 1.wav
42,192,154940,1,0,0:0:0:60:Hat Dry 1.wav
469,192,155034,1,0,0:0:0:60:Hat Dry 1.wav
213,192,155127,1,0,0:0:0:60:Hat Dry 1.wav
298,192,155221,1,0,0:0:0:60:Hat Dry 1.wav
42,192,155315,1,0,0:0:0:60:Hat Dry 1.wav
384,192,155409,1,0,0:0:0:60:Hat Dry 1.wav
213,192,155502,1,0,0:0:0:60:Hat Dry 1.wav
42,192,155596,1,0,0:0:0:60:Hat Dry 1.wav
469,192,155690,1,0,0:0:0:60:Hat Dry 1.wav
298,192,155784,1,0,0:0:0:80:Clap1.wav
128,192,155877,1,0,0:0:0:60:Hat Dry 1.wav
384,192,155971,1,0,0:0:0:60:Hat Dry 1.wav
213,192,156065,1,0,0:0:0:60:Hat Dry 1.wav
42,192,156159,1,0,0:0:0:65:Kick 3.wav
469,192,156159,1,0,0:0:0:60:Hat Dry 1.wav
298,192,156252,1,0,0:0:0:0:
128,192,156346,1,0,0:0:0:0:
213,192,156534,1,0,0:0:0:65:Kick 3.wav
469,192,156534,1,0,0:0:0:0:
42,192,156627,1,0,0:0:0:0:
298,192,156721,1,0,0:0:0:0:
128,192,156909,1,0,0:0:0:65:Kick 3.wav
469,192,156909,1,0,0:0:0:0:
298,192,157002,1,0,0:0:0:0:
213,192,157096,1,0,0:0:0:0:
42,192,157190,1,0,0:0:0:65:Kick 3.wav
384,192,157284,1,0,0:0:0:0:
469,192,157284,1,0,0:0:0:0:
128,192,157377,1,0,0:0:0:0:
298,192,157471,1,0,0:0:0:65:Kick 3.wav
213,192,157565,1,0,0:0:0:0:
42,192,157659,1,0,0:0:0:65:Kick 3.wav
469,192,157659,1,0,0:0:0:0:
384,192,157752,1,0,0:0:0:0:
213,192,157846,1,0,0:0:0:0:
298,192,158034,1,0,0:0:0:65:Kick 3.wav
469,192,158034,1,0,0:0:0:0:
42,192,158127,1,0,0:0:0:0:
213,192,158221,1,0,0:0:0:0:
42,192,158409,1,0,0:0:0:65:Kick 3.wav
469,192,158409,1,0,0:0:0:0:
298,192,158502,1,0,0:0:0:0:
128,192,158596,1,0,0:0:0:0:
384,192,158690,1,0,0:0:0:65:Kick 3.wav
42,192,158784,1,0,0:0:0:95:Clap.wav
213,192,158784,1,0,0:0:0:0:
42,192,158971,1,0,0:0:0:65:Kick 3.wav
213,192,158971,1,0,0:0:0:95:Clap.wav
128,192,159159,1,0,0:0:0:65:Kick 3.wav
469,192,159159,128,0,159346:0:0:0:80:Clap1.wav
213,192,159252,1,0,0:0:0:0:
298,192,159346,1,0,0:0:0:0:
42,192,159534,1,0,0:0:0:65:Kick 3.wav
384,192,159534,1,0,0:0:0:0:
298,192,159627,1,0,0:0:0:0:
213,192,159721,1,0,0:0:0:0:
128,192,159909,1,0,0:0:0:65:Kick 3.wav
469,192,159909,1,0,0:0:0:0:
298,192,160002,1,0,0:0:0:0:
384,192,160096,1,0,0:0:0:0:
213,192,160190,1,0,0:0:0:65:Kick 3.wav
42,192,160284,128,0,160471:0:0:0:80:Clap1.wav
128,192,160284,1,0,0:0:0:0:
469,192,160377,1,0,0:0:0:0:
384,192,160471,1,0,0:0:0:65:Kick 3.wav
298,192,160565,1,0,0:0:0:0:
42,192,160659,1,0,0:0:0:65:Kick 3.wav
469,192,160659,1,0,0:0:0:0:
213,192,160752,1,0,0:0:0:0:
298,192,160846,1,0,0:0:0:0:
128,192,161034,1,0,0:0:0:65:Kick 3.wav
384,192,161034,1,0,0:0:0:0:
298,192,161127,1,0,0:0:0:0:
213,192,161221,1,0,0:0:0:0:
42,192,161315,1,0,0:0:0:0:
384,192,161409,1,0,0:0:0:65:Kick 3.wav
469,192,161409,1,0,0:0:0:0:
128,192,161502,1,0,0:0:0:0:
298,192,161596,1,0,0:0:0:0:
213,192,161690,1,0,0:0:0:65:Kick 3.wav
42,192,161784,1,0,0:0:0:60:Hat Dry 1.wav
469,192,161784,1,0,0:0:0:0:
213,192,161877,1,0,0:0:0:60:Hat Dry 1.wav
298,192,161971,1,0,0:0:0:65:Kick 3.wav
469,192,162065,1,0,0:0:0:60:Hat Dry 1.wav
42,192,162159,128,0,162346:0:0:0:75:Kick 2.wav
128,192,162159,1,0,0:0:0:80:Clap1.wav
384,192,162252,1,0,0:0:0:0:
298,192,162346,1,0,0:0:0:0:
128,192,162534,1,0,0:0:0:75:Kick 2.wav
469,192,162534,1,0,0:0:0:0:
213,192,162627,1,0,0:0:0:0:
298,192,162721,1,0,0:0:0:0:
42,192,162909,1,0,0:0:0:75:Kick 2.wav
469,192,162909,1,0,0:0:0:0:
128,192,163002,1,0,0:0:0:0:
384,192,163096,1,0,0:0:0:0:
298,192,163190,1,0,0:0:0:75:Kick 2.wav
128,192,163284,128,0,163471:0:0:0:80:Clap1.wav
469,192,163377,1,0,0:0:0:0:
213,192,163471,1,0,0:0:0:75:Kick 2.wav
298,192,163565,1,0,0:0:0:0:
42,192,163659,1,0,0:0:0:75:Kick 2.wav
469,192,163659,1,0,0:0:0:0:
128,192,163752,1,0,0:0:0:0:
384,192,163846,1,0,0:0:0:0:
213,192,164034,1,0,0:0:0:75:Kick 2.wav
469,192,164034,1,0,0:0:0:0:
298,192,164127,1,0,0:0:0:0:
128,192,164221,1,0,0:0:0:0:
42,192,164409,1,0,0:0:0:75:Kick 2.wav
384,192,164409,1,0,0:0:0:0:
298,192,164502,1,0,0:0:0:0:
128,192,164596,1,0,0:0:0:0:
213,192,164690,1,0,0:0:0:75:Kick 2.wav
384,192,164784,1,0,0:0:0:60:Hat Dry 1.wav
469,192,164784,1,0,0:0:0:0:
298,192,164877,1,0,0:0:0:60:Hat Dry 1.wav
128,192,164971,1,0,0:0:0:75:Kick 2.wav
42,192,165065,1,0,0:0:0:60:Hat Dry 1.wav
384,192,165159,1,0,0:0:0:85:Kick 1.wav
469,192,165159,128,0,165346:0:0:0:80:Clap1.wav
213,192,165252,1,0,0:0:0:0:
298,192,165346,1,0,0:0:0:0:
128,192,165534,1,0,0:0:0:85:Kick 1.wav
213,192,165534,1,0,0:0:0:0:
384,192,165627,1,0,0:0:0:0:
42,192,165721,128,0,165909:0:0:0:80:Clap1.wav
128,192,165909,1,0,0:0:0:85:Kick 1.wav
469,192,165909,1,0,0:0:0:0:
298,192,166002,1,0,0:0:0:0:
213,192,166096,1,0,0:0:0:0:
298,192,166190,1,0,0:0:0:85:Kick 1.wav
42,192,166284,1,0,0:0:0:80:Clap1.wav
469,192,166284,128,0,166471:0:0:0:0:
128,192,166377,1,0,0:0:0:0:
384,192,166471,1,0,0:0:0:85:Kick 1.wav
298,192,166565,1,0,0:0:0:0:
42,192,166659,1,0,0:0:0:0:
469,192,166659,1,0,0:0:0:0:
128,192,166752,1,0,0:0:0:0:
213,192,166846,1,0,0:0:0:0:
42,192,167034,1,0,0:0:0:0:
469,192,167034,1,0,0:0:0:0:
384,192,167127,1,0,0:0:0:0:
298,192,167221,1,0,0:0:0:0:
128,192,167409,128,0,167596:0:0:0:80:Clap1.wav
213,192,167409,1,0,0:0:0:0:
384,192,167502,1,0,0:0:0:0:
42,192,167596,1,0,0:0:0:0:
469,192,167690,1,0,0:0:0:0:
128,192,167784,1,0,0:0:0:0:
384,192,167784,1,0,0:0:0:0:
298,192,167877,1,0,0:0:0:0:
42,192,167971,1,0,0:0:0:65:Kick 3.wav
213,192,168065,1,0,0:0:0:0:
298,192,168159,1,0,0:0:0:65:Kick 3.wav
384,192,168159,128,0,168721:0:0:0:0:
213,192,168721,128,0,168909:0:0:0:0:
298,192,168909,128,0,169096:0:0:0:0:
128,192,169096,128,0,169284:0:0:0:0:
469,192,169284,128,0,169471:0:0:0:0:
42,192,169471,128,0,169846:0:0:0:0:
213,192,169846,128,0,170034:0:0:0:0:
384,192,170034,128,0,170221:0:0:0:0:
298,192,170221,128,0,170409:0:0:0:0:
213,192,170409,128,0,170596:0:0:0:0:
384,192,170596,128,0,170784:0:0:0:0:
128,192,170784,128,0,171159:0:0:0:0:
42,192,171159,128,0,171721:0:0:0:0:
298,192,171721,128,0,171909:0:0:0:0:
384,192,171909,128,0,172096:0:0:0:0:
128,192,172096,128,0,172284:0:0:0:0:
213,192,172284,128,0,172471:0:0:0:0:
469,192,172471,128,0,172846:0:0:0:0:
298,192,172846,128,0,173034:0:0:0:0:
213,192,173034,128,0,173221:0:0:0:0:
42,192,173221,128,0,173409:0:0:0:0:
384,192,173409,128,0,173596:0:0:0:0:
213,192,173596,128,0,173784:0:0:0:0:
298,192,173784,128,0,174159:0:0:0:0:
213,192,174159,128,0,174721:0:0:0:0:
42,192,174721,128,0,174909:0:0:0:0:
384,192,174909,128,0,175096:0:0:0:0:
469,192,175096,128,0,175284:0:0:0:0:
298,192,175284,128,0,175471:0:0:0:0:
128,192,175471,128,0,175846:0:0:0:0:
213,192,175846,128,0,176034:0:0:0:0:
42,192,176034,128,0,176221:0:0:0:0:
298,192,176221,128,0,176409:0:0:0:0:
384,192,176409,128,0,176596:0:0:0:0:
469,192,176596,128,0,176784:0:0:0:0:
128,192,176784,128,0,177159:0:0:0:0:
298,192,177159,128,0,177721:0:0:0:0:
384,192,177721,128,0,177909:0:0:0:0:
213,192,177909,128,0,178190:0:0:0:0:
128,192,178190,128,0,178284:0:0:0:0:
469,192,178284,128,0,178846:0:0:0:0:
42,192,179221,128,0,179409:0:0:0:0:
213,192,179409,128,0,179596:0:0:0:0:
384,192,179596,128,0,179784:0:0:0:0:
298,192,179784,128,0,179971:0:0:0:0:
469,192,179971,128,0,180159:0:0:0:0:
42,192,180159,128,0,180721:0:0:0:0:
298,192,180721,128,0,180909:0:0:0:0:
213,192,180909,128,0,181096:0:0:0:0:
469,192,181096,128,0,181284:0:0:0:0:
42,192,181284,128,0,181471:0:0:0:0:
384,192,181471,128,0,181846:0:0:0:0:
298,192,181846,128,0,182034:0:0:0:0:
42,192,182034,128,0,182221:0:0:0:0:
128,192,182221,128,0,182409:0:0:0:0:
298,192,182409,128,0,182596:0:0:0:0:
384,192,182596,128,0,182784:0:0:0:0:
213,192,182784,128,0,183159:0:0:0:0:
42,192,183159,128,0,183721:0:0:0:0:
384,192,183721,128,0,183909:0:0:0:0:
128,192,183909,128,0,184096:0:0:0:0:
298,192,184096,128,0,184284:0:0:0:0:
469,192,184284,128,0,184471:0:0:0:0:
42,192,184471,128,0,184659:0:0:0:0:
298,192,184659,128,0,186159:0:0:0:0:
128,192,186159,128,0,188971:0:0:0:0:
213,192,186315,1,0,0:0:0:0:
384,192,186346,1,0,0:0:0:0:
469,192,186377,128,0,189159:0:0:0:0:
42,192,189159,128,0,191784:0:0:0:0:
213,192,189221,1,0,0:0:0:0:
298,192,189284,1,0,0:0:0:0:
469,192,189346,128,0,191784:0:0:0:0:
213,192,191409,128,0,191784:0:0:0:0:
