osu file format v14

[General]
AudioFilename: audio.mp3
AudioLeadIn: 0
PreviewTime: 14352
Countdown: 0
SampleSet: Soft
StackLeniency: 0.7
Mode: 0
LetterboxInBreaks: 0
WidescreenStoryboard: 0

[Editor]
Bookmarks: 67435,110102,119435,163435,206102,216769,238102,248769,280769
DistanceSpacing: 0.7
BeatDivisor: 4
GridSize: 8
TimelineZoom: 1.5

[Metadata]
Title:Plastic Girl
TitleUnicode:プラスチックガール
Artist:capsule feat. EeL
ArtistUnicode:capsule feat. EeL
Creator:Fsjallink
Version:Shibuya
Source:
Tags:renumi japanese pop jpop electronic shibuya kei picopop Cutie Cinema Replay Yasutaka Nakata Toshiko Koshijima
BeatmapID:3933280
BeatmapSetID:1907402

[Difficulty]
HPDrainRate:6
CircleSize:4
OverallDifficulty:8
ApproachRate:9
SliderMultiplier:1.6
SliderTickRate:1

[Events]
//Background and Video events
0,0,"56821618_p0.jpg",0,0
//Break Periods
2,110301,116169
2,238302,247335
//Storyboard Layer 0 (Background)
//Storyboard Layer 1 (Fail)
//Storyboard Layer 2 (Pass)
//Storyboard Layer 3 (Foreground)
//Storyboard Layer 4 (Overlay)
//Storyboard Sound Samples

[TimingPoints]
269,333.333333333333,4,2,0,40,1,0
269,-100,4,2,0,40,0,0
3436,333.333333333333,4,2,0,50,1,0
3436,-133.333333333333,4,2,0,50,0,0
13102,-111.111111111111,4,2,0,50,0,0
14102,-100,4,2,0,70,0,0
24769,-111.111111111111,4,2,0,60,0,0
67435,-83.3333333333333,4,2,0,70,0,0
69769,-133.333333333333,4,2,0,70,0,0
70102,-83.3333333333333,4,2,0,70,0,0
75102,-133.333333333333,4,2,0,70,0,0
75435,-83.3333333333333,4,2,0,70,0,0
78102,-100,4,2,0,60,0,0
83435,-117.647058823529,4,2,0,60,0,0
87435,-100,4,2,0,70,0,0
88769,-83.3333333333333,4,2,0,70,0,0
91102,-133.333333333333,4,2,0,70,0,0
91435,-83.3333333333333,4,2,0,70,0,0
96435,-133.333333333333,4,2,0,70,0,0
96769,-83.3333333333333,4,2,0,70,0,0
99435,-100,4,2,0,60,0,0
104769,-117.647058823529,4,2,0,60,0,0
108769,-117.647058823529,4,2,0,70,0,0
110102,-117.647058823529,4,2,0,60,0,0
119435,-100,4,2,0,60,0,0
120769,-111.111111111111,4,2,0,60,0,0
163102,-133.333333333333,4,2,0,40,0,0
163435,-83.3333333333333,4,2,0,70,0,0
165769,-133.333333333333,4,2,0,70,0,0
166102,-83.3333333333333,4,2,0,70,0,0
171102,-133.333333333333,4,2,0,70,0,0
171435,-83.3333333333333,4,2,0,70,0,0
174102,-100,4,2,0,60,0,0
179435,-117.647058823529,4,2,0,60,0,0
183435,-100,4,2,0,70,0,0
184769,-83.3333333333333,4,2,0,70,0,0
187102,-133.333333333333,4,2,0,70,0,0
187435,-83.3333333333333,4,2,0,70,0,0
192435,-133.333333333333,4,2,0,70,0,0
192769,-83.3333333333333,4,2,0,70,0,0
195435,-100,4,2,0,60,0,0
200769,-117.647058823529,4,2,0,60,0,0
204769,-117.647058823529,4,2,0,70,0,0
206102,-100,4,2,0,70,0,0
216769,-83.3333333333333,4,2,0,70,0,1
226935,-83.3333333333333,4,2,0,70,0,0
227435,-83.3333333333333,4,2,0,70,0,1
238102,-100,4,2,0,70,0,0
248769,-100,4,2,0,60,0,0
254102,-117.647058823529,4,2,0,60,0,0
258769,-100,4,2,0,70,0,0
259435,-83.3333333333333,4,2,0,70,0,0
261769,-133.333333333333,4,2,0,70,0,0
262102,-83.3333333333333,4,2,0,70,0,0
267102,-133.333333333333,4,2,0,70,0,0
267435,-83.3333333333333,4,2,0,70,0,0
270102,-100,4,2,0,60,0,0
275435,-117.647058823529,4,2,0,60,0,0
279435,-117.647058823529,4,2,0,70,0,0

[Colours]
Combo1 : 17,254,176
Combo2 : 173,255,95
Combo3 : 255,88,100
Combo4 : 255,94,55

[HitObjects]
256,192,269,12,0,3102,0:0:0:0:
194,47,3436,6,0,P|182:99|181:166,1,120.000004577637,4|2,0:0|0:3,0:0:0:0:
111,242,3935,1,0,0:0:0:0:
38,171,4102,1,2,0:0:0:0:
111,242,4269,2,0,P|157:260|191:260,1,60.0000022888184,2|2,0:0|0:3,0:0:0:0:
363,224,4602,1,2,0:0:0:0:
55,303,5269,5,2,0:0:0:0:
55,303,5435,1,2,0:0:0:0:
363,224,5769,1,2,0:0:0:0:
82,78,6102,6,0,P|146:110|212:125,1,120.000004577637,0|2,1:0|0:3,0:0:0:0:
268,61,6602,1,0,0:0:0:0:
222,229,6769,1,2,0:0:0:0:
329,125,6935,2,0,P|349:79|358:43,1,60.0000022888184,2|2,0:0|0:3,0:0:0:0:
449,41,7269,2,0,P|452:89|482:175,1,120.000004577637,2|0,0:0|0:0,0:0:0:0:
310,337,7935,5,2,0:0:0:0:
310,337,8102,1,2,0:0:0:0:
472,157,8435,1,10,0:0:0:0:
411,226,8602,1,0,3:0:0:0:
418,251,8685,1,0,3:0:0:0:
428,275,8769,1,4,0:0:0:0:
350,44,9102,5,2,0:0:0:0:
325,135,9269,2,0,P|276:146|184:150,1,120.000004577637,2|2,0:0|0:0,0:0:0:0:
365,322,9935,2,0,P|414:311|506:307,1,120.000004577637,2|0,0:0|0:0,0:0:0:0:
285,248,10602,5,2,0:0:0:0:
285,248,10769,1,2,0:0:0:0:
483,306,11102,1,2,0:0:0:0:
209,337,11435,6,0,P|199:281|201:195,1,120.000004577637,0|2,1:0|0:0,0:0:0:0:
239,93,11935,2,0,P|287:79|323:74,1,60.0000022888184,2|0,0:0|0:0,0:0:0:0:
160,60,12269,2,0,P|105:79|87:159,1,120.000004577637,2|0,0:0|0:0,0:0:0:0:
111,283,12769,1,2,0:0:0:0:
111,283,13102,6,0,P|122:237|131:189,1,71.9999978027344,8|0,0:0|0:0,0:0:0:0:
181,31,13435,1,2,0:0:0:0:
198,135,13602,2,2,P|204:174|211:213,1,71.9999978027344,8|0,0:0|3:0,0:1:0:0:
224,226,13852,1,0,3:0:0:0:
256,219,13935,1,0,3:0:0:0:
288,211,14019,1,0,3:0:0:0:
319,204,14102,5,4,1:2:0:0:
107,141,14435,2,0,P|45:152|-4:161,1,80,8|2,0:0|3:2,0:0:0:0:
28,155,14685,1,0,3:0:0:0:
28,155,14769,1,0,1:0:0:0:
125,51,14935,2,0,P|169:32|249:64,1,120,2|0,1:2|0:0,0:0:0:0:
310,111,15269,6,0,P|334:67|341:27,1,80,2|0,1:0|0:0,0:0:0:0:
429,225,15602,2,0,P|380:195|335:189,1,80,2|8,1:2|0:0,0:0:0:0:
164,217,15935,1,2,3:2:0:0:
164,217,16019,1,0,3:0:0:0:
164,217,16102,1,0,1:0:0:0:
292,293,16269,1,2,1:2:0:0:
73,252,16435,2,0,P|74:196|91:143,1,80,8|2,0:0|0:0,0:0:0:0:
152,356,16769,1,4,1:3:0:0:
152,356,17102,6,0,P|207:350|249:348,1,80,8|2,0:0|3:2,0:0:0:0:
231,348,17352,1,0,3:0:0:0:
231,348,17435,1,0,1:0:0:0:
274,207,17602,1,2,1:2:0:0:
378,303,17769,1,8,0:0:0:0:
367,111,17935,6,0,P|289:99|215:143,1,160,2|2,1:0|1:2,0:0:0:0:
303,17,18435,1,8,0:0:0:0:
442,187,18602,1,2,3:2:0:0:
442,187,18685,1,0,3:0:0:0:
442,187,18769,2,0,P|462:132|465:87,1,80,0|2,1:0|1:2,0:0:0:0:
323,17,19102,1,8,0:0:0:0:
352,206,19269,1,2,3:0:0:0:
343,232,19352,1,0,3:0:0:0:
335,258,19435,5,4,0:0:0:0:
425,273,19769,1,8,0:0:0:0:
258,192,19935,2,0,P|244:139|245:101,1,80,2|0,0:0|1:0,0:0:0:0:
409,2,20269,2,0,P|406:41|394:79,1,80,0|8,1:0|0:0,0:0:0:0:
471,151,20602,1,2,3:2:0:0:
471,151,20685,1,0,3:0:0:0:
471,151,20769,5,2,1:0:0:0:
256,48,21102,1,10,0:1:0:0:
256,256,21435,1,2,1:0:0:0:
41,151,21769,1,2,1:0:0:0:
256,48,22102,5,6,0:1:0:0:
256,192,22185,12,0,23269,0:0:0:0:
256,16,23435,5,10,0:1:0:0:
256,104,23769,1,10,0:1:0:0:
256,192,24102,2,0,P|253:263|251:281,1,80,10|0,0:1|3:0,0:0:0:0:
252,271,24352,1,0,3:0:0:0:
252,271,24435,1,10,0:1:0:0:
115,359,24602,1,0,3:0:0:0:
115,359,24685,1,0,3:0:0:0:
115,359,24769,6,0,P|103:297|177:235,1,143.999995605469,4|0,1:2|3:0,3:0:0:0:
357,147,25352,1,0,3:0:0:0:
357,147,25435,2,0,P|307:139|261:133,1,71.9999978027344,0|2,1:2|1:2,0:0:0:0:
111,157,25769,1,8,0:2:0:0:
256,224,25935,6,0,P|326:233|421:246,1,143.999995605469,2|0,1:2|1:2,0:0:0:0:
488,340,26435,1,8,0:2:0:0:
475,202,26602,2,0,L|486:156,2,35.9999989013672,2|0|0,3:2|3:0|1:2,0:0:0:0:
364,268,26935,1,2,1:2:0:0:
271,139,27102,1,8,0:2:0:0:
271,139,27435,6,0,P|328:125|350:122,1,71.9999978027344,2|0,1:0|0:0,0:0:0:0:
103,187,27769,2,0,P|138:193|173:202,1,71.9999978027344,10|0,0:1|0:0,0:0:0:0:
142,45,28102,1,2,1:0:0:0:
21,131,28269,2,0,P|10:181|5:221,1,71.9999978027344,2|8,1:0|0:2,0:0:0:0:
87,352,28602,2,0,P|115:310|223:298,1,143.999995605469,2|0,1:0|1:2,0:0:0:0:
290,348,29102,1,8,0:2:0:0:
267,181,29269,5,2,3:2:0:0:
267,181,29352,1,0,3:0:0:0:
267,181,29435,1,0,1:2:0:0:
417,112,29602,1,0,1:2:0:0:
387,242,29769,1,10,0:2:0:0:
198,109,29935,1,0,3:0:0:0:
185,130,30019,1,0,3:0:0:0:
177,153,30102,6,0,P|168:201|167:245,1,71.9999978027344,4|0,1:2|0:0,0:0:0:0:
38,323,30435,2,0,P|36:265|29:224,1,71.9999978027344,10|0,0:2|3:0,0:0:0:0:
34,251,30685,1,0,3:0:0:0:
34,251,30769,1,0,1:2:0:0:
94,122,30935,1,0,1:2:0:0:
246,202,31102,1,8,0:2:0:0:
245,84,31269,6,0,P|295:68|391:56,2,143.999995605469,2|2|2,1:2|1:2|3:2,0:0:0:0:
245,84,32019,1,0,3:0:0:0:
245,84,32102,1,0,1:2:0:0:
319,164,32269,1,0,1:2:0:0:
48,107,32435,1,2,0:1:0:0:
319,164,32769,5,4,3:0:0:0:
319,164,33102,2,0,P|303:212|296:249,1,71.9999978027344,10|0,0:2|3:0,0:0:0:0:
298,232,33352,1,0,3:0:0:0:
298,232,33435,1,0,1:2:0:0:
463,169,33602,2,0,P|482:100|488:72,1,71.9999978027344,2|8,1:2|0:2,0:0:0:0:
393,229,33935,2,0,P|416:263|440:291,1,71.9999978027344,2|0,0:1|1:2,0:0:0:0:
284,140,34269,2,0,P|248:120|198:105,1,71.9999978027344,2|8,1:1|0:2,0:0:0:0:
55,155,34602,5,2,3:1:0:0:
55,155,34685,1,0,3:1:0:0:
55,155,34769,1,8,0:2:0:0:
81,15,34935,1,0,3:1:0:0:
104,19,35018,1,0,3:1:0:0:
126,28,35101,1,8,3:2:0:0:
146,41,35185,1,0,3:1:0:0:
162,59,35268,1,8,3:2:0:0:
174,80,35351,1,8,3:2:0:0:
182,102,35435,5,4,1:2:0:0:
269,165,35769,2,0,P|274:96|278:66,1,71.9999978027344,8|0,0:0|3:0,0:0:0:0:
274,93,36019,1,0,3:0:0:0:
274,93,36102,1,0,1:2:0:0:
332,223,36269,2,0,P|375:238|405:250,1,71.9999978027344,2|8,1:2|0:0,0:0:0:0:
248,254,36602,6,0,P|188:236|103:212,1,143.999995605469,2|0,1:2|1:2,0:0:0:0:
45,32,37102,1,8,0:0:0:0:
157,133,37269,2,0,L|205:136,2,35.9999989013672,2|0|0,3:2|3:0|1:2,0:0:0:0:
20,217,37602,1,2,1:2:0:0:
219,198,37769,2,0,P|229:140|219:60,1,107.999996704102,8|0,0:0|0:0,0:0:0:0:
247,64,38102,6,0,L|347:61,1,71.9999978027344,2|0,1:0|0:0,0:0:0:0:
512,149,38435,2,0,L|412:146,1,71.9999978027344,2|0,1:0|0:0,0:0:0:0:
331,32,38769,1,2,1:0:0:0:
423,173,38935,2,0,P|433:242|434:262,1,71.9999978027344,2|8,1:0|0:0,0:0:0:0:
495,38,39269,1,2,1:0:0:0:
495,38,39602,6,0,P|434:61|405:73,1,71.9999978027344,0|8,1:2|0:0,0:0:0:0:
292,179,39935,1,2,3:2:0:0:
292,179,40019,1,0,3:0:0:0:
292,179,40102,1,0,1:2:0:0:
335,62,40269,1,0,1:2:0:0:
219,241,40435,1,10,0:0:0:0:
147,127,40602,1,0,3:0:0:0:
139,102,40685,1,0,3:0:0:0:
132,77,40769,1,4,1:2:0:0:
132,77,41102,6,0,P|123:121|110:160,1,71.9999978027344,10|0,0:0|0:0,0:0:0:0:
121,338,41435,1,0,1:2:0:0:
121,338,41602,1,0,1:2:0:0:
17,197,41769,1,8,0:0:0:0:
196,280,41935,6,0,P|245:304|351:322,2,143.999995605469,2|2|2,1:2|1:2|3:2,0:0:0:0:
196,280,42685,1,0,3:0:0:0:
196,280,42769,1,0,1:2:0:0:
273,223,42935,1,0,1:2:0:0:
16,181,43102,1,2,0:1:0:0:
273,223,43435,5,4,3:0:0:0:
273,223,43769,2,0,P|286:180|289:134,1,71.9999978027344,10|0,0:0|3:0,0:0:0:0:
289,153,44019,1,0,3:0:0:0:
289,153,44102,1,0,1:2:0:0:
349,275,44269,2,0,P|369:327|385:357,1,71.9999978027344,2|8,1:2|0:0,0:0:0:0:
432,213,44602,5,2,0:0:0:0:
290,348,44769,1,2,1:2:0:0:
432,213,44935,2,0,P|436:166|441:122,1,71.9999978027344,2|8,1:2|0:0,0:0:0:0:
303,46,45269,1,2,3:2:0:0:
303,46,45352,1,0,3:0:0:0:
303,46,45435,1,0,1:2:0:0:
350,196,45602,1,8,0:0:0:0:
198,239,45769,1,8,0:0:0:0:
153,78,45935,1,0,3:0:0:0:
185,76,46019,1,0,3:0:0:0:
215,87,46102,5,12,1:2:0:0:
30,255,46435,2,0,P|42:204|45:174,1,71.9999978027344,8|2,0:0|3:2,0:0:0:0:
44,184,46685,1,0,3:0:0:0:
44,184,46769,1,0,1:2:0:0:
68,31,46935,2,0,P|83:70|108:118,1,71.9999978027344,2|8,1:2|0:0,0:0:0:0:
232,258,47269,6,0,P|247:196|292:108,1,143.999995605469,2|0,1:2|1:2,0:0:0:0:
355,235,47769,1,8,0:0:0:0:
326,50,47935,1,0,3:2:0:0:
326,50,48019,1,0,3:2:0:0:
326,50,48102,2,0,P|380:88|405:111,1,71.9999978027344,2|0,1:2|1:2,0:0:0:0:
446,273,48435,2,0,P|448:212|457:168,1,71.9999978027344,10|0,0:0|1:0,0:0:0:0:
490,30,48769,1,2,1:0:0:0:
490,30,49102,5,8,0:0:0:0:
451,165,49269,2,0,P|472:170|489:174,2,35.9999989013672,2|0|0,3:2|3:0|1:2,0:0:0:0:
348,76,49602,2,0,P|291:64|244:57,1,71.9999978027344,2|8,1:2|0:0,0:0:0:0:
371,183,49935,2,0,P|385:258|408:341,1,143.999995605469,2|0,1:2|1:2,0:0:0:0:
294,369,50435,5,10,0:0:0:0:
340,269,50602,2,0,P|366:264|388:258,2,35.9999989013672,0|0|2,1:0|3:0|1:2,0:0:0:0:
260,167,50935,1,2,1:2:0:0:
218,289,51102,1,8,0:0:0:0:
86,249,51269,1,0,1:0:0:0:
78,273,51352,1,0,3:0:0:0:
76,298,51435,1,4,1:2:0:0:
113,173,51769,6,0,P|124:123|126:85,1,71.9999978027344,8|2,0:0|0:0,0:0:0:0:
53,28,52102,1,0,1:2:0:0:
210,30,52269,2,0,P|211:74|223:119,1,71.9999978027344,2|8,1:2|0:0,0:0:0:0:
229,123,52519,1,0,3:0:0:0:
248,139,52602,6,0,P|345:122|396:119,1,143.999995605469,2|0,1:2|1:2,0:0:0:0:
491,270,53102,2,0,P|481:216|477:168,1,71.9999978027344,8|2,0:0|3:2,0:0:0:0:
479,199,53352,1,0,3:0:0:0:
479,199,53435,1,2,1:2:0:0:
381,87,53602,1,0,1:2:0:0:
319,226,53769,2,0,P|307:286|299:327,1,71.9999978027344,10|0,0:0|1:2,0:0:0:0:
373,57,54102,1,2,1:0:0:0:
373,57,54435,5,8,0:0:0:0:
275,170,54602,2,0,L|228:174,2,35.9999989013672,2|0|0,3:2|3:0|1:2,0:0:0:0:
387,282,54935,2,0,P|444:277|476:270,1,71.9999978027344,2|8,1:2|0:0,0:0:0:0:
244,253,55269,2,0,P|177:260|79:278,1,143.999995605469,2|0,1:2|1:2,0:0:0:0:
186,349,55769,5,10,0:0:0:0:
125,185,55935,1,0,3:0:0:0:
125,185,56019,1,0,3:0:0:0:
125,185,56102,1,0,1:2:0:0:
101,273,56269,1,8,0:0:0:0:
205,118,56435,1,8,3:2:0:0:
233,111,56519,1,0,3:0:0:0:
261,109,56602,1,0,3:0:0:0:
289,111,56685,1,0,3:0:0:0:
317,118,56769,1,4,1:2:0:0:
496,280,57102,6,0,P|440:256|395:248,1,71.9999978027344,8|2,0:0|0:0,0:0:0:0:
235,315,57435,1,0,1:2:0:0:
324,263,57602,2,0,P|344:211|348:164,1,71.9999978027344,2|8,1:2|0:0,0:0:0:0:
243,26,57935,1,10,0:1:0:0:
243,26,58269,5,0,1:2:0:0:
241,127,58435,2,0,P|249:162|263:194,1,71.9999978027344,8|0,0:0|3:0,0:0:0:0:
263,194,58685,1,0,3:0:0:0:
263,194,58769,1,0,1:2:0:0:
388,106,58935,1,0,1:2:0:0:
469,258,59102,2,0,P|482:221|492:169,1,71.9999978027344,8|2,0:0|0:0,0:0:0:0:
417,359,59435,1,4,1:3:0:0:
417,359,59769,6,0,P|357:337|329:330,1,71.9999978027344,10|2,0:0|3:2,0:0:0:0:
349,334,60019,1,0,3:0:0:0:
349,334,60102,1,0,1:2:0:0:
162,284,60269,1,8,0:0:0:0:
241,364,60435,1,8,0:0:0:0:
295,140,60602,1,10,0:1:0:0:
295,140,61102,6,2,P|283:202|269:289,1,143.999995605469,4|2,1:2|0:2,0:1:0:0:
159,153,61602,1,0,1:2:0:0:
31,222,61769,1,8,0:0:0:0:
167,318,61935,1,0,3:0:0:0:
142,334,62019,1,0,3:0:0:0:
114,343,62102,1,4,1:2:0:0:
47,51,62435,6,0,P|62:94|73:133,1,71.9999978027344,10|0,0:0|3:2,0:0:0:0:
69,119,62685,1,0,3:0:0:0:
69,119,62769,1,0,1:2:0:0:
184,277,62935,2,0,P|195:229|211:189,1,71.9999978027344,2|8,1:2|0:0,0:0:0:0:
300,11,63269,1,2,1:1:0:0:
300,11,63602,5,0,1:2:0:0:
176,81,63769,2,0,P|221:122|247:138,1,71.9999978027344,8|0,0:0|3:0,0:0:0:0:
230,128,64019,1,0,3:0:0:0:
230,128,64102,1,0,1:2:0:0:
407,123,64269,1,0,1:2:0:0:
298,270,64435,1,8,0:0:0:0:
284,58,64602,1,0,1:2:0:0:
149,187,64769,6,0,P|195:219|306:219,1,143.999995605469,4|8,1:3|0:0,0:0:0:0:
435,195,65269,1,0,3:0:0:0:
447,220,65352,1,0,3:0:0:0:
452,248,65435,1,0,1:2:0:0:
349,368,65602,2,0,P|327:317|312:220,1,143.999995605469,2|0,1:2|0:0,0:0:0:0:
371,34,66102,6,0,L|424:52,1,35.9999989013672,8|8,0:0|0:0,0:0:0:0:
499,86,66352,1,8,3:0:0:0:
499,86,66435,1,4,3:0:0:0:
288,184,66602,6,0,L|341:166,1,35.9999989013672,8|8,0:0|0:0,0:0:0:0:
416,132,66852,1,8,3:0:0:0:
416,132,66935,1,4,3:0:0:0:
231,72,67102,1,8,3:0:0:0:
231,72,67185,1,8,3:0:0:0:
231,72,67269,2,0,P|241:119|246:140,1,35.9999989013672,4|4,3:0|3:0,0:0:0:0:
168,187,67435,6,0,P|118:135|161:13,1,191.999994140625,4|8,1:2|0:0,0:0:0:0:
104,186,67935,1,2,3:0:0:0:
104,186,68019,1,0,3:0:0:0:
104,186,68102,2,0,P|95:252|85:291,1,95.9999970703126,0|0,1:0|1:0,0:0:0:0:
264,346,68435,1,8,0:0:0:0:
185,272,68602,6,0,P|246:240|378:249,1,191.999994140625,4|2,1:3|1:2,0:0:0:0:
474,344,69102,1,8,0:0:0:0:
449,142,69269,1,2,3:2:0:0:
449,142,69352,1,0,3:0:0:0:
449,142,69435,1,0,1:0:0:0:
302,207,69602,1,0,1:0:0:0:
350,107,69769,2,2,P|342:63|337:16,1,90.0000034332277,10|0,0:1|0:1,0:1:0:0:
356,134,70102,5,4,3:0:0:0:
364,337,70435,2,0,P|380:282|389:214,1,95.9999970703126,10|0,0:0|3:0,0:0:0:0:
386,243,70685,1,0,3:0:0:0:
386,243,70769,1,2,1:2:0:0:
256,126,70935,1,0,1:0:0:0:
274,266,71102,1,10,0:0:0:0:
158,137,71269,6,0,P|111:145|41:160,1,95.9999970703126,2|2,1:0|3:0,0:0:0:0:
380,63,71602,2,0,P|332:53|285:45,1,95.9999970703126,2|8,1:0|0:0,0:0:0:0:
481,97,71935,1,2,3:1:0:0:
481,97,72019,1,0,3:0:0:0:
481,97,72102,1,2,1:0:0:0:
455,5,72269,1,0,1:0:0:0:
390,198,72435,1,8,0:0:0:0:
329,119,72602,1,0,3:0:0:0:
329,119,72685,1,0,3:0:0:0:
329,119,72769,6,0,P|293:197|376:300,1,191.999994140625,2|8,1:0|0:0,0:0:0:0:
210,169,73269,1,2,3:2:0:0:
210,169,73352,1,0,3:0:0:0:
210,169,73435,2,0,P|223:110|227:54,1,95.9999970703126,0|0,1:0|1:0,0:0:0:0:
189,253,73769,1,8,0:0:0:0:
130,105,73935,6,0,P|68:113|23:153,1,95.9999970703126,4|2,1:3|3:0,0:0:0:0:
25,318,74269,1,2,1:2:0:0:
106,188,74435,1,8,0:0:0:0:
228,261,74602,1,2,3:2:0:0:
228,261,74685,1,0,3:0:0:0:
228,261,74769,2,0,L|198:341,2,47.9999985351563,0|0|0,1:0|3:0|1:0,0:0:0:0:
308,80,75102,2,2,P|285:134|269:176,1,90.0000034332277,10|0,0:1|0:1,0:1:0:0:
318,57,75435,5,4,3:0:0:0:
335,255,75769,2,0,P|354:203|374:148,1,95.9999970703126,10|0,0:0|3:0,0:0:0:0:
379,143,76019,1,0,3:0:0:0:
392,123,76102,2,0,P|454:93|503:83,1,95.9999970703126,0|0,1:0|1:0,0:0:0:0:
428,241,76435,1,10,0:0:0:0:
256,180,76602,6,0,P|191:161|132:149,1,95.9999970703126,2|0,0:1|1:0,0:0:0:0:
343,298,76935,2,0,P|278:317|219:329,1,95.9999970703126,2|8,1:0|0:0,0:0:0:0:
165,127,77269,1,2,3:1:0:0:
165,127,77352,1,0,3:0:0:0:
165,127,77435,1,2,1:0:0:0:
130,273,77602,1,8,0:0:0:0:
166,106,77769,1,8,0:0:0:0:
34,22,77935,1,0,3:0:0:0:
20,53,78019,1,0,3:0:0:0:
18,86,78102,5,6,1:2:0:0:
271,193,78435,2,0,P|214:201|159:210,1,80,8|2,0:0|3:2,0:0:0:0:
191,204,78685,1,0,3:0:0:0:
191,204,78769,1,2,1:2:0:0:
208,323,78935,1,0,1:0:0:0:
95,337,79102,1,8,0:0:0:0:
82,228,79269,6,0,P|74:117|67:43,1,160,4|2,1:3|1:2,0:0:0:0:
159,113,79769,1,8,0:0:0:0:
3,192,79935,1,2,3:2:0:0:
3,192,80019,1,0,3:0:0:0:
3,192,80102,2,0,P|7:259|12:301,1,80,2|0,1:0|1:0,0:0:0:0:
113,352,80435,1,10,0:1:0:0:
113,352,80769,6,2,B|213:316|188:375|295:335,1,160,0|8,1:0|0:2,0:1:0:0:
407,244,81269,2,2,B|307:208|332:267|225:227,1,160,0|0,1:0|1:0,1:0:0:0:
201,83,81769,1,8,0:0:0:0:
168,243,81935,1,4,1:3:0:0:
168,243,82269,5,0,1:0:0:0:
120,97,82435,1,8,0:0:0:0:
280,143,82602,2,0,P|288:88|290:43,1,80,2|0,3:0|1:0,0:0:0:0:
197,155,82935,1,0,1:0:0:0:
312,238,83102,1,10,0:1:0:0:
215,338,83269,1,0,3:0:0:0:
215,338,83352,1,0,3:0:0:0:
215,338,83435,6,0,P|162:344|126:348,1,68.0000012969971,6|0,1:2|0:0,0:0:0:0:
301,224,83769,2,0,P|258:255|228:277,1,68.0000012969971,10|0,0:0|0:0,0:0:0:0:
285,98,84102,2,0,P|263:146|249:180,1,68.0000012969971,2|0,1:2|1:2,0:0:0:0:
198,5,84435,2,0,P|203:58|208:94,1,68.0000012969971,10|0,0:0|3:2,0:0:0:0:
205,72,84685,1,0,3:2:0:0:
205,72,84769,1,2,1:2:0:0:
456,182,85102,6,0,P|452:148|448:114,1,68.0000012969971,10|0,0:0|0:0,0:0:0:0:
256,192,85435,1,8,1:0:0:0:
256,192,85769,1,8,1:0:0:0:
63,114,86102,6,0,P|59:148|56:182,1,68.0000012969971,6|0,1:2|0:0,0:0:0:0:
194,290,86435,2,0,P|153:285|114:282,1,68.0000012969971,10|0,0:0|0:0,0:0:0:0:
153,42,86769,2,0,P|149:75|145:109,1,68.0000012969971,2|0,0:0|0:0,0:0:0:0:
301,226,87102,2,0,P|260:221|221:218,1,68.0000012969971,10|0,0:0|0:0,0:0:0:0:
256,24,87435,5,10,0:1:0:0:
254,365,88102,2,2,P|250:305|251:201,1,160,6|0,1:0|3:0,0:1:0:0:
256,165,88519,1,0,3:0:0:0:
260,125,88602,1,0,3:0:0:0:
262,85,88685,1,0,3:0:0:0:
257,40,88769,5,4,1:2:0:0:
221,247,89102,2,0,P|158:241|107:238,1,95.9999970703126,8|2,0:0|3:2,0:0:0:0:
125,238,89352,1,0,3:0:0:0:
125,238,89435,1,0,1:0:0:0:
325,258,89602,1,0,1:0:0:0:
209,346,89769,1,8,0:0:0:0:
179,164,89935,6,0,P|106:154|32:246,1,191.999994140625,4|2,1:3|1:2,0:0:0:0:
59,349,90435,1,8,0:0:0:0:
125,238,90602,1,2,3:2:0:0:
125,238,90685,1,0,3:0:0:0:
125,238,90769,1,0,1:0:0:0:
26,144,90935,1,0,1:0:0:0:
212,283,91102,2,2,P|271:277|317:274,1,90.0000034332277,10|0,0:1|0:1,0:1:0:0:
197,285,91435,5,4,3:0:0:0:
465,238,91769,2,0,P|478:296|472:340,1,95.9999970703126,10|0,0:0|3:0,0:0:0:0:
465,343,92019,1,0,3:0:0:0:
452,350,92102,2,0,P|391:357|332:360,1,95.9999970703126,2|0,1:2|1:0,0:0:0:0:
260,217,92435,1,10,0:0:0:0:
389,126,92602,6,0,P|382:195|376:242,1,95.9999970703126,2|2,1:0|3:0,0:0:0:0:
259,13,92935,2,0,P|266:82|272:129,1,95.9999970703126,2|8,1:0|0:0,0:0:0:0:
226,212,93269,1,2,3:1:0:0:
226,212,93352,1,0,3:0:0:0:
226,212,93435,1,2,1:0:0:0:
342,53,93602,1,0,1:0:0:0:
168,94,93769,1,8,0:0:0:0:
341,173,93935,1,0,3:0:0:0:
341,173,94019,1,0,3:0:0:0:
341,173,94102,6,0,P|328:240|325:295,1,95.9999970703126,2|0,1:0|0:0,0:0:0:0:
427,365,94435,1,8,0:0:0:0:
452,243,94602,1,2,0:0:0:0:
247,206,94769,2,0,P|247:141|258:85,1,95.9999970703126,0|0,1:0|1:0,0:0:0:0:
393,63,95102,1,8,0:0:0:0:
325,259,95269,6,0,P|279:286|222:291,1,95.9999970703126,4|2,1:3|3:0,0:0:0:0:
58,212,95602,1,2,1:2:0:0:
212,150,95769,1,8,0:0:0:0:
103,95,95935,1,2,3:2:0:0:
103,95,96019,1,0,3:0:0:0:
103,95,96102,2,0,P|84:39|83:24,2,47.9999985351563,0|0|0,1:0|3:0|1:0,0:0:0:0:
148,241,96435,2,2,P|161:292|172:344,1,90.0000034332277,10|0,0:1|0:1,0:1:0:0:
141,221,96769,5,4,3:0:0:0:
394,260,97102,2,0,P|408:198|415:140,1,95.9999970703126,10|0,0:0|3:0,0:0:0:0:
412,165,97352,1,0,3:0:0:0:
412,165,97435,1,0,1:0:0:0:
391,26,97602,1,0,1:0:0:0:
505,85,97769,1,10,0:0:0:0:
329,186,97935,6,0,P|315:122|309:69,1,95.9999970703126,2|0,0:1|1:0,0:0:0:0:
148,20,98269,2,0,P|140:67|129:114,1,95.9999970703126,2|8,1:0|0:0,0:0:0:0:
48,266,98602,1,2,0:1:0:0:
40,73,98769,1,2,1:0:0:0:
235,104,98935,1,8,0:0:0:0:
125,219,99102,1,8,3:2:0:0:
128,247,99185,1,0,3:0:0:0:
132,275,99269,1,0,3:0:0:0:
136,303,99352,1,0,3:0:0:0:
139,331,99435,5,6,1:2:0:0:
121,184,99769,2,0,P|202:195|235:199,1,80,8|2,0:0|3:2,0:0:0:0:
200,194,100019,1,0,3:0:0:0:
200,194,100102,1,2,1:2:0:0:
380,227,100269,1,0,1:0:0:0:
286,342,100435,1,8,0:0:0:0:
380,227,100602,6,0,P|390:168|384:32,1,160,4|2,1:3|1:2,0:0:0:0:
248,15,101102,1,8,0:0:0:0:
312,120,101269,1,2,3:2:0:0:
312,120,101352,1,0,3:0:0:0:
312,120,101435,2,0,P|247:144|204:147,1,80,2|0,1:0|1:0,0:0:0:0:
87,53,101769,1,10,0:1:0:0:
87,53,102102,6,2,B|65:154|109:101|83:221,1,160,0|8,1:0|0:2,0:1:0:0:
178,348,102602,2,2,B|200:247|156:300|182:180,1,160,0|0,1:0|1:0,1:0:0:0:
231,22,103102,1,8,0:0:0:0:
282,151,103269,2,0,P|270:208|265:255,2,80,4|0|0,1:3|0:0|1:0,0:0:0:0:
393,28,103769,1,8,0:0:0:0:
433,112,103935,2,0,P|445:169|450:216,1,80,2|0,3:0|1:0,0:0:0:0:
347,324,104269,1,0,1:0:0:0:
364,177,104435,1,10,0:1:0:0:
262,325,104602,1,0,3:0:0:0:
262,325,104685,1,0,3:0:0:0:
262,325,104769,6,0,P|215:320|179:318,1,68.0000012969971,6|0,1:2|0:0,0:0:0:0:
281,173,105102,2,0,P|278:206|274:240,1,68.0000012969971,10|0,0:0|0:0,0:0:0:0:
129,168,105435,2,0,P|162:171|196:174,1,68.0000012969971,2|0,1:2|1:2,0:0:0:0:
116,317,105769,2,0,P|119:283|122:249,1,68.0000012969971,10|0,0:0|3:2,0:0:0:0:
122,249,106019,1,0,3:2:0:0:
122,249,106102,1,2,1:2:0:0:
73,41,106435,6,0,P|69:74|66:108,1,68.0000012969971,10|0,0:0|0:0,0:0:0:0:
256,192,106769,1,8,1:0:0:0:
256,192,107102,1,8,1:0:0:0:
445,108,107435,6,0,P|442:74|439:41,1,68.0000012969971,6|0,1:2|0:0,0:0:0:0:
360,200,107769,2,0,P|357:166|353:132,1,68.0000012969971,10|0,0:0|0:0,0:0:0:0:
504,272,108102,2,0,P|501:238|497:204,1,68.0000012969971,2|0,0:0|0:0,0:0:0:0:
336,352,108435,2,0,P|333:318|329:284,1,68.0000012969971,10|0,0:0|0:0,0:0:0:0:
256,72,108769,5,10,1:0:0:0:
256,72,109102,1,8,1:0:0:0:
112,192,109435,1,8,3:0:0:0:
146,176,109518,1,8,3:0:0:0:
184,172,109601,1,8,3:0:0:0:
221,180,109684,1,8,3:0:0:0:
257,193,109768,1,4,3:0:0:0:
293,207,109851,1,4,3:0:0:0:
330,215,109934,1,4,3:0:0:0:
368,213,110018,1,4,3:0:0:0:
404,199,110101,5,4,1:2:0:0:
256,192,116769,12,0,119102,0:0:0:0:
256,360,119435,5,10,0:1:0:0:
256,272,119768,1,10,0:1:0:0:
256,192,120102,2,0,P|253:142|256:82,1,80,10|0,0:1|3:0,0:0:0:0:
256,8,120435,1,10,3:1:0:0:
255,32,120519,1,0,3:0:0:0:
253,55,120602,1,0,3:0:0:0:
253,78,120685,1,0,3:0:0:0:
253,102,120769,5,4,1:2:0:0:
26,181,121102,2,0,P|34:122|35:85,1,71.9999978027344,0|0,3:0|3:0,0:0:0:0:
34,109,121352,1,0,3:0:0:0:
34,109,121435,2,0,L|126:119,1,71.9999978027344,0|2,1:2|1:2,0:0:0:0:
239,153,121769,1,8,0:2:0:0:
159,283,121935,6,0,P|95:274|15:267,1,143.999995605469,2|0,1:2|1:2,0:0:0:0:
262,300,122435,2,0,P|322:307|356:312,1,71.9999978027344,8|2,0:2|3:2,0:0:0:0:
354,313,122685,1,0,3:0:0:0:
375,317,122769,1,0,1:2:0:0:
455,257,122935,1,2,1:2:0:0:
312,211,123102,2,0,P|314:144|324:82,1,107.999996704102,8|0,0:2|0:0,0:0:0:0:
299,78,123435,6,0,L|211:68,1,71.9999978027344,2|0,1:0|0:0,0:0:0:0:
469,48,123769,2,0,L|381:38,1,71.9999978027344,10|0,0:1|3:0,0:0:0:0:
397,39,124019,1,0,3:0:0:0:
397,39,124102,1,2,1:0:0:0:
452,171,124269,2,0,P|508:211|521:218,1,71.9999978027344,2|8,1:0|0:2,0:0:0:0:
263,209,124602,2,0,P|335:208|411:256,1,143.999995605469,2|0,1:0|1:2,0:0:0:0:
280,120,125102,1,8,0:2:0:0:
321,290,125269,5,2,3:2:0:0:
321,290,125352,1,0,3:0:0:0:
321,290,125435,1,0,1:2:0:0:
369,132,125602,1,0,1:2:0:0:
219,276,125769,1,10,0:2:0:0:
172,117,125935,1,0,3:0:0:0:
149,129,126019,1,0,3:0:0:0:
124,134,126102,6,0,P|76:128|40:117,1,71.9999978027344,4|0,1:2|0:0,0:0:0:0:
257,27,126435,2,0,P|305:33|341:44,1,71.9999978027344,10|0,0:2|3:0,0:0:0:0:
327,39,126685,1,0,3:0:0:0:
327,39,126769,1,0,1:2:0:0:
298,193,126935,1,0,1:2:0:0:
442,137,127102,1,8,0:2:0:0:
402,286,127269,6,0,P|343:318|246:333,2,143.999995605469,2|2|2,1:2|1:2|3:2,0:0:0:0:
402,286,128019,1,0,3:0:0:0:
402,286,128102,1,0,1:2:0:0:
481,351,128269,1,0,1:2:0:0:
283,171,128435,1,2,0:1:0:0:
481,351,128769,5,4,3:0:0:0:
481,351,129102,2,0,L|491:250,1,71.9999978027344,10|0,0:2|0:0,0:0:0:0:
498,96,129435,1,0,1:2:0:0:
427,116,129602,2,0,L|351:139,1,71.9999978027344,2|8,1:2|0:2,0:0:0:0:
169,197,129935,2,0,L|245:174,1,71.9999978027344,2|0,0:1|1:2,0:0:0:0:
123,343,130269,2,0,L|100:253,1,71.9999978027344,2|8,1:1|0:2,0:0:0:0:
55,78,130602,5,2,0:1:0:0:
55,78,130685,1,0,3:1:0:0:
55,78,130769,1,8,0:2:0:0:
143,159,130935,1,0,3:1:0:0:
170,149,131019,1,0,3:1:0:0:
197,140,131102,1,8,3:2:0:0:
224,133,131185,1,0,3:1:0:0:
252,126,131269,1,8,3:2:0:0:
279,119,131352,1,8,3:2:0:0:
307,112,131435,5,4,1:2:0:0:
326,19,131769,2,0,P|267:34|235:41,1,71.9999978027344,8|0,0:0|3:0,0:0:0:0:
256,36,132019,1,0,3:0:0:0:
256,36,132102,1,0,1:2:0:0:
263,223,132269,2,0,P|231:188|201:157,1,71.9999978027344,2|8,1:2|0:0,0:0:0:0:
431,81,132602,6,0,P|405:148|378:233,1,143.999995605469,2|0,1:2|1:2,0:0:0:0:
487,187,133102,1,8,0:0:0:0:
316,126,133269,1,2,3:2:0:0:
316,126,133352,1,0,3:0:0:0:
316,126,133435,1,0,1:2:0:0:
379,231,133602,1,2,1:2:0:0:
324,346,133769,1,8,0:0:0:0:
324,346,134102,6,0,P|248:354|236:356,1,71.9999978027344,2|0,1:0|0:0,0:0:0:0:
125,215,134435,2,0,P|49:223|37:225,1,71.9999978027344,2|0,1:0|3:0,0:0:0:0:
53,222,134685,1,0,3:0:0:0:
53,222,134769,1,2,1:0:0:0:
189,118,134935,2,0,P|231:126|271:138,1,71.9999978027344,2|8,1:0|0:0,0:0:0:0:
108,320,135269,2,0,P|93:250|92:144,1,143.999995605469,2|0,1:0|1:2,0:0:0:0:
231,33,135769,1,8,0:0:0:0:
174,196,135935,6,0,P|223:204|235:205,2,35.9999989013672,2|0|0,3:2|3:0|1:2,0:0:0:0:
105,94,136269,1,0,1:2:0:0:
10,176,136435,1,10,0:0:0:0:
95,275,136602,1,0,3:0:0:0:
95,275,136685,1,0,3:0:0:0:
95,275,136769,6,0,P|152:287|187:291,1,71.9999978027344,4|0,1:2|0:0,0:0:0:0:
305,204,137102,2,0,P|287:275|277:375,1,143.999995605469,10|0,0:0|1:2,0:0:0:0:
189,147,137602,1,0,1:2:0:0:
208,275,137769,1,8,0:0:0:0:
373,270,137935,6,0,P|388:212|402:117,2,143.999995605469,2|2|2,1:2|1:2|3:2,0:0:0:0:
373,270,138685,1,0,3:0:0:0:
373,270,138769,1,0,1:2:0:0:
468,294,138935,1,0,1:2:0:0:
198,242,139102,1,2,0:1:0:0:
468,294,139435,5,4,3:0:0:0:
468,294,139769,2,0,P|419:283|382:278,1,71.9999978027344,10|0,0:0|3:0,0:0:0:0:
397,279,140019,1,0,3:0:0:0:
397,279,140102,1,0,1:2:0:0:
310,167,140269,2,0,P|318:125|331:78,1,71.9999978027344,2|8,1:2|0:0,0:0:0:0:
224,262,140602,6,0,P|162:282|132:286,1,71.9999978027344,2|2,0:0|1:2,0:0:0:0:
13,151,140935,2,0,P|48:159|81:172,1,71.9999978027344,2|8,1:2|0:0,0:0:0:0:
151,363,141269,1,2,0:0:0:0:
151,363,141352,1,0,0:0:0:0:
151,363,141435,1,0,1:2:0:0:
26,288,141602,1,8,0:0:0:0:
170,198,141769,1,8,3:2:0:0:
182,172,141852,1,0,3:0:0:0:
187,143,141935,1,0,1:0:0:0:
189,114,142019,1,0,3:0:0:0:
186,85,142102,5,12,1:2:0:0:
265,17,142435,2,0,P|270:68|277:104,1,71.9999978027344,8|2,0:0|0:0,0:0:0:0:
205,217,142769,1,0,1:2:0:0:
93,128,142935,2,0,P|46:99|22:81,1,71.9999978027344,2|8,1:2|0:0,0:0:0:0:
110,257,143269,6,0,P|152:212|214:116,1,143.999995605469,2|0,1:2|1:2,0:0:0:0:
263,17,143769,1,8,0:0:0:0:
340,117,143935,1,0,3:2:0:0:
340,117,144019,1,0,3:2:0:0:
340,117,144102,2,0,P|347:164|349:200,1,71.9999978027344,2|0,1:2|1:2,0:0:0:0:
214,349,144435,2,0,P|221:302|223:266,1,71.9999978027344,10|0,0:0|1:0,0:0:0:0:
141,67,144769,1,2,1:0:0:0:
141,67,145102,6,0,P|145:126|153:170,1,71.9999978027344,8|2,0:0|0:0,0:0:0:0:
219,15,145435,1,0,1:2:0:0:
48,91,145602,2,0,P|62:34|77:2,1,71.9999978027344,2|8,1:2|0:0,0:0:0:0:
298,44,145935,2,0,P|288:99|258:187,1,143.999995605469,2|0,1:2|1:2,0:0:0:0:
84,232,146435,5,10,0:0:0:0:
64,82,146602,2,0,L|25:72,2,35.9999989013672,0|0|2,1:0|3:0|1:2,0:0:0:0:
200,136,146935,1,2,1:2:0:0:
69,245,147102,1,8,0:0:0:0:
184,337,147269,1,0,1:0:0:0:
212,332,147352,1,0,3:0:0:0:
240,327,147435,1,4,1:2:0:0:
86,265,147769,6,0,P|36:276|-2:284,1,71.9999978027344,8|2,0:0|0:0,0:0:0:0:
75,135,148102,1,0,1:2:0:0:
186,215,148269,2,0,P|199:262|204:302,1,71.9999978027344,2|8,1:2|0:0,0:0:0:0:
202,123,148602,6,0,P|244:89|353:106,1,143.999995605469,2|0,1:2|1:2,0:0:0:0:
454,234,149102,1,8,0:0:0:0:
301,234,149269,1,2,3:2:0:0:
301,234,149352,1,0,3:0:0:0:
301,234,149435,2,0,P|284:159|285:139,1,71.9999978027344,2|0,1:2|1:2,0:0:0:0:
430,27,149769,2,0,P|425:62|413:96,1,71.9999978027344,10|0,0:0|1:2,0:0:0:0:
205,202,150102,1,2,1:0:0:0:
205,202,150435,6,0,P|206:262|207:300,1,71.9999978027344,8|2,0:0|0:0,0:0:0:0:
404,148,150769,1,0,1:2:0:0:
305,206,150935,1,2,1:2:0:0:
236,108,151102,1,8,0:0:0:0:
71,167,151269,1,2,1:1:0:0:
71,167,151602,5,0,1:2:0:0:
215,206,151769,1,10,0:0:0:0:
154,54,151935,1,0,3:0:0:0:
154,54,152019,1,0,3:0:0:0:
154,54,152102,1,0,1:2:0:0:
271,134,152269,1,8,0:0:0:0:
377,21,152435,1,8,3:2:0:0:
351,24,152519,1,0,3:0:0:0:
326,26,152602,1,0,3:0:0:0:
301,29,152685,1,0,3:0:0:0:
275,32,152769,1,4,1:2:0:0:
280,119,153102,5,8,0:0:0:0:
280,119,153269,1,2,0:0:0:0:
362,295,153435,1,0,1:2:0:0:
418,206,153602,2,0,P|365:195|324:194,1,71.9999978027344,2|8,1:2|0:0,0:0:0:0:
114,233,153935,1,10,0:1:0:0:
114,233,154269,5,0,1:2:0:0:
218,305,154435,2,0,P|228:264|233:212,1,71.9999978027344,8|0,0:0|3:0,0:0:0:0:
231,234,154685,1,0,3:0:0:0:
231,234,154769,1,0,1:2:0:0:
352,326,154935,1,0,1:2:0:0:
334,167,155102,2,0,P|337:236|342:272,1,71.9999978027344,8|2,0:0|0:0,0:0:0:0:
331,50,155435,1,4,1:3:0:0:
331,50,155769,6,0,P|328:119|323:155,1,71.9999978027344,10|2,0:0|3:2,0:0:0:0:
327,121,156019,1,0,3:0:0:0:
327,121,156102,1,0,1:2:0:0:
212,191,156269,1,8,0:0:0:0:
421,103,156435,1,8,0:0:0:0:
401,324,156602,1,10,0:1:0:0:
401,324,157102,6,2,P|362:268|271:271,1,143.999995605469,4|2,1:2|0:2,0:1:0:0:
137,341,157602,1,0,1:2:0:0:
204,167,157769,1,8,0:0:0:0:
30,255,157935,1,0,3:0:0:0:
20,231,158019,1,0,3:0:0:0:
16,206,158102,1,4,1:2:0:0:
134,15,158435,6,0,L|125:111,1,71.9999978027344,8|0,0:0|0:0,0:0:0:0:
111,210,158769,1,0,1:2:0:0:
213,67,158935,1,0,1:2:0:0:
271,145,159102,1,8,0:0:0:0:
56,136,159269,1,2,1:1:0:0:
56,136,159602,5,0,1:2:0:0:
129,239,159769,2,0,P|160:199|177:155,1,71.9999978027344,8|0,0:0|3:0,0:0:0:0:
169,179,160019,1,0,3:0:0:0:
169,179,160102,1,0,1:2:0:0:
336,277,160269,1,0,1:2:0:0:
253,227,160435,1,8,0:0:0:0:
196,347,160602,1,0,1:2:0:0:
253,227,160769,6,0,P|259:174|258:53,1,143.999995605469,4|8,1:3|0:0,0:0:0:0:
193,18,161269,1,0,3:0:0:0:
193,18,161352,1,0,3:0:0:0:
193,18,161435,1,0,1:2:0:0:
36,80,161602,2,0,P|29:145|32:176,1,71.9999978027344,0|8,1:2|0:0,0:0:0:0:
256,192,162102,5,10,0:1:0:0:
256,192,163102,2,10,L|157:200,1,90.0000034332277,2|0,0:1|0:1,0:1:0:0:
125,172,163435,6,0,L|323:156,1,191.999994140625,4|8,1:2|0:0,0:0:0:0:
452,292,163935,1,2,3:2:0:0:
452,292,164019,1,0,3:0:0:0:
452,292,164102,2,0,P|367:304|353:307,1,95.9999970703126,0|0,1:0|1:0,0:0:0:0:
206,194,164435,1,8,0:0:0:0:
221,65,164602,6,0,P|275:52|393:116,1,191.999994140625,4|2,1:3|1:2,0:0:0:0:
415,195,165102,1,8,0:0:0:0:
268,200,165269,1,2,3:2:0:0:
268,200,165352,1,0,3:0:0:0:
268,200,165435,1,0,1:0:0:0:
405,59,165602,1,0,1:0:0:0:
488,255,165769,2,2,P|498:211|504:167,1,90.0000034332277,10|0,0:1|0:1,0:1:0:0:
484,275,166102,5,4,3:0:0:0:
310,217,166435,2,0,P|298:275|298:341,1,95.9999970703126,10|0,0:0|3:0,0:0:0:0:
296,311,166685,1,0,3:0:0:0:
296,311,166769,1,2,1:2:0:0:
322,137,166935,1,0,1:0:0:0:
201,260,167102,1,10,0:0:0:0:
230,173,167269,6,0,P|241:120|241:55,1,95.9999970703126,2|2,1:0|3:0,0:0:0:0:
31,168,167602,2,0,P|71:204|127:236,1,95.9999970703126,2|8,1:0|0:0,0:0:0:0:
161,23,167935,1,2,3:1:0:0:
161,23,168019,1,0,3:0:0:0:
161,23,168102,1,2,1:0:0:0:
305,84,168269,1,0,1:0:0:0:
143,126,168435,1,8,0:0:0:0:
239,237,168602,1,0,3:0:0:0:
239,237,168685,1,0,3:0:0:0:
239,237,168769,6,0,P|184:263|46:298,1,191.999994140625,2|8,1:0|0:0,0:0:0:0:
217,348,169269,1,2,3:2:0:0:
217,348,169352,1,0,3:0:0:0:
217,348,169435,2,0,P|284:318|321:295,1,95.9999970703126,0|0,1:0|1:0,0:0:0:0:
227,114,169769,1,8,0:0:0:0:
112,199,169935,6,0,P|102:151|111:76,1,95.9999970703126,4|2,1:3|3:0,0:0:0:0:
278,4,170269,1,2,1:2:0:0:
364,78,170435,1,8,0:0:0:0:
254,125,170602,1,2,3:2:0:0:
254,125,170685,1,0,3:0:0:0:
254,125,170769,2,0,L|193:136,2,47.9999985351563,0|0|0,1:0|3:0|1:0,0:0:0:0:
436,152,171102,2,2,P|444:202|445:250,1,90.0000034332277,10|0,0:1|0:1,0:1:0:0:
430,132,171435,5,4,3:0:0:0:
317,313,171769,2,0,P|343:260|358:217,1,95.9999970703126,10|0,0:0|3:0,0:0:0:0:
355,225,172019,1,0,3:0:0:0:
355,225,172102,1,0,1:0:0:0:
260,235,172269,1,0,1:0:0:0:
119,131,172435,1,10,0:0:0:0:
215,152,172602,6,0,P|210:223|197:268,1,95.9999970703126,2|0,0:1|1:0,0:0:0:0:
39,338,172935,2,0,P|29:291|28:243,1,95.9999970703126,2|8,1:0|0:0,0:0:0:0:
85,37,173269,1,2,3:1:0:0:
85,37,173352,1,0,3:0:0:0:
85,37,173435,1,2,1:0:0:0:
36,215,173602,1,8,0:0:0:0:
183,43,173769,2,0,L|192:101,1,47.9999985351563,8|0,0:0|3:0,0:0:0:0:
220,224,173935,1,0,3:0:0:0:
227,257,174019,1,0,3:0:0:0:
233,284,174102,5,6,1:2:0:0:
333,358,174435,2,0,P|318:298|312:261,1,80,8|2,0:0|3:2,0:0:0:0:
320,252,174685,1,0,3:0:0:0:
334,227,174769,2,0,P|388:187|413:174,1,80,2|0,1:2|1:0,0:0:0:0:
206,321,175102,1,8,0:0:0:0:
225,169,175269,6,0,P|136:168|73:235,1,160,4|2,1:3|1:2,0:0:0:0:
50,301,175769,1,8,0:0:0:0:
26,163,175935,1,2,3:2:0:0:
26,163,176019,1,0,3:0:0:0:
26,163,176102,2,0,P|19:111|6:55,1,80,2|0,1:0|1:0,0:0:0:0:
214,181,176435,2,0,P|225:135|231:91,1,80,10|0,0:1|0:0,0:0:0:0:
364,297,176769,6,2,P|394:233|429:123,1,160,0|8,1:0|0:2,0:1:0:0:
272,32,177269,2,2,P|242:96|207:206,1,160,0|0,1:0|1:0,1:0:0:0:
361,191,177769,1,8,0:0:0:0:
211,272,177935,1,4,1:3:0:0:
211,272,178269,5,0,1:0:0:0:
289,234,178435,1,8,0:0:0:0:
284,325,178602,2,0,P|327:351|369:355,2,80,2|0|0,3:0|1:0|1:0,0:0:0:0:
179,187,179102,1,10,0:1:0:0:
87,265,179269,1,0,3:0:0:0:
87,265,179352,1,0,3:0:0:0:
87,265,179435,6,0,P|92:315|95:339,1,68.0000012969971,6|0,1:2|0:0,0:0:0:0:
201,193,179769,2,0,P|196:143|193:119,1,68.0000012969971,10|0,0:0|0:0,0:0:0:0:
68,279,180102,2,0,P|73:329|76:353,1,68.0000012969971,2|0,1:2|1:2,0:0:0:0:
222,203,180435,2,0,P|217:153|214:129,1,68.0000012969971,10|0,0:0|3:2,0:0:0:0:
214,135,180685,1,0,3:2:0:0:
214,135,180769,1,2,1:2:0:0:
42,93,181102,6,0,P|98:78|115:75,1,68.0000012969971,10|0,0:0|0:0,0:0:0:0:
256,192,181435,1,8,1:0:0:0:
256,192,181769,1,8,1:0:0:0:
470,93,182102,6,0,P|414:78|397:75,1,68.0000012969971,6|0,1:2|0:0,0:0:0:0:
479,183,182435,2,0,P|470:230|467:257,1,68.0000012969971,10|0,0:0|0:0,0:0:0:0:
390,91,182769,2,0,P|334:76|317:73,1,68.0000012969971,2|0,0:0|0:0,0:0:0:0:
437,251,183102,2,0,P|428:298|425:325,1,68.0000012969971,10|0,0:0|0:0,0:0:0:0:
256,344,183435,5,10,0:1:0:0:
254,28,184102,2,2,P|252:91|254:196,1,160,6|0,1:0|3:0,0:1:0:0:
258,227,184519,1,0,3:0:0:0:
263,266,184602,1,0,3:0:0:0:
262,305,184685,1,0,3:0:0:0:
256,348,184769,5,4,1:2:0:0:
171,178,185102,2,0,P|112:163|69:162,1,95.9999970703126,8|2,0:0|3:2,0:0:0:0:
77,161,185352,1,0,3:0:0:0:
77,161,185435,1,0,1:0:0:0:
164,77,185602,1,0,1:0:0:0:
270,120,185769,1,8,0:0:0:0:
120,258,185935,6,0,P|201:272|335:276,1,191.999994140625,4|2,1:3|1:2,0:0:0:0:
486,185,186435,2,0,P|493:242|496:304,1,95.9999970703126,8|2,0:0|3:2,0:0:0:0:
495,280,186685,1,0,3:0:0:0:
495,280,186769,1,0,1:0:0:0:
333,359,186935,1,0,1:0:0:0:
322,222,187102,2,2,P|272:233|212:251,1,90.0000034332277,10|0,0:1|0:1,0:1:0:0:
344,217,187435,5,4,3:0:0:0:
211,72,187769,2,0,P|198:133|173:198,1,95.9999970703126,10|0,0:0|0:0,0:0:0:0:
291,344,188102,1,2,1:2:0:0:
145,301,188269,1,0,1:0:0:0:
327,200,188435,1,10,0:0:0:0:
187,164,188602,6,0,P|111:176|76:189,1,95.9999970703126,2|2,1:0|3:0,0:0:0:0:
40,335,188935,2,0,P|116:323|151:310,1,95.9999970703126,2|8,1:0|0:0,0:0:0:0:
295,191,189269,1,2,3:1:0:0:
276,212,189352,1,0,3:0:0:0:
264,238,189435,1,2,1:0:0:0:
262,366,189602,1,0,1:0:0:0:
158,221,189769,2,0,P|144:160|142:102,1,95.9999970703126,8|0,0:0|3:0,0:0:0:0:
133,98,190019,1,0,3:0:0:0:
121,71,190102,6,0,P|46:78|1:84,1,95.9999970703126,2|0,1:0|0:0,0:0:0:0:
211,12,190435,1,8,0:0:0:0:
226,163,190602,1,2,3:2:0:0:
226,163,190685,1,0,3:0:0:0:
226,163,190769,2,0,P|301:156|346:150,1,95.9999970703126,0|0,1:0|1:0,0:0:0:0:
478,29,191102,1,8,0:0:0:0:
289,75,191269,6,0,P|364:68|409:62,1,95.9999970703126,4|2,1:3|3:0,0:0:0:0:
504,193,191602,1,2,1:2:0:0:
342,228,191769,1,8,0:0:0:0:
453,347,191935,1,2,3:0:0:0:
453,347,192019,1,0,3:0:0:0:
453,347,192102,2,0,P|512:340|518:339,2,47.9999985351563,0|0|0,1:0|3:0|1:0,0:0:0:0:
279,304,192435,2,2,P|212:311|176:316,1,90.0000034332277,10|0,0:1|0:1,0:1:0:0:
308,300,192769,5,4,3:0:0:0:
87,232,193102,2,0,P|155:228|203:212,1,95.9999970703126,10|0,0:0|0:0,0:0:0:0:
307,86,193435,1,0,1:0:0:0:
153,51,193602,1,0,1:0:0:0:
130,192,193769,1,10,0:0:0:0:
67,103,193935,6,0,P|59:53|70:1,1,95.9999970703126,2|0,0:1|1:0,0:0:0:0:
263,175,194269,2,0,P|267:224|260:277,1,95.9999970703126,2|8,1:0|0:0,0:0:0:0:
151,150,194602,1,2,3:1:0:0:
151,150,194685,1,0,3:0:0:0:
151,150,194769,2,0,P|200:93|243:68,1,95.9999970703126,2|8,1:0|0:0,0:0:0:0:
392,143,195102,1,8,3:2:0:0:
355,132,195185,1,0,3:0:0:0:
326,105,195269,1,0,3:0:0:0:
311,69,195352,1,0,3:0:0:0:
313,33,195435,5,6,1:2:0:0:
397,181,195769,2,0,P|389:241|387:279,1,80,8|2,0:0|3:2,0:0:0:0:
387,260,196019,1,0,3:0:0:0:
387,260,196102,1,2,1:2:0:0:
296,360,196269,2,0,P|305:302|306:262,1,80,0|8,1:0|0:0,0:0:0:0:
118,159,196602,6,0,P|61:184|48:277,1,160,4|2,1:3|1:2,0:0:0:0:
128,309,197102,1,8,0:0:0:0:
31,183,197269,1,2,3:2:0:0:
31,183,197352,1,0,3:0:0:0:
31,183,197435,2,0,P|21:124|21:73,1,80,2|0,1:0|1:0,0:0:0:0:
174,8,197769,2,0,P|170:47|163:87,1,80,10|0,0:1|0:0,0:0:0:0:
265,244,198102,6,2,P|266:164|279:59,1,160,0|8,1:0|0:2,0:1:0:0:
164,187,198602,2,2,P|164:271|171:351,1,160,0|0,1:0|1:0,1:0:0:0:
292,176,199102,1,8,0:0:0:0:
333,303,199269,2,0,P|384:312|414:316,2,80,4|0|0,1:3|0:0|1:0,0:0:0:0:
132,271,199769,2,0,P|73:261|21:258,1,80,8|2,0:0|3:0,0:0:0:0:
52,259,200019,1,0,3:0:0:0:
52,259,200102,1,0,1:0:0:0:
192,168,200269,1,0,1:0:0:0:
252,350,200435,2,0,P|236:284|226:248,1,80,10|0,0:1|0:0,0:0:0:0:
343,71,200769,6,0,P|397:59|427:54,1,68.0000012969971,6|0,1:2|0:0,0:0:0:0:
501,180,201102,2,0,P|491:130|486:97,1,68.0000012969971,10|0,0:0|0:0,0:0:0:0:
301,150,201435,2,0,P|311:200|316:233,1,68.0000012969971,2|0,1:2|1:2,0:0:0:0:
467,265,201769,2,0,P|413:277|383:282,1,68.0000012969971,10|0,0:0|3:2,0:0:0:0:
400,279,202019,1,0,3:2:0:0:
400,279,202102,1,2,1:2:0:0:
467,33,202435,6,0,P|413:45|383:50,1,68.0000012969971,10|0,0:0|0:0,0:0:0:0:
256,192,202769,1,8,1:0:0:0:
256,192,203102,1,8,1:0:0:0:
45,33,203435,6,0,P|99:45|129:50,1,68.0000012969971,6|0,1:2|0:0,0:0:0:0:
216,24,203769,2,0,P|270:36|300:41,1,68.0000012969971,10|0,0:0|0:0,0:0:0:0:
72,128,204102,2,0,P|126:140|156:145,1,68.0000012969971,2|0,0:0|0:0,0:0:0:0:
243,119,204436,2,0,P|297:131|327:136,1,68.0000012969971,10|0,0:0|0:0,0:0:0:0:
256,336,204769,5,10,1:0:0:0:
256,336,205102,1,8,1:0:0:0:
256,32,205435,1,8,3:0:0:0:
289,19,205518,1,8,3:0:0:0:
325,20,205601,1,8,3:0:0:0:
358,35,205685,1,8,3:0:0:0:
383,61,205768,1,4,3:0:0:0:
396,96,205851,1,4,3:0:0:0:
395,131,205935,1,4,3:0:0:0:
380,164,206018,1,4,3:0:0:0:
349,187,206102,6,0,P|357:254|368:296,1,80,4|2,1:2|0:0,0:0:0:0:
426,363,206435,1,8,0:0:0:0:
484,241,206602,1,2,3:2:0:0:
484,241,206685,1,0,3:0:0:0:
484,241,206769,1,0,1:0:0:0:
268,250,206935,2,0,P|262:186|278:96,1,120,2|0,1:2|0:0,0:0:0:0:
331,55,207269,6,0,P|282:34|226:35,1,80,2|0,1:0|0:0,0:0:0:0:
68,78,207602,2,0,P|117:99|173:98,1,80,2|8,1:2|0:0,0:0:0:0:
298,129,207935,1,2,3:0:0:0:
298,129,208019,1,0,3:0:0:0:
298,129,208102,1,0,1:0:0:0:
132,205,208269,1,2,1:2:0:0:
304,219,208435,2,0,P|310:264|311:311,1,80,8|2,0:0|0:0,0:0:0:0:
185,105,208769,1,4,1:3:0:0:
185,105,209102,5,8,0:0:0:0:
211,273,209269,1,2,0:0:0:0:
180,80,209435,1,0,1:0:0:0:
99,190,209602,2,0,P|52:207|3:216,1,80,2|8,1:2|0:0,0:0:0:0:
44,18,209935,6,0,P|135:17|216:58,1,160,2|2,1:0|1:2,0:0:0:0:
331,193,210435,1,8,0:0:0:0:
439,93,210602,1,2,3:2:0:0:
439,93,210685,1,0,3:0:0:0:
439,93,210769,2,0,P|384:79|323:78,1,80,0|2,1:0|1:2,0:0:0:0:
251,262,211102,1,8,0:0:0:0:
125,153,211269,1,2,3:2:0:0:
132,117,211352,1,0,3:0:0:0:
141,82,211435,5,4,0:0:0:0:
48,97,211769,1,8,0:0:0:0:
66,244,211935,2,0,P|80:316|90:346,1,80,2|0,0:0|1:0,0:0:0:0:
334,333,212269,2,0,P|343:294|349:254,1,80,0|8,1:0|0:0,0:0:0:0:
435,200,212602,1,2,3:2:0:0:
435,200,212685,1,0,3:0:0:0:
435,200,212769,5,2,1:0:0:0:
256,104,213102,1,10,0:1:0:0:
256,304,213435,1,2,1:0:0:0:
77,200,213769,1,2,1:0:0:0:
256,304,214102,5,6,0:1:0:0:
256,192,214185,12,0,215269,0:0:0:0:
168,300,215435,5,10,0:1:0:0:
213,63,215769,1,10,0:1:0:0:
395,221,216102,2,0,P|386:277|375:317,1,80,10|0,0:1|3:0,0:0:0:0:
196,293,216435,1,10,0:1:0:0:
256,192,216602,1,0,3:0:0:0:
256,192,216685,1,0,3:0:0:0:
256,192,216769,6,0,P|276:122|280:77,1,95.9999970703126,4|2,1:2|0:3,0:0:0:0:
110,9,217102,2,0,P|90:79|86:124,1,95.9999970703126,8|2,0:2|0:3,0:0:0:0:
93,279,217435,1,2,1:2:0:0:
185,118,217602,1,2,1:2:0:0:
7,113,217769,1,8,0:2:0:0:
108,275,217935,1,2,1:2:0:0:
64,162,218102,6,0,P|48:106|40:44,1,95.9999970703126,2|0,0:1|1:2,0:0:0:0:
246,176,218435,2,0,P|262:232|270:294,1,95.9999970703126,8|2,0:2|3:3,0:0:0:0:
267,269,218685,1,0,3:0:0:0:
267,269,218769,1,2,1:2:0:0:
272,104,218935,1,2,1:2:0:0:
141,234,219102,1,10,0:2:0:0:
272,88,219269,1,2,0:0:0:0:
375,291,219435,6,0,P|443:283|490:263,1,95.9999970703126,4|2,1:2|0:3,0:0:0:0:
195,342,219769,2,0,P|127:334|80:314,1,95.9999970703126,8|2,0:2|0:3,0:0:0:0:
270,254,220102,1,2,1:2:0:0:
361,200,220269,1,2,1:2:0:0:
212,140,220435,1,8,0:2:0:0:
114,112,220602,1,2,1:2:0:0:
190,36,220769,6,0,P|250:37|292:48,1,95.9999970703126,2|0,0:1|1:2,0:0:0:0:
457,155,221102,2,0,L|450:262,1,95.9999970703126,10|2,1:1|0:3,0:0:0:0:
315,355,221435,2,0,P|255:354|213:343,1,95.9999970703126,2|0,1:0|1:2,0:0:0:0:
49,234,221769,1,10,0:1:0:0:
209,263,221935,1,2,3:2:0:0:
209,263,222019,1,0,3:0:0:0:
209,263,222102,6,0,P|203:199|178:133,1,95.9999970703126,4|2,1:2|0:3,0:0:0:0:
57,29,222435,2,0,P|63:93|88:159,1,95.9999970703126,8|2,0:2|0:3,0:0:0:0:
309,89,222769,1,2,1:2:0:0:
194,168,222935,1,2,1:2:0:0:
442,171,223102,1,8,0:2:0:0:
315,262,223269,1,2,1:2:0:0:
465,355,223435,6,0,P|471:305|468:250,1,95.9999970703126,2|0,0:1|1:2,0:0:0:0:
416,29,223769,2,0,P|410:79|413:134,1,95.9999970703126,8|2,0:2|3:3,0:0:0:0:
411,124,224019,1,0,3:0:0:0:
411,124,224102,1,2,1:2:0:0:
290,173,224269,1,2,1:2:0:0:
161,206,224435,1,10,0:2:0:0:
294,144,224602,1,2,1:2:0:0:
219,43,224769,6,0,P|156:24|105:27,1,95.9999970703126,4|2,1:2|0:3,0:0:0:0:
27,246,225102,2,0,P|62:244|119:226,1,95.9999970703126,8|2,0:2|0:3,0:0:0:0:
335,280,225435,1,2,1:2:0:0:
213,186,225602,1,2,1:2:0:0:
453,181,225769,1,8,0:2:0:0:
340,295,225935,1,2,1:2:0:0:
323,69,226102,6,0,P|380:51|449:53,1,95.9999970703126,2|0,1:0|1:0,0:0:0:0:
125,75,226435,2,0,P|172:70|217:54,1,95.9999970703126,8|0,0:0|3:0,0:0:0:0:
217,54,226685,1,8,3:2:0:0:
217,54,226769,1,4,3:0:0:0:
199,290,226935,1,10,0:1:0:0:
239,181,227102,1,10,3:1:0:0:
210,163,227185,1,0,3:1:0:0:
176,156,227269,1,0,3:1:0:0:
142,154,227352,1,0,3:1:0:0:
108,158,227435,6,2,P|88:229|121:372,1,191.999994140625,4|8,1:2|0:3,0:1:0:0:
406,272,227935,2,2,P|426:201|393:58,1,191.999994140625,4|4,0:3|0:3,0:1:0:0:
231,268,228435,2,0,P|292:259|328:224,1,95.9999970703126,8|8,0:0|0:3,0:0:0:0:
155,56,228769,5,2,0:1:0:0:
247,179,228935,1,2,3:0:0:0:
89,220,229102,1,10,0:1:0:0:
262,181,229269,1,8,0:3:0:0:
129,52,229435,5,2,0:1:0:0:
113,234,229602,1,4,0:3:0:0:
273,149,229769,1,2,0:1:0:0:
108,58,229935,1,4,0:3:0:0:
291,36,230102,6,2,B|364:56|364:56|407:96|407:96|493:117,1,191.999994140625,4|8,1:2|0:3,0:1:0:0:
171,155,230602,2,2,B|98:175|98:175|55:215|55:215|-31:236,1,191.999994140625,4|4,0:3|0:3,0:1:0:0:
298,266,231102,2,0,L|394:295,1,95.9999970703126,8|8,0:0|0:3,0:0:0:0:
295,135,231435,5,2,0:1:0:0:
232,342,231602,1,2,3:0:0:0:
158,199,231769,1,10,0:1:0:0:
378,266,231935,1,8,0:3:0:0:
141,193,232102,5,2,0:1:0:0:
228,356,232269,1,4,0:3:0:0:
392,272,232435,1,2,0:1:0:0:
299,123,232602,1,4,3:3:0:0:
299,123,232685,1,0,3:0:0:0:
299,123,232769,6,2,P|290:210|316:326,1,191.999994140625,4|8,1:2|0:3,0:1:0:0:
184,197,233269,2,2,P|193:110|167:-6,1,191.999994140625,4|4,0:3|0:3,0:1:0:0:
4,140,233769,2,0,P|3:204|20:266,1,95.9999970703126,8|8,0:0|0:3,0:0:0:0:
159,358,234102,5,2,0:1:0:0:
252,209,234269,1,2,3:0:0:0:
350,314,234435,1,10,0:1:0:0:
428,147,234602,1,8,0:3:0:0:
341,297,234769,5,2,0:1:0:0:
242,179,234935,1,4,0:3:0:0:
163,336,235102,1,2,0:1:0:0:
47,215,235269,1,4,0:3:0:0:
150,49,235435,6,2,P|240:28|370:45,1,191.999994140625,4|8,1:2|0:3,0:1:0:0:
298,331,235935,2,2,P|208:352|78:335,1,191.999994140625,4|4,0:3|0:3,0:1:0:0:
277,110,236435,2,0,P|315:140|342:196,1,95.9999970703126,8|8,0:0|0:3,0:0:0:0:
406,345,236769,5,4,1:2:0:0:
427,137,236935,1,0,3:2:0:0:
427,137,237019,1,0,3:2:0:0:
427,137,237102,1,8,3:2:0:0:
312,312,237269,1,8,0:0:0:0:
328,152,237435,1,8,0:0:0:0:
186,349,237602,1,8,0:0:0:0:
229,77,237769,1,8,0:0:0:0:
432,240,237935,1,8,0:0:0:0:
256,192,238102,5,12,1:2:0:0:
280,112,247935,6,0,L|234:117,2,40,0|0|0,1:0|1:0|1:0,0:0:0:0:
383,184,248269,1,2,3:0:0:0:
383,184,248352,1,0,3:0:0:0:
383,184,248435,2,0,P|447:180|489:176,1,80,8|8,3:2|0:0,0:0:0:0:
288,271,248769,6,0,P|281:191|279:111,1,160,6|8,1:2|0:0,0:0:0:0:
181,204,249269,1,2,3:2:0:0:
181,204,249352,1,0,3:0:0:0:
181,204,249435,2,0,P|125:223|77:225,1,80,2|0,1:2|1:0,0:0:0:0:
9,159,249769,1,8,0:0:0:0:
193,90,249935,6,0,P|259:74|366:88,1,160,4|2,1:3|1:2,0:0:0:0:
480,22,250435,1,8,0:0:0:0:
430,134,250602,1,2,3:2:0:0:
430,134,250685,1,0,3:0:0:0:
430,134,250769,2,0,P|420:193|418:235,1,80,2|0,1:0|1:0,0:0:0:0:
361,364,251102,2,0,P|351:305|349:263,1,80,10|0,0:1|0:0,0:0:0:0:
239,239,251435,6,2,P|155:282|68:270,1,160,0|8,1:0|0:2,0:1:0:0:
323,275,251935,2,2,P|346:204|313:90,1,160,0|0,1:0|1:0,1:0:0:0:
225,287,252435,1,8,0:0:0:0:
207,168,252602,2,0,P|166:172|108:207,2,80,4|0|0,1:3|0:0|1:0,0:0:0:0:
362,199,253102,1,8,0:0:0:0:
281,348,253269,2,0,P|216:374|182:373,1,80,2|0,3:0|1:0,0:0:0:0:
38,279,253602,1,0,1:0:0:0:
136,309,253769,1,10,0:1:0:0:
103,204,253935,1,0,3:0:0:0:
103,204,254019,1,0,3:0:0:0:
103,204,254102,6,0,P|93:143|93:110,1,68.0000012969971,6|0,1:2|0:0,0:0:0:0:
145,0,254435,2,0,P|155:61|155:94,1,68.0000012969971,10|0,0:0|0:0,0:0:0:0:
7,77,254769,2,0,P|57:66|84:62,1,68.0000012969971,2|0,1:2|1:2,0:0:0:0:
244,130,255102,2,0,P|194:141|167:145,1,68.0000012969971,10|0,0:0|3:2,0:0:0:0:
177,143,255352,1,0,3:2:0:0:
177,143,255435,1,2,1:2:0:0:
71,315,255769,6,0,P|118:304|143:299,1,68.0000012969971,10|0,0:0|0:0,0:0:0:0:
256,192,256102,1,8,1:0:0:0:
256,192,256435,1,8,1:0:0:0:
441,315,256769,6,0,P|394:304|369:299,1,68.0000012969971,6|0,1:2|0:0,0:0:0:0:
360,176,257102,2,0,P|370:127|376:99,1,68.0000012969971,10|0,0:0|0:0,0:0:0:0:
409,321,257435,2,0,P|362:310|337:305,1,68.0000012969971,2|0,0:0|0:0,0:0:0:0:
334,148,257769,2,0,P|344:99|350:71,1,68.0000012969971,10|0,0:0|0:0,0:0:0:0:
256,32,258102,5,10,0:1:0:0:
256,359,258769,2,2,P|262:294|256:199,1,160,6|0,1:0|3:0,0:1:0:0:
247,160,259185,1,0,3:0:0:0:
243,119,259269,1,0,3:0:0:0:
247,79,259352,1,0,3:0:0:0:
256,32,259435,5,4,1:2:0:0:
67,111,259769,2,0,P|77:168|96:213,1,95.9999970703126,8|2,0:0|0:0,0:0:0:0:
200,352,260102,1,0,1:0:0:0:
90,203,260269,1,0,1:0:0:0:
63,334,260435,1,8,0:0:0:0:
222,227,260602,6,0,P|286:220|389:286,1,191.999994140625,4|2,1:3|1:2,0:0:0:0:
463,132,261102,2,0,P|458:190|479:248,1,95.9999970703126,8|2,0:0|3:2,0:0:0:0:
467,226,261352,1,0,3:0:0:0:
467,226,261435,1,0,1:0:0:0:
418,44,261602,1,0,1:0:0:0:
259,79,261769,2,2,P|201:92|145:108,1,90.0000034332277,10|0,0:1|0:1,0:1:0:0:
277,76,262102,5,4,3:0:0:0:
126,272,262435,2,0,P|120:208|101:155,1,95.9999970703126,10|0,0:0|3:0,0:0:0:0:
110,177,262685,1,0,3:0:0:0:
110,177,262769,1,2,1:2:0:0:
259,248,262935,1,0,1:0:0:0:
40,150,263102,1,10,0:0:0:0:
218,25,263269,6,0,P|211:91|202:130,1,95.9999970703126,2|2,1:0|3:0,0:0:0:0:
411,48,263602,2,0,P|331:75|286:77,1,95.9999970703126,2|8,1:0|0:0,0:0:0:0:
490,197,263935,1,2,3:1:0:0:
490,197,264019,1,0,3:0:0:0:
490,197,264102,1,2,1:0:0:0:
429,41,264269,1,0,1:0:0:0:
471,213,264435,2,0,P|480:263|481:316,1,95.9999970703126,8|0,0:0|3:0,0:0:0:0:
464,332,264685,1,0,3:0:0:0:
441,350,264769,6,0,P|366:289|269:292,1,191.999994140625,2|8,1:0|0:0,0:0:0:0:
4,290,265269,1,2,3:2:0:0:
4,290,265352,1,0,3:0:0:0:
4,290,265435,1,0,1:0:0:0:
98,245,265602,1,0,1:0:0:0:
176,326,265769,1,8,0:0:0:0:
274,289,265935,6,0,P|296:219|303:189,1,95.9999970703126,4|2,1:3|3:0,0:0:0:0:
205,36,266269,1,2,1:2:0:0:
214,156,266435,1,8,0:0:0:0:
103,227,266602,1,2,3:2:0:0:
103,227,266685,1,0,3:0:0:0:
103,227,266769,1,0,1:0:0:0:
91,104,266935,1,0,1:0:0:0:
301,140,267102,2,2,P|299:184|298:229,1,90.0000034332277,10|0,0:1|0:1,0:1:0:0:
304,117,267435,5,4,3:0:0:0:
461,333,267769,2,0,P|416:350|359:337,1,95.9999970703126,10|0,0:0|3:0,0:0:0:0:
369,342,268019,1,0,3:0:0:0:
369,342,268102,1,0,1:0:0:0:
338,152,268269,2,0,P|383:135|440:148,1,95.9999970703126,0|10,1:0|0:0,0:0:0:0:
245,260,268602,6,0,P|188:266|128:275,1,95.9999970703126,2|0,0:1|1:0,0:0:0:0:
260,92,268935,2,0,P|236:144|214:200,1,95.9999970703126,2|8,1:0|0:0,0:0:0:0:
103,9,269269,1,2,3:1:0:0:
103,9,269352,1,0,3:0:0:0:
103,9,269435,2,0,P|136:55|174:102,1,95.9999970703126,2|8,1:0|0:0,0:0:0:0:
137,241,269769,1,8,3:2:0:0:
101,255,269852,1,0,3:0:0:0:
68,275,269935,1,0,3:0:0:0:
40,301,270019,1,0,3:0:0:0:
17,338,270102,5,6,1:2:0:0:
174,236,270435,2,0,P|229:232|270:234,1,80,8|2,0:0|3:2,0:0:0:0:
253,232,270685,1,0,3:0:0:0:
253,232,270769,1,2,1:2:0:0:
76,167,270935,2,0,P|54:103|54:61,1,80,0|8,1:0|0:0,0:0:0:0:
168,2,271269,6,0,P|196:62|211:158,1,160,4|2,1:3|1:2,0:0:0:0:
158,280,271769,1,8,0:0:0:0:
266,359,271935,1,2,3:2:0:0:
266,359,272019,1,0,3:0:0:0:
266,359,272102,2,0,P|331:350|364:348,1,80,2|0,1:0|1:0,0:0:0:0:
345,197,272435,2,0,P|333:140|315:102,1,80,10|0,0:1|0:0,0:0:0:0:
451,45,272769,6,2,P|453:103|488:227,1,160,0|8,1:0|0:2,0:1:0:0:
249,71,273269,2,2,P|284:137|349:199,1,160,0|0,1:0|1:0,1:0:0:0:
344,196,273769,1,8,0:0:0:0:
172,114,273935,2,0,P|126:132|81:167,1,80,4|0,1:3|0:0,0:0:0:0:
46,271,274269,1,0,1:0:0:0:
157,338,274435,2,0,P|203:320|248:285,1,80,8|2,0:0|3:0,0:0:0:0:
228,303,274685,1,0,3:0:0:0:
228,303,274769,1,0,1:0:0:0:
322,332,274935,1,0,1:0:0:0:
228,303,275102,2,0,P|224:234|228:201,1,80,10|0,0:1|0:0,0:0:0:0:
219,46,275435,6,0,P|282:50|317:55,1,68.0000012969971,6|0,1:2|0:0,0:0:0:0:
402,155,275769,2,0,P|398:218|393:253,1,68.0000012969971,10|0,0:0|0:0,0:0:0:0:
293,338,276102,2,0,P|230:334|195:329,1,68.0000012969971,2|0,1:2|1:2,0:0:0:0:
110,229,276435,2,0,P|114:166|119:131,1,68.0000012969971,10|0,0:0|3:2,0:0:0:0:
114,161,276685,1,0,3:2:0:0:
114,161,276769,1,2,1:2:0:0:
391,60,277102,6,0,P|387:94|386:127,1,68.0000012969971,10|0,0:2|0:0,0:0:0:0:
256,192,277435,1,8,1:0:0:0:
256,192,277769,1,8,1:0:0:0:
120,124,278102,6,0,P|119:87|115:51,1,68.0000012969971,6|0,1:2|0:0,0:0:0:0:
188,326,278435,2,0,P|151:327|115:331,1,68.0000012969971,10|0,0:0|0:0,0:0:0:0:
390,258,278769,2,0,P|391:295|395:331,1,68.0000012969971,2|0,0:2|0:0,0:0:0:0:
322,56,279102,2,0,P|359:55|395:51,1,68.0000012969971,10|0,0:0|0:0,0:0:0:0:
256,104,279435,5,10,1:0:0:0:
256,104,279769,1,8,1:0:0:0:
256,371,280102,1,8,3:0:0:0:
265,338,280185,1,8,3:0:0:0:
270,304,280268,1,8,3:0:0:0:
271,270,280351,1,8,3:0:0:0:
264,237,280435,1,4,3:0:0:0:
253,205,280518,1,4,3:0:0:0:
249,171,280601,1,4,3:0:0:0:
251,137,280685,1,4,3:0:0:0:
256,104,280768,5,6,1:2:0:0:
256,192,280852,12,2,281935,0:0:0:0:
