osu file format v14

[General]
AudioFilename: audio.mp3
AudioLeadIn: 0
PreviewTime: 14352
Countdown: 0
SampleSet: Soft
StackLeniency: 0.5
Mode: 0
LetterboxInBreaks: 0
WidescreenStoryboard: 1

[Editor]
Bookmarks: 24852,67435,110102,119435,142102,163435,206102,216769,238102,248769,280769
DistanceSpacing: 0.6
BeatDivisor: 4
GridSize: 8
TimelineZoom: 1.4

[Metadata]
Title:Plastic Girl
TitleUnicode:プラスチックガール
Artist:capsule feat. EeL
ArtistUnicode:capsule feat. EeL
Creator:Fsjallink
Version:Renumi's Insane
Source:
Tags:renumi japanese pop jpop electronic shibuya kei picopop Cutie Cinema Replay Yasutaka Nakata Toshiko Koshijima
BeatmapID:3987938
BeatmapSetID:1907402

[Difficulty]
HPDrainRate:5
CircleSize:3.9
OverallDifficulty:7
ApproachRate:8.8
SliderMultiplier:1.4
SliderTickRate:1

[Events]
//Background and Video events
0,0,"56821618_p0.jpg",0,0
//Break Periods
2,110302,118806
2,238302,247306
//Storyboard Layer 0 (Background)
//Storyboard Layer 1 (Fail)
//Storyboard Layer 2 (Pass)
//Storyboard Layer 3 (Foreground)
//Storyboard Layer 4 (Overlay)
//Storyboard Sound Samples

[TimingPoints]
269,333.333333333333,4,2,0,40,1,0
269,-100,4,2,0,40,0,0
3436,333.333333333333,4,2,0,50,1,0
4602,-142.857142857143,4,2,0,50,0,0
14102,-100,4,2,0,70,0,0
24769,-100,4,2,0,60,0,0
46102,-90.9090909090909,4,2,0,60,0,0
46436,-100,4,2,0,60,0,0
57103,-100,4,2,0,60,0,0
62103,-100,4,2,0,60,0,0
67435,-90.9090909090909,4,2,0,70,0,0
67770,-100,4,2,0,70,0,0
78102,-100,4,2,0,60,0,0
87435,-100,4,2,0,70,0,0
88769,-90.9090909090909,4,2,0,70,0,0
89102,-100,4,2,0,70,0,0
99435,-100,4,2,0,60,0,0
108769,-100,4,2,0,70,0,0
110102,-100,4,2,0,60,0,0
163102,-166.666666666667,4,2,0,40,0,0
163435,-100,4,2,0,70,0,0
174102,-100,4,2,0,60,0,0
183435,-100,4,2,0,70,0,0
184769,-90.9090909090909,4,2,0,70,0,0
185102,-100,4,2,0,70,0,0
195435,-100,4,2,0,60,0,0
204769,-100,4,2,0,70,0,0
216769,-125,4,2,0,70,0,1
238102,-100,4,2,0,70,0,0
248769,-100,4,2,0,60,0,0
258769,-100,4,2,0,70,0,0
259435,-90.9090909090909,4,2,0,70,0,0
259769,-100,4,2,0,70,0,0
270102,-100,4,2,0,60,0,0
279435,-100,4,2,0,70,0,0

[Colours]
Combo1 : 240,125,125
Combo2 : 172,240,155
Combo3 : 148,157,243

[HitObjects]
85,265,3436,5,4,0:0:0:0:
85,265,3769,1,2,0:3:0:0:
149,317,3935,1,0,0:0:0:0:
229,291,4102,1,2,0:0:0:0:
166,225,4269,1,2,0:0:0:0:
166,225,4602,2,0,L|322:208,1,146.999995513916,2|0,0:0|0:0,0:0:0:0:
442,257,5269,1,2,0:0:0:0:
442,257,5435,2,0,P|409:253|376:248,1,48.9999985046387,2|0,0:0|0:0,0:0:0:0:
292,162,5769,2,0,P|325:166|358:171,1,48.9999985046387,2|0,0:0|0:0,0:0:0:0:
512,98,6102,5,0,1:0:0:0:
512,98,6435,1,2,0:3:0:0:
444,60,6602,1,0,0:0:0:0:
378,103,6769,1,2,0:0:0:0:
306,71,6935,1,2,0:0:0:0:
306,71,7102,1,2,0:3:0:0:
227,79,7269,1,2,0:0:0:0:
227,79,7602,2,0,P|219:111|212:138,1,48.9999985046387
137,240,7935,1,2,0:0:0:0:
137,240,8102,2,0,P|133:204|119:151,1,73.4999977569581,2|0,0:0|0:0,0:0:0:0:
97,132,8435,1,10,0:0:0:0:
259,222,8602,1,0,3:0:0:0:
259,222,8685,1,0,3:0:0:0:
259,222,8769,6,0,L|375:240,1,97.9999970092774,4|2,0:0|0:0,0:0:0:0:
428,310,9269,2,0,P|456:297|480:288,1,48.9999985046387,2|0,0:0|0:0,0:0:0:0:
337,327,9602,2,0,P|331:350|330:375,1,48.9999985046387,2|0,0:0|0:0,0:0:0:0:
395,227,9935,2,0,P|372:187|323:146,1,97.9999970092774,2|0,0:0|0:0,0:0:0:0:
71,330,10602,1,2,0:0:0:0:
89,148,10769,1,2,0:0:0:0:
71,330,11102,2,0,P|60:303|42:272,1,48.9999985046387,2|0,0:0|0:0,0:0:0:0:
89,148,11435,6,0,P|138:144|195:132,1,97.9999970092774,0|2,1:0|0:0,0:0:0:0:
262,80,11935,1,2,0:0:0:0:
89,148,12269,2,0,P|62:188|35:245,1,97.9999970092774,2|0,0:0|0:0,0:0:0:0:
71,330,12769,5,2,0:0:0:0:
71,330,13102,1,8,0:0:0:0:
195,246,13435,1,2,0:0:0:0:
71,330,13602,1,8,0:0:0:0:
246,341,13769,1,0,3:0:0:0:
257,338,13852,1,0,3:0:0:0:
269,335,13935,1,0,3:0:0:0:
282,334,14019,1,0,3:0:0:0:
294,333,14102,6,0,P|313:265|318:241,1,70,4|0,1:2|0:0,0:0:0:0:
230,179,14435,1,8,0:0:0:0:
323,101,14602,1,2,3:2:0:0:
323,101,14685,1,0,3:0:0:0:
323,101,14769,1,0,1:0:0:0:
423,177,14935,2,0,P|438:214|462:264,1,70,2|8,1:2|0:0,0:0:0:0:
450,241,15269,2,0,P|385:250|307:266,1,140,2|2,1:0|1:2,0:0:0:0:
230,179,15769,1,8,0:0:0:0:
118,221,15935,5,2,3:2:0:0:
118,221,16019,1,0,3:0:0:0:
118,221,16102,2,0,P|101:259|87:302,1,70,0|2,1:0|1:2,0:0:0:0:
230,179,16435,2,0,P|221:139|121:89,1,140,8|4,0:0|1:3,0:0:0:0:
142,87,17102,6,0,L|227:70,1,70,8|2,0:0|3:2,0:0:0:0:
251,43,17352,1,0,3:0:0:0:
251,43,17435,1,0,1:0:0:0:
317,147,17602,2,0,P|327:183|329:233,1,70,2|8,1:2|0:0,0:0:0:0:
423,314,17935,2,0,P|431:249|453:167,1,140,2|2,1:0|1:2,0:0:0:0:
399,69,18435,1,8,0:0:0:0:
309,142,18602,5,2,3:2:0:0:
309,142,18685,1,0,3:0:0:0:
309,142,18769,2,0,P|275:134|230:125,1,70,0|2,1:0|1:2,0:0:0:0:
145,88,19102,2,0,P|112:97|59:117,1,70,8|2,0:0|3:0,0:0:0:0:
40,139,19352,1,0,3:0:0:0:
40,139,19435,6,0,L|53:253,1,105,4|0,0:0|0:0,0:0:0:0:
31,288,19769,1,8,0:0:0:0:
153,264,19935,1,2,0:0:0:0:
153,264,20019,1,0,0:0:0:0:
153,264,20102,1,0,1:0:0:0:
213,346,20269,2,0,P|246:318|344:303,1,140,0|2,1:0|3:2,0:0:0:0:
367,263,20685,1,0,3:0:0:0:
367,263,20769,5,2,1:0:0:0:
328,81,21102,1,10,0:1:0:0:
146,120,21435,1,2,1:0:0:0:
185,302,21769,1,2,1:0:0:0:
256,192,22102,1,6,0:1:0:0:
256,192,23435,6,0,P|293:177|331:165,1,70,10|0,0:1|0:0,0:0:0:0:
331,69,23769,2,0,P|367:85|401:105,1,70,10|0,0:1|0:0,0:0:0:0:
469,36,24102,2,0,P|481:73|490:112,1,70,10|0,0:1|3:0,0:0:0:0:
477,155,24352,1,0,3:0:0:0:
477,155,24435,1,10,3:1:0:0:
449,148,24518,1,0,3:0:0:0:
421,149,24601,1,0,3:0:0:0:
394,156,24684,1,0,3:0:0:0:
370,170,24769,6,0,B|319:160|319:160|270:160|270:160|219:152,1,140,4|0,1:2|3:0,3:0:0:0:
32,37,25352,1,0,3:0:0:0:
32,37,25435,2,0,P|69:53|117:81,1,70,0|2,1:2|1:2,0:0:0:0:
161,148,25769,1,8,0:2:0:0:
280,138,25935,2,0,L|304:-14,1,140,2|0,1:2|1:2,0:0:0:0:
423,78,26435,1,8,0:2:0:0:
403,201,26602,1,2,3:2:0:0:
403,201,26685,1,0,3:0:0:0:
403,201,26769,1,0,1:2:0:0:
313,133,26935,1,2,1:2:0:0:
425,207,27102,2,0,P|442:249|452:286,1,70,8|0,0:2|0:0,0:0:0:0:
270,379,27435,6,0,P|284:312|331:234,2,140,2|10|2,1:0|0:1|1:0,0:0:0:0:
110,258,28269,2,0,P|172:271|207:284,1,70,2|8,1:0|0:2,0:0:0:0:
393,219,28602,2,0,P|295:198|240:178,1,140,2|0,1:0|1:2,0:0:0:0:
201,70,29102,1,8,0:2:0:0:
87,133,29269,1,2,3:2:0:0:
87,133,29352,1,0,3:0:0:0:
87,133,29435,2,0,P|63:176|48:205,1,70,0|0,1:2|1:2,0:0:0:0:
189,46,29769,1,10,0:2:0:0:
110,258,29935,1,0,3:0:0:0:
110,258,30019,1,0,3:0:0:0:
110,258,30102,6,0,P|178:284|232:222,1,140,4|10,1:2|0:2,0:0:0:0:
412,168,30685,1,0,3:0:0:0:
412,168,30769,1,0,1:2:0:0:
304,170,30935,1,0,1:2:0:0:
397,80,31102,1,8,0:2:0:0:
496,158,31269,6,0,P|506:196|510:247,1,70,2|0,1:2|0:0,0:0:0:0:
316,90,31602,2,0,P|306:56|302:21,1,70,2|0,1:2|0:0,0:0:0:0:
402,151,31935,2,0,P|376:215|363:284,1,140,2|0,3:2|1:2,0:0:0:0:
289,367,32435,2,0,P|276:321|227:266,1,105,2|0,0:1|0:0,0:0:0:0:
198,249,32769,5,4,3:0:0:0:
198,249,33102,2,0,L|49:268,1,140,10|0,0:2|1:2,0:0:0:0:
0,167,33602,2,0,P|31:152|65:141,1,70,2|8,1:2|0:2,0:0:0:0:
232,149,33935,2,0,P|201:106|188:77,1,70,2|0,0:1|1:2,0:0:0:0:
206,248,34269,2,0,P|201:282|188:327,1,70,2|8,1:1|0:2,0:0:0:0:
67,265,34602,1,2,3:1:0:0:
67,265,34685,1,0,3:1:0:0:
67,265,34769,1,8,0:2:0:0:
184,147,34935,1,0,3:1:0:0:
184,147,35019,1,0,3:1:0:0:
184,147,35102,1,8,3:2:0:0:
207,131,35185,1,0,3:1:0:0:
234,125,35268,1,8,3:2:0:0:
261,129,35352,1,8,3:2:0:0:
285,143,35435,6,0,P|318:196|351:291,1,140,4|8,1:2|0:0,0:0:0:0:
464,106,36019,1,0,3:0:0:0:
464,106,36102,2,0,P|440:59|426:28,1,70,0|2,1:2|1:2,0:0:0:0:
411,173,36435,1,8,0:0:0:0:
311,55,36602,2,0,P|252:30|167:67,1,140,2|0,1:2|1:2,0:0:0:0:
107,149,37102,1,8,0:0:0:0:
25,88,37269,1,2,3:2:0:0:
25,88,37352,1,0,3:0:0:0:
25,88,37435,1,0,1:2:0:0:
175,91,37602,1,2,1:2:0:0:
31,125,37769,2,0,P|15:170|6:217,1,70,8|0,0:0|0:0,0:0:0:0:
117,306,38102,6,0,B|272:288,2,140,2|2|2,1:0|1:0|1:0,0:0:0:0:
0,341,38935,2,0,P|58:363|65:373,1,70,2|8,1:0|0:0,0:0:0:0:
246,342,39269,2,0,P|219:324|270:235,1,140,2|0,1:0|1:2,0:0:0:0:
360,181,39769,1,8,0:0:0:0:
233,148,39935,1,2,3:2:0:0:
233,148,40019,1,0,3:0:0:0:
233,148,40102,2,0,P|191:134|134:118,1,70,0|0,1:2|1:2,0:0:0:0:
155,12,40435,1,10,0:0:0:0:
37,187,40602,1,0,3:0:0:0:
37,187,40685,1,0,3:0:0:0:
37,187,40769,5,4,1:2:0:0:
37,187,41102,2,0,P|56:229|72:298,1,105,10|0,0:0|0:0,0:0:0:0:
70,330,41435,1,0,1:2:0:0:
191,340,41602,1,0,1:2:0:0:
145,255,41769,1,8,0:0:0:0:
215,350,41935,6,0,P|248:340|290:323,1,70,2|0,1:2|0:0,0:0:0:0:
370,181,42269,2,0,P|336:191|304:205,1,70,2|0,1:2|0:0,0:0:0:0:
376,288,42602,2,0,P|408:301|541:333,1,140,2|0,3:2|1:2,0:0:0:0:
496,174,43102,1,2,0:1:0:0:
276,125,43435,5,4,3:0:0:0:
276,125,43769,2,0,P|221:137|154:172,1,105,10|0,0:0|3:0,0:0:0:0:
137,187,44102,1,0,1:2:0:0:
28,55,44269,2,0,P|67:68|98:77,1,70,2|8,1:2|0:0,0:0:0:0:
217,58,44602,1,2,0:0:0:0:
305,130,44769,1,2,1:2:0:0:
240,213,44935,2,0,P|221:249|208:288,1,70,2|8,1:2|0:0,0:0:0:0:
329,110,45269,1,2,3:2:0:0:
329,110,45352,1,0,3:0:0:0:
329,110,45435,1,0,1:2:0:0:
380,214,45602,1,8,0:0:0:0:
433,45,45769,1,8,0:0:0:0:
487,201,45935,1,0,3:0:0:0:
487,201,46019,1,0,3:0:0:0:
487,201,46102,6,0,P|496:234|511:318,1,115.50000352478,12|0,1:2|0:0,0:0:0:0:
491,365,46435,1,8,0:0:0:0:
401,270,46602,1,2,3:2:0:0:
401,270,46685,1,0,3:0:0:0:
401,270,46769,2,0,P|366:274|332:284,1,70,0|2,1:2|1:2,0:0:0:0:
379,380,47102,1,8,0:0:0:0:
245,344,47269,2,0,P|178:366|86:366,1,140,2|0,1:2|1:2,0:0:0:0:
41,282,47769,1,8,0:0:0:0:
159,265,47935,1,0,3:2:0:0:
159,265,48019,1,0,3:2:0:0:
159,265,48102,2,0,P|171:218|180:173,1,70,2|0,1:2|1:2,0:0:0:0:
232,57,48435,2,0,P|252:113|260:141,1,70,10|0,0:0|1:0,0:0:0:0:
300,217,48769,6,0,P|363:235|417:173,1,140,2|8,1:0|0:0,0:0:0:0:
404,80,49269,1,2,3:2:0:0:
404,80,49352,1,0,3:0:0:0:
404,80,49435,1,0,1:2:0:0:
442,181,49602,2,0,P|473:207|507:234,1,70,2|8,1:2|0:0,0:0:0:0:
315,142,49935,6,0,P|272:184|218:272,1,140,2|0,1:2|1:2,0:0:0:0:
212,345,50435,1,10,0:0:0:0:
112,348,50602,1,0,1:0:0:0:
88,257,50769,1,2,1:2:0:0:
88,257,50935,1,2,1:2:0:0:
12,312,51102,1,8,0:0:0:0:
12,312,51269,1,0,1:0:0:0:
142,198,51435,6,0,L|161:82,1,105,4|0,1:2|0:0,0:0:0:0:
143,49,51769,1,8,0:0:0:0:
264,20,51935,1,2,0:0:0:0:
264,20,52019,1,0,3:0:0:0:
264,20,52102,2,0,P|299:59|317:84,1,70,0|2,1:2|1:2,0:0:0:0:
398,153,52435,1,8,0:0:0:0:
301,234,52602,2,0,B|359:242|359:242|393:256|393:256|422:257|469:263,1,140,2|0,1:2|1:2,0:0:0:0:
393,129,53102,1,8,0:0:0:0:
279,223,53269,1,2,3:2:0:0:
279,223,53352,1,0,3:0:0:0:
279,223,53435,2,0,P|252:245|224:273,1,70,2|0,1:2|1:2,0:0:0:0:
138,336,53769,2,0,P|130:301|119:239,1,70,10|0,0:0|1:2,0:0:0:0:
139,159,54102,6,0,P|91:192|-8:158,1,140,2|8,1:0|0:0,0:0:0:0:
79,76,54602,1,2,3:2:0:0:
79,76,54685,1,0,3:0:0:0:
79,76,54769,2,0,P|108:56|146:43,1,70,0|2,1:2|1:2,0:0:0:0:
283,71,55102,1,8,0:0:0:0:
271,252,55269,1,2,1:2:0:0:
271,252,55602,1,0,1:2:0:0:
339,179,55769,2,0,P|394:187|429:197,1,70,10|0,0:0|3:0,0:0:0:0:
407,190,56019,1,0,3:0:0:0:
407,190,56102,1,0,1:2:0:0:
512,127,56269,1,8,0:0:0:0:
429,47,56435,1,8,3:2:0:0:
407,36,56518,1,0,3:0:0:0:
383,28,56601,1,0,3:0:0:0:
359,24,56685,1,0,3:0:0:0:
335,24,56768,5,4,1:2:0:0:
335,24,57102,1,8,0:0:0:0:
215,78,57269,1,2,0:0:0:0:
332,135,57435,1,0,1:2:0:0:
185,177,57602,2,0,P|191:213|198:246,1,70,2|8,1:2|0:0,0:0:0:0:
157,349,57935,2,0,P|191:354|225:361,1,70,10|0,0:1|0:0,0:0:0:0:
163,219,58269,2,0,P|93:234|21:253,1,140,0|0,1:2|3:0,0:0:0:0:
0,276,58685,1,0,3:0:0:0:
0,276,58769,2,0,L|28:185,1,70,0|0,1:2|1:2,0:0:0:0:
100,66,59102,2,0,P|115:141|118:161,1,70,8|2,0:0|0:0,0:0:0:0:
297,67,59435,5,4,1:3:0:0:
297,67,59769,1,10,0:0:0:0:
237,182,59935,1,2,3:2:0:0:
237,182,60019,1,0,3:0:0:0:
237,182,60102,1,0,1:2:0:0:
393,138,60269,5,8,0:0:0:0:
119,246,60602,1,10,0:1:0:0:
393,138,61102,1,4,1:2:0:0:
393,138,61435,2,0,P|387:179|374:233,1,70,2|0,0:2|1:2,0:0:0:0:
271,344,61769,2,0,P|305:301|346:275,1,70,8|0,0:0|3:0,0:0:0:0:
372,294,62019,1,0,3:0:0:0:
372,294,62102,6,0,P|421:317|486:308,1,105,4|0,1:2|0:0,0:0:0:0:
502,284,62435,1,10,0:0:0:0:
438,169,62602,1,0,3:2:0:0:
438,169,62685,1,0,3:0:0:0:
438,169,62769,1,0,1:2:0:0:
304,183,62935,2,0,P|242:192|221:199,1,70,2|8,1:2|0:0,0:0:0:0:
72,103,63269,2,0,P|136:137|142:143,1,70,2|0,1:1|0:0,0:0:0:0:
113,343,63602,2,0,P|89:287|130:223,1,140,0|0,1:2|3:0,0:0:0:0:
180,219,64019,1,0,3:0:0:0:
180,219,64102,2,0,P|191:251|202:290,1,70,0|0,1:2|1:2,0:0:0:0:
0,181,64435,2,0,P|9:147|20:114,1,70,8|0,0:0|1:2,0:0:0:0:
234,109,64769,5,4,1:3:0:0:
234,109,65102,2,0,P|288:99|347:90,1,105,8|0,0:0|3:0,0:0:0:0:
380,67,65435,1,0,1:2:0:0:
490,216,65602,2,0,P|431:192|346:181,1,140,2|0,1:2|0:0,0:0:0:0:
254,272,66102,5,8,0:0:0:0:
254,272,66185,1,8,0:0:0:0:
176,190,66352,5,8,3:0:0:0:
176,190,66435,1,4,3:0:0:0:
258,112,66602,5,8,0:0:0:0:
258,112,66685,1,8,0:0:0:0:
336,194,66852,5,8,3:0:0:0:
336,194,66935,1,4,3:0:0:0:
254,272,67102,5,8,3:0:0:0:
235,268,67185,1,8,3:0:0:0:
216,263,67269,1,4,3:0:0:0:
198,257,67352,1,4,3:0:0:0:
182,252,67435,6,0,P|110:265|24:287,1,154.000004699707,4|8,1:2|0:0,0:0:0:0:
96,97,67935,1,2,3:0:0:0:
96,97,68019,1,0,3:0:0:0:
96,97,68102,2,0,P|118:126|140:157,1,70,0|0,1:0|1:0,0:0:0:0:
254,272,68435,1,8,0:0:0:0:
329,126,68602,1,4,1:3:0:0:
329,126,68935,2,0,P|367:119|415:112,1,70,2|8,1:2|0:0,0:0:0:0:
250,25,69269,1,2,3:2:0:0:
250,25,69352,1,0,3:0:0:0:
250,25,69435,2,0,P|230:53|211:83,1,70,0|0,1:0|1:0,0:0:0:0:
182,252,69769,2,2,P|166:211|99:175,1,105,10|0,0:1|0:1,0:1:0:0:
68,189,70102,6,0,P|38:203|0:223,1,70,4|0,3:0|0:0,0:0:0:0:
146,311,70435,2,0,P|177:296|240:259,1,105,10|0,0:0|3:0,0:0:0:0:
277,230,70769,2,0,L|281:145,1,70,2|0,1:2|1:0,0:0:0:0:
400,276,71102,1,10,0:0:0:0:
400,276,71269,2,0,P|431:303|459:338,1,70,2|2,1:0|3:0,0:0:0:0:
359,161,71602,2,0,P|399:156|444:160,1,70,2|8,1:0|0:0,0:0:0:0:
260,72,71935,1,2,3:1:0:0:
260,72,72019,1,0,3:0:0:0:
260,72,72102,2,0,P|299:45|384:-2,1,140,2|8,1:0|0:0,0:0:0:0:
265,171,72602,1,0,3:0:0:0:
265,171,72685,1,0,3:0:0:0:
265,171,72769,6,0,B|116:181,1,140,2|8,1:0|0:0,0:0:0:0:
29,224,73269,1,2,3:2:0:0:
29,224,73352,1,0,3:0:0:0:
29,224,73435,2,0,P|21:265|17:315,1,70,0|0,1:0|1:0,0:0:0:0:
160,343,73769,1,8,0:0:0:0:
204,203,73935,1,4,1:3:0:0:
204,203,74269,1,2,1:2:0:0:
267,289,74435,1,8,0:0:0:0:
351,227,74602,1,2,3:2:0:0:
351,227,74685,1,0,3:0:0:0:
351,227,74769,2,0,P|329:188|305:152,1,70,0|0,1:0|1:0,0:0:0:0:
266,36,75102,2,2,P|248:73|180:98,1,105,10|0,0:1|0:1,0:1:0:0:
145,112,75435,6,0,L|67:99,1,70,4|0,3:0|0:0,0:0:0:0:
101,219,75769,2,0,P|151:255|192:295,1,105,10|0,0:0|3:0,0:0:0:0:
214,321,76102,2,0,L|305:308,1,70,0|0,1:0|1:0,0:0:0:0:
260,168,76435,1,10,0:0:0:0:
260,168,76602,2,0,L|271:87,1,70,2|0,0:1|1:0,0:0:0:0:
407,202,76935,2,0,P|418:235|429:278,1,70,2|8,1:0|0:0,0:0:0:0:
309,384,77269,1,2,3:1:0:0:
309,384,77352,1,0,3:0:0:0:
309,384,77435,1,2,1:0:0:0:
333,259,77602,1,8,0:0:0:0:
221,266,77769,1,8,0:0:0:0:
203,265,77852,1,0,0:0:0:0:
186,265,77935,1,0,3:0:0:0:
168,263,78018,1,0,3:0:0:0:
151,262,78102,6,0,P|81:248|6:240,1,140,6|8,1:2|0:0,0:0:0:0:
85,361,78602,1,2,3:2:0:0:
85,361,78685,1,0,3:0:0:0:
85,361,78769,1,2,1:2:0:0:
157,292,78935,1,0,1:0:0:0:
92,214,79102,1,8,0:0:0:0:
8,270,79269,1,4,1:3:0:0:
8,270,79602,2,0,P|14:232|22:178,1,70,2|8,1:2|0:0,0:0:0:0:
84,88,79935,1,2,3:2:0:0:
84,88,80019,1,0,3:0:0:0:
84,88,80102,2,0,P|107:125|125:155,1,70,2|0,1:0|1:0,0:0:0:0:
342,160,80435,2,0,P|289:145|229:117,1,105,10|0,0:1|0:0,0:0:0:0:
200,98,80769,6,2,L|188:254,1,140,0|8,1:0|0:2,0:1:0:0:
297,263,81269,2,2,L|336:267,2,35,0|0|0,1:0|3:0|0:0,1:0:0:0:
240,349,81602,2,0,L|156:343,1,70,0|8,1:0|0:0,0:0:0:0:
357,362,81935,1,4,1:3:0:0:
357,362,82269,2,0,P|400:348|435:331,1,70,0|8,1:0|0:0,0:0:0:0:
479,249,82602,1,2,3:0:0:0:
479,249,82685,1,0,3:0:0:0:
479,249,82769,1,0,1:0:0:0:
371,192,82935,1,0,1:0:0:0:
446,268,83102,2,0,P|455:202|472:163,1,105,10|0,0:1|3:0,0:0:0:0:
509,137,83435,6,0,L|484:-7,1,140,6|10,1:2|0:0,0:0:0:0:
390,28,83935,1,0,3:0:0:0:
390,28,84102,2,0,P|359:42|292:56,1,70,2|0,1:2|1:2,0:0:0:0:
234,12,84435,2,0,P|200:21|168:35,1,70,10|0,0:0|3:2,0:0:0:0:
136,73,84685,1,0,3:2:0:0:
140,77,84769,5,2,1:2:0:0:
149,264,85102,1,10,0:0:0:0:
140,77,85435,1,8,1:0:0:0:
140,77,85769,1,8,1:0:0:0:
319,157,86102,6,0,P|371:165|466:170,1,140,6|10,1:2|0:0,0:0:0:0:
243,27,86769,1,2,0:0:0:0:
271,294,87102,1,10,0:0:0:0:
47,146,87435,1,10,0:1:0:0:
47,146,88102,6,2,L|8:166,7,35,6|0|0|0|0|0|0|0,1:0|0:0|0:0|0:0|3:0|3:0|3:0|3:0,0:1:0:0:
6,199,88769,6,0,P|87:187|176:179,1,154.000004699707,4|8,1:2|0:0,0:0:0:0:
278,124,89269,1,2,3:2:0:0:
278,124,89352,1,0,3:0:0:0:
278,124,89435,2,0,P|286:155|293:206,1,70,0|0,1:0|1:0,0:0:0:0:
221,287,89769,1,8,0:0:0:0:
301,373,89935,1,4,1:3:0:0:
301,373,90269,2,0,P|326:318|392:247,1,140,2|2,1:2|3:2,0:0:0:0:
425,241,90685,1,0,3:0:0:0:
425,241,90769,2,0,L|512:254,1,70,0|0,1:0|1:0,0:0:0:0:
338,137,91102,2,2,P|268:146|204:164,1,105,10|0,0:1|0:1,0:1:0:0:
188,174,91435,6,0,L|171:87,1,70,4|0,3:0|0:0,0:0:0:0:
119,223,91769,2,0,P|87:295|74:331,1,105,10|0,0:0|3:0,0:0:0:0:
94,365,92102,2,0,P|157:358|187:354,1,70,2|0,1:2|1:0,0:0:0:0:
274,259,92435,1,10,0:0:0:0:
274,259,92602,2,0,P|293:308|306:344,1,70,2|2,1:0|3:0,0:0:0:0:
188,174,92935,2,0,P|137:166|99:159,1,70,2|8,1:0|0:0,0:0:0:0:
305,142,93269,1,2,3:1:0:0:
305,142,93352,1,0,3:0:0:0:
305,142,93435,2,0,P|337:101|405:31,1,140,2|8,1:0|0:0,0:0:0:0:
437,187,93935,1,0,3:0:0:0:
437,187,94019,1,0,3:0:0:0:
437,187,94102,6,0,P|470:252|433:323,1,140,2|8,1:0|0:0,0:0:0:0:
337,239,94602,1,2,0:0:0:0:
337,239,94685,1,0,3:0:0:0:
337,239,94769,2,0,L|240:220,1,70,0|0,1:0|1:0,0:0:0:0:
174,140,95102,1,8,0:0:0:0:
116,240,95269,1,4,1:3:0:0:
116,240,95602,1,2,1:2:0:0:
180,323,95769,1,8,0:0:0:0:
81,363,95935,1,2,3:2:0:0:
81,363,96019,1,0,3:0:0:0:
81,363,96102,2,0,P|62:360|6:348,1,70,0|0,1:0|1:0,0:0:0:0:
142,244,96435,2,2,P|176:224|255:237,1,105,10|0,0:1|0:1,0:1:0:0:
280,256,96769,6,0,P|303:307|313:339,1,70,4|0,3:0|0:0,0:0:0:0:
498,242,97102,2,0,P|423:228|392:218,1,105,10|0,0:0|3:0,0:0:0:0:
352,195,97435,2,0,P|373:145|386:127,1,70,0|0,1:0|1:0,0:0:0:0:
258,128,97769,1,10,0:0:0:0:
258,128,97935,2,0,P|224:117|190:110,1,70,2|0,0:1|1:0,0:0:0:0:
10,105,98269,2,0,P|50:78|93:60,1,70,2|8,1:0|0:0,0:0:0:0:
187,216,98602,1,2,0:1:0:0:
187,216,98685,1,0,3:0:0:0:
187,216,98769,1,2,1:0:0:0:
52,234,98935,1,8,0:0:0:0:
147,310,99102,1,8,3:2:0:0:
160,320,99185,1,0,3:0:0:0:
177,325,99268,1,0,3:0:0:0:
195,323,99351,1,0,3:0:0:0:
210,315,99435,6,0,P|283:333|356:359,1,140,6|8,1:2|0:0,0:0:0:0:
472,312,99935,1,2,3:2:0:0:
472,312,100019,1,0,3:0:0:0:
472,312,100102,1,2,1:2:0:0:
307,255,100269,1,0,1:0:0:0:
307,255,100602,2,0,P|320:211|342:181,1,70,4|0,1:3|0:0,0:0:0:0:
467,134,100935,2,0,P|413:132|346:67,1,140,2|2,1:2|3:2,0:0:0:0:
319,45,101352,1,0,3:0:0:0:
319,45,101435,2,0,P|281:72|257:92,1,70,2|0,1:0|1:0,0:0:0:0:
85,113,101769,2,0,P|149:138|163:144,1,70,10|0,0:1|0:0,0:0:0:0:
234,241,102102,6,2,L|249:387,1,140,0|8,1:0|0:2,0:1:0:0:
91,263,102602,2,2,P|111:198|156:131,1,140,0|0,1:0|1:0,1:0:0:0:
263,223,103102,1,8,0:0:0:0:
248,80,103269,1,4,1:3:0:0:
248,80,103602,1,0,1:0:0:0:
347,23,103769,2,0,P|386:43|411:69,1,70,8|2,0:0|3:0,0:0:0:0:
443,99,104019,1,0,3:0:0:0:
443,99,104102,1,0,1:0:0:0:
325,152,104269,1,0,1:0:0:0:
480,217,104435,2,0,P|437:219|396:216,1,70,10|0,0:1|3:0,0:0:0:0:
227,185,104769,6,0,P|156:182|86:186,2,140,6|10|2,1:2|0:0|1:2,0:0:0:0:
317,232,105602,1,0,1:2:0:0:
222,299,105769,1,10,0:0:0:0:
171,105,105935,1,0,3:2:0:0:
171,105,106019,1,0,3:2:0:0:
171,105,106102,5,2,1:2:0:0:
86,306,106435,1,10,0:0:0:0:
171,105,106769,1,8,1:0:0:0:
171,104,107102,1,8,1:0:0:0:
356,158,107435,6,0,P|379:96|356:22,1,140,6|10,1:2|0:0,0:0:0:0:
156,226,108102,2,0,P|133:288|156:362,1,140,2|10,0:0|0:0,0:0:0:0:
371,248,108769,6,2,P|394:253|413:261,7,35,10|0|0|0|8|0|0|0,1:1|0:1|0:1|0:1|1:1|0:1|0:1|0:1,0:1:0:0:
465,267,109435,1,8,3:0:0:0:
456,251,109518,1,8,3:0:0:0:
449,235,109601,1,8,3:0:0:0:
441,219,109684,1,8,3:0:0:0:
434,203,109768,1,4,3:0:0:0:
428,187,109851,1,4,3:0:0:0:
421,171,109934,1,4,3:0:0:0:
415,154,110018,1,4,3:0:0:0:
411,137,110102,1,4,1:2:0:0:
256,192,119435,6,0,P|232:144|208:120,1,70,10|0,0:1|0:0,0:0:0:0:
39,109,119769,2,0,P|68:82|111:62,1,70,10|0,0:1|0:0,0:0:0:0:
295,45,120102,1,10,0:1:0:0:
184,27,120269,1,0,3:0:0:0:
301,71,120435,2,0,P|382:65|401:60,1,70,10|0,3:1|3:0,0:0:0:0:
388,66,120685,1,0,3:0:0:0:
406,66,120769,6,0,P|434:109|454:221,1,140,4|0,1:2|3:0,0:0:0:0:
337,317,121351,1,0,3:0:0:0:
337,317,121435,1,0,1:2:0:0:
297,217,121602,2,0,P|336:209|375:220,1,70,2|8,1:2|0:2,0:0:0:0:
227,297,121935,2,0,P|168:322|92:283,1,140,2|0,1:2|1:2,0:0:0:0:
32,200,122435,1,8,0:2:0:0:
168,239,122602,1,2,3:2:0:0:
168,239,122685,1,0,3:0:0:0:
168,239,122769,1,0,1:2:0:0:
74,293,122935,1,2,1:2:0:0:
114,161,123102,2,0,L|98:88,1,70,8|0,0:2|0:0,0:0:0:0:
225,168,123435,6,0,L|338:154,1,105,2|0,1:0|0:0,0:0:0:0:
366,123,123769,2,0,L|447:138,1,70,10|0,0:1|3:0,0:0:0:0:
484,133,124019,1,0,3:0:0:0:
484,133,124102,1,2,1:0:0:0:
359,31,124269,2,0,P|321:38|284:47,1,70,2|8,1:0|0:2,0:0:0:0:
457,67,124602,2,0,P|483:125|495:218,1,140,2|0,1:0|1:2,0:0:0:0:
407,292,125102,1,8,0:2:0:0:
319,231,125269,1,2,3:2:0:0:
319,231,125352,1,0,3:0:0:0:
319,231,125435,1,0,1:2:0:0:
423,274,125602,1,0,1:2:0:0:
305,338,125769,1,10,0:2:0:0:
237,184,125935,1,0,3:0:0:0:
237,184,126019,1,0,3:0:0:0:
237,184,126102,5,4,1:2:0:0:
237,184,126435,2,0,L|67:170,1,140,10|0,0:2|1:2,0:0:0:0:
59,31,126935,1,0,1:2:0:0:
0,132,127102,1,8,0:2:0:0:
83,19,127269,6,0,P|107:59|118:87,1,70,2|0,1:2|0:0,0:0:0:0:
136,262,127602,2,0,P|150:229|168:200,1,70,2|0,1:2|0:0,0:0:0:0:
219,101,127935,1,2,3:2:0:0:
236,102,128018,1,0,3:0:0:0:
253,104,128101,1,0,1:2:0:0:
271,106,128184,1,0,3:0:0:0:
288,110,128268,1,0,1:2:0:0:
428,269,128435,1,2,0:1:0:0:
168,246,128769,5,4,3:0:0:0:
168,246,129102,2,0,P|141:296|129:357,1,105,10|0,0:2|0:0,0:0:0:0:
165,376,129435,1,0,1:2:0:0:
300,346,129602,2,0,P|290:311|273:274,1,70,2|8,1:2|0:2,0:0:0:0:
160,218,129935,1,2,0:1:0:0:
160,218,130102,1,0,1:2:0:0:
10,222,130269,1,2,1:1:0:0:
10,222,130435,1,8,0:2:0:0:
114,129,130602,1,2,0:1:0:0:
114,129,130685,1,0,3:1:0:0:
114,129,130769,1,8,0:2:0:0:
243,171,130935,1,0,3:1:0:0:
243,171,131019,1,0,3:1:0:0:
243,171,131102,1,8,3:2:0:0:
245,153,131185,1,0,3:1:0:0:
246,136,131268,1,8,3:2:0:0:
244,118,131352,1,8,3:2:0:0:
239,101,131435,6,0,P|302:91|381:97,1,140,4|8,1:2|0:0,0:0:0:0:
477,234,132019,1,0,3:0:0:0:
477,234,132102,1,0,1:2:0:0:
369,211,132269,2,0,P|365:253|371:295,1,70,2|8,1:2|0:0,0:0:0:0:
269,368,132602,2,0,P|214:333|122:337,1,140,2|0,1:2|1:2,0:0:0:0:
34,367,133102,1,8,0:0:0:0:
46,232,133269,1,2,3:2:0:0:
46,232,133352,1,0,3:0:0:0:
46,232,133435,1,0,1:2:0:0:
176,245,133602,1,2,1:2:0:0:
46,232,133769,2,0,L|57:160,1,70,8|0,0:0|0:0,0:0:0:0:
142,31,134102,6,0,P|162:98|180:149,1,105,2|0,1:0|0:0,0:0:0:0:
212,159,134435,2,0,L|299:136,1,70,2|0,1:0|3:0,0:0:0:0:
331,155,134685,1,0,3:0:0:0:
331,155,134769,1,2,1:0:0:0:
445,86,134935,2,0,L|358:63,1,70,2|8,1:0|0:0,0:0:0:0:
211,249,135269,2,0,B|268:239|268:239|283:240|283:240|303:228|362:217,1,140,2|0,1:0|1:2,0:0:0:0:
483,243,135769,1,8,0:0:0:0:
382,302,135935,2,0,L|378:345,2,35,2|0|0,3:2|3:0|1:2,0:0:0:0:
401,124,136269,1,0,1:2:0:0:
459,248,136435,1,10,0:0:0:0:
270,172,136602,1,0,3:0:0:0:
270,172,136685,1,0,3:0:0:0:
270,172,136769,6,0,P|236:133|181:114,1,105,4|0,1:2|0:0,0:0:0:0:
142,111,137102,2,0,L|158:31,1,70,10|0,0:0|0:0,0:0:0:0:
124,11,137352,1,0,3:0:0:0:
124,11,137435,1,0,1:2:0:0:
55,167,137602,1,0,1:2:0:0:
5,55,137769,1,8,0:0:0:0:
55,167,137935,6,0,P|76:206|88:251,1,70,2|0,1:2|0:0,0:0:0:0:
166,321,138269,2,0,P|184:273|204:249,1,70,2|0,1:2|0:0,0:0:0:0:
316,259,138602,1,2,3:2:0:0:
327,272,138685,1,0,3:0:0:0:
336,287,138768,1,0,1:2:0:0:
342,303,138852,1,0,3:0:0:0:
346,321,138935,1,0,1:2:0:0:
447,359,139102,1,2,0:1:0:0:
450,144,139435,5,4,3:0:0:0:
450,144,139769,2,0,P|392:141|325:114,1,105,10|0,0:0|3:0,0:0:0:0:
301,110,140102,1,0,1:2:0:0:
165,120,140269,2,0,P|129:129|93:132,1,70,2|8,1:2|0:0,0:0:0:0:
198,0,140602,2,0,P|226:46|234:77,1,70,2|2,0:0|1:2,0:0:0:0:
173,226,140935,2,0,P|145:180|137:149,1,70,2|8,1:2|0:0,0:0:0:0:
347,238,141269,1,2,0:0:0:0:
347,238,141352,1,0,3:0:0:0:
347,238,141435,1,0,1:2:0:0:
266,164,141602,1,8,0:0:0:0:
285,321,141769,1,8,3:2:0:0:
454,277,141935,1,0,1:0:0:0:
454,277,142019,1,0,3:0:0:0:
454,277,142102,6,0,L|444:195,1,70,12|0,1:2|0:0,0:0:0:0:
341,65,142435,1,8,0:0:0:0:
483,96,142602,1,2,0:0:0:0:
394,142,142769,1,0,1:2:0:0:
413,13,142935,2,0,P|452:7|495:12,1,70,2|8,1:2|0:0,0:0:0:0:
394,142,143269,2,0,P|321:153|242:143,1,140,2|0,1:2|1:2,0:0:0:0:
187,78,143769,1,8,0:0:0:0:
119,156,143935,1,0,3:2:0:0:
119,156,144019,1,0,3:2:0:0:
119,156,144102,2,0,P|129:196|127:247,1,70,2|0,1:2|1:2,0:0:0:0:
393,228,144435,2,0,P|383:188|385:137,1,70,10|0,0:0|1:0,0:0:0:0:
224,318,144769,5,2,1:0:0:0:
224,318,145102,1,8,0:0:0:0:
293,241,145269,1,2,0:0:0:0:
293,241,145352,1,0,3:0:0:0:
293,241,145435,1,0,1:2:0:0:
346,346,145602,2,0,P|386:337|426:346,1,70,2|8,1:2|0:0,0:0:0:0:
486,217,145935,2,0,B|445:202|445:202|429:201|429:201|411:186|338:163,1,140,2|0,1:2|1:2,0:0:0:0:
267,197,146435,1,10,0:0:0:0:
267,197,146602,1,0,1:0:0:0:
171,183,146769,1,2,1:2:0:0:
171,183,146935,1,2,1:2:0:0:
98,249,147102,1,8,0:0:0:0:
10,245,147269,1,0,1:0:0:0:
10,245,147352,1,0,3:0:0:0:
10,245,147435,6,0,P|7:192|14:100,1,140,4|8,1:2|0:0,0:0:0:0:
100,17,147935,1,2,0:0:0:0:
94,135,148102,1,0,1:2:0:0:
196,48,148269,2,0,P|197:83|193:143,1,70,2|8,1:2|0:0,0:0:0:0:
258,287,148602,2,0,P|271:230|347:192,1,140,2|0,1:2|1:2,0:0:0:0:
428,235,149102,1,8,0:0:0:0:
449,127,149269,1,2,3:2:0:0:
449,127,149352,1,0,3:0:0:0:
449,127,149435,2,0,L|530:130,1,70,2|0,1:2|1:2,0:0:0:0:
317,67,149769,2,0,P|370:47|403:37,1,70,10|0,0:0|1:2,0:0:0:0:
338,191,150102,6,0,P|288:220|216:176,1,140,2|8,1:0|0:0,0:0:0:0:
126,113,150602,1,2,0:0:0:0:
107,234,150769,1,0,1:2:0:0:
18,162,150935,2,0,P|6:209|11:245,1,70,2|8,1:2|0:0,0:0:0:0:
205,258,151269,2,0,L|358:274,1,140,2|0,1:1|1:2,0:0:0:0:
464,309,151769,1,10,0:0:0:0:
388,367,151935,1,0,3:0:0:0:
388,367,152019,1,0,3:0:0:0:
388,367,152102,1,0,1:2:0:0:
362,277,152269,1,8,0:0:0:0:
432,209,152435,1,8,3:2:0:0:
418,197,152518,1,0,3:0:0:0:
403,189,152601,1,0,3:0:0:0:
387,182,152685,1,0,3:0:0:0:
370,177,152768,1,4,1:2:0:0:
79,231,153102,5,8,0:0:0:0:
113,103,153269,1,2,0:0:0:0:
113,103,153352,1,0,3:0:0:0:
113,103,153435,1,0,1:2:0:0:
182,183,153602,2,0,P|189:229|184:273,1,70,2|8,1:2|0:0,0:0:0:0:
0,121,153935,2,0,P|0:86|5:51,1,70,10|0,0:1|0:0,0:0:0:0:
127,177,154269,2,0,P|191:155|276:150,1,140,0|0,1:2|3:0,0:0:0:0:
312,168,154685,1,0,3:0:0:0:
312,168,154769,2,0,L|328:258,1,70,0|0,1:2|1:2,0:0:0:0:
455,112,155102,2,0,L|442:180,1,70,8|2,0:0|0:0,0:0:0:0:
345,329,155435,5,4,1:3:0:0:
345,329,155769,1,10,0:0:0:0:
360,130,155935,1,2,3:2:0:0:
360,130,156019,1,0,3:0:0:0:
360,130,156102,1,0,1:2:0:0:
471,276,156269,5,8,0:0:0:0:
179,241,156602,1,10,0:1:0:0:
179,241,157102,2,2,P|115:228|61:225,1,105,4|0,1:2|0:0,0:1:0:0:
26,233,157435,2,0,P|41:182|48:152,1,70,2|0,0:2|1:2,0:0:0:0:
211,3,157769,2,0,P|220:49|236:96,1,70,8|0,0:0|3:0,0:0:0:0:
221,123,158019,1,0,3:0:0:0:
221,123,158102,6,0,P|302:113|353:113,1,105,4|0,1:2|0:0,0:0:0:0:
368,136,158435,1,8,0:0:0:0:
493,123,158602,1,0,0:0:0:0:
493,123,158685,1,0,3:0:0:0:
493,123,158769,1,0,1:2:0:0:
512,229,158935,2,0,P|471:226|431:220,1,70,0|8,1:2|0:0,0:0:0:0:
294,217,159269,2,0,P|324:265|334:295,1,70,2|0,1:1|0:0,0:0:0:0:
178,381,159602,2,0,L|187:220,1,140,0|0,1:2|3:0,0:0:0:0:
215,202,160019,1,0,3:0:0:0:
215,202,160102,2,0,P|202:141|188:92,1,105,0|0,1:2|0:0,0:0:0:0:
166,60,160435,2,0,P|116:47|78:44,1,70,8|0,0:0|1:2,0:0:0:0:
13,124,160769,5,4,1:3:0:0:
310,50,161102,1,8,0:0:0:0:
361,216,161352,1,0,3:0:0:0:
361,216,161435,1,0,1:2:0:0:
434,129,161602,1,0,1:2:0:0:
154,119,162102,1,10,0:1:0:0:
154,119,163102,6,10,P|171:174|174:194,1,62.9999980773926,2|0,0:1|0:1,0:1:0:0:
163,232,163435,6,0,P|113:202|15:219,1,140,4|8,1:2|0:0,0:0:0:0:
186,384,163935,1,2,3:2:0:0:
186,384,164019,1,0,3:0:0:0:
186,384,164102,2,0,L|201:304,1,70,0|0,1:0|1:0,0:0:0:0:
278,164,164435,1,8,0:0:0:0:
322,314,164602,1,4,1:3:0:0:
322,314,164935,2,0,P|359:321|406:323,1,70,2|8,1:2|0:0,0:0:0:0:
470,242,165269,1,2,3:2:0:0:
470,242,165352,1,0,3:0:0:0:
470,242,165435,2,0,P|483:204|518:168,1,70,0|0,1:0|1:0,0:0:0:0:
317,169,165769,2,2,P|285:121|231:91,1,105,10|0,0:1|0:1,0:1:0:0:
196,92,166102,6,0,L|113:100,1,70,4|0,3:0|0:0,0:0:0:0:
187,219,166435,2,0,L|56:201,1,105,10|0,0:0|3:0,0:0:0:0:
33,202,166769,2,0,P|23:247|15:282,1,70,2|0,1:2|1:0,0:0:0:0:
143,382,167102,1,10,0:0:0:0:
143,382,167269,2,0,P|153:337|161:302,1,70,2|2,1:0|3:0,0:0:0:0:
283,267,167602,2,0,P|256:228|236:199,1,70,2|8,1:0|0:0,0:0:0:0:
330,103,167935,1,2,3:1:0:0:
330,103,168019,1,0,3:0:0:0:
330,103,168102,2,0,P|250:91|188:81,1,140,2|8,1:0|0:0,0:0:0:0:
46,116,168602,1,0,3:0:0:0:
46,116,168685,1,0,3:0:0:0:
46,116,168769,6,0,P|100:151|171:113,1,140,2|8,1:0|0:0,0:0:0:0:
340,182,169269,1,2,3:2:0:0:
340,182,169352,1,0,3:0:0:0:
340,182,169435,2,0,L|341:268,1,70,0|0,1:0|1:0,0:0:0:0:
247,328,169769,1,8,0:0:0:0:
256,143,169935,1,4,1:3:0:0:
256,143,170269,1,2,1:2:0:0:
331,220,170435,1,8,0:0:0:0:
186,220,170602,1,2,3:2:0:0:
168,219,170685,1,0,3:0:0:0:
151,218,170768,1,0,1:0:0:0:
133,217,170852,1,0,3:0:0:0:
116,216,170935,1,0,1:0:0:0:
265,310,171102,2,2,P|324:316|388:327,1,105,10|0,0:1|0:1,0:1:0:0:
409,340,171435,6,0,P|468:331|519:325,1,105,4|0,3:0|0:0,0:0:0:0:
509,276,171769,2,0,P|482:232|460:206,1,70,10|0,0:0|3:0,0:0:0:0:
443,182,172019,1,0,3:0:0:0:
443,182,172102,2,0,L|459:102,1,70,0|0,1:0|1:0,0:0:0:0:
346,40,172435,1,10,0:0:0:0:
346,40,172602,2,0,L|332:108,1,70,2|0,0:1|1:0,0:0:0:0:
208,172,172935,2,0,P|173:171|130:156,1,70,2|8,1:0|0:0,0:0:0:0:
198,60,173269,1,2,3:1:0:0:
198,60,173352,1,0,3:0:0:0:
198,60,173435,1,2,1:0:0:0:
271,242,173602,1,8,0:0:0:0:
58,212,173769,1,8,0:0:0:0:
52,228,173852,1,0,3:0:0:0:
49,245,173935,1,0,3:0:0:0:
49,263,174019,1,0,3:0:0:0:
51,280,174102,6,0,P|109:280|195:304,1,140,6|8,1:2|0:0,0:0:0:0:
340,363,174602,1,2,3:2:0:0:
340,363,174685,1,0,3:0:0:0:
340,363,174769,1,2,1:2:0:0:
344,211,174935,1,0,1:0:0:0:
344,211,175269,2,0,P|310:223|280:241,1,70,4|0,1:3|0:0,0:0:0:0:
116,365,175602,2,0,L|148:222,1,140,2|2,1:2|3:2,0:0:0:0:
138,184,176018,1,0,3:0:0:0:
138,184,176102,2,0,P|104:174|49:168,1,70,2|0,1:0|1:0,0:0:0:0:
213,26,176435,2,0,P|225:58|232:92,1,70,10|0,0:1|0:0,0:0:0:0:
298,227,176769,6,2,P|326:168|386:132,1,105,0|0,1:0|0:0,0:1:0:0:
404,135,177102,1,8,0:2:0:0:
491,234,177269,2,2,L|497:275,2,35,0|0|0,1:0|3:0|0:0,1:0:0:0:
481,80,177602,1,0,1:0:0:0:
481,80,177769,1,8,0:0:0:0:
331,94,177935,1,4,1:3:0:0:
331,94,178269,2,0,P|284:99|231:109,1,70,0|8,1:0|0:0,0:0:0:0:
124,117,178602,2,0,L|78:106,2,35,2|0|0,3:0|0:0|1:0,0:0:0:0:
242,194,178935,1,0,1:0:0:0:
76,222,179102,2,0,P|61:263|66:304,1,70,10|0,0:1|3:0,0:0:0:0:
95,332,179352,1,0,3:0:0:0:
95,332,179435,5,6,1:2:0:0:
337,333,179769,1,10,0:0:0:0:
185,167,180102,1,2,1:2:0:0:
185,167,180269,1,0,1:2:0:0:
315,175,180435,2,0,P|330:134|325:93,1,70,10|0,0:0|3:2,0:0:0:0:
298,76,180685,1,0,3:2:0:0:
298,76,180769,5,2,1:2:0:0:
286,269,181102,1,10,0:0:0:0:
298,76,181435,1,8,1:0:0:0:
298,76,181769,1,8,1:0:0:0:
286,269,182102,6,0,P|215:253|132:271,1,140,6|10,1:2|0:0,0:0:0:0:
46,360,182769,1,2,0:0:0:0:
44,94,183102,1,10,0:0:0:0:
233,364,183435,1,10,0:1:0:0:
233,364,184102,6,2,L|273:382,7,35,6|0|0|0|0|0|0|0,1:0|0:0|0:0|0:0|3:0|3:0|3:0|3:0,0:1:0:0:
305,375,184769,6,0,P|311:291|295:204,1,154.000004699707,4|8,1:2|0:0,0:0:0:0:
176,82,185269,1,2,3:2:0:0:
176,82,185352,1,0,3:0:0:0:
176,82,185435,2,0,P|172:126|178:171,1,70,0|0,1:0|1:0,0:0:0:0:
201,261,185769,1,8,0:0:0:0:
386,246,185935,1,4,1:3:0:0:
386,246,186269,2,0,B|374:147|417:216|382:92,1,140,2|2,1:2|3:2,0:0:0:0:
351,83,186685,1,0,3:0:0:0:
351,83,186769,2,0,P|348:48|352:13,1,70,0|0,1:0|1:0,0:0:0:0:
173,80,187102,2,2,L|55:62,1,105,10|0,0:1|0:1,0:1:0:0:
34,83,187435,6,0,P|10:133|8:159,1,70,4|0,3:0|0:0,0:0:0:0:
115,227,187769,2,0,P|163:245|203:279,1,105,10|0,0:0|0:0,0:0:0:0:
212,330,188102,2,0,L|286:314,1,70,2|0,1:2|1:0,0:0:0:0:
410,253,188435,1,10,0:0:0:0:
410,253,188602,2,0,P|449:263|489:273,1,70,2|2,1:0|3:0,0:0:0:0:
298,224,188935,2,0,P|313:170|324:146,1,70,2|8,1:0|0:0,0:0:0:0:
195,161,189269,1,2,3:1:0:0:
195,161,189352,1,0,3:0:0:0:
195,161,189435,2,0,P|221:92|237:21,1,140,2|8,1:0|0:0,0:0:0:0:
66,116,189935,1,0,3:0:0:0:
74,123,190019,1,0,3:0:0:0:
74,123,190102,6,0,B|82:172|82:172|91:192|91:192|86:226|101:275,1,140,2|8,1:0|0:0,0:0:0:0:
160,351,190602,1,2,3:2:0:0:
160,351,190685,1,0,3:0:0:0:
160,351,190769,2,0,P|189:312|215:294,1,70,0|0,1:0|1:0,0:0:0:0:
351,328,191102,1,8,0:0:0:0:
339,177,191269,1,4,1:3:0:0:
339,177,191602,1,2,1:2:0:0:
430,256,191769,1,8,0:0:0:0:
469,149,191935,1,2,3:0:0:0:
466,131,192018,1,0,3:0:0:0:
462,114,192101,1,0,1:0:0:0:
456,98,192185,1,0,3:0:0:0:
447,83,192268,1,0,1:0:0:0:
319,72,192435,6,2,P|282:101|231:164,1,105,10|0,0:1|0:1,0:1:0:0:
221,185,192769,2,0,L|102:165,1,105,4|0,3:0|0:0,0:0:0:0:
70,170,193102,2,0,P|24:193|-5:214,1,70,10|0,0:0|0:0,0:0:0:0:
8,257,193352,1,0,3:0:0:0:
8,257,193435,2,0,L|-2:337,1,70,0|0,1:0|1:0,0:0:0:0:
182,295,193769,1,10,0:0:0:0:
182,295,193935,2,0,L|177:222,1,70,2|0,0:1|1:0,0:0:0:0:
239,36,194269,2,0,L|231:117,1,70,2|8,1:0|0:0,0:0:0:0:
284,250,194602,1,2,3:1:0:0:
284,250,194685,1,0,3:0:0:0:
284,250,194769,1,2,1:0:0:0:
110,98,194935,1,8,0:0:0:0:
330,61,195102,1,8,3:2:0:0:
346,55,195185,1,0,3:0:0:0:
363,53,195268,1,0,3:0:0:0:
381,53,195352,1,0,3:0:0:0:
398,55,195435,6,0,P|406:126|399:202,1,140,6|8,1:2|0:0,0:0:0:0:
338,313,195935,1,2,3:2:0:0:
338,313,196019,1,0,3:0:0:0:
338,313,196102,1,2,1:2:0:0:
494,315,196269,1,0,1:0:0:0:
494,315,196602,2,0,P|450:310|417:311,1,70,4|0,1:3|0:0,0:0:0:0:
261,186,196935,2,0,P|341:195|402:193,1,140,2|2,1:2|3:2,0:0:0:0:
453,203,197352,1,0,3:0:0:0:
453,203,197435,2,0,L|460:124,1,70,2|0,1:0|1:0,0:0:0:0:
286,287,197769,2,0,L|296:372,1,70,10|0,0:1|0:0,0:0:0:0:
173,214,198102,6,2,P|115:199|43:200,1,105,0|0,1:0|0:0,0:1:0:0:
27,226,198435,1,8,0:2:0:0:
106,304,198602,2,2,L|102:348,2,35,0|0|0,1:0|3:0|0:0,1:0:0:0:
189,210,198935,2,0,P|180:154|166:121,1,70,0|8,1:0|0:0,0:0:0:0:
79,53,199269,1,4,1:3:0:0:
79,53,199602,2,0,P|112:43|147:39,1,70,0|8,1:0|0:0,0:0:0:0:
266,93,199935,2,0,L|274:136,2,35,2|0|0,3:0|3:0|1:0,0:0:0:0:
353,16,200269,1,0,1:0:0:0:
445,109,200435,2,0,L|460:192,1,70,10|0,0:1|0:0,0:0:0:0:
442,212,200685,1,0,0:0:0:0:
441,212,200769,6,0,P|427:282|417:358,2,140,6|10|2,1:2|0:0|1:2,0:0:0:0:
512,304,201602,1,0,1:2:0:0:
417,349,201769,2,0,P|382:347|347:339,1,70,10|0,0:0|3:2,0:0:0:0:
311,314,202019,1,0,3:2:0:0:
311,314,202102,5,2,1:2:0:0:
342,145,202435,1,10,0:0:0:0:
311,314,202769,1,8,1:0:0:0:
311,314,203102,1,8,1:0:0:0:
92,239,203435,6,0,P|73:158|86:89,1,140,6|10,1:2|0:0,0:0:0:0:
420,145,204102,2,0,P|439:226|426:295,1,140,2|10,0:0|0:0,0:0:0:0:
118,333,204769,6,2,L|67:338,7,35,10|0|0|0|8|0|0|0,1:1|0:1|0:1|0:1|1:1|0:1|0:1|0:1,0:1:0:0:
40,307,205435,1,8,3:0:0:0:
56,302,205518,1,8,3:0:0:0:
73,298,205601,1,8,3:0:0:0:
90,293,205685,1,8,3:0:0:0:
107,288,205768,1,4,3:0:0:0:
124,282,205851,1,4,3:0:0:0:
140,276,205935,1,4,3:0:0:0:
157,271,206018,1,4,3:0:0:0:
173,264,206102,6,0,P|226:271|316:287,1,140,4|8,1:2|0:0,0:0:0:0:
403,384,206602,1,2,3:2:0:0:
403,384,206685,1,0,3:0:0:0:
403,384,206769,1,0,1:0:0:0:
480,267,206935,2,0,P|498:310|508:345,1,70,2|0,1:2|0:0,0:0:0:0:
339,255,207269,1,2,1:0:0:0:
339,255,207602,2,0,L|248:244,1,70,2|8,1:2|0:0,0:0:0:0:
388,177,207935,5,2,3:0:0:0:
388,177,208019,1,0,3:0:0:0:
388,177,208102,1,0,1:0:0:0:
262,100,208269,1,2,1:2:0:0:
398,46,208435,2,0,P|461:73|497:152,1,140,8|4,0:0|1:3,0:0:0:0:
495,133,209102,5,8,0:0:0:0:
443,265,209269,1,2,0:0:0:0:
443,265,209352,1,0,3:0:0:0:
443,265,209435,1,0,1:0:0:0:
341,188,209602,2,0,L|331:271,1,70,2|8,1:2|0:0,0:0:0:0:
159,368,209935,2,0,P|148:294|81:246,1,140,2|2,1:0|1:2,0:0:0:0:
1,253,210435,1,8,0:0:0:0:
140,144,210602,5,2,3:2:0:0:
140,144,210685,1,0,3:0:0:0:
140,144,210769,2,0,P|198:145|226:147,1,70,0|2,1:0|1:2,0:0:0:0:
290,281,211102,2,0,P|325:282|360:283,1,70,8|2,0:0|3:2,0:0:0:0:
409,267,211352,1,0,3:0:0:0:
409,267,211435,6,0,L|415:100,1,140,4|8,0:0|0:0,0:0:0:0:
314,63,211935,1,2,0:0:0:0:
314,63,212019,1,0,3:0:0:0:
314,63,212102,1,0,1:0:0:0:
179,115,212269,2,0,L|184:254,1,140,0|2,1:0|3:2,0:0:0:0:
219,296,212685,1,0,3:0:0:0:
219,296,212769,5,2,1:0:0:0:
361,230,213102,1,10,0:1:0:0:
295,87,213435,1,2,1:0:0:0:
152,153,213769,1,2,1:0:0:0:
256,192,214102,1,6,0:1:0:0:
256,192,215435,6,0,L|270:276,1,70,10|0,0:1|0:0,0:0:0:0:
122,91,215769,2,0,L|108:175,1,70,10|0,0:1|0:0,0:0:0:0:
329,140,216102,1,10,0:1:0:0:
237,33,216269,1,0,3:0:0:0:
227,189,216435,1,10,0:1:0:0:
396,60,216602,1,0,3:0:0:0:
396,60,216685,1,0,3:0:0:0:
396,60,216769,6,0,B|439:54|439:54|467:56|467:56|510:53,1,112,4|8,1:2|0:2,0:0:0:0:
419,170,217269,2,0,L|470:169,1,28,2|0,0:3|0:0,0:0:0:0:
490,154,217435,1,2,1:2:0:0:
490,154,217602,1,2,1:2:0:0:
501,260,217769,1,8,0:2:0:0:
501,260,217935,1,2,1:2:0:0:
401,367,218102,2,0,B|444:361|444:361|472:363|472:363|515:360,2,112,2|8|2,0:1|0:2|1:2,0:0:0:0:
401,367,218935,1,2,1:2:0:0:
396,282,219102,1,10,0:2:0:0:
396,282,219269,1,2,0:0:0:0:
281,370,219435,6,0,B|240:372|240:372|212:370|212:370|169:376,1,112,4|8,1:2|0:2,0:0:0:0:
242,264,219935,2,0,L|191:265,1,28,2|0,0:3|0:0,0:0:0:0:
171,280,220101,1,2,1:2:0:0:
171,280,220268,1,2,1:2:0:0:
166,176,220435,1,8,0:2:0:0:
166,176,220602,1,2,1:2:0:0:
163,67,220769,6,0,B|187:63|187:63|203:64|203:64|226:63,1,56,2|0,0:1|1:2,0:0:0:0:
221,172,221102,2,0,B|205:173|205:173|189:171|189:171|165:175,1,56,10|2,1:1|0:3,0:0:0:0:
156,229,221352,1,0,3:0:0:0:
171,280,221435,2,0,B|195:276|195:276|211:277|211:277|226:276,1,56,2|0,1:0|1:2,0:0:0:0:
226,374,221769,2,0,B|210:375|210:375|194:373|194:373|170:377,1,56,10|2,0:1|3:2,0:0:0:0:
116,357,222019,1,0,3:0:0:0:
67,383,222102,6,0,B|61:333|61:333|63:316|63:316|56:261,1,112,4|8,1:2|0:2,0:0:0:0:
174,328,222602,2,0,L|169:280,1,28,2|0,0:3|0:0,0:0:0:0:
152,260,222769,1,2,1:2:0:0:
152,260,222935,1,2,1:2:0:0:
260,247,223102,1,8,0:2:0:0:
260,247,223269,1,2,1:2:0:0:
366,347,223435,6,0,B|360:297|360:297|362:280|362:280|355:225,2,112,2|8|2,0:1|0:2|1:2,0:0:0:0:
405,384,224185,1,0,0:0:0:0:
405,384,224269,1,2,1:2:0:0:
465,236,224435,1,10,0:2:0:0:
465,236,224602,1,2,1:2:0:0:
375,137,224769,6,0,B|373:86|373:86|368:70|368:70|366:14,1,112,4|8,1:2|0:2,0:0:0:0:
262,100,225269,2,0,L|259:51,1,28,2|0,0:3|0:0,0:0:0:0:
274,30,225436,1,2,1:2:0:0:
274,30,225602,1,2,1:2:0:0:
164,34,225769,1,8,0:2:0:0:
164,34,225935,1,2,1:2:0:0:
58,98,226102,6,0,B|56:70|56:70|54:61|54:61|53:31,1,56,2|0,1:0|1:0,0:0:0:0:
164,34,226435,2,0,B|164:53|164:53|167:62|167:62|168:89,1,56,8|0,0:0|3:0,0:0:0:0:
210,121,226685,1,8,3:2:0:0:
210,121,226769,1,4,3:0:0:0:
274,30,226935,1,10,0:1:0:0:
378,22,227102,1,10,3:1:0:0:
379,36,227185,1,0,3:1:0:0:
381,50,227268,1,0,3:1:0:0:
382,64,227352,1,0,3:1:0:0:
383,78,227435,6,2,L|392:208,1,112,4|8,1:2|0:3,0:1:0:0:
284,314,227935,2,2,L|276:202,1,112,4|4,0:3|0:3,0:1:0:0:
174,211,228435,1,8,0:0:0:0:
174,211,228602,1,8,0:3:0:0:
383,78,228769,6,0,L|387:148,1,56,2|2,0:1|3:0,0:0:0:0:
280,258,229102,2,0,L|276:202,1,56,10|8,0:1|0:3,0:0:0:0:
275,164,229352,1,0,3:0:0:0:
275,164,229435,1,2,0:1:0:0:
387,154,229602,1,4,0:3:0:0:
487,284,229769,1,2,0:1:0:0:
387,290,229936,1,4,0:3:0:0:
280,258,230102,6,2,L|150:267,1,112,4|8,1:2|0:3,0:1:0:0:
0,170,230602,2,2,L|130:161,1,112,4|4,0:3|0:3,0:1:0:0:
190,67,231102,1,8,0:0:0:0:
190,67,231269,1,8,0:3:0:0:
280,258,231435,6,0,L|224:261,1,56,2|2,0:1|3:0,0:0:0:0:
55,166,231769,2,0,L|111:162,1,56,10|8,0:1|0:3,0:0:0:0:
158,163,232019,1,0,3:0:0:0:
158,163,232102,1,2,0:1:0:0:
164,265,232269,1,4,0:3:0:0:
286,360,232435,1,2,0:1:0:0:
280,258,232602,1,4,3:3:0:0:
280,258,232685,1,0,3:0:0:0:
280,258,232769,6,2,L|271:128,1,112,4|8,1:2|0:3,0:1:0:0:
377,41,233269,2,2,L|384:152,1,112,4|4,0:3|0:3,0:1:0:0:
495,187,233769,1,8,0:0:0:0:
495,187,233935,1,8,0:3:0:0:
280,258,234102,6,0,L|276:202,1,56,2|2,0:1|3:0,0:0:0:0:
380,96,234435,2,0,L|384:152,1,56,10|8,0:1|3:3,0:0:0:0:
386,194,234685,1,0,3:0:0:0:
387,208,234769,1,2,3:1:0:0:
387,221,234852,1,0,3:0:0:0:
387,235,234935,1,4,3:3:0:0:
256,276,235102,1,2,0:1:0:0:
253,174,235269,1,4,0:3:0:0:
359,73,235435,6,2,L|470:65,1,112,4|8,1:2|0:3,0:1:0:0:
293,0,235935,2,2,L|181:7,1,112,4|4,0:3|0:3,0:1:0:0:
100,79,236435,2,0,L|107:190,1,112,8|4,0:0|1:2,0:0:0:0:
140,378,237019,1,0,3:2:0:0:
140,378,237102,1,8,3:2:0:0:
200,311,237269,1,8,0:0:0:0:
289,308,237435,1,8,0:0:0:0:
369,347,237602,1,8,0:0:0:0:
439,291,237769,1,8,0:0:0:0:
407,207,237935,1,8,0:0:0:0:
105,207,238102,5,12,1:2:0:0:
149,133,247935,6,0,L|108:125,1,35,0|0,1:0|1:0,0:0:0:0:
174,137,248102,2,0,L|159:220,1,70,0|2,1:0|3:0,0:0:0:0:
176,259,248352,1,0,3:0:0:0:
176,259,248435,2,0,L|180:308,1,35,8|0,3:2|0:0,0:0:0:0:
277,221,248602,2,0,L|281:172,1,35,8|0,0:0|0:0,0:0:0:0:
367,268,248769,6,0,P|415:305|492:269,1,140,6|8,1:2|0:0,0:0:0:0:
347,121,249269,1,2,3:2:0:0:
347,121,249352,1,0,3:0:0:0:
347,121,249435,2,0,P|283:129|259:134,1,70,2|0,1:2|1:0,0:0:0:0:
277,130,249935,2,0,L|283:50,1,70,4|0,1:3|0:0,0:0:0:0:
148,184,250269,2,0,L|132:44,1,140,2|2,1:2|3:2,0:0:0:0:
93,25,250685,1,0,3:0:0:0:
93,25,250769,2,0,P|77:57|62:103,1,70,2|0,1:0|1:0,0:0:0:0:
220,187,251102,2,0,P|208:154|192:122,1,70,10|0,0:1|0:0,0:0:0:0:
31,265,251435,6,2,L|147:251,1,105,0|0,1:0|0:0,0:1:0:0:
180,277,251769,1,8,0:2:0:0:
303,263,251935,2,2,L|320:316,2,35,0|0|0,1:0|3:0|0:0,1:0:0:0:
264,155,252269,2,0,P|295:106|316:89,1,70,0|8,1:0|0:0,0:0:0:0:
459,168,252602,1,4,1:3:0:0:
459,168,252935,2,0,P|482:193|498:224,1,70,0|8,1:0|0:0,0:0:0:0:
451,363,253268,1,2,3:0:0:0:
451,363,253352,1,0,3:0:0:0:
451,363,253435,1,0,1:0:0:0:
403,227,253602,1,0,1:0:0:0:
296,312,253769,2,0,L|213:307,1,70,10|0,0:1|3:0,0:0:0:0:
139,224,254102,6,0,P|59:217|-5:213,2,140,6|10|2,1:2|0:0|1:2,0:0:0:0:
245,205,254935,1,0,1:2:0:0:
133,119,255102,1,10,0:0:0:0:
267,106,255269,1,0,3:2:0:0:
267,106,255352,1,0,3:2:0:0:
267,106,255435,5,2,1:2:0:0:
153,319,255769,1,10,0:0:0:0:
267,106,256102,1,8,1:0:0:0:
267,106,256435,1,8,1:0:0:0:
422,174,256769,6,0,P|446:237|416:317,1,140,6|10,1:2|0:0,0:0:0:0:
90,210,257435,2,0,P|66:147|96:67,1,140,2|10,0:0|0:0,0:0:0:0:
311,297,258102,1,10,0:1:0:0:
311,297,258769,6,2,L|307:351,3,35,6|0|0|0,1:0|0:0|0:0|0:0,0:1:0:0:
268,373,259102,1,0,3:0:0:0:
264,355,259185,1,0,3:0:0:0:
259,338,259268,1,0,3:0:0:0:
254,322,259352,1,0,3:0:0:0:
247,306,259435,6,0,B|205:301|205:301|198:296|198:296|162:297|86:288,1,154.000004699707,4|8,1:2|0:0,0:0:0:0:
202,146,259935,1,2,0:0:0:0:
202,146,260019,1,0,0:0:0:0:
202,146,260102,2,0,P|238:142|281:141,1,70,0|0,1:0|1:0,0:0:0:0:
377,198,260435,1,8,0:0:0:0:
411,49,260602,1,4,1:3:0:0:
411,49,260935,2,0,P|420:84|427:119,1,70,2|8,1:2|0:0,0:0:0:0:
452,286,261269,1,2,3:2:0:0:
452,286,261352,1,0,3:0:0:0:
452,286,261435,1,0,1:0:0:0:
512,184,261602,1,0,1:0:0:0:
362,226,261769,2,2,P|324:191|263:181,1,105,10|0,0:1|0:1,0:1:0:0:
223,187,262102,6,0,P|224:152|228:97,1,70,4|0,3:0|0:0,0:0:0:0:
279,280,262435,2,0,P|283:344|284:408,1,105,10|0,0:0|3:0,0:0:0:0:
235,373,262769,2,0,L|145:366,1,70,2|0,1:2|1:0,0:0:0:0:
18,259,263102,1,10,0:0:0:0:
18,259,263269,2,0,P|53:256|87:253,1,70,2|2,1:0|3:0,0:0:0:0:
206,172,263602,2,0,P|215:224|208:261,1,70,2|8,1:0|0:0,0:0:0:0:
74,142,263935,1,2,3:1:0:0:
74,142,264019,1,0,3:0:0:0:
74,142,264102,2,0,P|66:68|77:-12,1,140,2|8,1:0|0:0,0:0:0:0:
222,72,264602,1,0,3:0:0:0:
222,72,264685,1,0,3:0:0:0:
222,72,264769,6,0,B|284:67|284:67|304:72|304:72|325:65|373:63,1,140,2|8,1:0|0:0,0:0:0:0:
483,163,265269,1,2,3:2:0:0:
483,163,265352,1,0,3:0:0:0:
483,163,265435,2,0,P|436:149|390:158,1,70,0|0,1:0|1:0,0:0:0:0:
315,221,265769,1,8,0:0:0:0:
458,254,265935,1,4,1:3:0:0:
458,254,266269,1,2,1:2:0:0:
378,321,266435,1,8,0:0:0:0:
315,221,266602,1,2,3:2:0:0:
315,221,266685,1,0,3:0:0:0:
315,221,266769,2,0,L|321:173,2,35,0|0|0,1:0|3:0|1:0,0:0:0:0:
245,347,267102,2,2,P|230:293|205:249,1,105,10|0,0:1|0:1,0:1:0:0:
162,225,267435,6,0,L|65:217,1,70,4|0,3:0|0:0,0:0:0:0:
0,122,267769,2,0,P|43:110|107:100,1,105,10|0,0:0|3:0,0:0:0:0:
154,105,268102,2,0,L|166:18,1,70,0|0,1:0|1:0,0:0:0:0:
295,127,268435,1,10,0:0:0:0:
295,127,268602,2,0,P|343:133|378:132,1,70,2|0,0:1|1:0,0:0:0:0:
218,229,268935,2,0,L|208:298,1,70,2|8,1:0|0:0,0:0:0:0:
103,163,269269,1,2,3:1:0:0:
103,163,269352,1,0,3:0:0:0:
103,163,269435,1,2,1:0:0:0:
46,290,269602,1,8,0:0:0:0:
167,368,269769,1,8,3:2:0:0:
183,372,269852,1,0,3:0:0:0:
200,376,269935,1,0,3:0:0:0:
218,378,270018,1,0,3:0:0:0:
234,378,270102,6,0,B|287:373|287:373|306:374|306:374|337:370|392:367,1,140,6|8,1:2|0:0,0:0:0:0:
454,243,270602,1,2,3:2:0:0:
454,243,270685,1,0,3:0:0:0:
454,243,270769,1,2,1:2:0:0:
324,208,270935,2,0,P|324:255|334:288,1,70,0|8,1:0|0:0,0:0:0:0:
426,77,271269,1,4,1:3:0:0:
426,77,271602,2,0,P|359:93|263:83,1,140,2|2,1:2|3:2,0:0:0:0:
245,71,272019,1,0,3:0:0:0:
245,71,272102,2,0,P|219:106|199:137,1,70,2|0,1:0|1:0,0:0:0:0:
26,136,272435,2,0,P|47:163|66:193,1,70,10|0,0:1|0:0,0:0:0:0:
158,334,272769,6,2,L|173:212,1,105,0|0,1:0|0:0,0:1:0:0:
211,201,273102,1,8,0:2:0:0:
129,96,273269,2,2,L|124:51,2,35,0|0|0,1:0|3:0|0:0,1:0:0:0:
247,108,273602,2,0,P|294:99|326:100,1,70,0|8,1:0|0:0,0:0:0:0:
416,164,273935,1,4,1:3:0:0:
416,164,274269,2,0,P|425:211|424:243,1,70,0|8,1:0|0:0,0:0:0:0:
339,316,274602,2,0,L|348:355,2,35,2|0|0,3:0|3:0|1:0,0:0:0:0:
301,178,274935,1,0,1:0:0:0:
195,260,275102,2,0,P|196:294|203:328,1,70,10|0,0:1|0:0,0:0:0:0:
182,377,275352,1,0,3:0:0:0:
182,377,275435,6,0,L|159:230,2,140,6|10|2,1:2|0:0|1:2,0:0:0:0:
74,313,276269,1,0,1:2:0:0:
110,167,276435,2,0,P|153:157|183:153,1,70,10|0,0:0|3:2,0:0:0:0:
221,181,276685,1,0,3:2:0:0:
221,181,276769,5,2,1:2:0:0:
409,157,277102,1,10,0:0:0:0:
221,181,277435,1,8,1:0:0:0:
221,181,277769,1,8,1:0:0:0:
351,303,278102,6,0,P|408:321|488:266,1,140,6|10,1:2|0:0,0:0:0:0:
161,81,278769,2,0,P|104:63|24:118,1,140,2|10,0:0|0:0,0:0:0:0:
402,101,279435,6,0,L|417:52,3,35,10|0|0|0,1:1|3:0|3:0|3:0,3:0:0:0:
501,15,279769,2,0,L|516:64,3,35,8|0|0|0,1:0|3:0|3:0|3:0,3:0:0:0:
392,11,280102,1,8,3:0:0:0:
390,28,280185,1,8,3:0:0:0:
388,45,280268,1,8,3:0:0:0:
385,62,280351,1,8,3:0:0:0:
381,80,280435,1,4,3:0:0:0:
376,96,280518,1,4,3:0:0:0:
370,113,280601,1,4,3:0:0:0:
363,129,280685,1,4,3:0:0:0:
355,145,280769,5,6,1:2:0:0:
256,192,280852,12,2,281935,0:0:0:0:
