osu file format v14

[General]
AudioFilename: audio.mp3
AudioLeadIn: 0
PreviewTime: 110498
Countdown: 0
SampleSet: Soft
StackLeniency: 0.4
Mode: 0
LetterboxInBreaks: 0
WidescreenStoryboard: 0

[Editor]
Bookmarks: 353,24009,45951,56923,67894,89841,111793,122764,133735,157050,178993,189967,200945,222890,249631,260603
DistanceSpacing: 1.1
BeatDivisor: 4
GridSize: 32
TimelineZoom: 3.299999

[Metadata]
Title:Teleportation
TitleUnicode:テレポテーション
Artist:capsule
ArtistUnicode:capsule
Creator:_xyliac
Version:Eternal
Source:
Tags:contemonde カプセル L.D.K Lounge Designers Killer 2005 Nakata Yasutaka 中田ヤスタカ Koshijima Toshiko こしじまとしこ neo-shibuya-kei shibuya-kei electronic Japanese Dubturt
BeatmapID:2191767
BeatmapSetID:1048608

[Difficulty]
HPDrainRate:6.5
CircleSize:5
OverallDifficulty:9
ApproachRate:8.5
SliderMultiplier:1.75
SliderTickRate:1

[Events]
//Background and Video events
0,0,"Pixiv.Id.10038462.full.2571320.jpg",0,0
//Break Periods
//Storyboard Layer 0 (Background)
//Storyboard Layer 1 (Fail)
//Storyboard Layer 2 (Pass)
//Storyboard Layer 3 (Foreground)
//Storyboard Layer 4 (Overlay)
//Storyboard Sound Samples

[TimingPoints]
353,342.857142857143,4,2,1,60,1,0
353,-200,4,2,1,60,0,0
11324,-158.730158730159,4,2,1,60,0,0
13895,-158.730158730159,4,2,1,30,0,0
14067,-333.333333333333,4,2,1,60,0,0
16638,-333.333333333333,4,2,1,30,0,0
16810,-200,4,2,1,60,0,0
19467,-200,4,2,1,5,0,0
19553,-200,4,2,1,60,0,0
20924,-200,4,2,1,60,0,0
21438,-200,4,2,1,60,0,0
21781,-200,4,2,1,80,0,0
22638,342.857142857143,4,2,1,80,1,0
23666,-111.111111111111,4,2,1,80,0,0
23752,-111.111111111111,4,2,1,40,0,0
23838,-111.111111111111,4,2,1,80,0,0
23923,-111.111111111111,4,2,1,40,0,0
24009,342.857142857143,4,2,1,80,1,0
24009,-111.111111111111,4,2,1,80,0,1
24266,-111.111111111111,4,2,1,40,0,1
24351,-111.111111111111,4,2,1,80,0,1
27009,-111.111111111111,4,2,1,40,0,1
27094,-111.111111111111,4,2,1,80,0,1
29751,-111.111111111111,4,2,1,40,0,1
29837,-111.111111111111,4,2,1,80,0,1
30694,-108.695652173913,4,2,1,80,0,1
31037,-111.111111111111,4,2,1,80,0,1
31809,-111.111111111111,4,2,1,40,0,1
31894,-111.111111111111,4,2,1,80,0,1
32494,-111.111111111111,4,2,1,40,0,1
32580,-111.111111111111,4,2,1,80,0,1
35237,-111.111111111111,4,2,1,40,0,1
35323,-111.111111111111,4,2,1,80,0,1
37980,-111.111111111111,4,2,1,40,0,1
38066,-111.111111111111,4,2,1,80,0,1
38923,-105.263157894737,4,2,1,80,0,1
39266,-111.111111111111,4,2,1,80,0,1
40723,-111.111111111111,4,2,1,40,0,1
40809,-111.111111111111,4,2,1,80,0,1
42609,-111.111111111111,4,2,1,40,0,1
42694,-111.111111111111,4,2,1,80,0,1
42780,-111.111111111111,4,2,1,40,0,1
42866,-111.111111111111,4,2,1,80,0,1
43466,-111.111111111111,4,2,1,40,0,1
43551,-111.111111111111,4,2,1,80,0,1
45951,-111.111111111111,4,2,1,80,0,0
66180,-111.111111111111,4,2,1,80,0,0
66351,-111.111111111111,4,2,1,80,0,0
67294,-111.111111111111,4,2,1,40,0,0
67380,-111.111111111111,4,2,1,80,0,0
67894,348.837209302326,4,2,1,60,1,0
67894,-142.857142857143,4,2,1,60,0,0
68155,-142.857142857143,4,2,1,30,0,0
68242,342.857142857143,4,2,1,60,1,0
68242,-142.857142857143,4,2,1,60,0,0
69270,342.857142857143,4,2,1,60,1,0
69441,-142.857142857143,4,2,1,60,0,0
70898,-142.857142857143,4,2,1,30,0,0
70984,-142.857142857143,4,2,1,60,0,0
73641,-142.857142857143,4,2,1,30,0,0
73727,-142.857142857143,4,2,1,60,0,0
75098,-142.857142857143,4,2,1,60,0,0
75270,-142.857142857143,4,2,1,60,0,0
76384,-142.857142857143,4,2,1,30,0,0
76470,-142.857142857143,4,2,1,60,0,0
79127,-142.857142857143,4,2,1,30,0,0
79213,-142.857142857143,4,2,1,60,0,0
81870,-142.857142857143,4,2,1,30,0,0
81955,-142.857142857143,4,2,1,60,0,0
84613,-142.857142857143,4,2,1,30,0,0
84698,-142.857142857143,4,2,1,60,0,0
86070,-142.857142857143,4,2,1,60,0,0
86241,-142.857142857143,4,2,1,60,0,0
87355,-142.857142857143,4,2,1,30,0,0
87441,-142.857142857143,4,2,1,60,0,0
89498,-142.857142857143,4,2,1,80,0,0
89841,-111.111111111111,4,2,1,80,0,1
90098,-111.111111111111,4,2,1,40,0,1
90184,-111.111111111111,4,2,1,80,0,1
91213,-111.111111111111,4,2,1,80,0,1
92841,-111.111111111111,4,2,1,40,0,1
92927,-111.111111111111,4,2,1,80,0,1
93955,-111.111111111111,4,2,1,80,0,1
95584,-111.111111111111,4,2,1,40,0,1
95670,-111.111111111111,4,2,1,80,0,1
96698,-111.111111111111,4,2,1,80,0,1
98327,-111.111111111111,4,2,1,40,0,1
98413,-111.111111111111,4,2,1,80,0,1
99441,-111.111111111111,4,2,1,80,0,1
101070,-111.111111111111,4,2,1,40,0,1
101155,-111.111111111111,4,2,1,80,0,1
102184,-111.111111111111,4,2,1,80,0,1
103813,-111.111111111111,4,2,1,40,0,1
103898,-111.111111111111,4,2,1,80,0,1
104927,-111.111111111111,4,2,1,80,0,1
106555,-111.111111111111,4,2,1,40,0,1
106641,-111.111111111111,4,2,1,80,0,1
107670,-111.111111111111,4,2,1,80,0,1
109298,-111.111111111111,4,2,1,40,0,1
109384,-111.111111111111,4,2,1,80,0,1
110241,-111.111111111111,4,2,1,80,0,0
111441,352.941176470588,4,2,1,70,1,0
111441,-200,4,2,1,70,0,1
111707,-200,4,2,1,35,0,1
111793,342.857142857143,4,2,1,50,1,0
111793,-200,4,2,1,50,0,0
121393,-1000,4,2,1,50,0,0
122761,-200,4,2,1,50,0,0
133735,-142.857142857143,4,2,1,60,0,0
133992,-142.857142857143,4,2,1,30,0,0
134078,-142.857142857143,4,2,1,60,0,0
135706,-142.857142857143,4,2,1,30,0,0
135792,-142.857142857143,4,2,1,60,0,0
136735,-142.857142857143,4,2,1,30,0,0
136821,-142.857142857143,4,2,1,60,0,0
138449,-142.857142857143,4,2,1,30,0,0
138535,-142.857142857143,4,2,1,60,0,0
139478,-142.857142857143,4,2,1,30,0,0
139563,-142.857142857143,4,2,1,60,0,0
142221,-142.857142857143,4,2,1,30,0,0
142306,-142.857142857143,4,2,1,60,0,0
144192,-142.857142857143,4,2,1,60,0,0
144963,-142.857142857143,4,2,1,30,0,0
145049,-142.857142857143,4,2,1,60,0,0
147706,-142.857142857143,4,2,1,30,0,0
147792,-142.857142857143,4,2,1,60,0,0
150449,-142.857142857143,4,2,1,30,0,0
150535,-142.857142857143,4,2,1,60,0,0
151906,-142.857142857143,4,2,1,60,0,0
152078,-142.857142857143,4,2,1,60,0,0
153192,-142.857142857143,4,2,1,30,0,0
153278,-142.857142857143,4,2,1,60,0,0
155335,-142.857142857143,4,2,1,60,0,0
156192,-142.857142857143,4,2,1,80,0,0
157050,-111.111111111111,4,2,1,80,0,1
157306,-111.111111111111,4,2,1,40,0,1
157392,-111.111111111111,4,2,1,80,0,1
158421,-111.111111111111,4,2,1,80,0,1
160049,-111.111111111111,4,2,1,40,0,1
160135,-111.111111111111,4,2,1,80,0,1
161163,-111.111111111111,4,2,1,80,0,1
162792,-111.111111111111,4,2,1,40,0,1
162878,-111.111111111111,4,2,1,80,0,1
163906,-111.111111111111,4,2,1,80,0,1
165535,-111.111111111111,4,2,1,40,0,1
165621,-111.111111111111,4,2,1,80,0,1
166649,-111.111111111111,4,2,1,80,0,1
168278,-111.111111111111,4,2,1,40,0,1
168363,-111.111111111111,4,2,1,80,0,1
169392,-111.111111111111,4,2,1,80,0,1
171021,-111.111111111111,4,2,1,40,0,1
171106,-111.111111111111,4,2,1,80,0,1
172135,-111.111111111111,4,2,1,80,0,1
173763,-111.111111111111,4,2,1,40,0,1
173849,-111.111111111111,4,2,1,80,0,1
174878,-111.111111111111,4,2,1,80,0,1
176506,-111.111111111111,4,2,1,40,0,1
176592,-111.111111111111,4,2,1,80,0,1
177792,-111.111111111111,4,2,1,80,0,1
178993,346.820809248555,4,2,1,80,1,0
178993,-111.111111111111,4,2,1,80,0,0
179339,342.857142857143,4,2,1,80,1,0
180367,342.857142857143,4,2,1,80,1,0
184309,-111.111111111111,4,2,1,80,0,0
198881,346.820809248555,4,2,1,80,1,0
199227,-111.111111111111,4,2,1,80,0,0
199401,-111.111111111111,4,2,1,80,0,0
199574,342.857142857143,4,2,1,80,1,0
199745,-111.111111111111,4,2,1,80,0,0
200259,-200,4,2,1,80,0,0
200945,342.857142857143,4,2,1,70,1,0
200945,-76.9230769230769,4,2,1,70,0,0
201202,-76.9230769230769,4,2,1,35,0,0
201287,-111.111111111111,4,2,1,70,0,0
202316,-111.111111111111,4,2,1,70,0,0
202487,-111.111111111111,4,2,1,70,0,0
203259,-111.111111111111,4,2,1,35,0,0
203345,-111.111111111111,4,2,1,70,0,0
203516,-111.111111111111,4,2,1,70,0,0
203687,-111.111111111111,4,2,1,70,0,0
203945,-111.111111111111,4,2,1,35,0,0
204030,-111.111111111111,4,2,1,70,0,0
204716,-111.111111111111,4,2,1,70,0,0
204887,-111.111111111111,4,2,1,70,0,0
205059,-111.111111111111,4,2,1,70,0,0
205230,-111.111111111111,4,2,1,70,0,0
205830,-111.111111111111,4,2,1,35,0,0
205916,-111.111111111111,4,2,1,70,0,0
206002,-111.111111111111,4,2,1,35,0,0
206087,-111.111111111111,4,2,1,70,0,0
206687,-111.111111111111,4,2,1,35,0,0
206773,-111.111111111111,4,2,1,70,0,0
207459,-111.111111111111,4,2,1,70,0,0
207630,-111.111111111111,4,2,1,70,0,0
207802,-111.111111111111,4,2,1,70,0,0
207973,-111.111111111111,4,2,1,70,0,0
208487,-111.111111111111,4,2,1,70,0,0
208573,-111.111111111111,4,2,1,70,0,0
208916,-111.111111111111,4,2,1,35,0,0
209002,-111.111111111111,4,2,1,70,0,0
209430,-111.111111111111,4,2,1,35,0,0
209516,-111.111111111111,4,2,1,70,0,0
210202,-111.111111111111,4,2,1,70,0,0
210373,-111.111111111111,4,2,1,70,0,0
210545,-111.111111111111,4,2,1,70,0,0
210716,-111.111111111111,4,2,1,70,0,0
212173,-111.111111111111,4,2,1,35,0,0
212259,-111.111111111111,4,2,1,70,0,0
213288,-111.111111111111,4,2,1,70,0,0
213459,-111.111111111111,4,2,1,70,0,0
214231,-111.111111111111,4,2,1,35,0,0
214316,-111.111111111111,4,2,1,70,0,0
214402,-111.111111111111,4,2,1,35,0,0
214488,-111.111111111111,4,2,1,70,0,0
214659,-111.111111111111,4,2,1,70,0,0
214916,-111.111111111111,4,2,1,35,0,0
215002,-111.111111111111,4,2,1,70,0,0
215688,-111.111111111111,4,2,1,70,0,0
215859,-111.111111111111,4,2,1,70,0,0
216031,-111.111111111111,4,2,1,70,0,0
216202,-111.111111111111,4,2,1,70,0,0
217145,-111.111111111111,4,2,1,35,0,0
217231,-111.111111111111,4,2,1,70,0,0
217659,-111.111111111111,4,2,1,35,0,0
217745,-111.111111111111,4,2,1,70,0,0
218431,-111.111111111111,4,2,1,70,0,0
218602,-111.111111111111,4,2,1,70,0,0
218773,-111.111111111111,4,2,1,70,0,0
218945,-111.111111111111,4,2,1,70,0,0
219459,-111.111111111111,4,2,1,70,0,0
219545,-111.111111111111,4,2,1,70,0,0
219888,-111.111111111111,4,2,1,35,0,0
219973,-111.111111111111,4,2,1,70,0,0
220402,-111.111111111111,4,2,1,35,0,0
220488,-111.111111111111,4,2,1,70,0,0
221173,-111.111111111111,4,2,1,70,0,0
221345,-111.111111111111,4,2,1,70,0,0
222544,346.820809248555,4,2,1,60,1,0
222890,342.857142857143,4,2,1,60,1,0
222890,-66.6666666666666,4,2,1,80,0,0
223232,-111.111111111111,4,2,1,70,0,0
223318,-111.111111111111,4,2,1,65,0,0
223404,-111.111111111111,4,2,1,60,0,0
223490,-111.111111111111,4,2,1,55,0,0
223575,-111.111111111111,4,2,1,50,0,0
223661,-111.111111111111,4,2,1,45,0,0
223747,-111.111111111111,4,2,1,40,0,0
223832,-111.111111111111,4,2,1,35,0,0
223918,-111.111111111111,4,2,1,30,0,0
224261,-125,4,2,1,60,0,0
224776,-76.9230769230769,4,2,1,90,0,0
225976,342.857142857143,4,2,1,90,1,0
226318,342.857142857143,4,2,1,90,1,0
227346,-76.9230769230769,4,2,1,90,0,0
227432,-76.9230769230769,4,2,1,45,0,0
227518,-76.9230769230769,4,2,1,90,0,0
227603,-76.9230769230769,4,2,1,45,0,0
227689,342.857142857143,4,2,1,90,1,0
227689,-90.9090909090908,4,2,1,90,0,1
227946,-90.9090909090908,4,2,1,45,0,1
228031,-90.9090909090908,4,2,1,90,0,1
229146,-90.9090909090908,4,2,1,45,0,1
229231,-90.9090909090908,4,2,1,90,0,1
230689,-90.9090909090908,4,2,1,45,0,1
230774,-90.9090909090908,4,2,1,90,0,1
231803,-90.9090909090908,4,2,1,90,0,1
233431,-90.9090909090908,4,2,1,45,0,1
233517,-90.9090909090908,4,2,1,90,0,1
234631,-90.9090909090908,4,2,1,45,0,1
234717,-90.9090909090908,4,2,1,90,0,1
236174,-90.9090909090908,4,2,1,45,0,1
236260,-90.9090909090908,4,2,1,90,0,1
237289,-90.9090909090908,4,2,1,90,0,1
238917,-90.9090909090908,4,2,1,45,0,1
239003,-90.9090909090908,4,2,1,90,0,1
240117,-90.9090909090908,4,2,1,45,0,1
240203,-90.9090909090908,4,2,1,90,0,1
241660,-90.9090909090908,4,2,1,45,0,1
241746,-90.9090909090908,4,2,1,90,0,1
242774,-90.9090909090908,4,2,1,90,0,1
244403,-90.9090909090908,4,2,1,45,0,1
244489,-90.9090909090908,4,2,1,90,0,1
245603,-90.9090909090908,4,2,1,45,0,1
245689,-90.9090909090908,4,2,1,90,0,1
247146,-90.9090909090908,4,2,1,45,0,1
247231,-90.9090909090908,4,2,1,90,0,1
248431,-90.9090909090908,4,2,1,90,0,1
249631,-200,4,2,1,60,0,0
252203,-200,4,2,1,30,0,0
252374,-333.333333333333,4,2,1,60,0,0
252717,-333.333333333333,4,2,1,30,0,0
252889,-200,4,2,1,60,0,0
253231,-200,4,2,1,30,0,0
253403,-142.857142857143,4,2,1,60,0,0
254946,-142.857142857143,4,2,1,30,0,0
255117,-200,4,2,1,60,0,0
257689,-200,4,2,1,30,0,0
257860,-200,4,2,1,60,0,0
259832,-200,4,2,1,30,0,0
259917,-200,4,2,1,60,0,0
260260,-200,4,2,1,50,0,0
260603,-200,4,2,1,70,0,0
260646,-200,4,2,1,35,0,0

[Colours]
Combo1 : 130,231,220
Combo2 : 118,115,134
Combo3 : 185,190,194
Combo4 : 149,118,123
SliderBorder : 250,230,245
SliderTrackOverride : 100,100,115

[HitObjects]
117,145,353,5,0,0:0:0:0:
53,77,524,1,0,0:0:0:0:
121,13,695,1,0,0:0:0:0:
185,81,867,5,0,0:0:0:0:
117,145,1038,1,4,0:3:0:0:
53,77,1210,1,0,0:0:0:0:
248,12,1381,5,4,0:3:0:0:
334,51,1553,1,0,0:0:0:0:
324,145,1724,1,4,0:3:0:0:
228,208,1895,6,0,L|231:164,2,43.75,0|4|0,0:0|0:3|0:0,0:0:0:0:
136,188,2410,2,0,L|132:144,2,43.75,4|0|4,0:3|0:0|0:3,0:0:0:0:
48,165,2924,1,0,0:0:0:0:
110,277,3095,5,4,0:3:0:0:
136,188,3267,1,0,0:0:0:0:
198,303,3438,1,4,0:3:0:0:
224,214,3610,5,0,0:0:0:0:
312,366,3781,1,4,0:3:0:0:
286,277,3953,1,0,0:0:0:0:
398,166,4124,5,4,0:3:0:0:
310,192,4295,1,0,0:0:0:0:
284,103,4467,1,4,0:3:0:0:
196,129,4638,6,0,B|180:134|165:136|147:136,2,43.75,0|4|0,0:0|0:3|0:0,0:0:0:0:
161,45,5153,2,0,B|152:21|119:-6|95:-8,1,87.5,4|4,0:3|0:3,0:0:0:0:
77,83,5667,1,0,0:0:0:0:
144,227,5838,5,4,0:3:0:0:
153,136,6010,1,0,0:0:0:0:
219,281,6181,1,0,0:0:0:0:
312,152,6353,5,0,0:0:0:0:
303,244,6524,1,4,0:3:0:0:
236,98,6695,1,0,0:0:0:0:
70,174,6867,5,4,0:3:0:0:
61,265,7038,1,0,0:0:0:0:
135,318,7210,1,4,0:3:0:0:
263,285,7381,6,0,L|219:281,2,43.75,0|4|0,0:0|0:3|0:0,0:0:0:0:
347,322,7895,2,0,L|390:318,1,43.75,4|0,0:3|0:0,0:0:0:0:
380,226,8238,2,0,L|337:230,1,43.75,4|0,0:3|0:0,0:0:0:0:
263,285,8581,5,4,0:3:0:0:
209,211,8753,1,0,0:0:0:0:
135,265,8924,1,0,0:0:0:0:
189,339,9095,5,0,0:0:0:0:
337,230,9267,1,0,0:0:0:0:
283,156,9438,1,0,0:0:0:0:
135,265,9610,5,0,0:0:0:0:
263,285,9781,1,0,0:0:0:0:
283,156,9953,1,0,0:0:0:0:
155,136,10124,6,0,B|144:126|128:111|120:99,2,43.75
283,156,10638,2,0,L|325:152,1,43.75
263,285,10981,1,0,0:0:0:0:
263,285,11324,6,0,B|201:271|164:318|164:318|116:175|211:210|205:93|129:51|129:51|91:104|111:154|111:154|157:110|241:114|248:159|257:173|278:183|301:194|343:196|374:168|391:130,1,826.874974765778,4|0,0:3|0:0,0:0:0:0:
314,102,14067,6,0,B|299:132|286:199|340:246|413:254|474:238|497:145|476:108|454:75|405:60,1,393.749987983704,4|0,0:3|0:0,0:0:0:0:
387,139,16810,6,0,B|342:148|306:119|306:119|259:117|230:157|230:157|157:112|157:112|141:155|94:171|94:171|69:267|140:330|140:330|182:318|211:283|211:283|201:244|167:214,1,678.125,4|0,0:3|0:0,0:0:0:0:
160,219,19553,5,4,0:3:0:0:
256,192,19638,12,4,20924,0:3:0:0:
224,162,21267,5,4,0:3:0:0:
107,50,21438,1,2,0:0:0:0:
107,50,21610,1,2,0:0:0:0:
69,206,21781,1,8,0:0:0:0:
73,210,21867,1,8,0:0:0:0:
77,214,21953,1,8,0:0:0:0:
81,218,22038,1,8,0:0:0:0:
85,222,22124,1,8,0:0:0:0:
89,226,22210,1,8,0:0:0:0:
109,216,22295,5,6,0:0:0:0:
214,289,22467,1,8,0:0:0:0:
206,297,22553,1,8,0:0:0:0:
163,305,22638,1,6,0:0:0:0:
312,381,22809,5,8,0:0:0:0:
297,349,22894,1,8,0:0:0:0:
297,313,22980,1,8,0:0:0:0:
313,281,23066,1,8,0:0:0:0:
340,259,23152,1,8,0:0:0:0:
374,250,23237,1,8,0:0:0:0:
409,257,23323,1,8,0:0:0:0:
437,279,23409,1,8,0:0:0:0:
454,310,23495,1,8,0:0:0:0:
456,345,23580,1,8,0:0:0:0:
376,332,23666,6,0,L|337:325,1,39.3749987983704,8|0,0:0|0:0,0:0:0:0:
174,325,23838,2,0,L|136:332,1,39.3749987983704,8|0,0:0|0:0,0:0:0:0:
280,216,24009,6,0,P|333:184|388:182,1,118.124996395111,6|0,0:0|0:0,0:0:0:0:
407,186,24351,1,8,0:0:0:0:
307,110,24523,2,0,L|266:117,1,39.3749987983704,2|8,0:0|0:0,0:0:0:0:
88,64,24694,1,2,0:0:0:0:
111,165,24866,2,0,L|189:177,1,78.7499975967408,6|8,0:0|0:0,0:0:0:0:
13,134,25209,6,0,B|9:174|9:174|26:194|30:224|30:224|13:251|10:283,1,157.499995193482,6|2,0:0|0:0,0:0:0:0:
182,320,25723,2,0,P|156:292|118:284,1,78.7499975967408,12|2,0:0|0:0,0:0:0:0:
195,221,25980,1,8,0:0:0:0:
199,217,26066,1,2,0:0:0:0:
213,181,26151,1,0,0:0:0:0:
208,142,26237,1,6,0:0:0:0:
270,348,26409,2,0,B|276:324|276:324|272:294|272:294|260:273,1,78.7499975967408,8|0,0:0|0:0,0:0:0:0:
414,171,26751,6,0,L|297:189,1,118.124996395111,2|0,0:0|0:0,0:0:0:0:
278,194,27094,1,12,0:0:0:0:
377,321,27266,1,2,0:0:0:0:
372,290,27351,1,8,0:0:0:0:
367,259,27437,1,2,0:0:0:0:
495,134,27609,2,0,B|498:154|498:185|492:212,1,78.7499975967408,12|0,0:0|0:0,0:0:0:0:
313,344,27951,6,0,B|350:328|350:328|388:331|411:358|411:358|453:335,1,157.499995193482,6|2,0:0|0:0,0:0:0:0:
305,371,28466,2,0,L|224:358,1,78.7499975967408,12|2,0:0|0:0,0:0:0:0:
132,359,28723,1,8,0:0:0:0:
101,363,28809,1,2,0:0:0:0:
197,221,28980,1,6,0:0:0:0:
280,274,29151,2,0,L|291:196,1,78.7499975967408,8|2,0:0|0:0,0:0:0:0:
101,131,29494,6,0,B|119:190|86:190|101:247,1,118.124996395111,6|0,0:0|0:0,0:0:0:0:
109,266,29837,1,8,0:0:0:0:
18,163,30009,2,0,L|12:121,1,39.3749987983704,8|8,0:0|0:0,0:0:0:0:
197,221,30180,1,2,0:0:0:0:
150,344,30351,2,0,P|109:351|69:345,1,78.7499975967408,12|0,0:0|0:0,0:0:0:0:
280,323,30694,6,0,B|305:326|329:310|329:310|356:310|379:328|379:328|409:334|432:315,1,160.999994595337,6|2,0:0|0:0,0:0:0:0:
476,135,31209,2,0,L|464:213,1,78.7499975967408,8|2,0:0|0:0,0:0:0:0:
357,242,31466,1,8,0:0:0:0:
353,238,31551,2,0,L|346:198,1,39.3749987983704,2|8,0:0|0:0,0:0:0:0:
374,63,31723,2,0,L|381:103,1,39.3749987983704,6|0,0:0|0:0,0:0:0:0:
250,166,31894,1,8,0:0:0:0:
153,133,32066,1,2,0:0:0:0:
37,289,32237,6,0,B|79:276|126:280|178:296,1,118.124996395111,6|0,0:0|0:0,0:0:0:0:
174,295,32580,1,8,0:0:0:0:
44,204,32751,2,0,P|23:205|-8:216,1,39.3749987983704,8|8,0:0|0:0,0:0:0:0:
193,303,32923,1,6,0:0:0:0:
300,234,33094,2,0,B|325:206|325:206|336:158,1,78.7499975967408,12|0,0:0|0:0,0:0:0:0:
175,26,33437,6,0,B|169:68|169:68|184:80|196:102|192:128|192:128|183:177,1,157.499995193482,2|2,0:0|0:0,0:0:0:0:
178,195,33866,2,0,P|167:183|156:157,1,39.3749987983704,8|8,0:0|0:0,0:0:0:0:
260,60,34123,1,2,0:0:0:0:
260,60,34294,1,2,0:0:0:0:
300,234,34466,1,8,0:0:0:0:
382,99,34809,5,8,0:0:0:0:
382,99,34980,2,0,B|354:120|354:120|301:129|301:129|275:150,1,118.124996395111,6|0,0:0|0:0,0:0:0:0:
258,152,35323,1,8,0:0:0:0:
401,91,35494,2,0,L|441:84,1,39.3749987983704,2|8,0:0|0:0,0:0:0:0:
300,234,35666,1,6,0:0:0:0:
179,181,35837,2,0,P|175:142|189:103,1,78.7499975967408,6|8,0:0|0:0,0:0:0:0:
194,313,36180,6,0,B|183:274|183:274|162:263|155:245|155:245|138:256|116:256|116:256|88:284,1,157.499995193482,6|2,0:0|0:0,0:0:0:0:
193,345,36694,2,0,L|271:332,1,78.7499975967408,12|2,0:0|0:0,0:0:0:0:
368,364,36951,1,8,0:0:0:0:
372,368,37037,1,2,0:0:0:0:
401,371,37123,1,0,0:0:0:0:
430,374,37209,1,6,0:0:0:0:
357,190,37380,2,0,B|345:210|345:210|341:240|341:240|347:264,1,78.7499975967408,8|0,0:0|0:0,0:0:0:0:
413,87,37723,6,0,B|385:99|385:99|356:89|329:99|329:99|301:87,1,118.124996395111,2|0,0:0|0:0,0:0:0:0:
282,78,38066,1,12,0:0:0:0:
357,190,38237,1,2,0:0:0:0:
387,195,38323,1,8,0:0:0:0:
418,200,38409,1,2,0:0:0:0:
338,11,38580,2,0,P|303:-8|264:-8,1,78.7499975967408,12|0,0:0|0:0,0:0:0:0:
244,199,38923,6,0,B|260:190|271:171|271:171|268:214|268:214|272:231|286:247|286:247|268:263|266:288,1,166.249995560646,6|2,0:0|0:0,0:0:0:0:
357,190,39437,1,12,0:0:0:0:
182,262,39609,1,2,0:0:0:0:
178,258,39694,1,8,0:0:0:0:
174,254,39780,1,2,0:0:0:0:
192,111,39951,1,6,0:0:0:0:
266,287,40123,1,8,0:0:0:0:
284,144,40294,1,2,0:0:0:0:
358,357,40466,6,0,B|395:373|433:352|433:352|474:358,1,118.124996395111,6|0,0:0|0:0,0:0:0:0:
492,351,40809,1,8,0:0:0:0:
389,272,40980,2,0,L|382:232,1,39.3749987983704,8|8,0:0|0:0,0:0:0:0:
235,372,41151,1,2,0:0:0:0:
128,308,41323,2,0,P|90:295|51:298,1,78.7499975967408,12|0,0:0|0:0,0:0:0:0:
237,248,41666,6,0,B|243:229|258:213|258:213|248:181|261:149|261:149|245:128|241:102,1,157.499995193482,6|2,0:0|0:0,0:0:0:0:
339,185,42180,1,12,0:0:0:0:
159,173,42351,1,2,0:0:0:0:
155,169,42437,1,8,0:0:0:0:
151,165,42523,2,0,L|108:158,1,39.3749987983704,2|0,0:0|0:0,0:0:0:0:
365,186,42694,2,0,L|408:193,1,39.3749987983704,2|0,0:0|0:0,0:0:0:0:
237,248,42866,1,8,0:0:0:0:
242,75,43037,1,2,0:0:0:0:
166,330,43209,6,0,B|193:316|248:325|277:349,1,118.124996395111,6|0,0:0|0:0,0:0:0:0:
288,366,43551,1,8,0:0:0:0:
423,293,43723,1,8,0:0:0:0:
392,297,43809,1,8,0:0:0:0:
361,302,43894,1,2,0:0:0:0:
237,157,44066,2,0,L|314:169,1,78.7499975967408,12|0,0:0|0:0,0:0:0:0:
179,316,44409,6,0,B|154:313|131:323|131:323|103:306|72:313|72:313|53:295|30:292,1,157.499995193482,6|2,0:0|0:0,0:0:0:0:
152,228,44923,1,8,0:0:0:0:
91,384,45094,1,2,0:0:0:0:
63,198,45266,2,0,P|81:166|115:141,1,78.7499975967408,2|8,0:0|0:0,0:0:0:0:
133,135,45523,1,8,0:0:0:0:
157,133,45609,1,8,0:0:0:0:
184,138,45694,1,8,0:0:0:0:
212,154,45780,1,8,0:0:0:0:
235,182,45866,1,8,0:0:0:0:
247,219,45951,5,12,0:0:0:0:
152,228,46123,1,0,0:0:0:0:
208,306,46294,1,8,0:0:0:0:
303,297,46466,1,8,0:0:0:0:
307,293,46551,1,8,0:0:0:0:
311,289,46637,1,2,0:0:0:0:
247,219,46809,5,2,0:0:0:0:
152,228,46980,1,8,0:0:0:0:
113,315,47151,1,0,0:0:0:0:
96,150,47494,5,0,0:0:0:0:
152,228,47666,1,8,0:0:0:0:
208,306,47837,1,8,0:0:0:0:
204,310,47923,1,8,0:0:0:0:
200,314,48009,1,2,0:0:0:0:
113,315,48180,1,2,0:0:0:0:
152,228,48351,1,8,0:0:0:0:
191,141,48523,1,2,0:0:0:0:
303,297,48694,5,2,0:0:0:0:
208,306,48866,1,0,0:0:0:0:
247,219,49037,1,8,0:0:0:0:
152,228,49209,1,8,0:0:0:0:
148,224,49294,1,8,0:0:0:0:
144,220,49380,1,2,0:0:0:0:
191,141,49551,5,2,0:0:0:0:
247,219,49723,1,8,0:0:0:0:
208,306,49894,1,8,0:0:0:0:
342,210,50237,5,0,0:0:0:0:
247,219,50409,1,8,0:0:0:0:
303,297,50580,1,8,0:0:0:0:
307,293,50666,1,8,0:0:0:0:
311,289,50751,1,2,0:0:0:0:
342,210,50923,1,2,0:0:0:0:
286,132,51094,1,8,0:0:0:0:
191,141,51266,2,0,L|150:134,1,39.3749987983704,2|8,0:0|0:0,0:0:0:0:
113,315,51437,5,2,0:0:0:0:
152,228,51609,1,0,0:0:0:0:
208,306,51780,1,8,0:0:0:0:
247,219,51951,1,8,0:0:0:0:
243,215,52037,1,8,0:0:0:0:
239,211,52123,1,2,0:0:0:0:
191,141,52294,5,2,0:0:0:0:
152,228,52466,1,8,0:0:0:0:
208,306,52637,1,0,0:0:0:0:
191,141,52980,5,0,0:0:0:0:
247,219,53151,1,8,0:0:0:0:
342,210,53323,1,8,0:0:0:0:
346,206,53409,1,8,0:0:0:0:
350,202,53494,1,2,0:0:0:0:
286,132,53666,1,2,0:0:0:0:
247,219,53837,1,8,0:0:0:0:
208,306,54009,1,2,0:0:0:0:
398,288,54180,5,2,0:0:0:0:
342,210,54351,1,0,0:0:0:0:
303,297,54523,1,8,0:0:0:0:
247,219,54694,1,8,0:0:0:0:
243,223,54780,1,8,0:0:0:0:
239,227,54866,1,2,0:0:0:0:
208,306,55037,5,2,0:0:0:0:
303,297,55209,1,8,0:0:0:0:
342,210,55380,1,2,0:0:0:0:
152,228,55551,1,2,0:0:0:0:
191,141,55723,5,2,0:0:0:0:
247,219,55894,1,8,0:0:0:0:
251,223,55980,1,0,0:0:0:0:
255,227,56066,2,0,L|262:274,1,39.3749987983704,8|8,0:0|0:0,0:0:0:0:
286,132,56237,5,2,0:0:0:0:
191,141,56409,1,0,0:0:0:0:
208,306,56580,1,0,0:0:0:0:
152,228,56751,1,0,0:0:0:0:
342,210,56923,5,6,0:0:0:0:
255,227,57094,1,0,0:0:0:0:
238,140,57266,1,8,0:0:0:0:
325,123,57437,1,8,0:0:0:0:
329,127,57523,1,8,0:0:0:0:
333,131,57609,1,2,0:0:0:0:
359,297,57780,5,2,0:0:0:0:
272,314,57951,1,8,0:0:0:0:
255,227,58123,1,0,0:0:0:0:
342,210,58466,5,0,0:0:0:0:
168,244,58637,1,8,0:0:0:0:
134,70,58809,1,8,0:0:0:0:
138,66,58894,1,8,0:0:0:0:
142,62,58980,1,2,0:0:0:0:
308,36,59151,1,2,0:0:0:0:
255,227,59323,5,8,0:0:0:0:
238,140,59494,1,0,0:0:0:0:
359,297,59666,5,2,0:0:0:0:
272,314,59837,1,0,0:0:0:0:
255,227,60009,1,8,0:0:0:0:
168,244,60180,1,8,0:0:0:0:
164,240,60266,1,8,0:0:0:0:
160,236,60351,1,2,0:0:0:0:
308,36,60523,5,2,0:0:0:0:
325,123,60694,1,8,0:0:0:0:
342,210,60866,2,0,L|381:216,2,39.3749987983704,2|8|2,0:0|0:0|0:0,0:0:0:0:
221,53,61209,5,0,0:0:0:0:
255,227,61380,1,8,0:0:0:0:
81,261,61551,1,8,0:0:0:0:
77,257,61637,1,8,0:0:0:0:
73,253,61723,1,2,0:0:0:0:
47,87,61894,1,2,0:0:0:0:
238,140,62066,5,8,0:0:0:0:
151,157,62237,1,0,0:0:0:0:
308,36,62409,5,2,0:0:0:0:
325,123,62580,1,0,0:0:0:0:
238,140,62751,1,8,0:0:0:0:
255,227,62923,1,8,0:0:0:0:
251,231,63009,1,8,0:0:0:0:
247,235,63094,1,2,0:0:0:0:
134,70,63266,5,2,0:0:0:0:
151,157,63437,1,8,0:0:0:0:
168,244,63609,1,2,0:0:0:0:
64,174,63951,5,0,0:0:0:0:
238,140,64123,1,8,0:0:0:0:
272,314,64294,1,8,0:0:0:0:
268,318,64380,1,8,0:0:0:0:
264,322,64466,1,2,0:0:0:0:
98,348,64637,1,2,0:0:0:0:
255,227,64809,5,8,0:0:0:0:
168,244,64980,1,2,0:0:0:0:
238,140,65151,5,8,0:0:0:0:
255,227,65323,1,2,0:0:0:0:
342,210,65494,1,8,0:0:0:0:
325,123,65666,5,8,0:0:0:0:
272,314,65837,1,2,0:0:0:0:
81,261,66009,1,2,0:0:0:0:
134,70,66180,1,8,0:0:0:0:
325,123,66351,1,2,0:0:0:0:
238,140,66694,5,8,0:0:0:0:
255,227,66866,5,8,0:0:0:0:
258,263,66951,1,8,0:0:0:0:
262,300,67037,1,8,0:0:0:0:
266,337,67123,1,8,0:0:0:0:
232,370,67209,6,0,L|193:376,1,39.3749987983704,8|0,0:0|0:0,0:0:0:0:
104,272,67380,2,0,L|142:265,1,39.3749987983704,8|0,0:0|0:0,0:0:0:0:
43,330,67551,5,8,0:0:0:0:
26,305,67637,1,8,0:0:0:0:
20,275,67723,1,8,0:0:0:0:
24,245,67809,1,8,0:0:0:0:
38,219,67894,6,0,P|54:179|47:129,1,91.8749971961976,2|0,0:0|0:0,0:0:0:0:
39,113,68242,2,0,L|99:120,1,61.2499981307984,8|0,0:0|0:0,0:0:0:0:
110,36,68499,1,8,0:0:0:0:
79,39,68584,1,2,0:0:0:0:
178,87,68756,1,2,0:0:0:0:
100,120,68927,1,8,0:0:0:0:
178,87,69099,6,0,P|185:118|179:150,1,61.2499981307984,0|2,0:0|0:0,0:0:0:0:
327,141,69441,2,0,P|296:131|271:110,1,61.2499981307984,0|8,0:0|0:0,0:0:0:0:
213,251,69784,1,2,0:0:0:0:
209,247,69870,1,8,0:0:0:0:
205,243,69955,2,0,P|228:221|259:210,1,61.2499981307984,2|2,0:0|0:0,0:0:0:0:
278,303,70298,1,8,0:0:0:0:
278,303,70641,6,0,P|246:330|190:337,1,91.8749971961976,2|0,0:0|0:0,0:0:0:0:
177,336,70984,2,0,L|116:328,1,61.2499981307984,8|0,0:0|0:0,0:0:0:0:
31,329,71241,1,8,0:0:0:0:
0,332,71327,1,2,0:0:0:0:
74,256,71498,1,2,0:0:0:0:
117,328,71670,1,8,0:0:0:0:
74,256,71841,6,0,P|81:225|75:193,1,61.2499981307984,0|2,0:0|0:0,0:0:0:0:
178,120,72184,2,0,P|173:150|180:179,1,61.2499981307984,0|8,0:0|0:0,0:0:0:0:
274,264,72527,1,8,0:0:0:0:
278,260,72613,1,8,0:0:0:0:
282,256,72698,2,0,P|289:225|283:193,1,61.2499981307984,2|2,0:0|0:0,0:0:0:0:
178,272,73041,1,8,0:0:0:0:
245,354,73213,1,2,0:0:0:0:
249,358,73298,1,8,0:0:0:0:
253,362,73384,6,0,L|347:372,1,91.8749971961976,2|0,0:0|0:0,0:0:0:0:
363,362,73727,2,0,P|384:338|395:307,1,61.2499981307984,8|0,0:0|0:0,0:0:0:0:
407,227,73984,1,8,0:0:0:0:
400,196,74070,1,2,0:0:0:0:
474,280,74241,1,2,0:0:0:0:
394,311,74413,1,8,0:0:0:0:
474,280,74584,6,0,P|488:251|491:219,1,61.2499981307984,0|2,0:0|0:0,0:0:0:0:
346,220,74927,2,0,L|408:227,1,61.2499981307984,0|8,0:0|0:0,0:0:0:0:
287,159,75270,1,8,0:0:0:0:
283,163,75355,1,8,0:0:0:0:
279,167,75441,2,0,P|264:195|261:227,1,61.2499981307984,2|2,0:0|0:0,0:0:0:0:
346,220,75784,1,8,0:0:0:0:
325,49,75955,1,2,0:0:0:0:
200,67,76127,6,0,L|106:57,1,91.8749971961976,2|0,0:0|0:0,0:0:0:0:
90,67,76470,2,0,P|69:91|58:122,1,61.2499981307984,8|0,0:0|0:0,0:0:0:0:
46,202,76727,1,8,0:0:0:0:
53,233,76813,1,2,0:0:0:0:
125,170,76984,1,2,0:0:0:0:
59,118,77155,1,8,0:0:0:0:
125,170,77327,6,0,L|185:162,1,61.2499981307984,2|0,0:0|0:0,0:0:0:0:
227,268,77670,2,0,L|166:260,1,61.2499981307984,2|8,0:0|0:0,0:0:0:0:
297,179,78013,1,8,0:0:0:0:
227,268,78184,1,2,0:0:0:0:
186,162,78355,1,8,0:0:0:0:
338,284,78527,1,8,0:0:0:0:
409,196,78698,1,8,0:0:0:0:
405,192,78784,1,8,0:0:0:0:
401,188,78870,6,0,P|354:165|305:174,1,91.8749971961976,2|0,0:0|0:0,0:0:0:0:
297,179,79213,2,0,L|290:116,1,61.2499981307984,8|0,0:0|0:0,0:0:0:0:
372,70,79470,1,8,0:0:0:0:
368,100,79555,1,2,0:0:0:0:
290,23,79727,1,2,0:0:0:0:
290,118,79898,1,8,0:0:0:0:
208,71,80070,6,0,P|180:60|148:58,1,61.2499981307984,0|2,0:0|0:0,0:0:0:0:
119,198,80413,2,0,P|143:179|160:154,1,61.2499981307984,0|8,0:0|0:0,0:0:0:0:
32,190,80755,1,8,0:0:0:0:
28,194,80841,1,8,0:0:0:0:
24,198,80927,2,0,P|27:230|42:256,1,61.2499981307984,2|2,0:0|0:0,0:0:0:0:
130,295,81270,1,8,0:0:0:0:
130,295,81613,6,0,L|220:283,1,91.8749971961976,2|0,0:0|0:0,0:0:0:0:
239,295,81955,2,0,P|265:309|295:312,1,61.2499981307984,8|0,0:0|0:0,0:0:0:0:
389,290,82213,1,8,0:0:0:0:
414,273,82298,1,2,0:0:0:0:
323,220,82470,1,2,0:0:0:0:
296,312,82641,1,8,0:0:0:0:
362,382,82813,6,0,L|426:374,1,61.2499981307984,0|2,0:0|0:0,0:0:0:0:
475,265,83155,2,0,L|415:273,1,61.2499981307984,0|8,0:0|0:0,0:0:0:0:
336,187,83498,1,8,0:0:0:0:
340,183,83584,1,8,0:0:0:0:
344,179,83670,2,0,L|405:172,1,61.2499981307984,2|2,0:0|0:0,0:0:0:0:
389,290,84013,1,8,0:0:0:0:
271,274,84184,1,2,0:0:0:0:
267,270,84270,1,8,0:0:0:0:
263,266,84355,6,0,P|219:253|174:264,1,91.8749971961976,2|0,0:0|0:0,0:0:0:0:
157,272,84698,2,0,P|147:243|153:214,1,61.2499981307984,8|0,0:0|0:0,0:0:0:0:
167,121,84955,1,8,0:0:0:0:
177,92,85041,1,2,0:0:0:0:
241,180,85213,1,2,0:0:0:0:
153,214,85384,1,8,0:0:0:0:
79,155,85555,6,0,L|71:93,1,61.2499981307984,0|2,0:0|0:0,0:0:0:0:
184,31,85898,2,0,L|177:93,1,61.2499981307984,0|8,0:0|0:0,0:0:0:0:
147,274,86241,2,0,L|143:244,1,30.6249990653992,8|8,0:0|0:0,0:0:0:0:
241,180,86413,1,2,0:0:0:0:
310,270,86584,1,2,0:0:0:0:
401,201,86755,1,8,0:0:0:0:
331,110,86927,1,2,0:0:0:0:
401,201,87098,6,0,P|441:186|490:190,1,91.8749971961976,2|0,0:0|0:0,0:0:0:0:
508,199,87441,2,0,L|500:262,1,61.2499981307984,8|0,0:0|0:0,0:0:0:0:
488,353,87698,1,8,0:0:0:0:
485,384,87784,1,2,0:0:0:0:
414,296,87955,2,0,P|398:328|395:353,1,61.2499981307984,2|8,0:0|0:0,0:0:0:0:
501,260,88298,1,2,0:0:0:0:
501,260,88641,5,0,0:0:0:0:
414,296,88813,1,0,0:0:0:0:
399,174,88984,1,2,0:0:0:0:
312,235,89155,1,2,0:0:0:0:
327,357,89327,1,8,0:0:0:0:
225,271,89498,1,8,0:0:0:0:
204,270,89584,1,8,0:0:0:0:
183,269,89670,1,8,0:0:0:0:
162,268,89755,1,8,0:0:0:0:
141,267,89841,6,0,P|115:219|122:154,1,118.124996395111,6|0,0:0|0:0,0:0:0:0:
130,140,90184,1,8,0:0:0:0:
36,232,90355,2,0,L|31:270,1,39.3749987983704,2|8,0:0|0:0,0:0:0:0:
207,197,90527,1,2,0:0:0:0:
178,70,90698,2,0,P|139:55|99:61,1,78.7499975967408,6|8,0:0|0:0,0:0:0:0:
302,108,91041,6,0,P|334:81|349:44,1,78.7499975967408,6|0,0:0|0:0,0:0:0:0:
178,70,91384,1,2,0:0:0:0:
207,197,91555,1,12,0:0:0:0:
302,108,91727,1,2,0:0:0:0:
298,104,91813,1,8,0:0:0:0:
294,100,91898,1,2,0:0:0:0:
178,70,92070,1,6,0:0:0:0:
331,235,92241,1,8,0:0:0:0:
236,324,92413,1,0,0:0:0:0:
380,157,92584,6,0,B|435:140|435:140|496:164,1,118.124996395111,2|0,0:0|0:0,0:0:0:0:
506,175,92927,1,12,0:0:0:0:
432,276,93098,2,0,P|431:256|432:237,1,39.3749987983704,2|8,0:0|0:0,0:0:0:0:
372,45,93270,1,2,0:0:0:0:
300,132,93441,2,0,B|291:170|291:170|311:206,1,78.7499975967408,12|0,0:0|0:0,0:0:0:0:
261,27,93784,6,0,B|231:0|231:0|190:0,1,78.7499975967408,6|0,0:0|0:0,0:0:0:0:
300,132,94127,1,2,0:0:0:0:
372,45,94298,1,12,0:0:0:0:
411,150,94470,1,2,0:0:0:0:
407,154,94555,1,8,0:0:0:0:
403,158,94641,1,2,0:0:0:0:
261,27,94813,1,6,0:0:0:0:
189,114,94984,1,8,0:0:0:0:
339,237,95155,1,2,0:0:0:0:
157,305,95327,6,0,P|172:255|228:219,1,118.124996395111,6|0,0:0|0:0,0:0:0:0:
244,218,95670,1,8,0:0:0:0:
109,196,95841,2,0,L|70:189,1,39.3749987983704,8|8,0:0|0:0,0:0:0:0:
241,303,96013,1,2,0:0:0:0:
339,237,96184,2,0,P|339:197|323:161,1,78.7499975967408,12|0,0:0|0:0,0:0:0:0:
347,354,96527,6,0,P|381:374|420:378,1,78.7499975967408,6|0,0:0|0:0,0:0:0:0:
339,237,96870,1,2,0:0:0:0:
241,303,97041,1,8,0:0:0:0:
233,186,97213,1,2,0:0:0:0:
237,182,97298,1,8,0:0:0:0:
241,178,97384,1,2,0:0:0:0:
135,252,97555,1,6,0:0:0:0:
347,354,97727,1,8,0:0:0:0:
339,237,97898,1,2,0:0:0:0:
143,369,98070,6,0,B|104:348|108:300|108:300|133:253,1,118.124996395111,6|0,0:0|0:0,0:0:0:0:
135,252,98413,1,8,0:0:0:0:
14,343,98584,2,0,P|19:365|28:383,1,39.3749987983704,8|8,0:0|0:0,0:0:0:0:
145,235,98755,1,6,0:0:0:0:
90,118,98927,2,0,B|55:102|55:102|14:104,1,78.7499975967408,12|0,0:0|0:0,0:0:0:0:
218,128,99270,6,0,B|249:105|249:105|268:69,1,78.7499975967408,2|0,0:0|0:0,0:0:0:0:
90,118,99613,2,0,L|83:157,1,39.3749987983704,2|8,0:0|0:0,0:0:0:0:
145,235,99784,1,8,0:0:0:0:
218,128,99955,1,2,0:0:0:0:
346,293,100127,1,2,0:0:0:0:
224,336,100298,1,8,0:0:0:0:
342,164,100470,1,0,0:0:0:0:
342,164,100813,6,0,P|295:129|237:123,1,118.124996395111,6|0,0:0|0:0,0:0:0:0:
218,128,101155,1,8,0:0:0:0:
361,160,101327,2,0,B|378:151|378:151|389:132,1,39.3749987983704,2|8,0:0|0:0,0:0:0:0:
215,50,101498,1,6,0:0:0:0:
130,132,101670,2,0,P|140:170|168:201,1,78.7499975967408,6|8,0:0|0:0,0:0:0:0:
101,17,102013,6,0,P|63:6|22:15,1,78.7499975967408,6|0,0:0|0:0,0:0:0:0:
130,132,102355,1,2,0:0:0:0:
215,50,102527,1,12,0:0:0:0:
101,17,102698,1,2,0:0:0:0:
97,21,102784,1,8,0:0:0:0:
93,25,102870,1,2,0:0:0:0:
130,132,103041,1,6,0:0:0:0:
328,82,103213,1,8,0:0:0:0:
441,114,103384,1,0,0:0:0:0:
243,164,103555,6,0,B|238:204|238:204|247:242|247:242|243:283,1,118.124996395111,2|0,0:0|0:0,0:0:0:0:
241,301,103898,1,12,0:0:0:0:
328,199,104070,2,0,L|367:193,1,39.3749987983704,2|8,0:0|0:0,0:0:0:0:
158,248,104241,1,2,0:0:0:0:
186,363,104413,2,0,B|219:380|219:380|264:380,1,78.7499975967408,12|0,0:0|0:0,0:0:0:0:
72,329,104755,6,0,B|39:349|39:349|17:388,1,78.7499975967408,6|0,0:0|0:0,0:0:0:0:
186,363,105098,1,2,0:0:0:0:
158,248,105270,1,12,0:0:0:0:
272,282,105441,1,2,0:0:0:0:
276,278,105527,1,8,0:0:0:0:
280,274,105613,1,2,0:0:0:0:
131,133,105784,1,6,0:0:0:0:
245,167,105955,1,8,0:0:0:0:
186,363,106127,1,2,0:0:0:0:
45,215,106298,6,0,L|26:97,1,118.124996395111,6|0,0:0|0:0,0:0:0:0:
12,85,106641,1,8,0:0:0:0:
137,94,106813,2,0,L|131:134,1,39.3749987983704,8|8,0:0|0:0,0:0:0:0:
280,274,106984,1,2,0:0:0:0:
245,167,107155,2,0,P|205:190|181:222,1,78.7499975967408,12|0,0:0|0:0,0:0:0:0:
355,190,107498,6,0,P|355:143|339:107,1,78.7499975967408,6|0,0:0|0:0,0:0:0:0:
245,167,107841,1,2,0:0:0:0:
280,274,108013,1,12,0:0:0:0:
355,190,108184,1,2,0:0:0:0:
359,186,108270,1,8,0:0:0:0:
363,182,108355,2,0,L|401:175,1,39.3749987983704,2|8,0:0|0:0,0:0:0:0:
170,251,108527,1,2,0:0:0:0:
205,358,108698,1,8,0:0:0:0:
59,227,108870,1,2,0:0:0:0:
128,19,109041,6,0,B|148:43|148:43|156:97|156:97|145:126,1,118.124996395111,6|0,0:0|0:0,0:0:0:0:
135,144,109384,1,8,0:0:0:0:
20,93,109555,2,0,P|39:87|59:85,1,39.3749987983704,8|8,0:0|0:0,0:0:0:0:
170,251,109727,1,2,0:0:0:0:
322,185,109898,2,0,P|285:172|246:168,1,78.7499975967408,12|0,0:0|0:0,0:0:0:0:
94,334,110241,1,6,0:0:0:0:
29,329,111441,6,0,L|93:334,1,65.625
111,315,111793,2,0,P|114:294|111:272,1,43.75
111,272,112307,5,0,0:0:0:0:
81,177,112478,2,0,P|60:185|43:198,1,43.75,4|0,0:3|0:0,0:0:0:0:
177,199,112821,2,0,P|180:177|177:155,1,43.75,4|0,0:3|0:0,0:0:0:0:
110,84,113164,6,0,L|67:80,1,43.75,4|0,0:3|0:0,0:0:0:0:
77,220,113507,2,0,L|81:178,1,43.75,4|0,0:3|0:0,0:0:0:0:
177,199,113850,2,0,L|173:241,1,43.75,4|0,0:3|0:0,0:0:0:0:
144,335,114193,2,0,L|186:338,1,43.75,4|0,1:3|0:0,0:0:0:0:
325,338,114536,6,0,L|368:335,1,43.75,4|0,0:3|0:0,0:0:0:0:
335,199,114879,2,0,L|338:241,1,43.75,4|0,0:3|0:0,0:0:0:0:
434,220,115222,2,0,L|431:178,1,43.75,4|0,0:3|0:0,0:0:0:0:
402,84,115564,2,0,L|444:80,1,43.75,4|0,0:3|0:0,0:0:0:0:
335,199,115907,6,0,P|331:177|334:155,1,43.75,4|0,0:3|0:0,0:0:0:0:
401,272,116250,2,0,P|383:285|363:293,1,43.75,4|0,0:3|0:0,0:0:0:0:
431,177,116593,2,0,P|451:186|468:199,1,43.75,4|4,0:3|1:3,0:0:0:0:
474,339,116936,1,4,1:3:0:0:
474,339,117279,5,0,0:0:0:0:
474,339,117450,1,0,0:0:0:0:
363,293,117622,2,0,L|318:290,1,43.75,4|0,0:3|0:0,0:0:0:0:
193,339,117964,2,0,L|149:342,1,43.75,4|0,0:3|0:0,0:0:0:0:
82,293,118307,2,0,L|38:291,1,43.75,4|0,0:3|0:0,0:0:0:0:
95,154,118650,6,0,P|109:169|119:189,1,43.75,4|0,0:3|0:0,0:0:0:0:
187,239,118993,2,0,P|196:219|211:204,1,43.75,4|0,0:3|0:0,0:0:0:0:
300,204,119336,2,0,P|316:220|325:240,1,43.75,4|0,0:3|0:0,0:0:0:0:
391,189,119679,2,0,P|401:169|417:154,1,43.75,4|0,1:3|0:0,0:0:0:0:
256,32,120022,5,0,0:0:0:0:
256,32,120193,1,0,0:0:0:0:
166,130,120364,2,0,L|162:86,1,43.75,4|0,0:3|0:0,0:0:0:0:
350,86,120707,2,0,L|346:130,1,43.75,4|0,0:3|0:0,0:0:0:0:
184,283,121050,2,0,L|187:239,1,43.75,4|0,0:3|0:0,0:0:0:0:
325,239,121393,6,0,L|328:283,1,43.75,0|0,0:0|1:0,0:0:0:0:
256,352,122421,5,0,1:0:0:0:
35,50,122764,5,2,0:0:0:0:
121,17,122936,1,0,0:0:0:0:
195,71,123107,1,0,0:0:0:0:
281,38,123279,5,2,0:0:0:0:
281,38,123450,1,2,0:0:0:0:
281,38,123622,1,0,0:0:0:0:
181,162,123793,5,4,0:3:0:0:
267,129,123964,1,0,0:0:0:0:
353,96,124136,2,0,L|395:99,1,43.75,2|0,0:0|0:0,0:0:0:0:
340,262,124479,2,0,L|297:258,1,43.75,4|2,0:3|0:0,0:0:0:0:
429,186,124822,2,0,L|425:228,1,43.75,2|0,0:0|0:0,0:0:0:0:
263,171,125164,2,0,L|267:129,1,43.75,4|0,1:3|0:0,0:0:0:0:
346,178,125507,5,2,0:0:0:0:
340,262,125679,1,0,0:0:0:0:
429,186,125850,1,4,0:3:0:0:
353,96,126022,5,2,0:0:0:0:
353,96,126193,1,2,0:0:0:0:
353,96,126364,1,0,0:0:0:0:
264,172,126536,5,4,0:3:0:0:
188,82,126707,1,0,0:0:0:0:
99,158,126879,2,0,P|88:181|84:208,1,43.75,2|0,0:0|0:0,0:0:0:0:
142,347,127222,2,0,P|137:325|127:306,1,43.75,4|2,0:3|0:0,0:0:0:0:
53,274,127564,2,0,P|31:278|12:288,1,43.75,2|4,0:0|1:3,0:0:0:0:
160,231,127907,2,0,P|183:242|210:246,1,43.75,4|0,1:3|0:0,0:0:0:0:
323,201,128250,5,2,0:0:0:0:
284,284,128422,1,0,0:0:0:0:
375,276,128593,1,4,0:3:0:0:
313,172,128764,5,2,0:0:0:0:
313,172,128936,1,2,0:0:0:0:
313,172,129107,1,0,0:0:0:0:
264,306,129279,5,4,0:3:0:0:
403,281,129450,1,0,0:0:0:0:
453,149,129622,2,0,B|457:128|457:128|454:106,1,43.75,2|0,0:0|0:0,0:0:0:0:
375,47,129964,2,0,B|371:68|371:68|374:90,1,43.75,4|2,0:3|0:0,0:0:0:0:
313,172,130307,2,0,L|266:176,1,43.75,2|0,0:0|0:0,0:0:0:0:
228,76,130650,2,0,L|271:79,1,43.75,4|0,1:3|0:0,0:0:0:0:
163,163,130993,5,4,0:3:0:0:
121,64,131164,1,0,0:0:0:0:
56,149,131336,1,0,0:0:0:0:
228,76,131507,5,2,0:0:0:0:
228,76,131679,1,2,0:0:0:0:
228,76,131850,1,0,0:0:0:0:
205,261,132022,5,0,1:0:0:0:
205,261,132193,1,0,1:0:0:0:
98,248,132364,5,0,0:0:0:0:
163,163,132536,1,0,0:0:0:0:
247,360,132707,1,0,0:0:0:0:
140,346,132879,1,0,0:0:0:0:
270,175,133050,1,0,0:0:0:0:
311,273,133222,1,0,0:0:0:0:
205,261,133393,5,0,0:0:0:0:
205,261,133564,1,0,0:0:0:0:
353,371,133735,6,0,L|444:362,1,91.8749971961976,6|0,0:0|0:0,0:0:0:0:
460,349,134079,2,0,P|469:320|464:291,1,61.2499981307984,0|2,0:0|0:0,0:0:0:0:
406,227,134422,1,2,0:0:0:0:
489,208,134593,1,0,0:0:0:0:
464,290,134764,1,0,0:0:0:0:
431,145,134936,6,0,L|438:84,1,61.2499981307984,0|2,0:0|0:0,0:0:0:0:
375,229,135279,2,0,L|382:289,1,61.2499981307984,0|0,0:0|0:0,0:0:0:0:
319,145,135622,2,0,L|322:113,1,30.6249990653992,2|0,0:0|0:0,0:0:0:0:
311,136,135793,2,0,L|318:75,1,61.2499981307984,2|0,0:0|0:0,0:0:0:0:
263,229,136136,1,0,1:0:0:0:
263,229,136479,6,0,P|216:240|168:234,1,91.8749971961976,2|0,0:0|0:0,0:0:0:0:
153,229,136822,2,0,B|140:200|140:200|142:168,1,61.2499981307984,0|2,0:0|0:0,0:0:0:0:
207,114,137164,1,2,0:0:0:0:
127,87,137336,1,0,0:0:0:0:
142,171,137507,1,0,0:0:0:0:
231,94,137679,6,0,P|259:83|290:83,1,61.2499981307984,0|2,0:0|0:0,0:0:0:0:
314,224,138022,2,0,P|290:204|275:178,1,61.2499981307984,0|0,0:0|0:0,0:0:0:0:
387,88,138364,2,0,P|384:104|377:124,1,30.6249990653992,2|0,0:0|0:0,0:0:0:0:
396,95,138536,2,0,P|390:124|375:150,1,61.2499981307984,2|0,0:0|1:0,0:0:0:0:
314,224,138879,1,0,0:0:0:0:
314,224,139222,6,0,B|272:212|272:212|247:212|227:230,1,91.8749971961976,2|0,0:0|0:0,0:0:0:0:
219,248,139564,2,0,L|226:309,1,61.2499981307984,0|2,0:0|0:0,0:0:0:0:
164,369,139907,1,2,0:0:0:0:
143,286,140079,1,0,0:0:0:0:
226,309,140250,1,0,0:0:0:0:
81,346,140422,6,0,P|51:351|20:346,1,61.2499981307984,0|2,0:0|0:0,0:0:0:0:
60,263,140764,2,0,P|40:239|29:210,1,61.2499981307984,0|0,0:0|0:0,0:0:0:0:
122,203,141107,2,0,B|114:167|114:167|122:143|122:143|114:119|114:119|122:83,1,122.499996261597,2|0,0:0|0:0,0:0:0:0:
205,226,141622,1,0,1:0:0:0:
143,286,141793,1,0,0:0:0:0:
226,309,141964,6,0,L|316:320,1,91.8749971961976,0|0,1:0|0:0,0:0:0:0:
335,309,142307,2,0,P|352:283|357:253,1,61.2499981307984,0|2,0:0|0:0,0:0:0:0:
340,170,142650,1,2,0:0:0:0:
422,198,142822,1,0,0:0:0:0:
357,254,142993,1,0,1:0:0:0:
405,114,143164,5,4,1:0:0:0:
275,226,143507,5,0,1:0:0:0:
439,282,143850,5,2,0:0:0:0:
422,198,144022,1,2,0:0:0:0:
357,254,144193,1,8,0:0:0:0:
342,280,144279,1,8,0:0:0:0:
319,300,144364,1,8,0:0:0:0:
291,311,144450,1,8,0:0:0:0:
260,312,144536,1,8,0:0:0:0:
232,302,144622,1,8,0:0:0:0:
208,282,144707,6,0,B|199:233|199:233|199:208|210:190,1,91.8749971961976,12|0,0:0|0:0,0:0:0:0:
220,176,145050,2,0,P|244:158|286:153,1,61.2499981307984,8|0,0:0|0:0,0:0:0:0:
345,200,145307,1,8,0:0:0:0:
350,231,145393,1,2,0:0:0:0:
351,114,145564,1,2,0:0:0:0:
274,152,145736,1,8,0:0:0:0:
422,162,145907,6,0,L|484:154,1,61.2499981307984,0|2,0:0|0:0,0:0:0:0:
415,269,146250,2,0,L|355:262,1,61.2499981307984,0|8,0:0|0:0,0:0:0:0:
278,354,146593,1,8,0:0:0:0:
282,358,146679,1,8,0:0:0:0:
286,362,146764,2,0,L|346:355,1,61.2499981307984,2|2,0:0|0:0,0:0:0:0:
350,231,147107,1,8,0:0:0:0:
350,231,147450,6,0,L|259:242,1,91.8749971961976,2|0,0:0|0:0,0:0:0:0:
241,231,147793,2,0,B|228:202|228:202|230:172,1,61.2499981307984,8|0,0:0|0:0,0:0:0:0:
238,90,148050,1,8,0:0:0:0:
252,62,148136,1,2,0:0:0:0:
162,124,148307,1,2,0:0:0:0:
230,173,148479,1,8,0:0:0:0:
170,41,148650,6,0,P|139:33|106:35,1,61.2499981307984,0|2,0:0|0:0,0:0:0:0:
94,173,148993,2,0,P|115:151|130:125,1,61.2499981307984,0|8,0:0|0:0,0:0:0:0:
10,173,149336,1,8,0:0:0:0:
6,177,149422,1,8,0:0:0:0:
2,181,149507,2,0,P|10:211|28:239,1,61.2499981307984,2|2,0:0|0:0,0:0:0:0:
114,263,149850,1,8,0:0:0:0:
182,200,150022,1,2,0:0:0:0:
186,196,150107,1,8,0:0:0:0:
190,192,150193,6,0,L|282:180,1,91.8749971961976,2|0,0:0|0:0,0:0:0:0:
299,192,150536,2,0,L|292:252,1,61.2499981307984,8|0,0:0|0:0,0:0:0:0:
376,263,150793,1,8,0:0:0:0:
373,232,150879,1,2,0:0:0:0:
325,331,151050,1,2,0:0:0:0:
292,253,151222,1,8,0:0:0:0:
409,341,151393,6,0,P|438:347|468:341,1,61.2499981307984,0|2,0:0|0:0,0:0:0:0:
429,200,151736,2,0,P|399:194|370:201,1,61.2499981307984,0|8,0:0|0:0,0:0:0:0:
237,325,152079,2,0,L|241:357,2,30.6249990653992,8|8|2,0:0|0:0|0:0,0:0:0:0:
292,253,152422,1,2,0:0:0:0:
241,179,152593,1,8,0:0:0:0:
155,205,152764,1,2,0:0:0:0:
151,294,152936,6,0,P|113:309|59:302,1,91.8749971961976,2|0,0:0|0:0,0:0:0:0:
43,297,153279,2,0,L|35:234,1,61.2499981307984,8|0,0:0|0:0,0:0:0:0:
80,161,153536,1,8,0:0:0:0:
76,129,153622,1,2,0:0:0:0:
155,205,153793,2,0,L|162:267,1,61.2499981307984,2|8,0:0|0:0,0:0:0:0:
123,373,154136,1,2,0:0:0:0:
123,373,154479,5,2,0:0:0:0:
215,382,154650,1,8,0:0:0:0:
162,266,154822,1,8,0:0:0:0:
294,219,154993,1,0,0:0:0:0:
347,335,155164,1,0,0:0:0:0:
386,228,155336,1,0,0:0:0:0:
386,228,155507,1,0,0:0:0:0:
386,228,156193,5,8,0:0:0:0:
386,228,156364,1,8,0:0:0:0:
347,335,156536,2,0,L|316:338,1,30.6249990653992,8|8,0:0|0:0,0:0:0:0:
162,266,156707,1,8,0:0:0:0:
178,225,156793,1,8,0:0:0:0:
222,228,156879,1,8,0:0:0:0:
233,272,156964,1,8,0:0:0:0:
195,296,157050,6,0,B|137:305|141:269|80:281,1,118.124996395111,6|0,0:0|0:0,0:0:0:0:
61,289,157393,1,8,0:0:0:0:
178,225,157564,1,2,0:0:0:0:
194,189,157650,1,8,0:0:0:0:
196,150,157736,1,2,0:0:0:0:
37,111,157907,2,0,P|59:143|93:164,1,78.7499975967408,6|8,0:0|0:0,0:0:0:0:
207,46,158250,6,0,P|168:49|133:67,1,78.7499975967408,6|0,0:0|0:0,0:0:0:0:
196,150,158593,1,2,0:0:0:0:
292,108,158764,1,12,0:0:0:0:
93,164,158936,1,2,0:0:0:0:
97,168,159022,1,8,0:0:0:0:
101,172,159107,1,2,0:0:0:0:
281,212,159279,1,6,0:0:0:0:
185,254,159450,1,8,0:0:0:0:
384,198,159622,1,0,0:0:0:0:
270,316,159793,6,0,P|194:314|151:352,1,118.124996395111,2|0,0:0|0:0,0:0:0:0:
150,353,160136,1,12,0:0:0:0:
95,199,160307,1,2,0:0:0:0:
77,233,160393,1,8,0:0:0:0:
81,273,160479,1,2,0:0:0:0:
188,149,160650,2,0,B|167:116|167:116|130:99,1,78.7499975967408,12|0,0:0|0:0,0:0:0:0:
185,254,160993,6,0,B|223:252|223:252|256:229,1,78.7499975967408,6|0,0:0|0:0,0:0:0:0:
188,149,161336,1,2,0:0:0:0:
81,273,161507,1,12,0:0:0:0:
274,309,161679,1,2,0:0:0:0:
270,305,161764,1,8,0:0:0:0:
266,301,161850,1,2,0:0:0:0:
185,254,162022,1,6,0:0:0:0:
182,359,162193,1,8,0:0:0:0:
363,364,162364,1,2,0:0:0:0:
364,125,162536,6,0,B|348:168|348:168|364:252,1,118.124996395111,6|0,0:0|0:0,0:0:0:0:
366,259,162879,1,8,0:0:0:0:
450,177,163050,1,8,0:0:0:0:
463,140,163136,1,8,0:0:0:0:
461,101,163222,1,2,0:0:0:0:
304,77,163393,2,0,P|329:107|364:125,1,78.7499975967408,12|0,0:0|0:0,0:0:0:0:
463,0,163736,6,0,P|424:6|391:27,1,78.7499975967408,6|0,0:0|0:0,0:0:0:0:
461,101,164079,1,2,0:0:0:0:
362,226,164250,1,8,0:0:0:0:
364,125,164422,1,2,0:0:0:0:
368,129,164507,1,8,0:0:0:0:
372,133,164593,1,2,0:0:0:0:
265,250,164764,1,6,0:0:0:0:
459,202,164936,1,8,0:0:0:0:
267,149,165107,1,2,0:0:0:0:
196,305,165279,6,0,P|246:336|309:327,1,118.124996395111,6|0,0:0|0:0,0:0:0:0:
354,258,165622,1,8,0:0:0:0:
182,217,165793,1,8,0:0:0:0:
143,224,165879,1,8,0:0:0:0:
121,257,165964,1,6,0:0:0:0:
165,109,166136,2,0,B|177:71|177:71|158:36,1,78.7499975967408,12|0,0:0|0:0,0:0:0:0:
267,149,166479,6,0,B|293:178|293:178|333:180,1,78.7499975967408,2|0,0:0|0:0,0:0:0:0:
182,217,166822,1,2,0:0:0:0:
143,224,166907,1,8,0:0:0:0:
121,257,166993,1,8,0:0:0:0:
267,149,167164,1,2,0:0:0:0:
165,109,167336,1,2,0:0:0:0:
223,297,167507,1,8,0:0:0:0:
411,239,167679,1,0,0:0:0:0:
411,239,168022,6,0,B|407:210|407:210|414:152|414:152|409:111,1,118.124996395111,6|0,0:0|0:0,0:0:0:0:
407,102,168364,1,8,0:0:0:0:
496,209,168536,1,2,0:0:0:0:
499,247,168622,1,8,0:0:0:0:
487,285,168707,1,6,0:0:0:0:
341,270,168879,2,0,P|375:246|412:239,1,78.7499975967408,6|8,0:0|0:0,0:0:0:0:
472,374,169222,6,0,P|434:355|410:329,1,78.7499975967408,6|0,0:0|0:0,0:0:0:0:
487,285,169564,1,2,0:0:0:0:
341,270,169736,1,12,0:0:0:0:
263,106,169907,1,2,0:0:0:0:
267,102,169993,1,8,0:0:0:0:
271,98,170079,1,2,0:0:0:0:
449,203,170250,1,6,0:0:0:0:
302,188,170422,1,8,0:0:0:0:
410,122,170593,1,0,0:0:0:0:
251,263,170764,6,0,B|228:239|228:239|176:231|176:231|148:246,1,118.124996395111,2|0,0:0|0:0,0:0:0:0:
131,258,171107,1,12,0:0:0:0:
176,95,171279,1,2,0:0:0:0:
202,124,171364,1,8,0:0:0:0:
213,162,171450,1,2,0:0:0:0:
81,84,171622,2,0,B|92:46|92:46|119:18,1,78.7499975967408,12|0,0:0|0:0,0:0:0:0:
119,172,171964,6,0,B|80:180|80:180|43:171,1,78.7499975967408,6|0,0:0|0:0,0:0:0:0:
81,84,172307,1,2,0:0:0:0:
213,162,172479,1,12,0:0:0:0:
174,248,172650,1,2,0:0:0:0:
170,252,172736,1,8,0:0:0:0:
166,256,172822,1,2,0:0:0:0:
251,75,172993,1,6,0:0:0:0:
306,152,173164,1,8,0:0:0:0:
119,172,173336,1,2,0:0:0:0:
361,229,173507,6,0,P|309:247|250:229,1,118.124996395111,6|0,0:0|0:0,0:0:0:0:
235,216,173850,1,8,0:0:0:0:
420,163,174022,1,8,0:0:0:0:
442,195,174107,1,8,0:0:0:0:
449,233,174193,1,2,0:0:0:0:
314,289,174364,2,0,P|331:254|361:229,1,78.7499975967408,12|0,0:0|0:0,0:0:0:0:
477,318,174707,6,0,P|436:320|398:306,1,78.7499975967408,6|0,0:0|0:0,0:0:0:0:
449,233,175050,1,2,0:0:0:0:
342,374,175222,1,12,0:0:0:0:
286,204,175393,1,2,0:0:0:0:
290,200,175479,1,8,0:0:0:0:
294,196,175564,1,2,0:0:0:0:
401,308,175736,1,2,0:0:0:0:
227,270,175907,1,8,0:0:0:0:
265,96,176079,1,2,0:0:0:0:
91,58,176250,6,0,P|117:100|121:172,1,118.124996395111,6|0,0:0|0:0,0:0:0:0:
116,187,176593,1,8,0:0:0:0:
234,345,176764,1,8,0:0:0:0:
219,308,176850,1,8,0:0:0:0:
227,270,176936,1,2,0:0:0:0:
360,156,177107,2,0,B|375:193|375:193|366:233,1,78.7499975967408,12|0,0:0|0:0,0:0:0:0:
336,70,177450,6,0,B|382:63|382:63|408:82|408:82|439:72|439:72|480:93,1,157.499995193482,6|2,0:0|0:0,0:0:0:0:
360,156,177964,1,8,0:0:0:0:
420,0,178136,1,2,0:0:0:0:
449,186,178307,2,0,P|431:218|397:243,1,78.7499975967408,2|8,0:0|0:0,0:0:0:0:
379,249,178564,1,8,0:0:0:0:
355,251,178650,1,8,0:0:0:0:
328,246,178736,1,8,0:0:0:0:
300,230,178822,1,8,0:0:0:0:
277,202,178907,1,8,0:0:0:0:
265,165,178993,5,12,0:0:0:0:
360,156,179166,1,0,0:0:0:0:
304,78,179339,1,8,0:0:0:0:
209,87,179510,1,8,0:0:0:0:
205,91,179596,1,8,0:0:0:0:
201,95,179681,1,2,0:0:0:0:
265,165,179853,5,2,0:0:0:0:
360,156,180025,1,8,0:0:0:0:
399,69,180196,1,0,0:0:0:0:
416,234,180538,5,0,0:0:0:0:
360,156,180709,1,8,0:0:0:0:
304,78,180881,1,8,0:0:0:0:
308,74,180967,1,8,0:0:0:0:
312,70,181052,1,2,0:0:0:0:
399,69,181224,1,2,0:0:0:0:
360,156,181395,1,8,0:0:0:0:
321,243,181567,1,2,0:0:0:0:
209,87,181738,5,2,0:0:0:0:
304,78,181909,1,0,0:0:0:0:
265,165,182081,1,8,0:0:0:0:
360,156,182252,1,8,0:0:0:0:
364,160,182338,1,8,0:0:0:0:
368,164,182424,1,2,0:0:0:0:
321,243,182595,5,2,0:0:0:0:
265,165,182766,1,8,0:0:0:0:
304,78,182938,1,8,0:0:0:0:
170,174,183281,5,0,0:0:0:0:
265,165,183452,1,8,0:0:0:0:
209,87,183624,1,8,0:0:0:0:
205,91,183709,1,8,0:0:0:0:
201,95,183795,1,2,0:0:0:0:
170,174,183966,1,2,0:0:0:0:
226,252,184138,1,8,0:0:0:0:
321,243,184309,2,0,L|362:250,1,39.3749987983704,2|8,0:0|0:0,0:0:0:0:
399,69,184481,5,2,0:0:0:0:
360,156,184652,1,0,0:0:0:0:
304,78,184824,1,8,0:0:0:0:
265,165,184995,1,8,0:0:0:0:
269,169,185081,1,8,0:0:0:0:
273,173,185166,1,2,0:0:0:0:
321,243,185338,5,2,0:0:0:0:
360,156,185509,1,8,0:0:0:0:
304,78,185681,1,0,0:0:0:0:
226,252,186024,5,0,0:0:0:0:
265,165,186195,1,8,0:0:0:0:
170,174,186366,1,8,0:0:0:0:
166,178,186452,1,8,0:0:0:0:
162,182,186538,1,2,0:0:0:0:
226,252,186709,1,2,0:0:0:0:
265,165,186881,1,8,0:0:0:0:
304,78,187052,1,2,0:0:0:0:
114,96,187224,5,2,0:0:0:0:
170,174,187395,1,0,0:0:0:0:
209,87,187566,1,8,0:0:0:0:
265,165,187738,1,8,0:0:0:0:
269,161,187824,1,8,0:0:0:0:
273,157,187909,1,2,0:0:0:0:
304,78,188081,5,2,0:0:0:0:
209,87,188252,1,8,0:0:0:0:
170,174,188424,1,2,0:0:0:0:
360,156,188595,1,2,0:0:0:0:
321,243,188766,5,2,0:0:0:0:
265,165,188938,1,8,0:0:0:0:
261,161,189024,1,0,0:0:0:0:
257,157,189109,2,0,L|251:116,1,39.3749987983704,8|8,0:0|0:0,0:0:0:0:
226,252,189281,5,2,0:0:0:0:
321,243,189452,2,0,L|362:237,1,39.3749987983704,8|0,0:0|0:0,0:0:0:0:
170,174,189624,1,8,0:0:0:0:
174,178,189709,1,0,0:0:0:0:
178,182,189795,2,0,L|137:188,1,39.3749987983704,8|8,0:0|0:0,0:0:0:0:
360,156,189966,5,6,0:0:0:0:
265,165,190138,1,0,0:0:0:0:
274,260,190309,1,8,0:0:0:0:
369,251,190481,1,8,0:0:0:0:
373,247,190566,1,8,0:0:0:0:
377,243,190652,1,2,0:0:0:0:
351,61,190824,5,2,0:0:0:0:
256,70,190995,1,8,0:0:0:0:
265,165,191166,1,0,0:0:0:0:
360,156,191509,5,0,0:0:0:0:
170,174,191681,1,8,0:0:0:0:
188,364,191852,1,8,0:0:0:0:
192,368,191938,1,8,0:0:0:0:
196,372,192024,1,2,0:0:0:0:
378,346,192195,1,2,0:0:0:0:
265,165,192366,5,8,0:0:0:0:
274,260,192538,1,0,0:0:0:0:
161,79,192709,5,2,0:0:0:0:
256,70,192881,1,0,0:0:0:0:
265,165,193052,1,8,0:0:0:0:
360,156,193224,1,8,0:0:0:0:
364,160,193309,1,8,0:0:0:0:
368,164,193395,1,2,0:0:0:0:
188,364,193566,5,2,0:0:0:0:
179,269,193738,1,8,0:0:0:0:
170,174,193909,2,0,L|131:168,2,39.3749987983704,2|8|2,0:0|0:0|0:0,0:0:0:0:
283,355,194252,5,0,0:0:0:0:
265,165,194424,1,8,0:0:0:0:
455,147,194595,1,8,0:0:0:0:
459,151,194681,1,8,0:0:0:0:
463,155,194766,1,2,0:0:0:0:
473,337,194938,1,2,0:0:0:0:
274,260,195109,5,8,0:0:0:0:
369,251,195281,1,0,0:0:0:0:
188,364,195452,5,2,0:0:0:0:
179,269,195624,1,0,0:0:0:0:
274,260,195795,1,8,0:0:0:0:
265,165,195966,1,8,0:0:0:0:
269,161,196052,1,8,0:0:0:0:
273,157,196138,1,2,0:0:0:0:
378,346,196309,5,2,0:0:0:0:
369,251,196481,1,8,0:0:0:0:
360,156,196652,1,2,0:0:0:0:
464,242,196995,5,0,0:0:0:0:
274,260,197166,1,8,0:0:0:0:
256,70,197338,1,8,0:0:0:0:
260,66,197424,1,8,0:0:0:0:
264,62,197509,1,2,0:0:0:0:
446,52,197681,1,2,0:0:0:0:
265,165,197852,5,8,0:0:0:0:
360,156,198024,1,2,0:0:0:0:
274,260,198195,5,8,0:0:0:0:
265,165,198366,1,2,0:0:0:0:
170,174,198538,1,8,0:0:0:0:
179,269,198709,5,8,0:0:0:0:
256,70,198881,1,2,0:0:0:0:
455,146,199054,1,2,0:0:0:0:
378,345,199227,1,8,0:0:0:0:
179,269,199401,1,2,0:0:0:0:
274,260,199745,5,0,0:0:0:0:
265,165,199916,1,0,0:0:0:0:
170,174,200088,1,0,0:0:0:0:
179,269,200259,5,0,0:0:0:0:
173,296,200430,1,0,0:0:0:0:
255,69,200603,1,0,0:0:0:0:
249,42,200774,1,0,0:0:0:0:
455,146,200945,6,0,B|428:184|428:184|438:219|438:219|442:220|442:220|452:258|452:258|419:315,1,170.624992189408,6|0,0:0|0:0,0:0:0:0:
414,321,201287,2,0,P|376:312|335:321,1,78.7499975967408,8|0,0:0|0:0,0:0:0:0:
333,323,201545,1,8,0:0:0:0:
329,327,201630,1,2,0:0:0:0:
232,307,201802,1,2,0:0:0:0:
138,338,201973,1,8,0:0:0:0:
232,307,202145,1,2,0:0:0:0:
41,318,202316,6,0,B|17:348|17:348|34:384,2,78.7499975967408,0|2|8,0:0|0:0|0:0,0:0:0:0:
106,243,202831,1,0,0:0:0:0:
110,239,202916,1,8,0:0:0:0:
114,235,203002,2,0,L|107:194,1,39.3749987983704,2|8,0:0|0:0,0:0:0:0:
46,118,203173,2,0,L|53:77,1,39.3749987983704,2|0,0:0|0:0,0:0:0:0:
38,110,203345,1,8,0:0:0:0:
154,41,203516,1,0,0:0:0:0:
216,119,203687,6,0,B|242:137|300:142|343:121,1,118.124996395111,2|0,0:0|0:0,0:0:0:0:
357,113,204030,2,0,L|369:35,1,78.7499975967408,12|0,0:0|0:0,0:0:0:0:
365,31,204288,1,8,0:0:0:0:
361,27,204373,1,2,0:0:0:0:
441,86,204545,1,8,0:0:0:0:
423,173,204716,1,0,0:0:0:0:
441,86,204887,1,2,0:0:0:0:
503,232,205059,6,0,P|466:244|439:271,2,78.7499975967408,0|2|8,0:0|0:0|0:0,0:0:0:0:
504,364,205573,1,2,0:0:0:0:
508,360,205659,1,8,0:0:0:0:
512,356,205745,2,0,P|513:336|510:317,1,39.3749987983704,2|0,0:0|0:0,0:0:0:0:
414,255,205916,2,0,P|413:275|416:294,1,39.3749987983704,2|0,0:0|0:0,0:0:0:0:
422,263,206087,1,8,0:0:0:0:
338,356,206259,1,2,0:0:0:0:
243,295,206430,6,0,B|161:315|161:315|123:302,1,118.124996395111,6|0,0:0|0:0,0:0:0:0:
101,296,206773,2,0,L|94:337,1,39.3749987983704,8|0,0:0|0:0,0:0:0:0:
165,227,206945,1,0,0:0:0:0:
161,223,207031,1,8,0:0:0:0:
157,219,207116,1,2,0:0:0:0:
134,122,207287,1,8,0:0:0:0:
230,114,207459,1,0,0:0:0:0:
134,122,207630,1,2,0:0:0:0:
207,17,207802,6,0,L|287:4,2,78.7499975967408,0|2|8,0:0|0:0|0:0,0:0:0:0:
134,122,208316,1,2,0:0:0:0:
114,125,208402,1,8,0:0:0:0:
87,113,208488,1,0,0:0:0:0:
67,110,208573,1,8,0:0:0:0:
40,122,208659,1,2,0:0:0:0:
75,197,208830,2,0,L|81:235,1,39.3749987983704,8|0,0:0|0:0,0:0:0:0:
67,205,209002,1,2,0:0:0:0:
125,40,209173,6,0,P|165:46|215:109,1,118.124996395111,6|0,0:0|0:0,0:0:0:0:
216,132,209516,2,0,B|244:137|244:137|266:132|266:132|298:137,1,78.7499975967408,8|0,0:0|0:0,0:0:0:0:
297,132,209773,1,8,0:0:0:0:
301,128,209859,1,2,0:0:0:0:
391,93,210031,1,8,0:0:0:0:
426,183,210202,1,0,0:0:0:0:
391,93,210373,1,2,0:0:0:0:
336,218,210545,6,0,L|348:296,1,78.7499975967408,0|0,0:0|0:0,0:0:0:0:
352,299,210802,1,8,0:0:0:0:
356,303,210888,1,8,0:0:0:0:
226,288,211059,1,2,0:0:0:0:
95,272,211231,1,0,0:0:0:0:
90,357,211402,1,8,0:0:0:0:
52,345,211488,1,8,0:0:0:0:
24,318,211573,1,8,0:0:0:0:
11,280,211659,1,8,0:0:0:0:
17,241,211745,1,8,0:0:0:0:
23,202,211831,1,8,0:0:0:0:
29,163,211916,6,0,B|62:153|62:153|109:168|109:168|144:159,1,118.124996395111,6|0,0:0|0:0,0:0:0:0:
171,152,212260,2,0,P|179:112|179:74,1,78.7499975967408,8|0,0:0|0:0,0:0:0:0:
175,70,212517,1,8,0:0:0:0:
171,66,212603,1,2,0:0:0:0:
75,45,212774,1,2,0:0:0:0:
171,152,212946,1,8,0:0:0:0:
267,131,213117,1,2,0:0:0:0:
345,280,213287,5,0,0:0:0:0:
345,280,213459,1,2,0:0:0:0:
249,301,213630,2,0,L|237:224,1,78.7499975967408,8|0,0:0|0:0,0:0:0:0:
241,220,213888,1,8,0:0:0:0:
245,216,213973,1,2,0:0:0:0:
213,239,214059,1,8,0:0:0:0:
173,242,214145,2,0,P|153:240|134:234,1,39.3749987983704,2|0,0:0|0:0,0:0:0:0:
8,334,214316,2,0,P|26:328|46:326,1,39.3749987983704,8|0,0:0|0:0,0:0:0:0:
137,325,214488,1,0,0:0:0:0:
45,237,214659,6,0,B|28:165|28:165|46:151|53:126,1,118.124996395111,2|0,0:0|0:0,0:0:0:0:
37,102,215002,2,0,P|19:129|52:129,1,78.7499975967408,12|0,0:0|0:0,0:0:0:0:
109,81,215259,1,8,0:0:0:0:
113,85,215345,1,2,0:0:0:0:
199,124,215516,1,8,0:0:0:0:
378,44,215688,1,0,0:0:0:0:
292,5,215859,1,2,0:0:0:0:
199,124,216030,5,0,0:0:0:0:
186,17,216202,1,2,0:0:0:0:
292,5,216373,1,8,0:0:0:0:
305,110,216546,1,2,0:0:0:0:
301,114,216630,1,8,0:0:0:0:
297,118,216715,1,2,0:0:0:0:
211,229,216887,5,2,0:0:0:0:
199,124,217059,2,0,B|205:83,1,39.3749987983704,8|0,0:0|0:0,0:0:0:0:
92,136,217230,1,2,0:0:0:0:
104,241,217402,6,0,P|163:231|215:260,1,118.124996395111,6|0,0:0|0:0,0:0:0:0:
226,284,217745,2,0,L|265:277,1,39.3749987983704,8|0,0:0|0:0,0:0:0:0:
379,338,217916,1,0,0:0:0:0:
383,342,218002,1,8,0:0:0:0:
387,346,218087,1,2,0:0:0:0:
292,365,218259,1,8,0:0:0:0:
374,208,218430,1,0,0:0:0:0:
469,227,218602,1,2,0:0:0:0:
260,149,218773,5,0,0:0:0:0:
260,149,218945,1,2,0:0:0:0:
165,168,219116,1,8,0:0:0:0:
229,241,219287,1,2,0:0:0:0:
234,260,219372,1,8,0:0:0:0:
214,282,219458,1,0,0:0:0:0:
209,301,219544,1,8,0:0:0:0:
229,323,219630,1,2,0:0:0:0:
260,149,219802,2,0,L|302:143,1,39.3749987983704,8|0,0:0|0:0,0:0:0:0:
196,76,219973,1,2,0:0:0:0:
22,183,220145,6,0,B|87:166|78:201|139:183,1,118.124996395111,6|0,0:0|0:0,0:0:0:0:
165,168,220487,2,0,P|133:154|149:185,1,78.7499975967408,8|0,0:0|0:0,0:0:0:0:
187,240,220745,1,8,0:0:0:0:
191,244,220830,1,2,0:0:0:0:
260,149,221002,1,8,0:0:0:0:
441,242,221173,1,0,0:0:0:0:
372,337,221345,1,2,0:0:0:0:
307,257,221516,5,0,0:0:0:0:
325,229,221687,1,0,0:0:0:0:
316,243,221859,1,0,0:0:0:0:
433,61,222030,5,0,0:0:0:0:
325,229,222202,5,0,0:0:0:0:
379,145,222373,1,0,0:0:0:0:
351,201,222545,5,0,0:0:0:0:
353,173,222717,1,0,0:0:0:0:
433,61,222890,6,0,L|464:52,6,32.8125012516976
334,57,223232,5,0,0:0:0:0:
289,76,223318,1,0,0:0:0:0:
246,81,223404,1,0,0:0:0:0:
209,75,223490,1,0,0:0:0:0:
181,61,223575,1,0,0:0:0:0:
165,45,223661,1,0,0:0:0:0:
153,33,223747,1,0,0:0:0:0:
145,25,223832,1,0,0:0:0:0:
141,21,223918,1,0,0:0:0:0:
141,21,224261,5,0,0:0:0:0:
166,44,224347,1,0,0:0:0:0:
180,76,224433,1,0,0:0:0:0:
178,110,224518,1,0,0:0:0:0:
162,141,224604,1,0,0:0:0:0:
72,230,224775,5,2,0:0:0:0:
194,264,224947,1,2,0:0:0:0:
41,108,225118,1,8,0:0:0:0:
45,104,225204,1,8,0:0:0:0:
49,100,225290,1,8,0:0:0:0:
53,96,225375,1,8,0:0:0:0:
57,92,225461,1,8,0:0:0:0:
61,88,225547,1,8,0:0:0:0:
81,98,225633,5,6,0:0:0:0:
194,264,225804,1,8,0:0:0:0:
188,238,225890,1,8,0:0:0:0:
202,176,225975,1,6,0:0:0:0:
298,137,226147,1,8,0:0:0:0:
304,111,226233,1,8,0:0:0:0:
290,49,226318,1,6,0:0:0:0:
354,384,226489,5,8,0:0:0:0:
329,343,226574,1,8,0:0:0:0:
329,296,226660,1,8,0:0:0:0:
352,254,226746,1,8,0:0:0:0:
393,231,226832,1,8,0:0:0:0:
439,230,226917,1,8,0:0:0:0:
480,253,227003,1,8,0:0:0:0:
504,293,227089,1,8,0:0:0:0:
504,340,227174,1,8,0:0:0:0:
480,379,227260,1,8,0:0:0:0:
417,319,227346,6,0,L|362:306,1,56.8749973964692,8|0,0:0|0:0,0:0:0:0:
149,306,227518,2,0,L|95:319,1,56.8749973964692,8|0,0:0|0:0,0:0:0:0:
295,207,227689,6,0,B|316:173|369:144|430:155,1,144.375004405975,6|0,0:0|0:0,0:0:0:0:
443,158,228031,1,8,0:0:0:0:
320,88,228203,2,0,L|310:40,1,48.1250014686585,2|8,0:0|0:0,0:0:0:0:
97,41,228374,1,2,0:0:0:0:
154,138,228546,2,0,B|182:142|182:142|216:131|216:131|248:135,1,96.250002937317,6|8,0:0|0:0,0:0:0:0:
67,281,228889,6,0,B|102:242|90:195|90:195|51:151,1,144.375004405975,6|0,0:0|0:0,0:0:0:0:
41,138,229231,1,2,0:0:0:0:
225,224,229403,1,12,0:0:0:0:
174,331,229574,1,2,0:0:0:0:
170,335,229660,1,8,0:0:0:0:
166,339,229746,1,2,0:0:0:0:
67,281,229917,1,6,0:0:0:0:
117,173,230089,1,8,0:0:0:0:
250,366,230260,1,0,0:0:0:0:
430,215,230431,6,0,B|397:192|397:192|334:205|334:205|311:237,1,144.375004405975,2|0,0:0|0:0,0:0:0:0:
301,259,230774,1,12,0:0:0:0:
352,132,230946,1,2,0:0:0:0:
344,84,231031,1,8,0:0:0:0:
337,37,231117,1,2,0:0:0:0:
502,183,231289,2,0,B|478:215|478:215|486:271,1,96.250002937317,12|0,0:0|0:0,0:0:0:0:
364,366,231631,6,0,B|388:334|388:334|380:278,1,96.250002937317,6|0,0:0|0:0,0:0:0:0:
352,132,231974,1,2,0:0:0:0:
301,259,232146,1,12,0:0:0:0:
157,193,232317,1,2,0:0:0:0:
161,189,232403,1,8,0:0:0:0:
165,185,232489,1,2,0:0:0:0:
208,66,232660,1,6,0:0:0:0:
119,104,232831,1,8,0:0:0:0:
390,221,233003,1,2,0:0:0:0:
241,330,233174,6,0,B|248:276|248:276|237:242|237:242|242:185,1,144.375004405975,6|0,0:0|0:0,0:0:0:0:
244,164,233517,1,8,0:0:0:0:
164,284,233689,2,0,L|113:293,1,48.1250014686585,8|8,0:0|0:0,0:0:0:0:
357,219,233860,1,2,0:0:0:0:
453,275,234031,2,0,P|470:318|474:371,1,96.250002937317,12|0,0:0|0:0,0:0:0:0:
454,164,234374,6,0,P|458:92|484:25,1,144.375004405975,6|0,0:0|0:0,0:0:0:0:
500,8,234717,1,2,0:0:0:0:
387,77,234889,1,8,0:0:0:0:
274,8,235060,1,2,0:0:0:0:
278,4,235146,1,8,0:0:0:0:
282,0,235231,1,2,0:0:0:0:
484,25,235403,1,6,0:0:0:0:
480,135,235574,1,8,0:0:0:0:
295,17,235746,1,2,0:0:0:0:
225,180,235917,6,0,B|259:220|319:206|319:206|351:181,1,144.375004405975,6|0,0:0|0:0,0:0:0:0:
289,127,236260,1,8,0:0:0:0:
161,233,236431,1,8,0:0:0:0:
143,188,236517,1,8,0:0:0:0:
153,141,236603,1,6,0:0:0:0:
80,315,236774,2,0,B|51:352|51:352|2:368,1,96.250002937317,12|0,0:0|0:0,0:0:0:0:
192,345,237117,6,0,B|238:350|238:350|277:386,1,96.250002937317,2|0,0:0|0:0,0:0:0:0:
161,233,237460,1,2,0:0:0:0:
143,188,237546,1,8,0:0:0:0:
153,141,237631,1,8,0:0:0:0:
192,345,237803,1,2,0:0:0:0:
80,315,237974,1,2,0:0:0:0:
225,180,238146,1,8,0:0:0:0:
94,36,238317,1,0,0:0:0:0:
94,36,238660,6,0,L|240:7,1,144.375004405975,6|0,0:0|0:0,0:0:0:0:
259,4,239003,1,8,0:0:0:0:
188,143,239174,2,0,P|181:119|179:96,1,48.1250014686585,2|8,0:0|0:0,0:0:0:0:
362,174,239346,1,6,0:0:0:0:
268,234,239517,2,0,B|234:225|234:225|206:240|175:236,1,96.250002937317,6|8,0:0|0:0,0:0:0:0:
406,355,239860,6,0,P|368:372|375:287,1,144.375004405975,6|0,0:0|0:0,0:0:0:0:
367,286,240203,1,2,0:0:0:0:
188,143,240374,1,12,0:0:0:0:
362,174,240546,1,2,0:0:0:0:
366,178,240631,1,8,0:0:0:0:
370,182,240717,1,2,0:0:0:0:
193,255,240889,1,6,0:0:0:0:
186,116,241060,1,8,0:0:0:0:
264,357,241231,1,0,0:0:0:0:
16,304,241403,6,0,B|97:297|66:252|147:248,1,144.375004405975,2|0,0:0|0:0,0:0:0:0:
169,252,241746,1,12,0:0:0:0:
35,129,241917,1,2,0:0:0:0:
14,172,242003,1,8,0:0:0:0:
21,220,242089,1,2,0:0:0:0:
266,303,242260,2,0,B|280:272|280:272|269:205,1,96.250002937317,12|0,0:0|0:0,0:0:0:0:
371,87,242603,6,0,B|357:118|357:118|368:185,1,96.250002937317,6|0,0:0|0:0,0:0:0:0:
424,329,242946,1,2,0:0:0:0:
470,225,243117,1,12,0:0:0:0:
270,210,243289,1,2,0:0:0:0:
274,214,243374,1,8,0:0:0:0:
278,218,243460,1,2,0:0:0:0:
316,106,243631,1,6,0:0:0:0:
497,227,243803,1,8,0:0:0:0:
242,207,243974,1,2,0:0:0:0:
360,36,244146,6,0,B|392:59|392:59|405:122|405:122|382:155,1,144.375004405975,6|0,0:0|0:0,0:0:0:0:
368,175,244489,1,8,0:0:0:0:
438,0,244660,2,0,B|460:19|460:19|467:48,1,48.1250014686585,8|8,0:0|0:0,0:0:0:0:
354,195,244831,1,2,0:0:0:0:
288,111,245003,2,0,L|269:15,1,96.250002937317,12|0,0:0|0:0,0:0:0:0:
249,211,245346,6,0,L|221:352,1,144.375004405975,6|0,0:0|0:0,0:0:0:0:
239,369,245689,1,2,0:0:0:0:
154,266,245860,1,12,0:0:0:0:
317,298,246031,1,2,0:0:0:0:
352,289,246117,1,8,0:0:0:0:
389,320,246203,1,2,0:0:0:0:
424,329,246289,1,8,0:0:0:0:
461,298,246374,1,2,0:0:0:0:
479,110,246546,1,8,0:0:0:0:
291,92,246717,1,2,0:0:0:0:
273,280,246889,6,0,B|232:271|200:302|200:302|160:314|129:284,1,144.375004405975,6|0,0:0|0:0,0:0:0:0:
184,216,247231,1,8,0:0:0:0:
67,352,247403,1,8,0:0:0:0:
47,308,247489,1,8,0:0:0:0:
51,260,247574,1,2,0:0:0:0:
76,77,247746,2,0,L|95:172,1,96.250002937317,12|0,0:0|0:0,0:0:0:0:
445,352,248089,6,0,B|473:303|473:303|462:265|462:265|487:234|487:234|482:178,1,192.500005874634,6|0,0:0|0:0,0:0:0:0:
334,201,248603,1,0,0:0:0:0:
310,53,248774,1,2,0:0:0:0:
458,29,248946,1,2,0:0:0:0:
334,201,249117,5,8,0:0:0:0:
328,225,249203,1,8,0:0:0:0:
344,249,249289,1,8,0:0:0:0:
348,273,249374,1,8,0:0:0:0:
332,297,249460,1,8,0:0:0:0:
328,321,249546,1,8,0:0:0:0:
360,345,249631,6,0,B|404:332|439:310|439:310|497:236|448:146|448:146|434:245|342:270|342:270|266:285|238:224|246:178|300:142|338:178,1,656.25,4|0,0:3|0:0,0:0:0:0:
349,189,252374,6,0,L|296:191,1,52.4999983978272,4|0,0:3|0:0,0:0:0:0:
204,143,252889,2,0,L|114:135,1,87.5,4|0,0:3|0:0,0:0:0:0:
6,68,253403,2,0,P|185:75|90:337,1,551.249983177186,4|0,0:3|0:0,0:0:0:0:
15,290,255117,6,0,B|54:229|131:235|165:277|165:277|222:241|227:169|227:169|260:223|267:293|267:293|315:302|351:282|351:282|339:212|358:151,1,656.25,4|0,0:3|0:0,0:0:0:0:
446,190,257860,2,0,B|464:253|452:318|452:318|515:344|515:344|538:263|519:180|506:139|506:139|528:43,1,503.125,4|0,0:3|0:0,0:0:0:0:
505,52,259917,6,0,L|417:44,1,87.5,4|4,0:3|0:3,0:0:0:0:
358,150,260603,2,0,L|345:151,1,10.9375,4|0,0:3|0:0,0:0:0:0:
