osu file format v14

[General]
AudioFilename: audio.mp3
AudioLeadIn: 0
PreviewTime: 31868
Countdown: 1
SampleSet: Normal
StackLeniency: 0.7
Mode: 0
LetterboxInBreaks: 0
WidescreenStoryboard: 0

[Editor]
Bookmarks: -19,18342,31863,38623,45384,52144,58905,65665,79187,85208,91968,98623
DistanceSpacing: 1.1
BeatDivisor: 4
GridSize: 8
TimelineZoom: 1

[Metadata]
Title:Super Scooter Happy
TitleUnicode:Super Scooter Happy
Artist:capsule
ArtistUnicode:capsule
Creator:TheRedWhite1
Version:Hard
Source:capsule
Tags:capsule jpop super scooter happy
BeatmapID:1272030
BeatmapSetID:602222

[Difficulty]
HPDrainRate:6
CircleSize:4
OverallDifficulty:6
ApproachRate:8
SliderMultiplier:1.4
SliderTickRate:2

[Events]
//Background and Video events
0,0,"__kuroino_kuromitsu_nene_and_shiratama_kitsune_original_drawn_by_poco_asahi_age__sample-8fe9f7c042d6374ae01f9e8cd0fe20cb.jpg",0,0
//Break Periods
//Storyboard Layer 0 (Background)
//Storyboard Layer 1 (Fail)
//Storyboard Layer 2 (Pass)
//Storyboard Layer 3 (Foreground)
//Storyboard Sound Samples

[TimingPoints]
86,422.535211267606,4,1,0,75,1,0
86,-100,4,1,0,75,0,1
18336,422.535211267606,4,1,0,75,1,0
18404,-76.9230769230769,4,1,0,64,0,0
31863,-76.9230769230769,4,1,0,64,0,0
65243,-66.6666666666667,4,1,0,56,0,0
65665,-76.9230769230769,4,1,0,64,0,1
79187,-76.9230769230769,4,1,0,64,0,0

[Colours]
Combo1 : 250,196,122
Combo2 : 113,255,113
Combo3 : 96,209,253
Combo4 : 250,137,216

[HitObjects]
144,128,86,6,0,P|104:152|88:200,1,70,0|0,0:0|0:0,0:0:0:0:
96,264,508,1,0,0:0:0:0:
120,288,614,1,0,0:0:0:0:
208,304,825,2,0,P|248:320|296:304,1,70
344,304,1247,1,0,0:0:0:0:
384,280,1353,1,0,0:0:0:0:
456,216,1564,1,0,0:0:0:0:
432,128,1776,6,0,B|376:184,1,70
336,232,2198,2,0,L|304:272,1,35
232,296,2515,1,0,0:0:0:0:
280,216,2726,1,0,0:0:0:0:
192,240,2938,1,8,0:0:0:0:
192,240,3043,1,8,0:0:0:0:
200,152,3255,1,8,0:0:0:0:
112,120,3466,6,0,P|111:57|131:30,1,70,4|0,2:0|0:0,0:0:0:0:
224,96,3888,1,0,0:0:0:0:
216,128,3994,2,0,P|184:176|144:184,1,70
88,192,4416,2,0,P|120:224|120:280,1,70
136,288,4733,1,0,0:0:0:0:
208,336,4945,1,0,0:0:0:0:
256,280,5156,2,0,B|264:192|264:192|328:152,1,140
344,152,5684,2,0,P|376:120|368:72,1,70
328,88,6001,6,0,L|344:48,2,35
280,176,6424,1,0,0:0:0:0:
264,216,6529,1,0,0:0:0:0:
224,232,6635,1,0,0:0:0:0:
112,176,6846,2,0,P|152:184|184:160,1,70
256,128,7269,1,0,0:0:0:0:
296,104,7374,1,0,0:0:0:0:
360,160,7586,2,0,P|352:213|313:225,1,70
272,248,8008,1,0,0:0:0:0:
232,272,8114,2,0,P|192:256|184:216,1,70
220,168,8536,6,0,P|278:143|302:159,1,70
288,224,8959,1,0,0:0:0:0:
288,224,9064,1,0,0:0:0:0:
352,184,9276,1,0,0:0:0:0:
272,152,9487,1,0,0:0:0:0:
200,168,9698,1,0,0:0:0:0:
168,192,9804,1,0,0:0:0:0:
112,248,10015,1,0,0:0:0:0:
192,272,10226,6,0,B|248:312|248:312|248:232,1,140
240,192,10755,1,0,0:0:0:0:
312,136,10966,1,0,0:0:0:0:
272,56,11177,1,0,0:0:0:0:
184,88,11388,1,0,0:0:0:0:
200,128,11494,1,0,0:0:0:0:
272,176,11705,1,0,0:0:0:0:
357,236,11916,6,0,P|330:257|296:256,1,70
184,192,12445,1,0,0:0:0:0:
264,144,12656,1,0,0:0:0:0:
304,160,12762,1,0,0:0:0:0:
325,190,12867,1,8,0:0:0:0:
257,261,13078,1,8,0:0:0:0:
186,193,13290,1,8,0:0:0:0:
254,122,13501,1,8,0:0:0:0:
256,192,13712,12,0,16670,0:0:0:0:
216,208,18336,5,0,0:0:0:0:
296,160,18547,1,0,0:0:0:0:
280,72,18758,2,0,P|256:64|224:72,1,45.4999979171754
168,128,19075,1,0,0:0:0:0:
160,216,19286,1,0,0:0:0:0:
232,272,19497,2,0,P|264:272|288:256,1,45.4999979171754
352,224,19814,1,0,0:0:0:0:
432,176,20026,1,0,0:0:0:0:
448,312,20343,1,0,0:0:0:0:
320,256,20659,1,0,0:0:0:0:
320,168,20871,1,8,0:0:0:0:
192,128,21188,1,8,0:0:0:0:
304,56,21505,1,8,0:0:0:0:
376,112,21716,5,0,0:0:0:0:
320,192,21927,1,0,0:0:0:0:
224,168,22138,1,0,0:0:0:0:
192,128,22244,1,0,0:0:0:0:
136,48,22455,2,0,P|87:60|59:106,1,90.9999958343508
48,192,22878,1,0,0:0:0:0:
96,208,22983,1,0,0:0:0:0:
192,168,23195,1,0,0:0:0:0:
256,128,23406,6,0,B|232:200|232:200|328:184|328:184|288:280,1,272.999987503052,2|0,0:0|0:0,0:0:0:0:
256,312,24251,2,2,L|272:360,3,45.4999979171754
320,320,24674,1,2,0:0:0:0:
384,288,24885,1,0,0:0:0:0:
400,256,24990,1,0,0:0:0:0:
392,216,25096,6,2,B|336:176|336:176|240:192,1,136.499993751526,2|0,0:0|0:0,0:0:0:0:
80,200,25730,1,0,0:0:0:0:
32,192,25836,1,0,0:0:0:0:
8,152,25941,2,0,B|56:99|56:99|138:67,2,136.499993751526
104,168,26786,2,2,B|183:165|183:165|248:120,1,136.499993751526
408,72,27420,1,2,0:0:0:0:
480,128,27631,2,8,B|456:208|456:208|376:280,1,181.999991668702
96,200,28476,6,2,B|167:165|167:165|245:174,1,136.499993751526
347,230,29110,1,0,0:0:0:0:
344,328,29321,2,2,B|272:294|272:294|230:228,1,136.499993751526
224,96,29955,1,0,0:0:0:0:
272,104,30061,1,0,0:0:0:0:
304,144,30166,1,8,0:0:0:0:
424,352,30589,1,8,0:0:0:0:
96,352,31012,1,8,0:0:0:0:
256,192,31434,1,8,0:0:0:0:
256,336,31857,5,6,0:0:0:0:
208,280,32068,1,0,0:0:0:0:
160,224,32279,1,0,0:0:0:0:
232,160,32490,1,0,0:0:0:0:
272,160,32596,1,0,0:0:0:0:
352,136,32807,2,0,P|376:104|328:72,1,90.9999958343508
312,72,33124,1,0,0:0:0:0:
224,56,33336,1,0,0:0:0:0:
176,128,33547,1,0,0:0:0:0:
160,248,33864,1,0,0:0:0:0:
200,352,34181,1,0,0:0:0:0:
328,288,34603,6,8,P|344:256|368:224,1,45.4999979171754
440,160,34920,2,8,P|424:128|400:96,1,45.4999979171754
320,56,35237,1,8,0:0:0:0:
248,72,35448,1,0,0:0:0:0:
192,120,35659,1,0,0:0:0:0:
112,184,35871,2,0,P|112:208|136:232,1,45.4999979171754
208,208,36188,2,0,P|256:152|296:160,1,90.9999958343508
304,160,36505,1,0,0:0:0:0:
368,232,36716,1,0,0:0:0:0:
320,288,36927,2,0,B|152:328|152:328|64:240|64:240|112:152,1,363.999983337403,2|0,0:0|0:0,0:0:0:0:
192,96,38089,1,0,0:0:0:0:
312,192,38406,1,0,0:0:0:0:
312,64,38617,5,4,0:0:0:0:
384,128,38828,1,0,0:0:0:0:
312,192,39040,1,0,0:0:0:0:
240,128,39251,1,0,0:0:0:0:
304,56,39462,2,0,B|366:17|366:17|439:69,2,136.499993751526
192,160,40307,1,0,0:0:0:0:
392,272,40730,1,0,0:0:0:0:
384,72,41152,2,8,B|288:64|288:64|200:144,1,181.999991668702
104,280,41997,6,0,B|184:288|184:288|256:240,1,136.499993751526
304,128,42631,1,0,0:0:0:0:
400,168,42843,1,0,0:0:0:0:
504,280,43159,2,0,B|456:320|456:320|368:320,1,136.499993751526
288,296,43688,1,0,0:0:0:0:
112,192,44111,1,8,0:0:0:0:
256,48,44533,1,8,0:0:0:0:
400,192,44956,1,6,0:2:0:0:
256,328,45378,1,4,0:0:0:0:
216,248,45589,5,0,0:0:0:0:
304,208,45800,1,0,0:0:0:0:
248,152,46012,1,0,0:0:0:0:
248,104,46117,1,0,0:0:0:0:
296,40,46328,2,0,P|264:8|216:24,1,90.9999958343508
224,80,46645,1,0,0:0:0:0:
232,168,46857,1,0,0:0:0:0:
168,232,47068,2,0,B|232:216|232:216|320:256,2,136.499993751526
128,152,47913,5,8,0:0:0:0:
256,112,48230,1,8,0:0:0:0:
352,216,48547,1,8,0:0:0:0:
272,272,48758,1,0,0:0:0:0:
224,192,48969,2,0,P|261:133|292:124,1,90.9999958343508
368,176,49392,2,0,B|392:192|392:192|392:232,1,45.4999979171754
344,288,49709,2,0,B|340:341|300:364,1,90.9999958343508
256,368,50026,1,0,0:0:0:0:
184,312,50237,1,0,0:0:0:0:
232,232,50448,2,0,B|64:136|-40:112|-48:208|0:304|0:304,1,363.999983337403,2|0,0:0|0:0,0:0:0:0:
104,328,51610,6,2,B|160:336|216:312,1,90.9999958343508
232,296,51927,1,8,0:0:0:0:
336,224,52138,1,8,0:0:0:0:
400,152,52350,1,0,0:0:0:0:
328,88,52561,1,0,0:0:0:0:
264,152,52772,1,0,0:0:0:0:
336,224,52983,2,0,B|408:192|408:192|448:128,2,136.499993751526
256,312,53828,2,0,B|175:259|175:259|185:170,1,181.999991668702
128,112,54674,5,0,0:0:0:0:
304,72,55096,1,0,0:0:0:0:
336,248,55519,2,0,B|408:240|408:240|464:160,2,136.499993751526
248,224,56364,2,0,B|282:275|282:275|359:235,1,136.499993751526
440,144,56997,1,0,0:0:0:0:
488,64,57209,1,0,0:0:0:0:
368,200,57631,1,0,0:0:0:0:
256,56,58054,1,0,0:0:0:0:
72,56,58476,1,0,0:0:0:0:
72,72,58899,6,0,L|40:40,2,45.4999979171754
136,136,59321,1,0,0:0:0:0:
208,203,59533,2,0,P|158:212|143:184,1,45.4999979171754
80,200,59850,2,0,P|56:144|96:96,1,90.9999958343508
112,112,60166,2,0,L|152:144,1,45.4999979171754
192,152,60378,2,0,L|256:120,1,45.4999979171754
272,112,60589,6,0,P|312:176|288:224,1,90.9999958343508
232,232,61012,1,0,0:0:0:0:
176,160,61223,1,0,0:0:0:0:
216,136,61328,1,0,0:0:0:0:
296,96,61540,2,0,B|336:112|368:176,1,90.9999958343508
368,200,61857,2,0,L|424:192,2,45.4999979171754
272,224,62279,5,0,0:0:0:0:
184,216,62490,1,0,0:0:0:0:
112,152,62702,2,0,B|66:162|21:223,1,90.9999958343508
56,240,63019,2,0,P|96:296|136:288,1,90.9999958343508
200,280,63442,1,0,0:0:0:0:
248,272,63547,1,0,0:0:0:0:
296,272,63652,2,0,B|352:256|352:256|376:176,1,136.499993751526
312,80,65237,6,0,B|264:64|264:64|208:88,1,105.000004005432,0|0,2:0|2:0,2:0:0:0:
152,160,65659,5,0,0:0:0:0:
224,216,65871,1,0,0:0:0:0:
296,184,66082,1,0,0:0:0:0:
336,176,66188,1,0,0:0:0:0:
416,232,66399,2,0,P|400:280|336:296,1,90.9999958343508
288,328,66821,1,0,0:0:0:0:
248,312,66927,1,0,0:0:0:0:
216,240,67138,1,0,0:0:0:0:
168,176,67350,6,0,P|112:208|96:240,1,90.9999958343508
144,304,67772,2,0,P|168:288|184:256,1,45.4999979171754
200,192,68089,1,0,0:0:0:0:
264,128,68300,1,0,0:0:0:0:
288,208,68512,2,0,P|232:216|208:208,1,45.4999979171754
160,176,68828,1,0,0:0:0:0:
264,104,69040,2,0,P|320:88|360:112,1,90.9999958343508
416,160,69462,1,0,0:0:0:0:
416,160,69568,2,0,P|424:224|392:272,1,90.9999958343508
360,304,69990,5,0,0:0:0:0:
280,280,70202,1,0,0:0:0:0:
280,280,70307,2,0,P|328:240|384:232,1,90.9999958343508
448,216,70730,2,0,B|400:144|400:144|304:160,1,181.999991668702
272,184,71258,2,0,P|256:232|288:264,1,90.9999958343508
328,264,71575,2,0,L|368:320,2,45.4999979171754
376,184,71997,1,0,0:0:0:0:
344,152,72102,1,0,0:0:0:0:
296,160,72208,1,0,0:0:0:0:
208,208,72420,5,0,0:0:0:0:
128,176,72631,1,0,0:0:0:0:
160,104,72843,2,0,L|232:136,1,45.4999979171754
264,176,73159,2,0,P|264:240|232:256,1,90.9999958343508
168,232,73582,1,0,0:0:0:0:
160,192,73688,1,0,0:0:0:0:
224,144,73899,1,0,0:0:0:0:
304,168,74110,2,0,P|336:232|320:288,1,90.9999958343508
256,280,74533,2,0,P|224:280|208:264,1,45.4999979171754
248,200,74850,1,0,0:0:0:0:
320,96,75166,5,0,0:0:0:0:
240,96,75378,1,0,0:0:0:0:
184,152,75589,1,0,0:0:0:0:
240,216,75800,2,0,P|205:252|202:295,1,90.9999958343508
280,312,76223,1,0,0:0:0:0:
320,304,76328,2,0,P|344:256|312:216,1,90.9999958343508
264,168,76751,1,0,0:0:0:0:
176,184,76962,1,0,0:0:0:0:
160,216,77068,1,0,0:0:0:0:
160,304,77279,2,0,L|120:328,2,30.3333319447836
184,288,77490,5,0,0:0:0:0:
272,288,77702,1,0,0:0:0:0:
264,208,77913,1,0,0:0:0:0:
288,168,78019,2,0,P|336:160|344:112,1,90.9999958343508
336,40,78441,2,0,P|279:41|235:66,1,90.9999958343508
224,88,78758,1,0,0:0:0:0:
160,152,78969,1,0,0:0:0:0:
264,232,79286,6,0,B|298:272|298:272|252:350,1,136.499993751526
200,320,79814,1,0,0:0:0:0:
168,184,80131,2,0,B|120:208|120:208|160:304,1,136.499993751526
240,264,80659,1,0,0:0:0:0:
352,192,80976,2,0,B|408:128|408:128|328:88,1,136.499993751526
280,152,81505,1,0,0:0:0:0:
248,56,81821,2,0,B|336:56|336:56|296:128,1,136.499993751526
256,168,82350,2,0,L|176:256,1,90.9999958343508
184,280,82666,2,0,B|224:312|224:312|224:184,1,136.499993751526
224,136,83195,1,0,0:0:0:0:
360,120,83512,6,0,B|371:175|332:235,1,90.9999958343508
336,248,83828,1,0,0:0:0:0:
312,288,83934,1,0,0:0:0:0:
272,304,84040,1,0,0:0:0:0:
240,288,84145,2,0,P|200:224|224:184,1,90.9999958343508
304,128,84674,2,0,L|344:88,3,45.4999979171754
280,168,85202,5,0,0:0:0:0:
176,256,85519,1,0,0:0:0:0:
120,184,85730,2,0,B|176:120|176:120|264:136,1,136.499993751526
312,168,86364,2,0,P|296:224|232:248,1,90.9999958343508
168,152,86892,2,0,P|248:136|272:136,1,90.9999958343508
328,144,87209,1,0,0:0:0:0:
352,232,87420,2,0,B|312:280|312:280|216:328,1,136.499993751526
160,280,88054,1,0,0:0:0:0:
216,208,88265,1,0,0:0:0:0:
328,128,88582,6,0,B|346:66|346:66|280:98,1,136.499993751526
224,144,89110,1,0,0:0:0:0:
203,286,89427,2,0,B|185:347|185:347|251:316,1,136.499993751526
304,240,89955,1,0,0:0:0:0:
184,184,90166,1,0,0:0:0:0:
312,120,90378,2,0,P|256:96|216:104,1,90.9999958343508
144,136,90800,1,0,0:0:0:0:
184,160,90906,1,0,0:0:0:0:
288,240,91117,2,0,P|400:240|304:128,1,318.499985420228
256,104,92068,5,0,0:0:0:0:
184,160,92279,1,0,0:0:0:0:
280,320,92702,1,4,0:0:0:0:
