osu file format v14

[General]
AudioFilename: audio.mp3
AudioLeadIn: 0
PreviewTime: 20381
Countdown: 0
SampleSet: Soft
StackLeniency: 0.7
Mode: 0
LetterboxInBreaks: 0
WidescreenStoryboard: 1

[Editor]
Bookmarks: 517,62787,114679,156192,197706,208084,208408,208733,209057,209381,209706,210030,210354,210679,211003,211327
DistanceSpacing: 1
BeatDivisor: 4
GridSize: 32
TimelineZoom: 3.299999

[Metadata]
Title:RGB
TitleUnicode:RGB
Artist:capsule
ArtistUnicode:capsule
Creator:_xyliac
Version:MommyDjulus' Insane
Source:
Tags:japanese カプセル phony phonic こしじまとしこ 中田ヤスタカ koshijima toshiko yasutaka nakata contemode phony phonic neo-shibuya-kei bossa nova electropop jpop pop electronic electronica hinamommy -mikanmymommy kimikamymommy djulus wenet wenect cocomber
BeatmapID:2938091
BeatmapSetID:1418131

[Difficulty]
HPDrainRate:5
CircleSize:4
OverallDifficulty:7
ApproachRate:8
SliderMultiplier:1.4
SliderTickRate:1

[Events]
//Background and Video events
0,0,"remon101121-status-1155441002905133056.jpeg",0,0
//Break Periods
//Storyboard Layer 0 (Background)
//Storyboard Layer 1 (Fail)
//Storyboard Layer 2 (Pass)
//Storyboard Layer 3 (Foreground)
//Storyboard Layer 4 (Overlay)
//Storyboard Sound Samples

[TimingPoints]
517,324.324324324324,4,2,1,60,1,0
517,-100,4,2,1,60,0,0
841,-100,4,2,2,60,0,0
9111,-100,4,2,1,60,0,0
9192,-100,4,2,1,30,0,0
9273,-100,4,2,2,60,0,0
9598,-222.222222222221,4,2,1,60,0,0
10733,-100,4,2,1,30,0,0
10895,-133.333333333333,4,2,1,60,0,0
11219,-133.333333333333,4,2,2,60,0,0
19489,-100,4,2,1,60,0,0
19571,-100,4,2,1,30,0,0
19652,-100,4,2,2,60,0,0
19976,-100,4,2,1,70,0,0
21273,-100,4,2,1,70,0,0
40246,-100,4,2,1,70,0,0
40327,-100,4,2,1,35,0,0
40408,-100,4,2,2,70,0,0
40571,-100,4,2,1,70,0,0
42030,-105.263157894737,4,2,1,70,0,1
42841,-105.263157894737,4,2,2,70,0,1
43003,-105.263157894737,4,2,1,70,0,1
44138,-105.263157894737,4,2,2,70,0,1
44300,-105.263157894737,4,2,1,70,0,1
44462,-105.263157894737,4,2,2,70,0,1
44625,-105.263157894737,4,2,1,70,0,1
45435,-105.263157894737,4,2,2,70,0,1
45598,-105.263157894737,4,2,1,70,0,1
46895,-100,4,2,1,70,0,1
48030,-100,4,2,2,70,0,1
48192,-100,4,2,1,70,0,1
49327,-100,4,2,2,70,0,1
49489,-100,4,2,1,70,0,1
52408,-100,4,2,1,60,0,0
52733,-100,4,2,2,60,0,0
61003,-100,4,2,1,60,0,0
61084,-100,4,2,1,30,0,0
61165,-100,4,2,2,60,0,0
61489,-100,4,2,2,60,0,0
62138,-100,4,2,1,60,0,0
62462,-100,4,2,2,60,0,0
62787,-100,4,2,1,60,0,0
63030,-100,4,2,1,30,0,0
63111,-100,4,2,2,60,0,0
64003,-100,4,2,2,30,0,0
64084,-100,4,2,2,60,0,0
66598,-100,4,2,2,30,0,0
66679,-100,4,2,2,60,0,0
71381,-100,4,2,1,60,0,0
71544,-100,4,2,2,60,0,0
71787,-100,4,2,2,30,0,0
71868,-100,4,2,2,60,0,0
72516,-100,4,2,1,60,0,0
72841,-100,4,2,2,60,0,0
73165,-100,4,2,1,70,0,0
73976,-100,4,2,2,70,0,0
74138,-100,4,2,1,70,0,0
74706,-100,4,2,1,35,0,0
74787,-100,4,2,1,70,0,0
75273,-100,4,2,2,70,0,0
75435,-100,4,2,1,70,0,0
76571,-100,4,2,2,70,0,0
76733,-100,4,2,1,70,0,0
77787,-100,4,2,1,35,0,0
77868,-100,4,2,1,70,0,0
79165,-100,4,2,2,70,0,0
79327,-100,4,2,1,70,0,0
80462,-100,4,2,2,70,0,0
80625,-100,4,2,1,70,0,0
84354,-100,4,2,2,70,0,0
84516,-100,4,2,1,70,0,0
85652,-100,4,2,2,70,0,0
85814,-100,4,2,1,70,0,0
86949,-100,4,2,2,70,0,0
87111,-100,4,2,1,70,0,0
88976,-100,4,2,1,35,0,0
89057,-100,4,2,1,70,0,0
89544,-100,4,2,2,70,0,0
89625,-100,4,2,2,35,0,0
89706,-100,4,2,1,70,0,0
90841,-100,4,2,2,70,0,0
91003,-100,4,2,1,70,0,0
92300,-100,4,2,2,70,0,0
92544,-100,4,2,2,35,0,0
92625,-100,4,2,1,70,0,0
93922,-100,4,2,1,70,0,0
99354,-100,4,2,1,35,0,0
99435,-100,4,2,1,70,0,0
104544,-100,4,2,1,35,0,0
104625,-100,4,2,1,70,0,0
109733,-100,4,2,1,35,0,0
109814,-100,4,2,1,70,0,0
112327,-100,4,2,1,35,0,0
112408,-100,4,2,1,70,0,0
113057,-100,4,2,2,70,0,0
113219,-100,4,2,1,70,0,0
114679,-100,4,2,1,60,0,0
115003,-100,4,2,2,60,0,0
119787,-100,4,2,2,30,0,0
119868,-100,4,2,2,60,0,0
123273,-100,4,2,1,60,0,0
123354,-100,4,2,1,30,0,0
123435,-100,4,2,2,60,0,0
123760,-181.818181818181,4,2,1,60,0,0
124895,-181.818181818181,4,2,1,30,0,0
125057,-100,4,2,1,70,0,1
125868,-100,4,2,2,70,0,1
126030,-100,4,2,1,70,0,1
127165,-100,4,2,2,70,0,1
127327,-100,4,2,1,70,0,1
128462,-100,4,2,2,70,0,1
128625,-100,4,2,1,70,0,1
129030,-100,4,2,2,70,0,1
129273,-100,4,2,1,70,0,1
131057,-100,4,2,2,70,0,1
131219,-100,4,2,1,70,0,1
132354,-100,4,2,2,70,0,1
132516,-100,4,2,1,70,0,1
133652,-100,4,2,1,70,0,1
133733,-100,4,2,1,35,0,1
133814,-100,4,2,2,70,0,1
133976,-100,4,2,1,70,0,1
135435,-100,4,2,1,70,0,0
135760,-100,4,2,2,70,0,0
143462,-100,4,2,2,35,0,0
143544,-100,4,2,2,70,0,0
144030,-100,4,2,1,70,0,0
144111,-100,4,2,1,35,0,0
144192,-100,4,2,2,70,0,0
144516,-100,4,2,2,70,0,0
145165,-100,4,2,1,70,0,0
145489,-100,4,2,2,70,0,0
145814,-100,4,2,1,70,0,0
146057,-100,4,2,1,35,0,0
146138,-100,4,2,2,70,0,0
151246,-100,4,2,2,35,0,0
151327,-100,4,2,2,70,0,0
151895,-100,4,2,2,35,0,0
151976,-100,4,2,2,70,0,0
154408,-100,4,2,1,70,0,0
154571,-100,4,2,2,70,0,0
154814,-100,4,2,2,35,0,0
154895,-100,4,2,1,70,0,0
156192,-100,4,2,1,70,0,0
156435,-100,4,2,1,35,0,0
156516,-100,4,2,1,70,0,0
159030,-100,4,2,1,35,0,0
159111,-100,4,2,1,70,0,0
164219,-100,4,2,1,35,0,0
164300,-100,4,2,1,70,0,0
168111,-100,4,2,1,35,0,0
168192,-100,4,2,1,70,0,0
172003,-100,4,2,1,35,0,0
172084,-100,4,2,1,70,0,0
172327,-100,4,2,1,35,0,0
172408,-100,4,2,1,70,0,0
175327,-100,4,2,2,70,0,0
175489,-100,4,2,1,70,0,0
181246,-100,4,2,1,70,0,0
181327,-100,4,2,1,70,0,0
187246,-100,4,2,1,35,0,0
187327,-100,4,2,1,70,0,0
188868,-100,4,2,1,35,0,0
188949,-100,4,2,1,70,0,0
192760,-100,4,2,1,35,0,0
192841,-100,4,2,1,70,0,0
193084,-100,4,2,1,35,0,0
193165,-100,4,2,1,70,0,0
195354,-100,4,2,1,35,0,0
195435,-100,4,2,1,70,0,0
195679,-100,4,2,1,35,0,0
195760,-100,4,2,1,70,0,0
196084,-100,4,2,2,70,0,0
196246,-100,4,2,1,70,0,0
197706,-100,4,2,1,70,0,1
198516,-100,4,2,2,70,0,1
198679,-100,4,2,1,70,0,1
199814,-100,4,2,2,70,0,1
199976,-100,4,2,1,70,0,1
201111,-100,4,2,2,70,0,1
201273,-100,4,2,1,70,0,1
202895,-100,4,2,2,60,0,0
206300,-100,4,2,1,60,0,0
206462,-100,4,2,2,60,0,0
206787,-100,4,2,1,80,0,0
208084,-181.818181818182,4,2,1,80,0,1
208408,-181.818181818182,4,2,1,80,0,1
208733,-181.818181818182,4,2,1,80,0,1
209057,-181.818181818182,4,2,1,80,0,1
209381,-181.818181818182,4,2,1,80,0,1
209706,-181.818181818182,4,2,1,80,0,1
210030,-181.818181818182,4,2,1,80,0,1
210354,-181.818181818182,4,2,1,80,0,1
210679,-181.818181818182,4,2,1,80,0,1
211003,-181.818181818182,4,2,1,80,0,1
211327,-181.818181818182,4,2,2,40,0,0

[Colours]
Combo1 : 255,187,107
Combo2 : 245,169,141
Combo3 : 78,129,114
Combo4 : 64,89,105
SliderBorder : 250,250,250
SliderTrackOverride : 80,80,80

[HitObjects]
79,353,354,5,8,2:3:0:0:
79,353,435,1,4,3:0:0:0:
79,353,517,1,4,1:0:0:0:
138,306,841,1,8,0:0:0:0:
138,306,1003,1,8,0:3:0:0:
124,231,1165,1,0,0:0:0:0:
124,231,1327,1,2,0:3:0:0:
50,209,1489,1,8,0:0:0:0:
108,261,1814,5,6,0:3:0:0:
182,253,2138,1,8,0:0:0:0:
182,253,2300,1,8,0:3:0:0:
250,222,2462,1,0,0:0:0:0:
250,222,2625,1,8,0:0:0:0:
320,244,2787,1,8,0:0:0:0:
458,378,3111,5,6,0:3:0:0:
445,306,3435,1,8,0:0:0:0:
445,306,3598,1,8,0:3:0:0:
456,228,3760,1,0,0:0:0:0:
456,228,3922,1,2,0:3:0:0:
491,159,4084,1,8,0:0:0:0:
470,82,4408,5,6,0:3:0:0:
399,114,4733,1,8,0:0:0:0:
322,92,4895,1,8,0:3:0:0:
322,92,5057,1,0,0:0:0:0:
257,50,5219,5,12,0:3:0:0:
87,105,5381,1,12,0:3:0:0:
150,151,5706,5,6,0:3:0:0:
202,210,6030,1,14,0:3:0:0:
230,283,6192,1,8,0:3:0:0:
230,283,6354,1,0,0:0:0:0:
215,359,6516,1,2,0:3:0:0:
292,362,6679,1,8,0:0:0:0:
292,362,7003,5,6,0:3:0:0:
298,285,7327,1,8,0:0:0:0:
292,208,7489,1,8,0:3:0:0:
292,208,7652,1,0,0:0:0:0:
284,128,7814,5,8,0:0:0:0:
461,51,7976,1,8,0:0:0:0:
430,121,8300,5,6,0:3:0:0:
431,198,8625,1,8,0:0:0:0:
471,267,8787,1,8,0:3:0:0:
471,267,8949,1,0,0:0:0:0:
457,339,9111,2,0,L|408:327,1,35,4|0,0:0|0:0,0:0:0:0:
30,187,9598,6,0,P|133:227|141:337,1,220.499993270874,4|0,1:0|0:0,0:0:0:0:
210,358,10895,6,0,P|261:353|276:352,1,52.5000020027161,4|0,0:1|0:0,0:0:0:0:
305,318,11219,2,0,L|251:314,1,52.5000020027161,8|0,1:2|0:0,0:0:0:0:
227,241,11544,2,0,P|235:196|243:119,1,105.000004005432,2|8,0:0|0:0,0:0:0:0:
241,137,12192,1,2,0:3:0:0:
241,137,12516,1,8,0:0:0:0:
241,137,12679,1,2,1:3:0:0:
51,156,12841,5,2,0:0:0:0:
102,211,13003,2,0,P|108:276|112:327,1,105.000004005432,8|0,0:0|0:0,0:0:0:0:
173,357,13489,5,2,0:3:0:0:
243,328,13652,1,0,0:0:0:0:
254,250,13814,1,2,1:3:0:0:
207,189,13976,1,0,0:0:0:0:
359,65,14138,5,2,0:0:0:0:
324,148,14300,2,0,P|370:142|441:118,1,105.000004005432,2|0,0:3|0:0,0:0:0:0:
488,83,14787,5,2,0:3:0:0:
435,349,15111,2,0,L|440:291,1,52.5000020027161,8|2,0:0|0:3,0:0:0:0:
309,208,15435,1,2,0:0:0:0:
346,276,15598,1,12,0:3:0:0:
300,361,15760,1,12,0:3:0:0:
300,361,16084,5,2,0:3:0:0:
230,322,16246,1,0,0:0:0:0:
200,255,16408,1,14,0:3:0:0:
225,183,16571,1,0,0:0:0:0:
53,34,16733,2,0,P|66:90|67:158,1,105.000004005432,2|8,0:0|0:0,0:0:0:0:
67,137,17381,5,2,0:3:0:0:
67,137,17544,1,0,0:0:0:0:
115,212,17706,1,8,0:0:0:0:
115,212,17868,1,2,1:3:0:0:
13,348,18030,5,2,0:0:0:0:
90,328,18192,2,0,L|212:342,1,105.000004005432,8|0,0:0|0:0,0:0:0:0:
271,360,18679,5,2,0:3:0:0:
255,283,18841,1,0,0:0:0:0:
271,212,19003,1,2,1:3:0:0:
315,147,19165,1,0,0:0:0:0:
498,284,19327,5,2,0:0:0:0:
448,340,19489,2,0,L|400:327,1,35,4|0,0:0|0:0,0:0:0:0:
228,38,19976,5,8,0:1:0:0:
170,107,20462,5,4,0:3:0:0:
81,109,20625,5,8,0:3:0:0:
19,44,20949,5,12,0:3:0:0:
228,38,21273,6,0,P|259:95|224:179,1,140,6|8,1:0|0:1,0:0:0:0:
101,232,21760,1,2,3:1:0:0:
261,273,21922,1,2,1:2:0:0:
167,177,22084,1,8,0:3:0:0:
177,255,22246,1,8,0:1:0:0:
188,327,22408,1,8,0:3:0:0:
33,364,22571,6,0,P|44:325|50:211,1,140,2|10,1:2|0:1,0:0:0:0:
44,150,23057,1,0,3:0:0:0:
180,38,23219,1,2,1:2:0:0:
156,114,23381,1,8,0:3:0:0:
156,114,23544,1,8,0:1:0:0:
194,217,23706,1,2,0:1:0:0:
191,372,23868,6,0,P|208:303|217:213,1,140,2|8,1:2|0:1,0:0:0:0:
273,182,24354,1,0,3:0:0:0:
273,182,24516,1,2,1:2:0:0:
236,112,24679,1,8,0:3:0:0:
154,168,24841,5,8,0:1:0:0:
315,256,25003,1,8,0:3:0:0:
167,321,25165,5,2,1:2:0:0:
207,253,25327,1,8,0:3:0:0:
256,309,25489,1,8,0:1:0:0:
371,376,25652,5,2,1:0:0:0:
385,300,25814,1,2,1:2:0:0:
406,225,25976,1,8,0:1:0:0:
406,225,26057,1,8,0:0:0:0:
406,225,26138,2,0,L|396:165,3,35,10|8|8|8,0:1|0:0|0:0|0:0,0:0:0:0:
441,155,26462,6,0,P|394:150|292:109,1,140,2|8,1:2|0:1,0:0:0:0:
162,71,26949,2,0,P|210:62|241:48,1,70,2|2,3:1|1:2,0:0:0:0:
229,141,27273,2,0,P|217:192|215:231,1,70,8|8,0:3|0:1,0:0:0:0:
288,336,27598,2,0,P|293:268|294:237,1,70,2|2,0:1|1:2,0:0:0:0:
203,295,27922,1,8,0:3:0:0:
144,342,28084,1,8,0:1:0:0:
4,273,28246,5,2,3:1:0:0:
1,198,28408,1,2,1:2:0:0:
76,214,28571,1,8,0:3:0:0:
193,130,28733,2,0,P|150:124|108:108,1,70,8|2,0:1|0:1,0:0:0:0:
250,73,29057,2,0,P|307:86|410:95,1,140,2|8,1:2|0:1,0:0:0:0:
387,94,29706,1,2,1:2:0:0:
356,234,29868,6,0,L|368:287,1,35,4|0,0:0|0:0,0:0:0:0:
421,311,30030,2,0,L|434:357,1,35,8|0,0:1|0:0,0:0:0:0:
356,361,30192,1,8,0:3:0:0:
356,361,30273,1,4,0:3:0:0:
356,361,30354,2,0,P|299:348|218:305,1,140,0|8,1:0|0:1,0:0:0:0:
177,250,30841,1,2,0:1:0:0:
54,58,31003,1,8,0:1:0:0:
52,82,31084,1,8,0:0:0:0:
50,106,31165,1,8,0:0:0:0:
48,130,31246,1,8,0:0:0:0:
46,154,31327,1,2,0:3:0:0:
46,285,31652,6,0,P|95:256|180:250,1,140,6|8,1:0|0:1,0:0:0:0:
346,71,32138,1,2,3:1:0:0:
274,51,32300,1,2,1:2:0:0:
222,102,32462,1,8,0:3:0:0:
324,199,32625,2,0,L|402:217,1,70,8|0,0:1|0:0,0:0:0:0:
223,313,32949,5,2,1:2:0:0:
223,313,33111,1,0,0:0:0:0:
200,226,33273,1,8,0:1:0:0:
274,246,33435,5,2,3:1:0:0:
286,373,33598,1,2,1:2:0:0:
126,304,33760,1,8,0:3:0:0:
256,166,33922,2,0,P|260:109|258:78,1,70,10|8,0:1|0:3,0:0:0:0:
20,198,34246,5,2,1:2:0:0:
20,198,34571,2,0,P|97:212|173:236,1,140,10|2,0:1|1:2,0:0:0:0:
224,262,35057,1,8,0:3:0:0:
388,184,35219,2,0,B|353:184|294:172,1,70,8|0,0:1|0:0,0:0:0:0:
264,125,35544,1,2,1:2:0:0:
289,54,35706,1,0,0:0:0:0:
364,38,35868,1,8,0:1:0:0:
437,124,36030,5,2,1:0:0:0:
419,196,36192,1,2,1:2:0:0:
473,328,36353,1,8,0:1:0:0:
473,328,36435,1,8,0:0:0:0:
473,328,36516,2,0,L|482:267,3,35,10|8|8|8,0:1|0:0|0:0|0:0,0:0:0:0:
449,270,36841,6,0,B|384:295|384:295|302:276,1,140,2|10,1:2|0:1,0:0:0:0:
32,174,37489,1,2,1:2:0:0:
99,212,37652,1,8,0:3:0:0:
148,149,37814,1,8,0:1:0:0:
83,109,37976,1,0,0:0:0:0:
81,208,38138,6,0,L|97:287,1,70,2|0,1:2|0:0,0:0:0:0:
266,331,38462,1,8,0:1:0:0:
339,310,38625,1,2,3:1:0:0:
261,236,38787,1,2,1:2:0:0:
169,286,38949,1,8,0:3:0:0:
229,376,39111,2,0,L|247:291,1,70,10|8,0:1|0:3,0:0:0:0:
203,61,39435,6,0,P|181:127|182:197,2,140,2|10|2,1:2|0:1|1:2,0:0:0:0:
352,19,40246,2,0,L|345:66,1,35,4|0,0:0|0:0,0:0:0:0:
321,78,40408,1,8,0:0:0:0:
338,169,40571,1,2,0:3:0:0:
294,289,40733,5,8,0:1:0:0:
294,289,41381,1,8,0:1:0:0:
287,289,41462,1,8,0:0:0:0:
280,289,41543,1,8,0:0:0:0:
273,290,41624,1,8,0:0:0:0:
243,317,41705,1,2,0:3:0:0:
243,317,42030,6,0,P|181:303|101:318,1,132.999996448517,4|8,1:0|0:1,0:0:0:0:
59,260,42516,1,0,3:0:0:0:
99,197,42679,2,0,P|105:153|108:111,1,66.4999982242585,0|2,1:0|0:3,0:0:0:0:
67,72,43003,1,8,0:1:0:0:
67,72,43327,2,0,P|121:83|220:74,1,132.999996448517,0|8,1:0|0:1,0:0:0:0:
256,31,43814,1,0,3:0:0:0:
353,64,43976,1,0,1:0:0:0:
323,149,44138,1,8,0:0:0:0:
332,236,44300,1,8,0:1:0:0:
348,267,44462,1,8,0:0:0:0:
467,336,44625,5,0,1:0:0:0:
467,336,44949,1,8,0:1:0:0:
383,358,45111,1,0,3:0:0:0:
269,322,45273,1,0,1:0:0:0:
216,264,45435,1,2,0:3:0:0:
276,216,45598,1,8,0:1:0:0:
328,272,45760,1,0,0:0:0:0:
238,287,45922,6,0,P|197:312|105:309,1,132.999996448517,0|8,1:0|0:1,0:0:0:0:
0,252,46408,1,0,3:0:0:0:
35,179,46571,1,0,1:0:0:0:
36,88,46733,1,8,0:1:0:0:
36,88,46814,1,8,0:0:0:0:
36,88,46895,2,0,L|29:34,3,35,8|8|8|8,0:1|0:0|0:0|0:0,0:0:0:0:
51,28,47219,5,0,1:0:0:0:
113,66,47381,1,0,0:0:0:0:
191,77,47544,1,8,0:1:0:0:
261,48,47706,1,0,3:0:0:0:
337,35,47868,5,0,1:0:0:0:
337,35,48192,1,8,0:1:0:0:
495,193,48516,5,0,1:0:0:0:
416,182,48679,1,0,0:0:0:0:
342,204,48841,1,8,0:1:0:0:
296,260,49003,1,0,3:0:0:0:
225,232,49165,5,0,1:0:0:0:
253,166,49327,1,8,0:0:0:0:
177,233,49489,2,0,L|198:309,1,70,8|8,0:1|0:3,0:0:0:0:
257,346,49814,5,0,1:0:0:0:
325,318,49976,1,0,0:0:0:0:
375,262,50138,1,8,0:1:0:0:
388,183,50300,1,0,3:0:0:0:
269,58,50462,5,0,1:0:0:0:
231,121,50625,1,4,0:0:0:0:
296,161,50787,1,8,0:1:0:0:
335,95,50949,1,0,0:0:0:0:
148,159,51111,5,0,1:0:0:0:
148,159,51435,1,8,0:1:0:0:
14,301,51760,1,8,0:1:0:0:
27,301,51841,1,8,0:1:0:0:
41,301,51922,1,8,0:1:0:0:
55,302,52003,1,8,0:1:0:0:
83,286,52084,1,2,0:3:0:0:
83,286,52408,6,0,P|121:299|228:302,1,140,4|8,0:1|0:0,0:0:0:0:
220,303,52895,1,2,0:1:0:0:
296,284,53057,2,0,P|283:214|291:127,1,140,2|8,0:0|0:0,0:0:0:0:
239,81,53544,1,2,0:1:0:0:
200,147,53706,2,0,P|207:191|205:288,1,140,2|8,0:3|0:0,0:0:0:0:
284,311,54192,1,2,0:3:0:0:
284,311,54354,1,2,0:0:0:0:
365,296,54516,1,2,0:3:0:0:
365,296,54679,1,8,0:0:0:0:
436,329,54841,1,0,0:0:0:0:
483,204,55003,5,2,0:3:0:0:
483,204,55327,2,0,P|431:200|392:104,1,140,8|2,0:0|0:0,0:0:0:0:
228,28,55976,2,0,P|238:81|236:123,1,70,8|0,0:0|0:0,0:0:0:0:
195,153,56300,1,8,0:0:0:0:
248,217,56462,2,0,P|255:180|267:128,1,70,0|8,0:0|0:0,0:0:0:0:
173,236,56787,2,0,P|180:294|184:385,1,140,0|12,0:0|0:3,0:0:0:0:
38,337,57273,5,12,0:3:0:0:
38,337,57598,2,0,P|51:274|53:194,1,140,2|12,0:3|0:3,0:0:0:0:
21,129,58084,1,2,0:1:0:0:
99,141,58246,2,0,P|143:155|238:144,1,140,2|8,0:0|0:0,0:0:0:0:
287,86,58733,1,2,0:1:0:0:
334,150,58895,2,0,L|470:182,1,140,2|8,0:3|0:0,0:0:0:0:
502,255,59381,1,2,0:3:0:0:
449,310,59544,1,2,0:0:0:0:
449,310,59706,1,2,0:3:0:0:
383,344,59868,1,8,0:0:0:0:
383,344,60030,1,0,0:0:0:0:
250,280,60192,5,2,0:3:0:0:
250,280,60516,2,0,P|253:226|271:115,1,140,2|2,0:3|0:0,0:0:0:0:
236,71,61003,2,0,L|194:77,1,35,4|0,0:0|0:0,0:0:0:0:
20,277,61489,5,12,0:3:0:0:
20,277,61814,1,12,0:3:0:0:
73,338,62138,1,8,0:0:0:0:
79,336,62219,1,8,0:1:0:0:
86,335,62300,1,8,0:0:0:0:
93,333,62381,1,8,0:1:0:0:
126,351,62462,1,8,0:0:0:0:
126,351,62787,6,0,P|144:308|132:232,1,105,4|0,0:1|0:0,0:0:0:0:
196,196,63111,1,8,0:0:0:0:
272,176,63273,1,2,0:1:0:0:
136,88,63435,2,0,L|120:176,1,70,2|2,0:0|0:3,0:0:0:0:
236,84,63760,2,0,P|284:76|356:108,1,105,8|0,0:0|0:0,0:0:0:0:
360,164,64084,1,2,0:3:0:0:
436,140,64246,1,0,0:0:0:0:
444,220,64408,1,8,0:0:0:0:
296,276,64571,1,2,0:3:0:0:
328,348,64733,2,0,L|384:336,3,35,2|2|2|2,0:0|0:0|0:3|0:0,0:0:0:0:
380,264,65057,2,0,L|312:220,1,70,8|0,0:0|0:0,0:0:0:0:
160,204,65381,6,0,P|224:196|300:140,2,140,2|8|2,0:3|0:0|0:0,0:0:0:0:
84,132,66354,2,0,P|72:188|92:240,1,105,8|0,0:0|0:0,0:0:0:0:
160,260,66679,1,8,0:0:0:0:
321,225,66841,1,0,0:0:0:0:
264,288,67003,1,8,0:0:0:0:
204,184,67165,2,0,P|216:136|176:44,1,140,0|12,0:0|0:3,0:0:0:0:
56,60,67652,1,12,0:3:0:0:
4,120,67814,1,0,0:0:0:0:
80,92,67976,1,2,0:3:0:0:
156,112,68300,5,12,0:3:0:0:
224,72,68462,1,2,0:1:0:0:
300,60,68625,2,0,P|360:68|444:56,1,140,2|8,0:0|0:0,0:0:0:0:
452,148,69111,1,2,0:1:0:0:
360,148,69273,2,0,P|372:112|372:56,1,70,2|0,0:3|0:0,0:0:0:0:
272,168,69598,1,8,0:0:0:0:
304,268,69760,1,2,0:3:0:0:
300,278,69841,1,2,0:0:0:0:
296,289,69922,1,2,0:0:0:0:
168,332,70084,5,2,0:3:0:0:
198,230,70246,1,8,0:0:0:0:
181,209,70327,1,2,0:0:0:0:
160,194,70408,1,2,0:0:0:0:
136,186,70489,1,2,0:0:0:0:
109,187,70570,1,2,0:3:0:0:
452,148,70895,5,2,0:3:0:0:
216,112,71219,1,2,0:0:0:0:
163,173,71381,2,0,P|80:168|8:100,1,175,4|0,0:0|0:0,0:0:0:0:
0,32,71868,1,12,0:3:0:0:
0,32,72192,1,12,0:3:0:0:
64,76,72354,1,0,0:0:0:0:
84,152,72516,1,8,0:1:0:0:
82,160,72597,1,4,0:3:0:0:
81,169,72678,1,8,0:1:0:0:
79,177,72759,1,4,0:3:0:0:
78,186,72840,1,8,0:0:0:0:
220,304,73165,6,0,P|176:320|124:320,1,70,4|0,1:0|0:0,0:0:0:0:
272,168,73489,2,0,P|316:152|368:152,1,70,8|0,0:1|3:0,0:0:0:0:
324,312,73814,2,0,P|308:268|308:216,1,70,0|2,1:0|0:3,0:0:0:0:
176,160,74138,2,0,P|192:204|192:256,1,70,8|0,0:1|0:0,0:0:0:0:
360,188,74462,2,0,L|376:68,1,105,0|0,1:0|0:0,0:0:0:0:
304,48,74787,1,8,0:1:0:0:
408,8,74949,1,0,3:0:0:0:
496,96,75111,1,0,1:0:0:0:
496,96,75192,1,0,1:0:0:0:
496,96,75273,1,8,0:0:0:0:
496,96,75354,1,0,1:0:0:0:
496,96,75435,2,0,P|484:136|440:160,1,70,8|0,0:1|0:0,0:0:0:0:
480,308,75760,6,0,P|424:288|320:312,1,140,0|8,1:0|0:1,0:0:0:0:
280,344,76246,1,0,3:0:0:0:
204,328,76408,1,0,1:0:0:0:
204,328,76571,1,2,0:3:0:0:
152,264,76733,2,0,L|172:364,1,70,8|0,0:1|0:0,0:0:0:0:
256,216,77057,1,0,1:0:0:0:
236,136,77219,1,0,0:0:0:0:
128,152,77381,1,8,0:1:0:0:
188,36,77544,2,0,P|128:28|64:56,1,105,0|0,3:0|0:0,0:0:0:0:
86,40,77868,1,8,0:1:0:0:
167,129,78030,5,8,0:1:0:0:
201,136,78111,1,8,0:0:0:0:
236,136,78192,1,8,0:0:0:0:
269,127,78273,1,8,0:0:0:0:
300,111,78354,1,0,1:0:0:0:
460,172,78679,1,8,0:1:0:0:
460,172,78841,2,0,L|440:240,1,70,0|0,3:0|1:0,0:0:0:0:
370,280,79165,1,2,0:3:0:0:
416,348,79327,2,0,P|372:328|276:336,1,140,8|0,0:1|1:0,0:0:0:0:
212,368,79814,1,0,0:0:0:0:
52,312,79976,5,8,0:1:0:0:
148,292,80138,1,0,3:0:0:0:
128,196,80300,1,0,1:0:0:0:
134,205,80381,1,0,1:0:0:0:
140,215,80462,1,8,0:0:0:0:
40,180,80625,1,8,0:1:0:0:
252,120,80787,1,2,0:3:0:0:
156,324,80949,2,0,P|104:292|8:288,2,140,0|8|0,1:0|0:1|1:0,0:0:0:0:
282,333,81760,1,4,0:0:0:0:
352,248,81922,1,8,0:0:0:0:
328,172,82084,1,0,0:0:0:0:
472,316,82246,5,0,1:0:0:0:
472,316,82571,1,8,0:1:0:0:
472,316,82895,1,8,0:1:0:0:
447,325,82976,1,8,0:1:0:0:
421,328,83057,1,8,0:1:0:0:
395,324,83138,1,8,0:1:0:0:
372,312,83219,2,0,P|352:272|360:220,1,70,2|0,0:3|0:0,0:0:0:0:
384,96,83544,6,0,L|432:232,1,140,4|8,1:0|0:1,0:0:0:0:
276,112,84030,1,0,3:0:0:0:
276,112,84192,2,0,P|264:168|184:232,1,140,0|8,1:0|0:1,0:0:0:0:
196,52,84679,1,0,0:0:0:0:
140,108,84841,2,0,P|80:140|4:136,1,140,0|8,1:0|0:1,0:0:0:0:
212,160,85327,1,0,3:0:0:0:
264,244,85489,5,0,1:0:0:0:
258,254,85570,1,0,1:0:0:0:
253,264,85651,1,8,0:0:0:0:
351,247,85814,1,8,0:1:0:0:
376,140,85976,1,0,0:0:0:0:
422,208,86138,6,0,P|386:256|310:280,1,140,0|8,1:0|0:1,0:0:0:0:
192,204,86625,1,0,3:0:0:0:
68,280,86787,2,0,P|112:264|144:264,1,70,0|2,1:0|0:3,0:0:0:0:
212,160,87111,2,0,P|238:198|247:229,1,70,8|0,0:1|0:0,0:0:0:0:
120,144,87435,1,0,1:0:0:0:
304,96,87598,1,0,0:0:0:0:
168,24,87760,1,8,0:1:0:0:
96,60,87922,2,0,L|80:208,1,140,0|8,3:0|0:1,0:0:0:0:
148,304,88408,5,8,0:1:0:0:
182,297,88489,1,8,0:0:0:0:
217,297,88570,1,8,0:0:0:0:
250,306,88651,1,8,0:0:0:0:
281,322,88733,2,0,P|348:312|396:264,1,105,0|0,1:0|0:0,0:0:0:0:
452,280,89057,2,0,L|460:192,1,70,8|0,0:1|3:0,0:0:0:0:
288,148,89381,2,0,L|424:124,1,105,0|0,1:0|0:0,0:0:0:0:
468,132,89706,2,0,P|480:92|468:56,1,70,8|0,0:1|0:0,0:0:0:0:
240,36,90030,2,0,P|208:92|120:128,1,140,0|8,1:0|0:1,0:0:0:0:
64,108,90516,1,0,3:0:0:0:
152,216,90679,5,0,1:0:0:0:
140,219,90760,1,0,1:0:0:0:
129,222,90841,1,8,0:0:0:0:
268,268,91003,1,8,0:1:0:0:
348,160,91165,1,2,0:3:0:0:
223,197,91327,6,0,P|235:269|191:349,2,140,0|8|0,1:0|0:1|1:0,0:0:0:0:
468,132,92138,2,0,P|436:104|292:92,1,175,4|0,0:0|0:0,0:0:0:0:
233,115,92625,1,8,0:1:0:0:
312,188,93111,5,4,0:3:0:0:
264,260,93273,5,8,0:3:0:0:
176,272,93598,5,12,0:3:0:0:
420,200,93922,6,0,P|472:160|496:88,1,140,6|8,1:0|0:1,0:0:0:0:
440,32,94408,1,2,3:1:0:0:
284,156,94571,1,2,1:2:0:0:
312,64,94733,1,8,0:3:0:0:
236,48,94895,2,0,L|260:212,1,140,8|2,0:1|1:2,0:0:0:0:
212,252,95544,1,10,0:1:0:0:
136,272,95706,1,0,3:0:0:0:
300,308,95868,1,2,1:2:0:0:
256,186,96030,1,8,0:3:0:0:
368,124,96192,2,0,P|360:180|332:212,1,70,8|2,0:1|0:1,0:0:0:0:
180,260,96516,6,0,P|219:293|325:298,1,140,2|8,1:2|0:1,0:0:0:0:
384,260,97003,1,0,3:0:0:0:
472,264,97165,2,0,P|504:296|516:336,1,70,2|8,1:2|0:3,0:0:0:0:
456,168,97489,2,0,L|464:84,1,70,8|8,0:1|0:3,0:0:0:0:
412,36,97814,1,2,1:2:0:0:
336,56,97976,1,8,0:3:0:0:
160,144,98138,5,8,0:1:0:0:
120,52,98300,1,2,1:0:0:0:
240,112,98462,2,0,P|216:156|212:256,1,140,2|10,1:2|0:1,0:0:0:0:
228,260,98868,1,8,0:0:0:0:
244,276,98949,1,8,0:0:0:0:
116,216,99111,6,0,P|76:220|8:252,1,105,2|0,1:2|0:0,0:0:0:0:
160,144,99435,1,8,0:1:0:0:
160,144,99760,2,0,P|220:152|248:144,1,70,2|8,1:2|0:3,0:0:0:0:
320,112,100084,1,8,0:1:0:0:
360,20,100246,1,2,0:1:0:0:
436,120,100408,6,0,L|404:184,1,70,2|8,1:2|0:3,0:0:0:0:
256,214,100733,2,0,L|227:148,1,70,8|2,0:1|3:1,0:0:0:0:
184,76,101057,1,2,1:2:0:0:
166,74,101138,1,0,1:0:0:0:
149,72,101219,1,8,1:3:0:0:
131,70,101300,1,0,1:0:0:0:
114,69,101381,1,8,1:0:0:0:
48,168,101544,1,2,0:1:0:0:
116,280,101706,1,2,1:2:0:0:
116,280,102030,6,0,P|156:264|208:272,1,70,8|8,0:1|3:0,0:0:0:0:
360,260,102354,1,2,1:2:0:0:
288,296,102516,2,0,P|271:335|228:366,1,70,4|8,0:0|0:1,0:0:0:0:
176,184,102841,1,8,0:3:0:0:
176,184,102922,1,4,0:3:0:0:
176,184,103003,2,0,P|184:132|160:40,1,140,0|8,1:0|0:1,0:0:0:0:
92,28,103489,1,2,0:1:0:0:
39,194,103652,1,8,0:1:0:0:
47,219,103733,1,8,0:0:0:0:
55,243,103814,1,8,0:0:0:0:
63,268,103895,1,8,0:0:0:0:
71,293,103976,1,2,0:3:0:0:
308,320,104300,6,0,P|268:340|184:336,1,105,6|0,1:0|0:0,0:0:0:0:
152,288,104625,1,8,0:1:0:0:
260,248,104787,1,2,3:1:0:0:
320,160,104949,2,0,P|332:120|324:64,1,70,2|8,1:2|0:3,0:0:0:0:
192,192,105273,2,0,P|180:232|188:288,1,70,8|0,0:1|0:0,0:0:0:0:
132,112,105598,1,2,1:2:0:0:
48,84,105760,1,0,0:0:0:0:
224,52,105922,5,8,0:1:0:0:
272,116,106084,1,2,3:1:0:0:
336,72,106246,1,2,1:2:0:0:
346,74,106327,1,0,1:0:0:0:
356,77,106408,1,8,1:3:0:0:
366,79,106489,1,0,1:0:0:0:
376,80,106571,2,0,P|408:104|428:140,1,70,10|8,1:0|0:3,0:0:0:0:
380,320,106895,6,0,P|356:260|360:164,1,140,2|10,1:2|0:1,0:0:0:0:
423,129,107381,1,0,3:0:0:0:
472,220,107544,1,2,1:2:0:0:
400,252,107706,1,8,0:3:0:0:
328,224,107868,1,8,0:1:0:0:
256,196,108030,1,0,0:0:0:0:
184,228,108192,2,0,L|178:297,1,70,2|0,1:2|0:0,0:0:0:0:
272,225,108516,2,0,L|266:156,1,70,8|2,0:1|1:0,0:0:0:0:
432,27,108841,5,2,1:2:0:0:
353,60,109003,1,8,0:1:0:0:
421,112,109165,1,10,0:1:0:0:
423,129,109246,1,8,0:0:0:0:
425,146,109327,1,8,0:0:0:0:
428,163,109408,1,8,0:0:0:0:
430,179,109489,2,0,L|298:199,1,105,2|0,1:2|0:0,0:0:0:0:
370,235,109814,2,0,P|339:280|259:311,1,140,10|2,0:1|1:2,0:0:0:0:
164,268,110300,1,8,0:3:0:0:
148,164,110462,1,8,0:1:0:0:
148,164,110787,5,2,1:2:0:0:
124,284,110949,1,0,0:0:0:0:
236,184,111111,1,8,0:1:0:0:
68,208,111273,1,2,3:1:0:0:
136,80,111435,1,2,1:2:0:0:
121,57,111516,1,0,1:0:0:0:
101,41,111597,1,8,1:3:0:0:
76,33,111678,1,0,1:0:0:0:
52,36,111760,2,0,P|20:56|0:104,1,70,10|8,1:0|0:3,0:0:0:0:
148,164,112084,6,0,L|272:144,1,105,2|0,1:2|0:0,0:0:0:0:
316,196,112408,2,0,P|364:168|384:88,1,140,10|2,0:1|1:2,0:0:0:0:
248,244,112895,1,4,0:0:0:0:
292,364,113057,1,8,0:0:0:0:
144,320,113219,1,2,0:3:0:0:
224,320,113381,1,8,0:1:0:0:
224,320,114030,5,8,0:1:0:0:
250,283,114111,1,8,0:0:0:0:
238,239,114192,1,8,0:0:0:0:
264,203,114273,1,8,0:0:0:0:
252,159,114354,1,2,0:3:0:0:
252,159,114679,6,0,P|254:240|261:322,1,140,4|8,1:0|0:0,0:0:0:0:
258,298,115327,1,0,0:0:0:0:
289,228,115489,1,2,0:3:0:0:
252,159,115652,2,0,P|245:110|256:63,1,70,8|8,0:0|0:0,0:0:0:0:
312,47,115976,6,0,B|382:10|458:73|458:73,1,140,6|8,0:3|0:0,0:0:0:0:
444,63,116462,1,8,0:3:0:0:
512,160,116625,6,0,B|442:197|366:134|366:134,1,140,0|8,0:0|0:0,0:0:0:0:
313,192,117111,5,2,0:0:0:0:
313,192,117192,1,2,0:0:0:0:
313,192,117273,2,0,P|326:255|330:361,1,140,6|8,0:3|0:0,0:0:0:0:
252,339,117760,1,8,0:3:0:0:
194,291,117922,2,0,P|205:247|207:197,1,70,0|2,0:0|0:3,0:0:0:0:
228,151,118246,2,0,P|214:90|214:52,1,70,8|0,0:0|0:0,0:0:0:0:
35,225,118571,5,6,0:3:0:0:
35,225,118895,1,8,0:0:0:0:
22,301,119057,1,8,0:3:0:0:
87,339,119219,1,0,0:0:0:0:
108,265,119381,5,12,0:3:0:0:
195,162,119544,1,12,0:3:0:0:
195,162,119706,2,0,L|199:196,1,35,2|0,0:0|0:0,0:0:0:0:
218,210,119868,6,0,L|235:55,2,140,6|14|0,0:3|0:3|0:0,0:0:0:0:
295,214,120679,1,2,0:3:0:0:
363,252,120841,1,8,0:0:0:0:
375,324,121003,1,8,0:0:0:0:
310,367,121165,6,0,P|235:351|163:353,1,140,6|8,0:3|0:0,0:0:0:0:
100,329,121652,2,0,P|156:339|250:334,1,140,8|8,0:3|0:0,0:0:0:0:
294,282,122138,2,0,P|285:234|287:202,1,70,8|0,0:0|0:0,0:0:0:0:
337,159,122462,6,0,P|348:120|287:39,2,140,6|8|0,0:3|0:0|0:0,0:0:0:0:
455,342,123273,2,0,L|461:290,1,35,4|0,0:0|0:0,0:0:0:0:
130,273,123598,5,2,0:0:0:0:
130,273,123679,1,2,0:0:0:0:
130,273,123760,2,0,P|90:269|65:79,1,269.500008224488,8|0,0:1|0:0,0:0:0:0:
178,203,125057,5,6,1:0:0:0:
178,203,125381,1,8,0:1:0:0:
293,261,125544,1,0,3:0:0:0:
167,315,125706,1,2,1:0:0:0:
293,261,125868,1,2,0:3:0:0:
221,347,126030,2,0,L|234:265,1,70,8|0,0:1|0:0,0:0:0:0:
346,124,126354,6,0,B|322:172|322:172|313:235|347:274,1,140,0|8,1:3|0:1,0:0:0:0:
401,299,126841,1,0,3:0:0:0:
447,266,127003,1,2,1:0:0:0:
446,243,127165,1,8,0:0:0:0:
438,227,127327,1,8,0:1:0:0:
260,334,127489,6,0,P|192:353|178:356,1,70,0|2,0:0|1:0,0:0:0:0:
2,83,127976,1,8,0:1:0:0:
98,175,128138,1,0,3:0:0:0:
200,117,128300,1,2,1:0:0:0:
104,152,128462,1,2,0:3:0:0:
147,275,128625,2,0,B|159:240|159:240|133:192,1,70,8|0,0:1|0:0,0:0:0:0:
67,300,128949,5,0,1:0:0:0:
67,300,129030,1,2,0:0:0:0:
67,300,129111,1,2,0:0:0:0:
134,368,129273,1,8,0:1:0:0:
243,337,129435,2,0,P|278:318|338:314,1,70,0|2,3:0|1:0,0:0:0:0:
418,366,129760,1,8,0:1:0:0:
420,341,129841,1,8,0:0:0:0:
424,317,129922,1,8,0:1:0:0:
431,294,130003,1,8,0:0:0:0:
440,271,130084,1,8,0:0:0:0:
491,212,130246,5,0,1:0:0:0:
426,181,130408,1,0,0:0:0:0:
372,127,130571,1,8,0:1:0:0:
354,53,130733,1,0,3:0:0:0:
161,12,130895,5,0,1:0:0:0:
168,20,131057,1,2,0:3:0:0:
201,118,131219,1,8,0:1:0:0:
180,192,131381,1,0,0:0:0:0:
210,298,131544,6,0,P|286:310|374:276,2,140,0|8|0,1:0|0:1|1:0,0:0:0:0:
210,298,132273,1,0,1:0:0:0:
210,298,132354,1,8,0:0:0:0:
51,222,132516,2,0,P|87:226|149:217,1,70,8|8,0:1|0:3,0:0:0:0:
213,109,132841,5,2,1:0:0:0:
289,96,133003,1,0,0:0:0:0:
362,121,133165,1,8,0:1:0:0:
415,176,133327,1,0,3:0:0:0:
481,312,133489,5,0,1:0:0:0:
348,374,133652,2,0,L|359:323,1,35,4|0,0:0|0:0,0:0:0:0:
348,328,133814,1,8,0:0:0:0:
293,252,133976,1,2,0:3:0:0:
334,135,134138,1,8,0:1:0:0:
334,135,134462,6,0,B|279:175|228:133|228:133|241:139|277:118,1,140,8|8,0:3|0:1,0:0:0:0:
264,111,134868,1,8,0:1:0:0:
276,91,134949,1,8,0:1:0:0:
288,71,135030,1,8,0:1:0:0:
289,44,135111,1,2,0:3:0:0:
289,44,135435,6,0,B|357:62|357:62|396:1,1,140,4|8,0:1|0:0,0:0:0:0:
198,83,135922,1,2,0:1:0:0:
220,157,136084,2,0,P|232:214|236:301,1,140,2|8,0:0|0:0,0:0:0:0:
236,295,136571,1,2,0:1:0:0:
280,368,136733,6,0,P|311:359|340:258,1,140,2|8,0:3|0:0,0:0:0:0:
378,188,137219,1,2,0:3:0:0:
463,242,137381,1,2,0:0:0:0:
463,242,137543,1,2,0:3:0:0:
505,160,137706,2,0,P|484:131|476:88,1,70,8|0,0:0|0:0,0:0:0:0:
416,39,138030,6,0,P|367:58|253:69,1,140,2|8,0:3|0:0,0:0:0:0:
175,358,138679,1,2,0:0:0:0:
222,297,138841,1,2,0:3:0:0:
166,237,139003,1,8,0:0:0:0:
166,237,139165,1,0,0:0:0:0:
17,314,139327,5,8,0:0:0:0:
93,309,139489,1,0,0:0:0:0:
155,263,139652,1,8,0:0:0:0:
281,275,139814,6,0,B|329:276|360:232|360:232|407:229,1,140,0|12,0:0|0:3,0:0:0:0:
222,175,140300,1,12,0:3:0:0:
222,175,140625,6,0,P|259:137|257:54,1,140,2|12,0:3|0:3,0:0:0:0:
183,50,141111,1,2,0:1:0:0:
118,161,141273,2,0,P|125:229|187:296,1,140,2|8,0:0|0:0,0:0:0:0:
113,349,141760,1,2,0:1:0:0:
204,354,141922,6,0,P|264:348|353:354,1,140,2|8,0:3|0:0,0:0:0:0:
459,257,142408,1,2,0:3:0:0:
371,279,142571,1,2,0:0:0:0:
371,279,142652,1,2,0:0:0:0:
371,279,142733,1,2,0:3:0:0:
425,358,142895,1,8,0:0:0:0:
504,330,143057,1,0,0:0:0:0:
406,192,143219,6,0,L|291:220,1,105,2|0,0:3|0:0,0:0:0:0:
284,244,143544,2,0,P|229:225|189:133,1,140,2|2,0:3|0:0,0:0:0:0:
382,48,144030,2,0,L|441:73,1,35,4|0,0:0|0:0,0:0:0:0:
414,61,144516,5,12,0:3:0:0:
404,141,144679,1,0,0:0:0:0:
426,217,144841,1,12,0:3:0:0:
386,307,145003,1,0,0:0:0:0:
250,359,145165,5,8,0:0:0:0:
224,337,145246,1,8,0:1:0:0:
194,348,145327,1,8,0:0:0:0:
174,328,145408,1,8,0:1:0:0:
145,343,145489,1,8,0:0:0:0:
145,343,145814,6,0,P|126:277|145:231,1,105,4|0,0:1|0:0,0:0:0:0:
158,227,146138,2,0,L|249:251,1,70,8|2,0:0|0:1,0:0:0:0:
132,132,146462,2,0,L|55:151,1,70,2|2,0:0|0:3,0:0:0:0:
196,72,146787,1,8,0:0:0:0:
196,72,146949,1,2,0:1:0:0:
261,128,147111,2,0,P|319:142|402:117,1,140,2|8,0:3|0:0,0:0:0:0:
470,150,147598,1,2,0:3:0:0:
459,172,147679,1,2,0:0:0:0:
452,195,147760,1,2,0:0:0:0:
449,219,147841,1,2,0:0:0:0:
448,244,147922,1,2,0:3:0:0:
396,304,148084,1,8,0:0:0:0:
470,368,148246,1,0,0:0:0:0:
320,292,148408,6,0,P|234:315|171:315,2,140,2|8|2,0:3|0:0|0:0,0:0:0:0:
340,219,149219,1,2,0:3:0:0:
299,159,149381,2,0,P|310:103|301:72,1,70,8|0,0:0|0:0,0:0:0:0:
144,20,149706,1,8,0:0:0:0:
164,88,149868,1,0,0:0:0:0:
161,162,150030,1,8,0:0:0:0:
137,342,150192,2,0,P|123:284|136:199,1,140,0|12,0:0|0:3,0:0:0:0:
221,318,150679,1,12,0:3:0:0:
221,318,151003,6,0,P|234:270|235:191,1,105,2|0,0:3|0:0,0:0:0:0:
188,155,151327,1,12,0:3:0:0:
225,79,151489,1,2,0:1:0:0:
320,25,151652,2,0,P|310:77|319:135,1,105,2|0,0:0|0:0,0:0:0:0:
377,174,151976,1,8,0:0:0:0:
358,267,152138,1,2,0:1:0:0:
422,357,152300,2,0,P|466:355|509:278,2,140,2|8|2,0:3|0:0|0:0,0:0:0:0:
345,336,153111,1,2,0:3:0:0:
269,333,153273,1,8,0:0:0:0:
198,359,153435,1,0,0:0:0:0:
19,260,153598,5,2,0:3:0:0:
174,100,153922,1,2,0:3:0:0:
382,202,154246,1,2,0:0:0:0:
302,252,154408,6,0,P|311:193|314:68,1,175,4|0,0:0|0:0,0:0:0:0:
244,22,154895,1,8,0:1:0:0:
244,22,155381,5,4,0:3:0:0:
193,121,155544,5,8,0:3:0:0:
271,246,155868,5,12,0:3:0:0:
192,368,156192,6,0,B|136:332|72:360|72:360,1,105,6|0,1:0|0:0,0:0:0:0:
40,296,156516,2,0,B|76:316|112:304|112:304,1,70,8|2,0:1|3:1,0:0:0:0:
184,216,156841,1,2,1:2:0:0:
60,160,157003,1,8,0:3:0:0:
184,244,157165,1,8,0:1:0:0:
152,112,157327,1,8,0:3:0:0:
296,184,157489,2,0,B|344:180|372:144|372:144|436:132,1,140,2|10,1:2|0:1,0:0:0:0:
422,134,157976,1,0,3:0:0:0:
364,88,158138,1,2,1:2:0:0:
440,104,158300,1,8,0:3:0:0:
372,200,158462,2,0,P|376:260|392:296,1,70,8|2,0:1|0:1,0:0:0:0:
304,348,158787,6,0,B|248:340|184:360|184:360,1,105,2|0,1:2|0:0,0:0:0:0:
160,288,159111,2,0,B|172:256|168:216|168:216,1,70,8|0,0:1|3:0,0:0:0:0:
40,344,159435,2,0,B|37:344|77:340|109:352,1,70,2|8,1:2|0:3,0:0:0:0:
72,216,159760,2,0,B|74:215|34:219|2:207,1,70,8|8,0:1|0:3,0:0:0:0:
56,120,160084,1,2,1:2:0:0:
140,100,160246,1,8,0:3:0:0:
216,144,160408,1,8,0:1:0:0:
208,120,160571,5,2,1:0:0:0:
292,200,160733,1,2,1:2:0:0:
140,216,160895,1,8,0:1:0:0:
292,76,161057,1,10,0:1:0:0:
326,78,161138,1,8,0:0:0:0:
360,69,161219,1,8,0:0:0:0:
480,108,161381,5,2,1:2:0:0:
480,108,161706,1,8,0:1:0:0:
436,176,161868,2,0,P|400:164|344:168,1,70,2|2,3:1|1:2,0:0:0:0:
240,208,162192,2,0,P|268:182|292:132,1,70,8|8,0:3|0:1,0:0:0:0:
236,92,162516,1,2,0:1:0:0:
168,264,162679,2,0,P|232:264|312:304,2,140,2|8|2,1:2|0:1|1:2,0:0:0:0:
80,296,163489,1,8,1:3:0:0:
72,312,163571,1,0,1:0:0:0:
64,328,163652,1,8,1:0:0:0:
116,160,163814,5,2,1:0:0:0:
104,128,163895,1,0,3:0:0:0:
92,96,163976,2,0,P|44:92|-8:64,1,105,2|0,1:2|0:0,0:0:0:0:
12,128,164300,2,0,P|60:116|96:124,1,70,8|8,0:1|3:0,0:0:0:0:
104,240,164625,1,2,1:2:0:0:
16,280,164787,1,4,0:0:0:0:
132,256,164949,2,0,L|212:264,1,70,8|8,0:1|0:3,0:0:0:0:
344,204,165273,6,0,L|260:220,1,70,0|0,1:0|0:0,0:0:0:0:
432,104,165598,2,0,P|398:157|384:256,1,140,8|8,0:1|0:1,0:0:0:0:
406,249,166003,1,8,0:0:0:0:
429,266,166084,1,8,0:0:0:0:
452,283,166165,1,8,0:0:0:0:
475,300,166246,2,0,L|472:371,1,70,2|0,0:3|0:0,0:0:0:0:
244,360,166571,6,0,B|216:360|196:344|196:344|152:376|88:348,1,140,6|8,1:0|0:1,0:0:0:0:
156,252,167057,1,2,3:1:0:0:
28,152,167219,1,2,1:2:0:0:
52,248,167381,1,8,0:3:0:0:
140,220,167544,1,8,0:1:0:0:
64,196,167706,1,0,0:0:0:0:
204,124,167868,6,0,B|260:144|316:128|316:128,1,105,2|0,1:2|0:0,0:0:0:0:
272,104,168192,2,0,B|232:92|184:104|184:104,1,70,8|2,0:1|3:1,0:0:0:0:
132,128,168516,1,2,1:2:0:0:
132,128,168679,1,8,0:3:0:0:
56,104,168841,1,10,0:1:0:0:
32,32,169003,1,8,0:3:0:0:
84,196,169165,5,2,1:2:0:0:
48,352,169489,1,10,0:1:0:0:
48,352,169652,1,0,3:0:0:0:
116,316,169814,2,0,P|156:304|200:308,1,70,2|8,1:2|0:3,0:0:0:0:
312,232,170138,2,0,P|260:240|168:208,1,140,8|2,0:1|1:2,0:0:0:0:
148,144,170625,1,0,0:0:0:0:
260,88,170787,1,8,0:1:0:0:
336,112,170949,1,2,1:0:0:0:
284,52,171111,6,0,L|188:68,1,70,2|8,1:2|0:1,0:0:0:0:
302,199,171435,1,10,0:1:0:0:
312,232,171516,1,8,0:0:0:0:
313,267,171597,1,8,0:0:0:0:
304,300,171678,1,8,0:0:0:0:
285,330,171760,6,0,L|152:348,1,105,2|0,1:2|0:0,0:0:0:0:
172,352,172084,2,0,L|277:338,1,105,10|0,0:1|0:0,0:0:0:0:
360,352,172408,2,0,P|396:324|452:320,1,70,2|8,1:2|0:3,0:0:0:0:
260,240,172733,2,0,P|268:172|232:88,1,140,8|2,0:1|1:2,0:0:0:0:
172,76,173219,1,0,0:0:0:0:
40,164,173381,5,8,0:1:0:0:
40,164,173544,1,2,3:1:0:0:
116,212,173706,1,2,1:2:0:0:
116,212,173787,1,0,1:0:0:0:
116,212,173868,1,8,1:3:0:0:
48,76,174030,1,10,0:1:0:0:
4,264,174192,1,8,0:3:0:0:
196,180,174354,2,0,B|205:172|216:156|216:156|257:160|285:168|285:168|297:148|321:140,1,140,2|10,1:2|0:1,0:0:0:0:
388,172,174841,1,0,3:0:0:0:
272,288,175003,2,0,L|280:364,1,70,2|4,1:2|0:0,0:0:0:0:
46,219,175489,2,0,L|115:211,1,70,2|8,0:3|0:1,0:0:0:0:
248,72,176138,5,4,0:3:0:0:
339,37,176300,6,0,L|375:33,2,35,8|0|0,0:3|3:0|3:0,0:0:0:0:
160,32,176625,5,12,0:3:0:0:
32,96,176949,6,0,B|52:91|65:79|65:79|56:94|53:125,1,70,6|0,1:0|0:0,0:0:0:0:
148,248,177273,1,8,0:1:0:0:
68,224,177435,2,0,B|63:204|51:191|51:191|66:200|97:203,2,70,2|2|8,3:1|1:2|0:3,0:0:0:0:
20,332,177922,2,0,P|60:324|112:332,1,70,8|8,0:1|0:3,0:0:0:0:
300,300,178246,2,0,P|240:312|152:284,1,140,2|10,1:2|0:1,0:0:0:0:
292,212,178733,1,0,3:0:0:0:
188,152,178895,1,2,1:2:0:0:
152,160,178976,1,0,1:0:0:0:
116,168,179057,1,8,1:3:0:0:
256,80,179219,1,8,0:1:0:0:
220,272,179381,1,2,0:1:0:0:
80,152,179544,6,0,B|64:196|28:208|28:208|12:244|28:276,1,140,2|8,1:2|0:1,0:0:0:0:
148,344,180030,1,0,3:0:0:0:
148,344,180192,2,0,P|148:304|120:260,1,70,2|8,1:2|0:3,0:0:0:0:
243,259,180516,2,0,P|265:226|314:206,1,70,8|8,0:1|0:3,0:0:0:0:
380,188,180841,1,2,1:2:0:0:
464,224,181003,1,8,0:3:0:0:
364,80,181165,6,0,L|348:152,1,70,8|2,0:1|1:0,0:0:0:0:
240,116,181489,1,2,1:2:0:0:
196,28,181652,1,8,0:1:0:0:
150,39,181733,1,8,0:0:0:0:
105,50,181814,1,10,0:1:0:0:
59,61,181895,1,8,0:0:0:0:
48,76,181976,1,8,0:0:0:0:
104,188,182138,5,2,1:2:0:0:
104,188,182462,1,8,0:1:0:0:
160,244,182625,2,0,P|88:232|12:264,1,140,2|8,3:1|0:3,0:0:0:0:
140,324,183111,2,0,P|192:324|220:308,1,70,8|2,0:1|0:1,0:0:0:0:
260,216,183435,2,0,B|272:200|264:180|264:180|224:172|208:144|208:144|224:128|224:104,2,140,2|8|2,1:2|0:1|1:2,0:0:0:0:
260,216,184165,1,0,1:0:0:0:
260,216,184246,1,8,0:3:0:0:
132,164,184408,1,8,0:1:0:0:
376,128,184571,1,2,0:1:0:0:
312,300,184733,6,0,L|328:388,1,70,2|8,1:2|0:3,0:0:0:0:
440,232,185057,2,0,P|460:288|440:376,1,140,8|2,0:1|1:2,0:0:0:0:
340,208,185544,1,4,0:0:0:0:
356,80,185706,1,8,0:1:0:0:
232,100,185868,1,8,1:3:0:0:
240,136,185949,1,4,0:3:0:0:
248,176,186030,1,0,1:0:0:0:
204,122,186192,1,0,0:0:0:0:
275,153,186354,1,8,0:1:0:0:
252,224,186516,1,2,0:1:0:0:
112,248,186679,5,8,0:1:0:0:
77,219,186760,1,8,0:0:0:0:
61,179,186841,1,8,0:0:0:0:
65,135,186922,1,8,0:0:0:0:
88,92,187003,2,0,P|144:88|192:60,1,105,2|0,0:3|0:0,0:0:0:0:
264,64,187327,1,6,1:0:0:0:
464,156,187652,6,0,P|424:172|380:172,1,70,8|2,0:1|3:1,0:0:0:0:
332,216,187976,1,2,1:2:0:0:
384,276,188138,1,8,0:3:0:0:
332,216,188300,1,8,0:1:0:0:
384,276,188462,1,0,0:0:0:0:
256,272,188625,2,0,L|152:348,1,105,2|0,1:2|0:0,0:0:0:0:
112,288,188949,6,0,P|156:296|200:288,1,70,8|2,0:1|3:1,0:0:0:0:
72,200,189273,1,2,1:2:0:0:
58,168,189354,1,0,1:0:0:0:
55,133,189435,1,8,1:3:0:0:
144,88,189598,1,10,0:1:0:0:
244,136,189760,1,8,0:3:0:0:
432,96,189922,5,2,1:2:0:0:
432,96,190246,2,0,P|388:80|336:88,1,70,10|0,0:1|3:0,0:0:0:0:
488,176,190571,2,0,L|456:248,1,70,2|8,1:2|0:3,0:0:0:0:
312,280,190895,2,0,L|276:116,1,140,8|2,0:1|1:2,0:0:0:0:
192,100,191381,1,0,0:0:0:0:
244,196,191544,1,8,0:1:0:0:
288,52,191706,1,2,1:0:0:0:
108,152,191868,5,2,1:2:0:0:
180,272,192030,1,8,1:0:0:0:
148,301,192111,1,8,1:0:0:0:
107,317,192192,1,10,1:0:0:0:
64,316,192273,1,8,1:0:0:0:
23,300,192354,1,8,1:2:0:0:
244,196,192516,6,0,P|296:200|348:184,1,105,2|0,1:2|0:0,0:0:0:0:
356,222,192841,2,0,P|306:236|254:233,1,105,10|0,0:1|0:0,0:0:0:0:
203,167,193165,1,2,1:2:0:0:
292,120,193327,1,8,0:3:0:0:
248,280,193489,2,0,L|272:356,1,70,8|0,0:1|0:0,0:0:0:0:
116,240,193814,2,0,P|112:300|72:368,1,140,2|8,1:2|0:1,0:0:0:0:
16,232,194300,2,0,P|40:200|48:156,1,70,2|2,3:1|1:2,0:0:0:0:
40,136,194544,1,0,1:0:0:0:
20,108,194625,1,8,1:3:0:0:
176,152,194787,1,10,0:1:0:0:
328,80,194949,1,8,0:3:0:0:
248,36,195111,6,0,P|256:100|232:168,1,105,2|0,1:2|0:0,0:0:0:0:
264,276,195435,2,0,P|256:212|280:144,1,105,10|0,0:1|0:0,0:0:0:0:
328,128,195760,1,2,1:2:0:0:
140,240,195922,2,0,L|-4:256,1,140,4|2,0:0|0:3,0:0:0:0:
0,255,196408,1,8,0:1:0:0:
400,340,197057,5,8,0:1:0:0:
368,348,197138,1,8,0:0:0:0:
396,354,197219,5,8,0:0:0:0:
371,333,197300,1,8,0:0:0:0:
380,344,197381,5,2,0:3:0:0:
73,272,197706,6,0,P|154:273|235:247,1,140,4|8,1:0|0:1,0:0:0:0:
331,178,198192,1,0,3:0:0:0:
219,143,198354,1,0,1:0:0:0:
294,318,198679,5,8,0:1:0:0:
294,318,199003,5,0,1:3:0:0:
294,318,199165,1,0,0:0:0:0:
368,335,199327,1,8,0:1:0:0:
368,335,199489,1,0,3:0:0:0:
436,298,199652,1,0,1:0:0:0:
431,221,199814,1,8,0:0:0:0:
368,181,199976,1,8,1:0:0:0:
368,181,200057,1,0,1:0:0:0:
368,181,200138,1,0,1:0:0:0:
414,108,200300,5,0,1:0:0:0:
264,21,200625,5,8,0:1:0:0:
413,32,200787,1,0,3:0:0:0:
272,107,200949,1,0,1:0:0:0:
86,223,201273,5,8,0:1:0:0:
264,313,201598,5,0,1:0:0:0:
264,313,201679,1,0,1:0:0:0:
264,313,201760,1,0,1:0:0:0:
320,224,201922,1,8,0:1:0:0:
362,314,202084,1,0,3:0:0:0:
174,285,202246,1,0,1:0:0:0:
222,212,202408,1,8,0:1:0:0:
282,129,202571,1,8,0:1:0:0:
260,146,202652,1,8,0:0:0:0:
233,155,202733,1,8,0:0:0:0:
206,156,202814,1,8,0:0:0:0:
179,149,202895,5,2,0:3:0:0:
100,134,203057,1,0,0:0:0:0:
48,196,203219,1,14,0:3:0:0:
78,271,203381,1,0,0:0:0:0:
157,286,203544,1,2,0:0:0:0:
157,286,203868,1,8,0:0:0:0:
422,99,204192,5,2,0:3:0:0:
422,99,204354,1,0,0:0:0:0:
365,152,204516,1,8,0:0:0:0:
365,152,204679,1,2,1:3:0:0:
421,204,204841,1,2,0:0:0:0:
421,204,205003,1,8,0:0:0:0:
372,263,205165,1,8,0:0:0:0:
372,263,205246,1,2,0:0:0:0:
372,263,205327,1,2,0:0:0:0:
413,327,205489,2,0,P|375:342|266:334,1,140,2|2,0:3|1:3,0:0:0:0:
223,283,205976,1,0,0:0:0:0:
298,159,206138,5,2,0:0:0:0:
282,237,206300,1,4,0:0:0:0:
114,332,206787,5,8,0:1:0:0:
414,216,207111,1,8,0:3:0:0:
184,71,207435,5,8,0:0:0:0:
151,91,207516,1,8,0:1:0:0:
113,79,207598,1,8,0:0:0:0:
88,108,207679,1,8,0:1:0:0:
50,100,207760,1,12,0:3:0:0:
492,144,208084,6,0,B|473:113|471:77|486:42|486:42|470:50|454:73|429:115|416:145|408:193|456:253|487:275|502:316|486:374|440:391|407:402|372:406|321:395|308:360|304:347|301:318|308:295|316:274|333:256|365:254|407:250|436:283|448:332,1,770.000023498536,4|0,1:0|0:0,0:0:0:0:
