osu file format v14

[General]
AudioFilename: audio.mp3
AudioLeadIn: 0
PreviewTime: 23161
Countdown: 0
SampleSet: Normal
StackLeniency: 0.7
Mode: 0
LetterboxInBreaks: 0
WidescreenStoryboard: 1

[Editor]
Bookmarks: -20,13896,19812,24646,35312,45979,56646,67312,77979,88646,99312
DistanceSpacing: 0.9
BeatDivisor: 4
GridSize: 4
TimelineZoom: 1

[Metadata]
Title:Plastic Girl (feat. EeL)
TitleUnicode:Plastic Girlƒ‹ (feat. EeL)
Artist:capsule
ArtistUnicode:capsule
Creator:RedONI
Version:Normal
Source:capsule
Tags:capsule plastic girl jpop
BeatmapID:1432947
BeatmapSetID:677013

[Difficulty]
HPDrainRate:3.5
CircleSize:4
OverallDifficulty:4
ApproachRate:5
SliderMultiplier:1.2
SliderTickRate:1

[Events]
//Background and Video events
0,0,"chobits.jpg",0,0
//Break Periods
2,74933,76866
2,100766,103199
//Storyboard Layer 0 (Background)
//Storyboard Layer 1 (Fail)
//Storyboard Layer 2 (Pass)
//Storyboard Layer 3 (Foreground)
//Storyboard Sound Samples

[TimingPoints]
3400,333.333333333333,4,1,0,100,1,0
3400,-133.333333333333,4,1,0,100,0,0
19806,-166.666666666667,4,1,0,100,0,0
24646,-133.333333333333,4,1,0,100,0,0

[HitObjects]
96,104,3389,5,0,0:0:0:0:
112,240,3733,6,0,L|168:240,1,45.0000017166138
208,240,4066,1,0,0:0:0:0:
208,192,4233,1,0,0:0:0:0:
304,192,4566,1,0,0:0:0:0:
424,328,5233,2,0,L|360:328,1,45.0000017166138
288,328,5733,1,0,0:0:0:0:
88,312,6399,6,0,L|88:256,1,45.0000017166138
88,220,6733,1,0,0:0:0:0:
88,172,6899,1,0,0:0:0:0:
184,152,7233,1,0,0:0:0:0:
376,160,7899,2,0,L|376:108,1,45.0000017166138
376,24,8399,1,0,0:0:0:0:
300,72,8733,5,0,0:0:0:0:
200,80,9066,1,0,0:0:0:0:
200,80,9233,1,0,0:0:0:0:
123,172,9566,2,0,B|100:132|100:132|128:96,1,90.0000034332277
256,216,11399,6,0,B|216:240|152:244,1,90.0000034332277
112,248,11899,2,0,B|120:304|184:308,1,90.0000034332277
312,336,12733,1,0,0:0:0:0:
328,216,13066,1,0,0:0:0:0:
408,272,13399,2,0,P|436:252|452:228,1,45.0000017166138
312,192,14066,5,0,0:0:0:0:
216,208,14399,2,0,P|184:192|168:172,1,45.0000017166138
148,152,14733,1,0,0:0:0:0:
124,116,14899,1,0,0:0:0:0:
160,32,15233,1,0,0:0:0:0:
256,128,15899,5,0,0:0:0:0:
304,128,16066,1,0,0:0:0:0:
304,224,16399,1,0,0:0:0:0:
80,116,17066,1,0,0:0:0:0:
80,216,17399,1,0,0:0:0:0:
128,216,17566,1,0,0:0:0:0:
148,312,17899,6,0,B|192:312|192:312|192:260,1,90.0000034332277
192,156,18566,1,0,0:0:0:0:
248,156,18733,1,0,0:0:0:0:
248,48,19066,1,0,0:0:0:0:
336,48,19399,1,0,0:0:0:0:
332,140,19733,1,0,0:0:0:0:
296,140,19899,2,0,L|224:140,1,71.9999978027344
116,148,20733,6,0,P|116:188|116:220,3,71.9999978027344,0|8|0|8,0:0|0:0|0:0|0:0,0:0:0:0:
116,292,22066,1,4,0:2:0:0:
208,88,23399,5,2,0:0:0:0:
288,88,23733,1,2,0:0:0:0:
288,168,24066,1,2,0:0:0:0:
208,176,24399,1,2,0:0:0:0:
216,272,24733,6,0,B|216:352|216:352|168:352|168:352|120:320,1,180.000006866455,4|0,0:0|0:0,0:0:0:0:
112,264,25566,2,0,B|112:216|112:216|144:176,1,90.0000034332277
240,96,26399,1,0,0:0:0:0:
288,96,26566,1,0,0:0:0:0:
288,192,26899,1,0,0:0:0:0:
480,192,27399,6,0,L|480:288,1,90.0000034332277
416,344,28066,1,0,0:0:0:0:
368,344,28233,2,0,L|368:248,1,90.0000034332277
264,108,29233,1,0,0:0:0:0:
300,84,29399,2,0,L|356:84,1,45.0000017166138
400,44,29733,1,0,0:0:0:0:
456,80,29899,2,0,P|464:152|416:208,1,135.000005149841
208,192,31233,5,2,0:0:0:0:
120,192,31566,1,2,0:0:0:0:
32,192,31899,1,2,0:0:0:0:
32,80,32233,2,0,P|56:72|88:72,1,45.0000017166138
184,80,32733,1,0,0:0:0:0:
248,144,33066,5,0,0:0:0:0:
312,80,33399,2,0,L|368:80,1,45.0000017166138
448,80,33899,1,0,0:0:0:0:
448,168,34233,1,0,0:0:0:0:
448,272,34566,6,0,L|392:272,1,45.0000017166138
352,272,34899,2,0,L|288:272,1,45.0000017166138
296,216,35233,1,0,0:0:0:0:
296,168,35399,6,0,B|256:152|256:152|208:168,1,90.0000034332277
160,240,36066,1,0,0:0:0:0:
160,288,36233,1,0,0:0:0:0:
248,288,36566,2,0,B|312:320|377:286,1,135.000005149841
424,264,37233,2,0,B|440:224|440:224|424:168,1,90.0000034332277
416,48,38066,6,0,B|371:33|371:33|331:49,1,90.0000034332277,2|2,0:0|0:0,0:0:0:0:
280,120,38733,2,0,B|257:124|233:117,1,45.0000017166138,2|2,0:0|0:0,0:0:0:0:
184,48,39233,1,2,0:0:0:0:
184,128,39566,1,0,0:0:0:0:
184,208,39899,2,0,L|184:272,3,45.0000017166138
184,296,40566,6,0,P|96:296|88:256,1,135.000005149841,4|0,2:0|0:0,0:0:0:0:
128,160,41899,1,2,0:0:0:0:
208,160,42233,1,2,0:0:0:0:
288,160,42566,1,2,0:0:0:0:
368,160,42899,2,0,L|368:104,1,45.0000017166138
368,32,43399,5,0,0:0:0:0:
288,32,43733,1,0,0:0:0:0:
288,112,44066,2,0,L|288:176,1,45.0000017166138
288,248,44566,1,0,0:0:0:0:
324,280,44733,1,0,0:0:0:0:
360,252,44899,2,0,P|384:212|352:180,1,90.0000034332277
224,188,45733,1,0,0:0:0:0:
136,192,46066,5,0,0:0:0:0:
140,104,46399,2,0,L|192:104,1,45.0000017166138
232,104,46733,2,0,L|288:104,1,45.0000017166138
368,108,47233,1,0,0:0:0:0:
500,228,47899,5,0,0:0:0:0:
500,272,48066,1,0,0:0:0:0:
412,276,48399,2,0,B|376:304|376:304|324:304,1,90.0000034332277
196,304,49233,1,0,0:0:0:0:
156,304,49399,1,0,0:0:0:0:
112,304,49566,1,0,0:0:0:0:
256,192,49733,12,0,51399,0:0:0:0:
432,136,51733,6,0,L|432:188,1,45.0000017166138
432,224,52066,1,0,0:0:0:0:
432,268,52233,1,0,0:0:0:0:
344,272,52566,2,0,P|284:280|212:240,1,135.000005149841
204,204,53233,5,0,0:0:0:0:
204,160,53399,1,0,0:0:0:0:
204,68,53733,1,0,0:0:0:0:
116,68,54066,1,0,0:0:0:0:
116,204,54566,1,0,0:0:0:0:
156,184,54733,2,0,L|200:152,1,45.0000017166138
268,108,55233,2,0,P|456:204|376:320,1,405.000015449524
292,336,57066,5,0,0:0:0:0:
244,336,57233,1,0,0:0:0:0:
196,336,57399,1,0,0:0:0:0:
148,336,57566,1,0,0:0:0:0:
80,280,57899,1,0,0:0:0:0:
144,216,58233,2,0,L|376:216,1,225.000008583069
368,128,59399,1,0,0:0:0:0:
276,132,59733,5,0,0:0:0:0:
232,132,59899,1,0,0:0:0:0:
188,132,60066,1,0,0:0:0:0:
144,132,60233,1,0,0:0:0:0:
96,56,60566,1,0,0:0:0:0:
28,172,61066,2,0,L|28:360,1,180.000006866455
120,356,62066,1,0,0:0:0:0:
208,352,62399,5,0,0:0:0:0:
296,352,62733,1,0,0:0:0:0:
344,352,62899,1,0,0:0:0:0:
344,264,63233,1,0,0:0:0:0:
344,176,63566,2,0,L|112:176,1,225.000008583069
120,84,64733,1,0,0:0:0:0:
208,84,65066,5,0,0:0:0:0:
296,84,65399,1,0,0:0:0:0:
340,84,65566,2,0,B|404:84|404:84|404:164,1,135.000005149841
272,136,67066,5,0,0:0:0:0:
272,224,67399,2,0,L|368:224,1,90.0000034332277,0|0,0:0|2:0,0:0:0:0:
408,224,67899,1,0,0:0:0:0:
408,268,68066,1,0,0:0:0:0:
184,280,68899,1,0,0:0:0:0:
184,188,69233,1,0,0:0:0:0:
228,188,69399,1,0,0:0:0:0:
228,96,69733,1,2,0:0:0:0:
304,48,70066,6,0,L|304:148,1,90.0000034332277
372,196,70733,2,0,L|372:96,1,90.0000034332277
372,60,71233,1,0,0:0:0:0:
440,120,71566,1,0,0:0:0:0:
436,208,71899,1,0,0:0:0:0:
404,240,72066,1,0,0:0:0:0:
316,240,72399,1,0,0:0:0:0:
244,184,72733,6,0,L|144:184,1,90.0000034332277,0|0,0:0|2:0,0:0:0:0:
108,188,73233,1,0,0:0:0:0:
64,188,73399,2,0,L|64:96,1,90.0000034332277
156,52,74233,1,0,0:0:0:0:
188,84,74399,1,0,0:0:0:0:
220,116,74566,1,0,0:0:0:0:
252,144,74733,1,0,0:0:0:0:
172,64,78066,6,0,P|124:60|96:144,1,135.000005149841
120,172,78733,2,0,P|148:204|191:198,1,90.0000034332277
240,176,79233,1,0,0:0:0:0:
404,152,79566,2,0,L|404:256,1,90.0000034332277
340,224,80066,2,0,L|340:324,1,90.0000034332277
256,192,80733,12,0,82733,0:0:0:0:
60,308,83066,6,0,L|60:216,1,90.0000034332277
156,220,83733,1,0,0:0:0:0:
156,132,84066,1,0,0:0:0:0:
244,132,84399,1,0,0:0:0:0:
312,72,84733,1,0,0:0:0:0:
380,132,85066,1,0,0:0:0:0:
312,192,85399,1,0,0:0:0:0:
188,324,86066,5,0,0:0:0:0:
124,260,86399,1,0,0:0:0:0:
192,200,86733,1,0,0:0:0:0:
260,260,87066,2,0,L|332:196,1,90.0000034332277
400,148,88066,2,0,P|328:96|256:148,1,180.000006866455
344,280,89233,5,0,0:0:0:0:
388,280,89400,1,0,0:0:0:0:
256,192,90233,1,0,0:0:0:0:
168,192,90566,1,0,0:0:0:0:
168,148,90733,1,0,0:0:0:0:
164,60,91066,1,0,0:0:0:0:
256,60,91399,5,0,0:0:0:0:
348,60,91733,1,0,0:0:0:0:
348,152,92066,2,0,L|256:152,1,90.0000034332277
244,196,92566,2,0,L|140:196,1,90.0000034332277
88,256,93233,1,0,0:0:0:0:
132,256,93399,1,0,0:0:0:0:
224,256,93733,1,0,0:0:0:0:
312,260,94066,6,0,L|402:260,1,90.0000034332277,0|0,0:0|2:0,0:0:0:0:
448,264,94566,1,0,0:0:0:0:
492,264,94732,2,0,L|492:174,1,90.0000034332277
408,68,95566,1,0,0:0:0:0:
376,100,95732,1,0,0:0:0:0:
344,132,95899,1,0,0:0:0:0:
312,160,96066,1,0,0:0:0:0:
224,160,96399,1,0,0:0:0:0:
132,164,96733,6,0,L|36:164,2,90.0000034332277
224,164,97733,2,0,L|224:224,1,45.0000017166138
304,252,98233,1,0,0:0:0:0:
384,212,98566,2,0,L|384:152,1,45.0000017166138
304,120,99066,1,0,0:0:0:0:
196,124,99399,6,0,P|148:120|120:204,1,135.000005149841
120,244,100066,2,0,P|164:272|196:256,1,90.0000034332277
232,220,100566,1,0,0:0:0:0:
408,68,104399,5,0,0:0:0:0:
300,72,104733,2,0,L|208:72,1,90.0000034332277
136,148,105399,2,0,L|232:148,1,90.0000034332277
296,228,106066,2,0,L|188:228,1,90.0000034332277
128,304,106733,1,0,0:0:0:0:
128,304,107399,5,0,0:0:0:0:
128,196,107733,1,0,0:0:0:0:
236,196,108066,1,0,0:0:0:0:
236,88,108399,1,0,0:0:0:0:
344,92,108733,2,4,B|292:156|396:196|340:268,2,180.000006866455
