osu file format v14

[General]
AudioFilename: audio.mp3
AudioLeadIn: 0
PreviewTime: 36443
Countdown: 0
SampleSet: Soft
StackLeniency: 0.7
Mode: 0
LetterboxInBreaks: 0
WidescreenStoryboard: 0

[Editor]
DistanceSpacing: 1
BeatDivisor: 8
GridSize: 4
TimelineZoom: 2.8

[Metadata]
Title:Hello
TitleUnicode:Hello
Artist:capsule
ArtistUnicode:capsule
Creator:Kurai
Version:Normal
Source:
Tags:PLAYER 中田 ヤスタカ Nakata Yasutaka こしじま としこ Koshijima Toshiko
BeatmapID:1362488
BeatmapSetID:642644

[Difficulty]
HPDrainRate:5
CircleSize:3.5
OverallDifficulty:5
ApproachRate:5
SliderMultiplier:1.3
SliderTickRate:1

[Events]
//Background and Video events
0,0,"bg.jpg",0,0
//Break Periods
//Storyboard Layer 0 (Background)
//Storyboard Layer 1 (Fail)
//Storyboard Layer 2 (Pass)
//Storyboard Layer 3 (Foreground)
//Storyboard Sound Samples

[TimingPoints]
80,454.545454545455,4,3,2,75,1,0
36443,-100,4,3,2,75,0,1
50080,-100,4,3,2,75,0,0
65534,-151.515151515152,4,2,0,85,0,0
71898,-100,4,3,2,75,0,0
94170,-100,4,2,0,90,0,0
94625,-100,4,2,0,80,0,0
95080,-100,4,2,0,75,0,0
95534,-100,4,2,0,70,0,0
95989,-100,4,2,0,65,0,0
96443,-100,4,2,0,60,0,0
96898,-100,4,2,0,55,0,0
97352,-100,4,2,0,50,0,0
97807,-100,4,2,0,45,0,0
98261,-100,4,2,0,40,0,0
98716,-100,4,2,0,35,0,0
99170,-100,4,2,0,25,0,0
99625,-100,4,2,0,15,0,0
100080,-100,4,2,0,5,0,0

[Colours]
Combo1 : 254,21,164
Combo2 : 1,174,217
Combo3 : 84,219,64
Combo4 : 254,232,25
Combo5 : 255,153,58
Combo6 : 254,83,91

[HitObjects]
56,96,80,5,0,0:0:0:0:
184,96,534,1,2,0:0:0:0:
184,228,989,2,0,L|184:316,2,65,0|2|2,0:0|0:0|0:0,0:0:0:0:
320,228,1898,5,0,0:0:0:0:
320,100,2352,1,2,0:0:0:0:
452,100,2807,2,0,L|528:100,2,65,0|2|2,0:0|0:0|0:0,0:0:0:0:
448,232,3716,5,0,0:0:0:0:
448,360,4170,1,2,0:0:0:0:
316,360,4625,2,0,L|232:360,1,65,0|2,0:0|0:0,0:0:0:0:
186,360,5080,2,0,L|102:360,1,65,2|0,0:0|0:0,0:0:0:0:
56,360,5534,5,2,0:0:0:0:
56,228,5989,1,2,0:0:0:0:
56,100,6443,1,2,1:0:0:0:
56,228,6898,1,8,0:0:0:0:
184,228,7352,5,2,0:0:0:0:
380,228,8261,1,0,0:0:0:0:
380,32,9170,5,0,0:0:0:0:
184,32,10080,2,0,L|36:32,1,130,0|2,0:0|0:0,0:0:0:0:
52,164,10989,5,0,0:0:0:0:
52,360,11898,1,0,0:0:0:0:
248,360,12807,5,0,0:0:0:0:
396,360,13489,2,0,L|480:360,2,65,8|0|8,0:0|0:0|0:0,0:0:0:0:
396,296,14170,1,0,0:0:0:0:
396,164,14625,5,2,0:0:0:0:
268,164,15080,2,0,L|200:164,1,65,2|0,0:0|0:0,0:0:0:0:
136,164,15534,2,0,L|136:232,1,65
136,296,15989,1,2,0:0:0:0:
8,296,16443,5,2,0:0:0:0:
8,164,16898,1,2,0:0:0:0:
8,36,17352,2,0,L|80:36,1,65
138,36,17807,2,0,L|138:120,1,65,2|0,0:0|0:0,0:0:0:0:
138,164,18261,5,2,0:0:0:0:
140,360,19170,1,2,0:0:0:0:
336,360,20080,5,2,0:0:0:0:
336,164,20989,1,2,1:0:0:0:
376,140,21216,2,0,P|416:128|452:128,1,65,0|2,0:0|0:0,0:0:0:0:
340,44,21898,5,0,0:0:0:0:
144,44,22807,1,0,0:0:0:0:
20,192,23716,5,0,0:0:0:0:
216,192,24625,1,0,0:0:0:0:
92,344,25534,5,0,0:0:0:0:
288,344,26443,1,0,0:0:0:0:
464,264,27352,5,0,0:0:0:0:
428,72,28261,2,0,L|292:72,1,130,0|2,0:0|0:0,0:0:0:0:
168,72,29170,5,0,0:0:0:0:
36,72,29625,1,2,0:0:0:0:
84,196,30080,2,0,L|116:280,2,65,0|0|2,0:0|0:0|0:0,0:0:0:0:
208,216,30989,6,0,L|264:340,1,130,0|2,0:0|0:0,0:0:0:0:
328,220,31898,2,0,L|364:304,2,65,0|0|2,0:0|0:0|0:0,0:0:0:0:
280,100,32807,5,2,0:0:0:0:
112,100,33716,1,2,0:0:0:0:
120,216,34398,2,0,P|164:300|178:165,1,325,0|2,0:0|1:0,0:0:0:0:
236,40,35989,1,0,0:0:0:0:
352,100,36443,6,0,L|424:136,1,65
468,160,36898,1,2,0:0:0:0:
356,224,37352,2,0,P|364:300|308:332,1,130,0|2,0:0|0:0,0:0:0:0:
268,300,38034,1,0,0:0:0:0:
208,320,38261,6,0,L|112:320,1,65,0|0,0:0|0:0,0:0:0:0:
76,320,38716,1,2,0:0:0:0:
100,192,39170,1,0,0:0:0:0:
124,132,39398,2,0,P|144:100|188:72,1,65,0|2,0:0|0:0,0:0:0:0:
280,140,40080,6,0,L|436:120,1,130,0|2,0:0|0:0,0:0:0:0:
472,112,40761,1,0,0:0:0:0:
472,112,40989,1,0,0:0:0:0:
420,232,41443,2,0,L|336:244,1,65,2|0,0:0|0:0,0:0:0:0:
292,256,41898,5,0,0:0:0:0:
164,256,42352,1,2,0:0:0:0:
116,212,42580,2,0,P|96:180|88:140,1,65,0|0,0:0|0:0,0:0:0:0:
28,136,43034,2,0,P|40:112|48:64,3,65,2|2|2|0,0:0|0:0|0:0|0:0,0:0:0:0:
176,56,44170,5,2,0:0:0:0:
236,80,44398,2,0,L|308:72,1,65,0|0,0:0|0:0,0:0:0:0:
392,164,45080,1,2,0:0:0:0:
332,188,45308,2,0,L|260:180,1,65,0|0,0:0|0:0,0:0:0:0:
184,280,45989,5,2,0:0:0:0:
236,320,46216,2,0,L|320:312,1,65,0|0,0:0|0:0,0:0:0:0:
424,360,46898,1,2,0:0:0:0:
452,300,47125,1,0,0:0:0:0:
416,248,47352,6,0,L|388:184,1,65,0|2,0:0|0:0,0:0:0:0:
424,132,47807,1,2,0:0:0:0:
336,40,48261,2,0,L|264:68,1,65,0|2,0:0|0:0,0:0:0:0:
212,44,48716,1,2,0:0:0:0:
100,112,49170,6,0,L|64:184,1,65,2|0,0:0|0:0,0:0:0:0:
124,212,49625,2,0,L|136:276,2,65,2|0|2,0:0|0:0|1:0,0:0:0:0:
244,264,50534,1,6,0:0:0:0:
296,300,50761,6,0,L|368:352,1,65,0|0,0:0|0:0,0:0:0:0:
472,296,51443,1,2,0:0:0:0:
420,260,51670,2,0,L|348:208,1,65,0|0,0:0|0:0,0:0:0:0:
240,192,52352,1,2,0:0:0:0:
264,132,52580,6,0,L|336:104,1,65,0|0,0:0|0:0,0:0:0:0:
196,84,53261,1,2,0:0:0:0:
148,40,53489,2,0,L|72:23,1,65
16,136,54170,1,2,0:0:0:0:
56,188,54398,6,0,P|72:232|68:280,1,65,0|0,0:0|0:0,0:0:0:0:
196,212,55080,1,2,0:0:0:0:
236,264,55308,2,0,P|231:310|206:351,1,65
352,308,55989,1,2,0:0:0:0:
416,292,56216,6,0,L|496:324,1,65,0|0,0:0|0:0,0:0:0:0:
420,184,56898,1,2,0:0:0:0:
356,200,57125,2,0,L|280:220,2,65,0|0|8,0:0|0:0|0:0,0:0:0:0:
352,136,57807,1,0,0:0:0:0:
256,52,58261,5,0,0:0:0:0:
124,52,58716,1,2,0:0:0:0:
124,180,59170,2,0,L|124:272,2,65,0|2|2,0:0|0:0|0:0,0:0:0:0:
256,180,60080,5,0,0:0:0:0:
384,180,60534,1,2,0:0:0:0:
384,312,60989,2,0,L|384:380,2,65,0|2|2,0:0|0:0|0:0,0:0:0:0:
252,312,61898,6,0,L|188:312,1,65
188,116,62807,2,0,L|188:181,2,65,2|0|0,0:0|0:0|0:0,0:0:0:0:
256,192,63489,12,2,64625,1:0:0:0:
400,84,65534,6,0,P|340:88|316:152,1,128.699999607239,0|2,0:0|0:0,0:0:0:0:
328,188,66443,2,0,P|344:224|280:276,1,128.699999607239,0|2,0:0|0:0,0:0:0:0:
248,256,67352,6,0,L|128:328,1,128.699999607239,0|2,0:0|0:0,0:0:0:0:
100,340,68261,2,0,P|48:312|56:240,1,128.699999607239,0|2,0:0|0:0,0:0:0:0:
80,220,69170,6,0,P|112:176|80:112,1,128.699999607239,0|2,0:0|0:0,0:0:0:0:
56,80,70080,2,0,P|80:28|152:36,1,128.699999607239,0|2,0:0|0:0,0:0:0:0:
180,56,70989,6,0,P|248:84|300:64,1,128.699999607239,0|2,0:0|0:0,0:0:0:0:
328,32,71898,1,0,0:0:0:0:
392,44,72125,6,0,L|464:28,1,65,2|0,0:0|0:0,0:0:0:0:
432,156,72807,2,0,L|452:220,2,65,2|0|2,0:0|0:0|0:0,0:0:0:0:
372,180,73489,1,0,0:0:0:0:
312,208,73716,2,0,L|332:272,2,65,2|0|2,0:0|0:0|0:0,0:0:0:0:
252,232,74398,1,0,0:0:0:0:
192,256,74625,6,0,L|176:320,2,65,2|0|2,0:0|0:0|0:0,0:0:0:0:
160,200,75307,2,0,L|176:136,1,65,2|0,0:0|0:0,0:0:0:0:
48,112,75989,1,2,0:0:0:0:
96,68,76216,6,0,P|124:52|164:44,1,65,0|0,0:0|0:0,0:0:0:0:
284,52,76898,1,2,0:0:0:0:
328,100,77125,2,0,P|356:120|392:128,1,65,0|0,0:0|0:0,0:0:0:0:
440,244,77807,1,2,0:0:0:0:
396,292,78034,1,0,0:0:0:0:
336,272,78261,5,2,0:0:0:0:
236,184,78716,1,0,0:0:0:0:
184,304,79170,1,2,1:0:0:0:
100,204,79625,1,2,0:0:0:0:
92,68,80080,5,0,0:0:0:0:
220,68,80534,1,0,0:0:0:0:
352,68,80989,2,0,B|352:132|352:132|416:196,1,130,2|4,0:0|0:0,0:0:0:0:
504,256,81898,5,0,0:0:0:0:
256,332,82807,1,0,0:0:0:0:
8,256,83716,5,0,0:0:0:0:
120,192,84170,1,0,0:0:0:0:
120,60,84625,2,0,B|168:104|168:104|248:104,1,130,0|2,0:0|0:0,0:0:0:0:
364,104,85534,5,0,0:0:0:0:
256,340,86443,1,0,0:0:0:0:
472,192,87352,6,0,L|404:192,1,65,2|2,0:0|0:0,0:0:0:0:
256,316,88261,2,0,L|324:316,1,65,2|2,0:0|0:0,0:0:0:0:
105,192,89170,6,0,L|40:192,1,65,2|2,0:0|0:0,0:0:0:0:
256,68,90080,2,0,L|188:68,2,65,2|0|8,0:0|0:0|0:0,0:0:0:0:
352,156,90989,5,0,0:0:0:0:
416,156,91216,2,0,L|416:228,1,65,0|2,0:0|0:0,0:0:0:0:
364,340,91898,1,2,0:0:0:0:
300,340,92125,2,0,L|300:268,1,65,0|0,0:0|0:0,0:0:0:0:
236,272,92580,1,2,0:0:0:0:
236,208,92807,5,0,0:0:0:0:
24,208,93716,1,2,1:0:0:0:
256,192,94170,12,0,100080,0:0:0:0:
