osu file format v14

[General]
AudioFilename: audio.mp3
AudioLeadIn: 0
PreviewTime: 36443
Countdown: 0
SampleSet: None
StackLeniency: 0.7
Mode: 0
LetterboxInBreaks: 0
StoryFireInFront: 0
WidescreenStoryboard: 0

[Editor]
DistanceSpacing: 2.2
BeatDivisor: 4
GridSize: 4
TimelineZoom: 1

[Metadata]
Title:Hello
TitleUnicode:Hello
Artist:capsule
ArtistUnicode:capsule
Creator:Kurai
Version:Hard
Source:
Tags:PLAYER 中田 ヤスタカ Nakata Yasutaka こしじま としこ Koshijima Toshiko
BeatmapID:1362466
BeatmapSetID:642644

[Difficulty]
HPDrainRate:7
CircleSize:4.5
OverallDifficulty:7
ApproachRate:7.7
SliderMultiplier:1.4
SliderTickRate:1

[Events]
//Background and Video events
0,0,"bg.jpg",0,0
//Break Periods
//Storyboard Layer 0 (Background)
//Storyboard Layer 1 (Fail)
//Storyboard Layer 2 (Pass)
//Storyboard Layer 3 (Foreground)
//Storyboard Sound Samples

[TimingPoints]
80,454.545454545455,4,3,2,75,1,0
36443,-100,4,3,2,75,0,1
50080,-100,4,3,2,75,0,0
63489,-151.5151515152,4,3,2,75,0,0
64625,-100,4,3,2,75,0,0
65534,-181.8181818182,4,2,0,85,0,0
70989,-133.3333333333,4,2,0,85,0,0
71898,-100,4,3,2,75,0,0
94170,-100,4,2,0,90,0,0
94625,-100,4,2,0,80,0,0
95080,-100,4,2,0,75,0,0
95534,-100,4,2,0,70,0,0
95989,-100,4,2,0,65,0,0
96443,-100,4,2,0,60,0,0
96898,-100,4,2,0,55,0,0
97352,-100,4,2,0,50,0,0
97807,-100,4,2,0,45,0,0
98261,-100,4,2,0,40,0,0
98716,-100,4,2,0,35,0,0
99170,-100,4,2,0,25,0,0
99625,-100,4,2,0,15,0,0
100080,-100,4,2,0,5,0,0

[Colours]
Combo1 : 254,21,164
Combo2 : 1,174,217
Combo3 : 84,219,64
Combo4 : 254,232,25
Combo5 : 255,153,58
Combo6 : 254,83,91

[HitObjects]
48,44,80,5,0,0:0:0:0:
160,44,534,1,2,0:0:0:0:
48,148,989,2,0,L|144:148,1,70,0|2,0:0|0:0,0:0:0:0:
256,148,1443,1,2,0:0:0:0:
256,288,1898,5,0,0:0:0:0:
256,148,2352,1,2,0:0:0:0:
464,148,2807,2,0,L|394:148,1,70,0|2,0:0|0:0,0:0:0:0:
464,288,3261,1,2,0:0:0:0:
240,288,3716,5,0,0:0:0:0:
352,288,4170,1,2,0:0:0:0:
168,176,4625,2,0,L|238:176,1,70,0|2,0:0|0:0,0:0:0:0:
168,64,5079,1,2,0:0:0:0:
56,64,5307,1,0,0:0:0:0:
280,64,5534,5,2,0:0:0:0:
392,64,5989,1,2,0:0:0:0:
392,288,6443,1,2,1:0:0:0:
168,288,6898,2,0,L|98:288,1,70,8|0,0:0|0:0,0:0:0:0:
276,288,7352,5,2,0:3:0:0:
276,176,8261,1,0,0:0:0:0:
164,176,9170,5,0,0:0:0:0:
164,64,10080,1,0,0:0:0:0:
346,64,10534,2,0,L|276:64,1,70,2|0,0:0|0:0,0:0:0:0:
460,64,10989,5,0,0:0:0:0:
460,176,11898,1,0,0:0:0:0:
348,176,12807,5,0,0:0:0:0:
348,304,13489,1,8,0:0:0:0:
194,304,13716,2,0,L|264:304,1,70,0|8,0:0|0:0,0:0:0:0:
112,304,14170,1,0,0:0:0:0:
112,136,14625,5,8,0:0:0:0:
276,136,15080,1,2,0:0:0:0:
360,136,15307,2,0,L|440:136,2,70
360,248,15989,1,2,0:0:0:0:
192,248,16443,5,0,0:0:0:0:
80,248,16898,1,2,0:0:0:0:
192,136,17352,2,0,L|120:136,2,70,0|0|2,0:0|0:0|0:0,0:0:0:0:
304,136,18034,1,0,0:0:0:0:
388,136,18261,5,2,0:0:0:0:
472,136,19170,1,2,0:0:0:0:
472,220,20080,5,2,0:0:0:0:
256,344,20989,1,2,1:0:0:0:
196,252,21216,2,0,P|176:300|140:324,1,70,0|2,0:0|0:0,0:0:0:0:
132,148,21898,5,0,0:0:0:0:
252,303,22807,1,0,0:0:0:0:
377,151,23716,5,0,0:0:0:0:
154,254,24626,1,0,0:0:0:0:
351,257,25535,5,0,0:0:0:0:
201,63,26444,1,0,0:0:0:0:
132,148,27353,5,0,0:0:0:0:
310,65,28261,1,0,0:0:0:0:
347,227,28716,2,0,P|319:207|304:176,1,70,2|0,0:0|0:0,0:0:0:0:
424,192,29170,5,0,0:0:0:0:
424,360,29625,1,2,0:0:0:0:
256,360,30080,2,0,L|156:360,2,70,0|0|2,0:0|0:0|0:0,0:0:0:0:
88,360,30989,5,0,0:0:0:0:
88,192,31443,1,2,0:0:0:0:
256,192,31898,2,0,L|336:192,2,70,0|0|2,0:0|0:0|0:0,0:0:0:0:
256,360,32807,5,2,0:0:0:0:
424,360,33716,1,2,0:0:0:0:
292,148,34398,6,0,P|316:56|388:192,1,350,0|2,0:0|1:0,0:0:0:0:
316,320,35989,1,6,0:0:0:0:
216,192,36443,6,0,P|200:228|172:252,1,70
184,112,36898,1,2,0:0:0:0:
132,176,37125,1,0,0:0:0:0:
268,120,37352,2,0,P|304:176|284:248,1,140,0|2,0:0|0:0,0:0:0:0:
316,320,38034,1,0,0:0:0:0:
469,312,38261,6,0,L|400:316,1,70
424,148,38716,1,2,0:0:0:0:
412,232,38943,1,0,0:0:0:0:
436,64,39170,1,0,0:0:0:0:
283,72,39398,2,0,L|352:68,1,70,0|2,0:0|0:0,0:0:0:0:
204,44,39852,1,0,0:0:0:0:
199,176,40080,6,0,P|137:150|127:84,1,140,0|2,0:0|0:0,0:0:0:0:
284,164,40761,1,0,0:0:0:0:
485,193,40989,2,0,L|348:220,1,140,0|2,0:0|0:0,0:0:0:0:
484,276,41670,1,0,0:0:0:0:
262,318,41898,6,0,L|400:292,1,140,0|2,0:0|0:0,0:0:0:0:
192,272,42580,2,0,L|136:296,2,35
97,326,43034,1,2,0:0:0:0:
87,305,43147,1,0,0:0:0:0:
85,282,43261,1,2,0:0:0:0:
89,260,43375,1,0,0:0:0:0:
99,239,43488,1,2,0:0:0:0:
115,223,43602,1,0,0:0:0:0:
136,212,43715,5,0,0:0:0:0:
176,136,43943,1,0,0:0:0:0:
296,48,44170,1,2,0:0:0:0:
212,60,44398,1,0,0:0:0:0:
376,128,44625,6,0,L|456:92,1,70,0|2,0:0|0:0,0:0:0:0:
460,208,45080,1,2,0:0:0:0:
424,284,45307,1,0,0:0:0:0:
376,128,45534,6,0,L|456:92,1,70,0|2,0:0|0:0,0:0:0:0:
344,256,45989,1,2,0:0:0:0:
283,314,46216,1,0,0:0:0:0:
376,128,46443,6,0,L|456:92,1,70,0|2,0:0|0:0,0:0:0:0:
208,272,46898,1,2,0:0:0:0:
133,310,47125,1,0,0:0:0:0:
26,205,47352,6,0,P|56:221|84:244,1,70,0|2,0:0|0:0,0:3:0:0:
12,92,47807,1,2,0:0:0:0:
88,52,48034,1,0,0:0:0:0:
236,66,48261,6,0,P|202:74|168:76,1,70,0|0,0:0|0:0,0:3:0:0:
340,32,48716,1,2,0:0:0:0:
412,76,48943,1,0,0:0:0:0:
344,213,49170,5,2,0:0:0:0:
424,188,49398,1,0,0:0:0:0:
424,323,49625,1,2,0:0:0:0:
344,297,49852,1,0,0:0:0:0:
473,255,50080,1,2,1:0:0:0:
256,348,50534,1,6,0:0:0:0:
180,312,50761,1,0,0:0:0:0:
104,348,50989,6,0,P|112:264|176:228,1,140,0|2,0:0|0:0,0:0:0:0:
236,228,51670,1,0,0:0:0:0:
119,145,51898,2,0,L|188:160,1,70
88,68,52352,2,0,L|19:53,1,70,2|0,0:0|0:0,0:0:0:0:
168,36,52807,5,0,0:0:0:0:
324,92,53261,1,2,0:0:0:0:
388,36,53489,2,0,P|428:20|496:20,2,70
388,176,54170,1,2,1:3:0:0:
304,176,54398,1,0,0:0:0:0:
172,265,54625,6,0,L|312:276,1,140,0|2,0:0|0:0,0:0:0:0:
88,256,55307,1,0,0:0:0:0:
181,346,55534,2,0,L|111:340,1,70
264,352,55989,1,2,0:0:0:0:
88,256,56216,1,0,0:0:0:0:
87,255,56443,6,0,P|62:192|95:133,1,140,0|2,0:0|0:0,0:0:0:0:
176,116,57125,1,0,0:0:0:0:
152,196,57352,1,0,0:0:0:0:
284,80,57580,2,0,L|360:52,1,70,8|0,0:0|0:0,0:0:0:0:
428,28,58034,1,0,0:0:0:0:
392,136,58261,5,2,0:0:0:0:
392,248,58716,1,2,0:0:0:0:
210,248,59170,2,0,L|280:248,1,70,0|2,0:0|0:0,0:0:0:0:
152,248,59625,1,2,0:0:0:0:
40,248,60080,5,0,0:0:0:0:
40,136,60534,1,2,0:0:0:0:
222,136,60989,2,0,L|152:136,1,70,0|2,0:0|0:0,0:0:0:0:
276,136,61443,1,2,0:0:0:0:
388,136,61898,5,0,0:0:0:0:
388,220,62125,2,0,P|384:292|256:296,1,210,0|2,0:0|0:0,0:0:0:0:
204,252,63034,1,0,0:0:0:0:
128,284,63261,1,0,0:0:0:0:
56,252,63489,2,0,B|52:208|96:184|96:184|124:168|144:156|144:156|192:128|184:80,1,230.999999295,10|2,0:0|1:1,0:0:0:0:
348,48,65080,5,2,0:0:0:0:
412,100,65307,1,0,0:0:0:0:
332,128,65534,2,0,P|292:156|296:232,1,115.5000035248,0|2,0:0|0:0,0:0:0:0:
364,256,66443,2,0,P|363:311|319:346,1,115.5000035248,0|2,0:0|0:0,0:0:0:0:
240,316,67352,6,0,P|192:304|120:312,1,115.5000035248,0|2,0:0|0:0,0:0:0:0:
52,352,68261,2,0,P|8:352|8:276,1,115.5000035248,0|2,0:0|0:0,0:0:0:0:
52,228,69170,6,0,P|80:180|76:104,1,115.5000035248,0|2,0:0|0:0,0:0:0:0:
16,68,70080,2,0,P|64:36|128:48,1,115.50000352478,0|2,0:0|0:0,0:0:0:0:
196,128,70989,6,0,P|260:156|332:80,1,157.5000060082,0|2,0:0|0:0,0:0:0:0:
332,12,71898,1,0,0:0:0:0:
469,69,72125,2,0,L|400:60,1,70,2|2,0:0|0:0,0:0:0:0:
512,172,72580,1,0,0:0:0:0:
343,224,72807,6,0,L|400:184,1,70,2|2,0:0|0:0,0:0:0:0:
260,232,73261,1,2,0:0:0:0:
176,236,73489,1,0,0:0:0:0:
32,284,73716,6,0,L|80:336,1,70,2|2,0:0|0:0,0:0:0:0:
44,200,74170,1,2,0:0:0:0:
68,120,74398,1,0,0:0:0:0:
288,43,74625,6,0,L|224:108,1,70,2|2,0:0|0:0,0:0:0:0:
364,84,75080,1,2,0:0:0:0:
436,128,75307,1,0,0:0:0:0:
375,258,75534,6,0,P|371:224|384:192,1,70,2|2,0:0|0:0,0:0:0:0:
432,320,75989,1,2,0:0:0:0:
352,348,76216,1,0,0:0:0:0:
244,312,76443,6,0,P|164:304|136:360,1,140,0|2,0:0|0:0,0:0:0:0:
60,312,77125,1,0,0:0:0:0:
72,97,77352,2,0,L|96:236,1,140,0|2,0:0|0:0,0:0:0:0:
60,312,78034,1,0,0:0:0:0:
200,136,78261,5,2,0:0:0:0:
256,192,78716,1,0,0:0:0:0:
372,300,79170,1,2,1:0:0:0:
144,84,79625,1,2,0:0:0:0:
452,192,80080,5,0,0:0:0:0:
452,192,80534,1,0,0:0:0:0:
340,192,80989,1,2,0:0:0:0:
116,192,81443,1,4,0:0:0:0:
116,80,81898,5,0,0:0:0:0:
256,256,82807,1,0,0:0:0:0:
396,80,83716,5,0,0:0:0:0:
396,80,84170,1,0,0:0:0:0:
396,192,84625,1,2,0:0:0:0:
256,368,85080,1,2,0:0:0:0:
256,256,85534,5,0,0:0:0:0:
256,144,86443,1,0,0:0:0:0:
32,144,87352,2,0,L|32:64,1,70,2|2,0:0|0:0,0:0:0:0:
184,144,88261,2,0,L|184:214,1,70,2|2,0:0|0:0,0:0:0:0:
480,144,89170,6,0,L|480:64,1,70,2|2,0:0|0:0,0:0:0:0:
328,144,90079,2,0,L|328:214,1,70,2|2,0:0|0:0,0:0:0:0:
328,272,90534,1,8,0:0:0:0:
184,48,90989,5,0,0:0:0:0:
184,132,91216,1,0,0:0:0:0:
100,202,91443,2,0,L|100:132,1,70,2|0,0:0|0:0,0:0:0:0:
100,288,91898,1,2,0:0:0:0:
184,288,92125,1,0,0:0:0:0:
338,288,92352,2,0,L|268:288,1,70,0|2,0:0|0:0,0:0:0:0:
424,288,92807,5,0,0:0:0:0:
424,96,93716,1,2,1:0:0:0:
256,192,94170,12,0,100080,0:0:0:0:
