osu file format v14

[General]
AudioFilename: audio.mp3
AudioLeadIn: 0
PreviewTime: 12845
Countdown: 0
SampleSet: Soft
StackLeniency: 0.7
Mode: 3
LetterboxInBreaks: 0
SpecialStyle: 0
WidescreenStoryboard: 1

[Editor]
DistanceSpacing: 1
BeatDivisor: 4
GridSize: 16
TimelineZoom: 3.499999

[Metadata]
Title:perfect feat. oaf1 & dreamcache
TitleUnicode:perfect feat. oaf1 & dreamcache
Artist:capoxxo
ArtistUnicode:capoxxo
Creator:AchsanLovers
Version:HD
Source:
Tags:oaafyy Sherly ft. dxsh hyperpop techno hip hop rap english pop electronic dance music edm
BeatmapID:3641337
BeatmapSetID:1777995

[Difficulty]
HPDrainRate:7.5
CircleSize:4
OverallDifficulty:7.5
ApproachRate:5
SliderMultiplier:1.4
SliderTickRate:1

[Events]
//Background and Video events
0,0,"bg.jpg",0,0
Video,1010,"BGA.mp4"
//Break Periods
//Storyboard Layer 0 (Background)
//Storyboard Layer 1 (Fail)
//Storyboard Layer 2 (Pass)
//Storyboard Layer 3 (Foreground)
//Storyboard Layer 4 (Overlay)
//Storyboard Sound Samples

[TimingPoints]
1010,372.774999223385,4,2,1,50,1,0

[HitObjects]
320,192,1010,1,0,0:0:0:50:kick.wav
448,192,1103,1,0,0:0:0:0:
192,192,1196,1,0,0:0:0:0:
320,192,1382,1,0,0:0:0:50:kick.wav
448,192,1475,1,0,0:0:0:0:
192,192,1569,1,0,0:0:0:0:
320,192,1755,1,0,0:0:0:50:kick.wav
448,192,1848,1,0,0:0:0:0:
64,192,1941,1,0,0:0:0:0:
320,192,2128,1,0,0:0:0:50:kick.wav
64,192,2314,1,0,0:0:0:0:
192,192,2407,1,0,0:0:0:0:
448,192,2501,1,0,0:0:0:50:kick.wav
320,192,2594,1,0,0:0:0:0:
192,192,2687,1,0,0:0:0:0:
448,192,2873,1,0,0:0:0:50:kick.wav
320,192,2967,1,0,0:0:0:0:
192,192,3060,1,0,0:0:0:0:
64,192,3246,1,0,0:0:0:50:kick.wav
192,192,3339,1,0,0:0:0:0:
320,192,3433,1,0,0:0:0:0:
64,192,3619,1,0,0:0:0:50:kick.wav
320,192,3805,1,0,0:0:0:0:
192,192,3899,1,0,0:0:0:0:
320,192,3992,1,0,0:0:0:50:kick.wav
192,192,4085,1,0,0:0:0:0:
320,192,4178,1,0,0:0:0:0:
64,192,4364,1,0,0:0:0:50:kick.wav
192,192,4458,1,0,0:0:0:0:
320,192,4551,1,0,0:0:0:0:
192,192,4737,1,0,0:0:0:50:kick.wav
320,192,4830,1,0,0:0:0:0:
448,192,4924,1,0,0:0:0:0:
192,192,5110,1,0,0:0:0:50:kick.wav
320,192,5296,1,0,0:0:0:0:
448,192,5390,1,0,0:0:0:0:
192,192,5483,1,0,0:0:0:50:kick.wav
320,192,5576,1,0,0:0:0:0:
64,192,5669,1,0,0:0:0:0:
320,192,5856,1,0,0:0:0:50:kick.wav
192,192,5949,1,0,0:0:0:0:
448,192,6042,1,0,0:0:0:0:
192,192,6228,1,0,0:0:0:50:kick.wav
320,192,6322,1,0,0:0:0:0:
64,192,6415,1,0,0:0:0:0:
448,192,6601,1,0,0:0:0:50:kick.wav
192,192,6788,1,0,0:0:0:0:
64,192,6881,1,0,0:0:0:0:
320,192,6974,1,0,0:0:0:50:kick.wav
448,192,7067,1,0,0:0:0:0:
192,192,7160,1,0,0:0:0:0:
320,192,7347,1,0,0:0:0:50:kick.wav
448,192,7440,1,0,0:0:0:0:
192,192,7533,1,0,0:0:0:0:
320,192,7719,1,0,0:0:0:50:kick.wav
448,192,7813,1,0,0:0:0:0:
64,192,7906,1,0,0:0:0:0:
320,192,8092,1,0,0:0:0:50:kick.wav
64,192,8279,1,0,0:0:0:0:
192,192,8372,1,0,0:0:0:0:
448,192,8465,1,0,0:0:0:50:kick.wav
320,192,8558,1,0,0:0:0:0:
192,192,8651,1,0,0:0:0:0:
448,192,8838,1,0,0:0:0:50:kick.wav
320,192,8931,1,0,0:0:0:0:
192,192,9024,1,0,0:0:0:0:
64,192,9211,1,0,0:0:0:50:kick.wav
192,192,9304,1,0,0:0:0:0:
320,192,9397,1,0,0:0:0:0:
64,192,9583,1,0,0:0:0:50:kick.wav
320,192,9770,1,0,0:0:0:0:
192,192,9863,1,0,0:0:0:0:
320,192,9956,1,0,0:0:0:50:kick.wav
192,192,10049,1,0,0:0:0:0:
320,192,10142,1,0,0:0:0:0:
64,192,10329,1,0,0:0:0:50:kick.wav
192,192,10422,1,0,0:0:0:0:
320,192,10515,1,0,0:0:0:0:
192,192,10702,1,0,0:0:0:50:kick.wav
320,192,10795,1,0,0:0:0:0:
448,192,10888,1,0,0:0:0:0:
192,192,11074,1,0,0:0:0:50:kick.wav
320,192,11261,1,0,0:0:0:0:
448,192,11354,1,0,0:0:0:0:
192,192,11447,1,0,0:0:0:0:
320,192,11540,1,0,0:0:0:0:
64,192,11634,1,0,0:0:0:0:
320,192,11820,1,0,0:0:0:0:
192,192,11913,1,0,0:0:0:0:
448,192,12006,1,0,0:0:0:0:
192,192,12193,1,0,0:0:0:0:
320,192,12286,1,0,0:0:0:0:
64,192,12379,1,0,0:0:0:0:
192,192,12566,1,0,0:0:0:60:clap long.wav
448,192,12566,1,0,0:0:0:0:
320,192,12752,1,0,0:0:0:0:
64,192,12938,1,0,0:0:0:50:pistol.wav
192,192,12938,1,0,0:0:0:0:
448,192,12938,1,0,0:0:0:0:
320,192,13125,1,0,0:0:0:0:
64,192,13311,1,0,0:0:0:50:clap.wav
448,192,13311,1,0,0:0:0:0:
192,192,13404,1,0,0:0:0:0:
320,192,13497,1,0,0:0:0:0:
192,192,13591,1,0,0:0:0:0:
64,192,13684,1,0,0:0:0:50:kick.wav
448,192,13870,1,0,0:0:0:0:
64,192,14057,1,0,0:0:0:50:clap.wav
192,192,14057,1,0,0:0:0:0:
320,192,14150,1,0,0:0:0:0:
192,192,14243,1,0,0:0:0:0:
64,192,14336,1,0,0:0:0:0:
448,192,14429,1,0,0:0:0:50:kick.wav
320,192,14523,1,0,0:0:0:0:
192,192,14616,1,0,0:0:0:0:
320,192,14709,1,0,0:0:0:0:
64,192,14802,1,0,0:0:0:50:clap.wav
448,192,14802,1,0,0:0:0:0:
192,192,14895,1,0,0:0:0:0:
320,192,14989,1,0,0:0:0:0:
192,192,15082,1,0,0:0:0:0:
64,192,15175,1,0,0:0:0:50:kick.wav
448,192,15361,1,0,0:0:0:0:
64,192,15548,1,0,0:0:0:50:clap.wav
320,192,15548,1,0,0:0:0:0:
192,192,15641,1,0,0:0:0:0:
320,192,15734,1,0,0:0:0:0:
192,192,15827,1,0,0:0:0:0:
448,192,15920,1,0,0:0:0:50:kick.wav
64,192,16014,1,0,0:0:0:0:
320,192,16107,1,0,0:0:0:0:
192,192,16200,1,0,0:0:0:0:
320,192,16293,1,0,0:0:0:50:clap.wav
448,192,16293,1,0,0:0:0:0:
64,192,16386,1,0,0:0:0:0:
192,192,16480,1,0,0:0:0:0:
448,192,16573,1,0,0:0:0:0:
320,192,16666,1,0,0:0:0:50:kick.wav
64,192,16759,1,0,0:0:0:0:
192,192,16852,1,0,0:0:0:0:
320,192,16946,1,0,0:0:0:0:
64,192,17039,1,0,0:0:0:50:clap.wav
448,192,17039,1,0,0:0:0:0:
192,192,17225,1,0,0:0:0:0:
448,192,17412,1,0,0:0:0:50:kick.wav
320,192,17505,1,0,0:0:0:0:
192,192,17598,1,0,0:0:0:0:
320,192,17691,1,0,0:0:0:0:
64,192,17784,1,0,0:0:0:50:clap.wav
448,192,17784,1,0,0:0:0:0:
320,192,17971,1,0,0:0:0:0:
192,192,18157,1,0,0:0:0:50:kick.wav
448,192,18250,1,0,0:0:0:0:
320,192,18344,1,0,0:0:0:0:
192,192,18437,1,0,0:0:0:0:
64,192,18530,1,0,0:0:0:50:clap.wav
448,192,18530,1,0,0:0:0:0:
192,192,18716,1,0,0:0:0:60:clap long.wav
320,192,18716,1,0,0:0:0:0:
448,192,18903,1,0,0:0:0:50:kick.wav
320,192,19089,1,0,0:0:0:0:
192,192,19275,1,0,0:0:0:50:clap.wav
448,192,19275,1,0,0:0:0:0:
64,192,19369,1,0,0:0:0:0:
320,192,19462,1,0,0:0:0:0:
192,192,19555,1,0,0:0:0:0:
448,192,19648,1,0,0:0:0:50:kick.wav
64,192,19835,1,0,0:0:0:0:
320,192,20021,1,0,0:0:0:50:clap.wav
448,192,20021,1,0,0:0:0:0:
192,192,20114,1,0,0:0:0:0:
320,192,20207,1,0,0:0:0:0:
448,192,20301,1,0,0:0:0:0:
64,192,20394,1,0,0:0:0:50:kick.wav
320,192,20580,1,0,0:0:0:0:
64,192,20767,1,0,0:0:0:50:clap.wav
192,192,20767,1,0,0:0:0:0:
320,192,20860,1,0,0:0:0:0:
192,192,20953,1,0,0:0:0:0:
64,192,21046,1,0,0:0:0:0:
448,192,21139,1,0,0:0:0:50:kick.wav
320,192,21326,1,0,0:0:0:0:
64,192,21512,1,0,0:0:0:50:clap.wav
448,192,21512,1,0,0:0:0:0:
192,192,21699,1,0,0:0:0:0:
448,192,21885,1,0,0:0:0:50:kick.wav
192,192,21978,1,0,0:0:0:0:
320,192,22071,1,0,0:0:0:0:
448,192,22164,1,0,0:0:0:0:
64,192,22258,1,0,0:0:0:50:clap.wav
192,192,22258,1,0,0:0:0:0:
320,192,22351,1,0,0:0:0:0:
448,192,22444,1,0,0:0:0:0:
64,192,22537,1,0,0:0:0:0:
192,192,22630,1,0,0:0:0:50:kick.wav
320,192,22724,1,0,0:0:0:0:
192,192,22817,1,0,0:0:0:0:
64,192,22910,1,0,0:0:0:0:
320,192,23003,1,0,0:0:0:50:clap.wav
448,192,23003,1,0,0:0:0:0:
192,192,23190,1,0,0:0:0:0:
64,192,23376,1,0,0:0:0:50:kick.wav
320,192,23376,1,0,0:0:0:0:
320,192,23562,1,0,0:0:0:0:
192,192,23749,1,0,0:0:0:50:clap.wav
448,192,23749,1,0,0:0:0:0:
64,192,23842,1,0,0:0:0:0:
448,192,23935,1,0,0:0:0:0:
64,192,24122,1,0,0:0:0:50:kick.wav
320,192,24215,1,0,0:0:0:0:
64,192,24308,1,0,0:0:0:0:
320,192,24401,1,0,0:0:0:0:
64,192,24494,1,0,0:0:0:50:clap.wav
448,192,24494,1,0,0:0:0:0:
192,192,24588,1,0,0:0:0:0:
448,192,24681,1,0,0:0:0:0:
192,192,24774,1,0,0:0:0:0:
320,192,24867,1,0,0:0:0:50:pistol.wav
448,192,24867,1,0,0:0:0:0:
320,192,25053,1,0,0:0:0:0:
64,192,25240,1,0,0:0:0:50:clap.wav
448,192,25240,1,0,0:0:0:0:
192,192,25333,1,0,0:0:0:0:
320,192,25426,1,0,0:0:0:0:
448,192,25519,1,0,0:0:0:0:
64,192,25613,1,0,0:0:0:50:kick.wav
320,192,25799,1,0,0:0:0:0:
64,192,25985,1,0,0:0:0:50:clap.wav
192,192,25985,1,0,0:0:0:0:
448,192,26079,1,0,0:0:0:0:
320,192,26172,1,0,0:0:0:0:
192,192,26265,1,0,0:0:0:0:
320,192,26358,1,0,0:0:0:50:kick.wav
448,192,26451,1,0,0:0:0:0:
64,192,26545,1,0,0:0:0:0:
192,192,26638,1,0,0:0:0:0:
320,192,26731,1,0,0:0:0:50:clap.wav
448,192,26731,1,0,0:0:0:0:
192,192,26824,1,0,0:0:0:0:
64,192,26917,1,0,0:0:0:0:
320,192,27011,1,0,0:0:0:0:
192,192,27104,1,0,0:0:0:50:kick.wav
320,192,27290,1,0,0:0:0:0:
64,192,27477,1,0,0:0:0:50:clap.wav
448,192,27477,1,0,0:0:0:0:
192,192,27570,1,0,0:0:0:0:
320,192,27663,1,0,0:0:0:0:
192,192,27756,1,0,0:0:0:0:
64,192,27849,1,0,0:0:0:50:kick.wav
448,192,27942,1,0,0:0:0:0:
320,192,28036,1,0,0:0:0:0:
192,192,28129,1,0,0:0:0:0:
320,192,28222,1,0,0:0:0:50:clap.wav
448,192,28222,1,0,0:0:0:0:
64,192,28315,1,0,0:0:0:0:
448,192,28408,1,0,0:0:0:0:
192,192,28502,1,0,0:0:0:0:
320,192,28595,1,0,0:0:0:50:kick.wav
64,192,28688,1,0,0:0:0:0:
192,192,28781,1,0,0:0:0:0:
320,192,28874,1,0,0:0:0:0:
64,192,28968,1,0,0:0:0:50:clap.wav
448,192,28968,1,0,0:0:0:0:
192,192,29154,1,0,0:0:0:0:
320,192,29340,1,0,0:0:0:50:kick.wav
192,192,29434,1,0,0:0:0:0:
448,192,29527,1,0,0:0:0:0:
320,192,29620,1,0,0:0:0:0:
64,192,29713,1,0,0:0:0:50:clap.wav
192,192,29713,1,0,0:0:0:0:
320,192,29806,1,0,0:0:0:0:
448,192,29900,1,0,0:0:0:0:
64,192,30086,1,0,0:0:0:50:kick.wav
320,192,30179,1,0,0:0:0:0:
64,192,30272,1,0,0:0:0:0:
320,192,30366,1,0,0:0:0:0:
64,192,30459,1,0,0:0:0:50:clap.wav
192,192,30459,1,0,0:0:0:0:
320,192,30645,1,0,0:0:0:60:clap long.wav
448,192,30645,1,0,0:0:0:0:
64,192,30831,1,0,0:0:0:50:kick.wav
192,192,31018,1,0,0:0:0:0:
320,192,31204,1,0,0:0:0:50:clap.wav
448,192,31204,1,0,0:0:0:0:
192,192,31297,1,0,0:0:0:0:
448,192,31391,1,0,0:0:0:0:
192,192,31484,1,0,0:0:0:0:
320,192,31577,1,0,0:0:0:50:kick.wav
192,192,31763,1,0,0:0:0:0:
320,192,31950,1,0,0:0:0:50:clap.wav
448,192,31950,1,0,0:0:0:0:
64,192,32043,1,0,0:0:0:0:
192,192,32136,1,0,0:0:0:0:
320,192,32229,1,0,0:0:0:0:
448,192,32323,1,0,0:0:0:50:kick.wav
64,192,32509,1,0,0:0:0:0:
192,192,32695,1,0,0:0:0:50:clap.wav
320,192,32695,1,0,0:0:0:0:
448,192,32789,1,0,0:0:0:0:
320,192,32882,1,0,0:0:0:0:
192,192,32975,1,0,0:0:0:0:
64,192,33068,1,0,0:0:0:50:kick.wav
320,192,33255,1,0,0:0:0:0:
192,192,33441,1,0,0:0:0:50:clap.wav
448,192,33441,1,0,0:0:0:0:
64,192,33627,1,0,0:0:0:0:
448,192,33814,1,0,0:0:0:50:kick.wav
320,192,33907,1,0,0:0:0:0:
192,192,34000,1,0,0:0:0:0:
320,192,34093,1,0,0:0:0:0:
64,192,34186,1,0,0:0:0:50:clap.wav
448,192,34186,1,0,0:0:0:0:
192,192,34280,1,0,0:0:0:0:
320,192,34373,1,0,0:0:0:0:
448,192,34466,1,0,0:0:0:0:
192,192,34559,1,0,0:0:0:50:kick.wav
320,192,34652,1,0,0:0:0:0:
64,192,34746,1,0,0:0:0:0:
320,192,34839,1,0,0:0:0:0:
64,192,34932,1,0,0:0:0:50:clap.wav
192,192,34932,1,0,0:0:0:0:
448,192,35118,1,0,0:0:0:0:
64,192,35305,1,0,0:0:0:50:kick.wav
320,192,35305,1,0,0:0:0:0:
320,192,35491,1,0,0:0:0:0:
64,192,35678,1,0,0:0:0:50:clap.wav
448,192,35678,1,0,0:0:0:0:
192,192,35771,1,0,0:0:0:0:
320,192,35864,1,0,0:0:0:0:
64,192,36050,1,0,0:0:0:50:kick.wav
448,192,36050,1,0,0:0:0:0:
192,192,36237,1,0,0:0:0:0:
320,192,36423,1,0,0:0:0:50:clap.wav
448,192,36423,1,0,0:0:0:0:
64,192,36516,1,0,0:0:0:0:
192,192,36610,1,0,0:0:0:0:
320,192,36703,1,0,0:0:0:0:
64,192,36796,1,0,0:0:0:50:pistol.wav
448,192,36796,1,0,0:0:0:0:
320,192,36982,1,0,0:0:0:0:
64,192,37169,1,0,0:0:0:50:clap.wav
448,192,37169,1,0,0:0:0:0:
320,192,37262,1,0,0:0:0:0:
192,192,37355,1,0,0:0:0:0:
320,192,37448,1,0,0:0:0:0:
64,192,37541,1,0,0:0:0:50:kick.wav
448,192,37541,1,0,0:0:0:0:
320,192,37728,1,0,0:0:0:0:
64,192,37914,1,0,0:0:0:50:clap.wav
448,192,37914,1,0,0:0:0:0:
192,192,38007,1,0,0:0:0:0:
320,192,38101,1,0,0:0:0:0:
192,192,38194,1,0,0:0:0:0:
64,192,38287,1,0,0:0:0:50:kick.wav
448,192,38287,1,0,0:0:0:0:
448,192,38473,1,0,0:0:0:0:
64,192,38660,1,0,0:0:0:50:clap.wav
448,192,38660,1,0,0:0:0:0:
64,192,38846,1,0,0:0:0:0:
64,192,39033,1,0,0:0:0:50:kick.wav
448,192,39033,1,0,0:0:0:0:
320,192,39219,1,0,0:0:0:0:
64,192,39405,1,0,0:0:0:50:clap.wav
192,192,39405,1,0,0:0:0:0:
448,192,39592,1,0,0:0:0:0:
192,192,39778,1,0,0:0:0:50:kick.wav
320,192,39778,1,0,0:0:0:0:
64,192,39964,1,0,0:0:0:0:
320,192,40151,1,0,0:0:0:50:clap.wav
448,192,40151,1,0,0:0:0:0:
192,192,40337,1,0,0:0:0:0:
64,192,40524,1,0,0:0:0:50:kick.wav
448,192,40524,1,0,0:0:0:0:
320,192,40710,1,0,0:0:0:0:
64,192,40896,1,0,0:0:0:50:clap.wav
192,192,40896,1,0,0:0:0:0:
448,192,41083,1,0,0:0:0:0:
64,192,41269,1,0,0:0:0:50:kick.wav
320,192,41269,1,0,0:0:0:0:
320,192,41456,1,0,0:0:0:0:
192,192,41642,1,0,0:0:0:50:clap.wav
448,192,41642,1,0,0:0:0:0:
192,192,41828,1,0,0:0:0:0:
320,192,42015,1,0,0:0:0:50:kick.wav
448,192,42015,1,0,0:0:0:0:
192,192,42201,1,0,0:0:0:0:
64,192,42388,1,0,0:0:0:50:clap.wav
448,192,42388,1,0,0:0:0:0:
320,192,42574,1,0,0:0:0:0:
64,192,42760,1,0,0:0:0:50:kick.wav
192,192,42760,1,0,0:0:0:0:
448,192,42947,1,0,0:0:0:0:
64,192,43133,1,0,0:0:0:50:clap.wav
320,192,43133,1,0,0:0:0:0:
192,192,43226,1,0,0:0:0:0:
320,192,43319,1,0,0:0:0:0:
448,192,43413,1,0,0:0:0:0:
64,192,43506,1,0,0:0:0:50:kick.wav
192,192,43506,1,0,0:0:0:0:
320,192,43692,1,0,0:0:0:0:
192,192,43879,1,0,0:0:0:50:clap.wav
448,192,43879,1,0,0:0:0:0:
320,192,43972,1,0,0:0:0:0:
192,192,44065,1,0,0:0:0:0:
64,192,44158,1,0,0:0:0:0:
320,192,44251,1,0,0:0:0:50:kick.wav
448,192,44251,1,0,0:0:0:0:
192,192,44438,1,0,0:0:0:0:
64,192,44624,1,0,0:0:0:50:clap.wav
448,192,44624,1,0,0:0:0:0:
320,192,44811,1,0,0:0:0:0:
64,192,44997,1,0,0:0:0:50:kick.wav
192,192,44997,1,0,0:0:0:0:
448,192,45183,1,0,0:0:0:0:
192,192,45370,1,0,0:0:0:50:clap.wav
320,192,45370,1,0,0:0:0:0:
64,192,45556,1,0,0:0:0:0:
192,192,45742,1,0,0:0:0:50:kick.wav
448,192,45742,1,0,0:0:0:0:
448,192,45929,1,0,0:0:0:0:
192,192,46115,1,0,0:0:0:50:clap.wav
448,192,46115,1,0,0:0:0:0:
320,192,46302,1,0,0:0:0:0:
64,192,46488,1,0,0:0:0:50:kick.wav
192,192,46488,1,0,0:0:0:0:
448,192,46674,1,0,0:0:0:0:
192,192,46861,1,0,0:0:0:50:clap.wav
320,192,46861,1,0,0:0:0:0:
64,192,47047,1,0,0:0:0:0:
320,192,47234,1,0,0:0:0:50:kick.wav
448,192,47234,1,0,0:0:0:0:
64,192,47606,1,0,0:0:0:50:clap.wav
192,192,47606,1,0,0:0:0:0:
320,192,47979,1,0,0:0:0:50:kick.wav
448,192,47979,1,0,0:0:0:0:
64,192,48352,1,0,0:0:0:50:clap.wav
192,192,48352,1,0,0:0:0:0:
64,192,48725,1,0,0:0:0:50:pistol.wav
192,192,48725,1,0,0:0:0:0:
448,192,48725,1,0,0:0:0:0:
64,192,48911,1,0,0:0:0:0:
320,192,49097,1,0,0:0:0:50:kick.wav
448,192,49191,1,0,0:0:0:0:
64,192,49284,1,0,0:0:0:0:
192,192,49377,1,0,0:0:0:0:
320,192,49470,1,0,0:0:0:50:kick.wav
192,192,49657,1,0,0:0:0:0:
448,192,49843,1,0,0:0:0:50:kick.wav
320,192,49936,1,0,0:0:0:0:
64,192,50029,1,0,0:0:0:0:
192,192,50123,1,0,0:0:0:0:
320,192,50216,1,0,0:0:0:50:kick.wav
192,192,50402,1,0,0:0:0:0:
64,192,50589,1,0,0:0:0:50:kick.wav
448,192,50589,1,0,0:0:0:0:
320,192,50775,1,0,0:0:0:0:
64,192,50961,1,0,0:0:0:50:kick.wav
448,192,50961,1,0,0:0:0:0:
192,192,51148,1,0,0:0:0:0:
320,192,51334,1,0,0:0:0:50:kick.wav
448,192,51334,1,0,0:0:0:0:
64,192,51521,1,0,0:0:0:0:
192,192,51707,1,0,0:0:0:50:kick.wav
320,192,51707,1,0,0:0:0:0:
448,192,51893,1,0,0:0:0:0:
64,192,52080,1,0,0:0:0:50:kick.wav
192,192,52173,1,0,0:0:0:0:
320,192,52266,1,0,0:0:0:0:
448,192,52359,1,0,0:0:0:0:
64,192,52452,1,0,0:0:0:50:kick.wav
320,192,52639,1,0,0:0:0:0:
64,192,52825,1,0,0:0:0:50:kick.wav
448,192,52825,1,0,0:0:0:0:
320,192,53012,1,0,0:0:0:0:
64,192,53198,1,0,0:0:0:50:kick.wav
192,192,53198,1,0,0:0:0:0:
448,192,53384,1,0,0:0:0:0:
192,192,53571,1,0,0:0:0:50:kick.wav
320,192,53571,1,0,0:0:0:0:
64,192,53757,1,0,0:0:0:0:
320,192,53944,1,0,0:0:0:50:kick.wav
448,192,53944,1,0,0:0:0:0:
192,192,54130,1,0,0:0:0:0:
64,192,54316,1,0,0:0:0:50:kick.wav
448,192,54316,1,0,0:0:0:0:
320,192,54503,1,0,0:0:0:0:
192,192,54689,1,0,0:0:0:50:kick.wav
448,192,54782,1,0,0:0:0:0:
192,192,54875,1,0,0:0:0:0:
448,192,54969,1,0,0:0:0:0:
64,192,55062,1,0,0:0:0:50:kick.wav
320,192,55155,1,0,0:0:0:0:
64,192,55248,1,0,0:0:0:0:
320,192,55341,1,0,0:0:0:0:
192,192,55435,1,0,0:0:0:50:kick.wav
448,192,55528,1,0,0:0:0:0:
64,192,55621,1,0,0:0:0:0:
320,192,55714,1,0,0:0:0:0:
192,192,55807,1,0,0:0:0:50:kick.wav
64,192,55994,1,0,0:0:0:0:
320,192,56180,1,0,0:0:0:50:kick.wav
448,192,56180,1,0,0:0:0:0:
192,192,56367,1,0,0:0:0:0:
64,192,56553,1,0,0:0:0:50:kick.wav
448,192,56553,1,0,0:0:0:0:
320,192,56739,1,0,0:0:0:0:
64,192,56926,1,0,0:0:0:50:kick.wav
448,192,56926,1,0,0:0:0:0:
320,192,57112,1,0,0:0:0:0:
64,192,57299,1,0,0:0:0:50:kick.wav
192,192,57299,1,0,0:0:0:0:
448,192,57485,1,0,0:0:0:0:
64,192,57671,1,0,0:0:0:50:kick.wav
192,192,57764,1,0,0:0:0:0:
320,192,57858,1,0,0:0:0:0:
192,192,57951,1,0,0:0:0:0:
64,192,58044,1,0,0:0:0:50:kick.wav
448,192,58137,1,0,0:0:0:0:
320,192,58230,1,0,0:0:0:0:
192,192,58324,1,0,0:0:0:0:
320,192,58417,1,0,0:0:0:50:kick.wav
448,192,58510,1,0,0:0:0:0:
64,192,58603,1,0,0:0:0:0:
192,192,58696,1,0,0:0:0:0:
320,192,58790,1,0,0:0:0:50:kick.wav
192,192,58883,1,0,0:0:0:0:
64,192,58976,1,0,0:0:0:0:
448,192,59069,1,0,0:0:0:0:
192,192,59162,1,0,0:0:0:0:
320,192,59256,1,0,0:0:0:0:
64,192,59349,1,0,0:0:0:0:
320,192,59535,1,0,0:0:0:0:
192,192,59628,1,0,0:0:0:0:
448,192,59722,1,0,0:0:0:0:
192,192,59908,1,0,0:0:0:0:
320,192,60001,1,0,0:0:0:0:
64,192,60094,1,0,0:0:0:0:
64,192,60281,1,0,0:0:0:60:clap long.wav
448,192,60281,1,0,0:0:0:0:
448,192,60467,1,0,0:0:0:0:
192,192,60653,1,0,0:0:0:50:kick.wav
320,192,60653,1,0,0:0:0:0:
448,192,60840,1,0,0:0:0:0:
64,192,61026,1,0,0:0:0:50:clap.wav
192,192,61026,1,0,0:0:0:0:
448,192,61119,1,0,0:0:0:0:
192,192,61213,1,0,0:0:0:0:
448,192,61306,1,0,0:0:0:0:
64,192,61399,1,0,0:0:0:50:kick.wav
320,192,61585,1,0,0:0:0:0:
64,192,61772,1,0,0:0:0:50:clap.wav
192,192,61772,1,0,0:0:0:0:
320,192,61865,1,0,0:0:0:0:
448,192,61958,1,0,0:0:0:0:
64,192,62051,1,0,0:0:0:0:
192,192,62145,1,0,0:0:0:50:kick.wav
448,192,62238,1,0,0:0:0:0:
320,192,62331,1,0,0:0:0:0:
192,192,62424,1,0,0:0:0:0:
320,192,62517,1,0,0:0:0:50:clap.wav
448,192,62517,1,0,0:0:0:0:
64,192,62611,1,0,0:0:0:0:
192,192,62704,1,0,0:0:0:0:
320,192,62797,1,0,0:0:0:0:
448,192,62890,1,0,0:0:0:50:kick.wav
192,192,63077,1,0,0:0:0:0:
64,192,63263,1,0,0:0:0:50:clap.wav
448,192,63263,1,0,0:0:0:0:
320,192,63356,1,0,0:0:0:0:
192,192,63449,1,0,0:0:0:0:
320,192,63543,1,0,0:0:0:0:
448,192,63636,1,0,0:0:0:50:kick.wav
64,192,63729,1,0,0:0:0:0:
192,192,63822,1,0,0:0:0:0:
448,192,63915,1,0,0:0:0:0:
64,192,64008,1,0,0:0:0:50:clap.wav
320,192,64008,1,0,0:0:0:0:
192,192,64102,1,0,0:0:0:0:
320,192,64195,1,0,0:0:0:0:
448,192,64288,1,0,0:0:0:0:
64,192,64381,1,0,0:0:0:50:kick.wav
192,192,64474,1,0,0:0:0:0:
320,192,64568,1,0,0:0:0:0:
192,192,64661,1,0,0:0:0:0:
64,192,64754,1,0,0:0:0:50:clap.wav
448,192,64754,1,0,0:0:0:0:
320,192,64940,1,0,0:0:0:0:
64,192,65127,1,0,0:0:0:50:kick.wav
192,192,65220,1,0,0:0:0:0:
448,192,65313,1,0,0:0:0:0:
320,192,65406,1,0,0:0:0:0:
64,192,65500,1,0,0:0:0:50:clap.wav
192,192,65500,1,0,0:0:0:0:
320,192,65686,1,0,0:0:0:0:
64,192,65872,1,0,0:0:0:50:kick.wav
448,192,65966,1,0,0:0:0:0:
192,192,66059,1,0,0:0:0:0:
320,192,66152,1,0,0:0:0:0:
64,192,66245,1,0,0:0:0:50:clap.wav
448,192,66245,1,0,0:0:0:0:
192,192,66432,1,0,0:0:0:60:clap long.wav
320,192,66432,1,0,0:0:0:0:
64,192,66618,1,0,0:0:0:50:kick.wav
448,192,66804,1,0,0:0:0:0:
64,192,66991,1,0,0:0:0:50:clap.wav
320,192,66991,1,0,0:0:0:0:
192,192,67084,1,0,0:0:0:0:
448,192,67177,1,0,0:0:0:0:
192,192,67270,1,0,0:0:0:0:
448,192,67363,1,0,0:0:0:50:kick.wav
64,192,67550,1,0,0:0:0:0:
320,192,67736,1,0,0:0:0:50:clap.wav
448,192,67736,1,0,0:0:0:0:
192,192,67829,1,0,0:0:0:0:
448,192,67923,1,0,0:0:0:0:
320,192,68016,1,0,0:0:0:0:
192,192,68109,1,0,0:0:0:50:kick.wav
64,192,68295,1,0,0:0:0:0:
192,192,68482,1,0,0:0:0:50:clap.wav
320,192,68482,1,0,0:0:0:0:
64,192,68575,1,0,0:0:0:0:
192,192,68668,1,0,0:0:0:0:
320,192,68761,1,0,0:0:0:0:
448,192,68855,1,0,0:0:0:50:kick.wav
192,192,69041,1,0,0:0:0:0:
64,192,69227,1,0,0:0:0:50:clap.wav
320,192,69227,1,0,0:0:0:0:
448,192,69414,1,0,0:0:0:0:
64,192,69600,1,0,0:0:0:50:kick.wav
320,192,69693,1,0,0:0:0:0:
192,192,69786,1,0,0:0:0:0:
448,192,69880,1,0,0:0:0:0:
64,192,69973,1,0,0:0:0:50:clap.wav
192,192,69973,1,0,0:0:0:0:
320,192,70066,1,0,0:0:0:0:
448,192,70159,1,0,0:0:0:0:
64,192,70252,1,0,0:0:0:0:
192,192,70346,1,0,0:0:0:50:kick.wav
320,192,70439,1,0,0:0:0:0:
192,192,70532,1,0,0:0:0:0:
64,192,70625,1,0,0:0:0:0:
320,192,70718,1,0,0:0:0:50:clap.wav
448,192,70718,1,0,0:0:0:0:
192,192,70905,1,0,0:0:0:0:
64,192,71091,1,0,0:0:0:50:kick.wav
448,192,71091,1,0,0:0:0:0:
448,192,71278,1,0,0:0:0:0:
192,192,71464,1,0,0:0:0:50:clap.wav
320,192,71464,1,0,0:0:0:0:
64,192,71557,1,0,0:0:0:0:
448,192,71650,1,0,0:0:0:0:
320,192,71837,1,0,0:0:0:50:kick.wav
192,192,71930,1,0,0:0:0:0:
448,192,72023,1,0,0:0:0:0:
64,192,72116,1,0,0:0:0:0:
192,192,72210,1,0,0:0:0:60:clap long.wav
320,192,72210,1,0,0:0:0:0:
448,192,72303,1,0,0:0:0:0:
192,192,72396,1,0,0:0:0:0:
320,192,72489,1,0,0:0:0:0:
64,192,72582,1,0,0:0:0:50:pistol.wav
448,192,72582,1,0,0:0:0:0:
192,192,72769,1,0,0:0:0:0:
64,192,72955,1,0,0:0:0:50:clap.wav
448,192,72955,1,0,0:0:0:0:
320,192,73048,1,0,0:0:0:0:
192,192,73141,1,0,0:0:0:0:
64,192,73235,1,0,0:0:0:0:
448,192,73328,1,0,0:0:0:50:kick.wav
192,192,73514,1,0,0:0:0:0:
320,192,73701,1,0,0:0:0:50:clap.wav
448,192,73701,1,0,0:0:0:0:
64,192,73794,1,0,0:0:0:0:
192,192,73887,1,0,0:0:0:0:
320,192,73980,1,0,0:0:0:0:
448,192,74073,1,0,0:0:0:50:kick.wav
192,192,74167,1,0,0:0:0:0:
64,192,74260,1,0,0:0:0:0:
320,192,74353,1,0,0:0:0:0:
64,192,74446,1,0,0:0:0:50:clap.wav
192,192,74446,1,0,0:0:0:0:
448,192,74539,1,0,0:0:0:0:
320,192,74633,1,0,0:0:0:0:
192,192,74726,1,0,0:0:0:0:
64,192,74819,1,0,0:0:0:50:kick.wav
320,192,75005,1,0,0:0:0:0:
64,192,75192,1,0,0:0:0:50:clap.wav
448,192,75192,1,0,0:0:0:0:
192,192,75285,1,0,0:0:0:0:
448,192,75378,1,0,0:0:0:0:
192,192,75471,1,0,0:0:0:0:
320,192,75564,1,0,0:0:0:50:kick.wav
64,192,75658,1,0,0:0:0:0:
192,192,75751,1,0,0:0:0:0:
448,192,75844,1,0,0:0:0:0:
192,192,75937,1,0,0:0:0:50:clap.wav
320,192,75937,1,0,0:0:0:0:
64,192,76030,1,0,0:0:0:0:
448,192,76124,1,0,0:0:0:0:
320,192,76217,1,0,0:0:0:0:
192,192,76310,1,0,0:0:0:50:kick.wav
64,192,76403,1,0,0:0:0:0:
192,192,76496,1,0,0:0:0:0:
320,192,76590,1,0,0:0:0:0:
64,192,76683,1,0,0:0:0:50:clap.wav
448,192,76683,1,0,0:0:0:0:
192,192,76869,1,0,0:0:0:0:
448,192,77056,1,0,0:0:0:50:kick.wav
320,192,77149,1,0,0:0:0:0:
64,192,77242,1,0,0:0:0:0:
192,192,77335,1,0,0:0:0:0:
320,192,77428,1,0,0:0:0:50:clap.wav
448,192,77428,1,0,0:0:0:0:
192,192,77615,1,0,0:0:0:0:
448,192,77801,1,0,0:0:0:50:kick.wav
192,192,77894,1,0,0:0:0:0:
320,192,77988,1,0,0:0:0:0:
192,192,78081,1,0,0:0:0:0:
64,192,78174,1,0,0:0:0:50:clap.wav
448,192,78174,1,0,0:0:0:0:
192,192,78360,1,0,0:0:0:60:clap long.wav
320,192,78360,1,0,0:0:0:0:
448,192,78547,1,0,0:0:0:50:kick.wav
64,192,78733,1,0,0:0:0:0:
192,192,78919,1,0,0:0:0:50:clap.wav
320,192,78919,1,0,0:0:0:0:
64,192,79013,1,0,0:0:0:0:
320,192,79106,1,0,0:0:0:0:
192,192,79199,1,0,0:0:0:0:
448,192,79292,1,0,0:0:0:50:kick.wav
320,192,79479,1,0,0:0:0:0:
64,192,79665,1,0,0:0:0:50:clap.wav
192,192,79665,1,0,0:0:0:0:
448,192,79758,1,0,0:0:0:0:
320,192,79851,1,0,0:0:0:0:
192,192,79945,1,0,0:0:0:0:
64,192,80038,1,0,0:0:0:50:kick.wav
448,192,80224,1,0,0:0:0:0:
192,192,80411,1,0,0:0:0:50:clap.wav
320,192,80411,1,0,0:0:0:0:
64,192,80504,1,0,0:0:0:0:
192,192,80597,1,0,0:0:0:0:
320,192,80690,1,0,0:0:0:0:
448,192,80783,1,0,0:0:0:50:kick.wav
192,192,80970,1,0,0:0:0:0:
64,192,81156,1,0,0:0:0:50:clap.wav
320,192,81156,1,0,0:0:0:0:
448,192,81343,1,0,0:0:0:0:
192,192,81529,1,0,0:0:0:50:kick.wav
448,192,81622,1,0,0:0:0:0:
64,192,81715,1,0,0:0:0:0:
320,192,81808,1,0,0:0:0:0:
192,192,81902,1,0,0:0:0:50:clap.wav
448,192,81902,1,0,0:0:0:0:
64,192,81995,1,0,0:0:0:0:
320,192,82088,1,0,0:0:0:0:
192,192,82181,1,0,0:0:0:0:
64,192,82274,1,0,0:0:0:50:kick.wav
448,192,82368,1,0,0:0:0:0:
320,192,82461,1,0,0:0:0:0:
192,192,82554,1,0,0:0:0:0:
320,192,82647,1,0,0:0:0:50:clap.wav
448,192,82647,1,0,0:0:0:0:
64,192,82834,1,0,0:0:0:0:
192,192,83020,1,0,0:0:0:50:kick.wav
448,192,83020,1,0,0:0:0:0:
448,192,83206,1,0,0:0:0:0:
64,192,83393,1,0,0:0:0:50:clap.wav
192,192,83393,1,0,0:0:0:0:
320,192,83486,1,0,0:0:0:0:
448,192,83579,1,0,0:0:0:0:
64,192,83766,1,0,0:0:0:50:kick.wav
320,192,83766,1,0,0:0:0:0:
192,192,83952,1,0,0:0:0:0:
64,192,84138,1,0,0:0:0:50:clap.wav
448,192,84138,1,0,0:0:0:0:
320,192,84232,1,0,0:0:0:0:
192,192,84325,1,0,0:0:0:0:
64,192,84418,1,0,0:0:0:0:
192,192,84511,1,0,0:0:0:50:pistol.wav
320,192,84511,1,0,0:0:0:0:
448,192,84511,1,0,0:0:0:0:
192,192,84697,1,0,0:0:0:0:
64,192,84884,1,0,0:0:0:50:clap.wav
448,192,84884,1,0,0:0:0:0:
320,192,84977,1,0,0:0:0:0:
192,192,85070,1,0,0:0:0:0:
64,192,85163,1,0,0:0:0:0:
320,192,85257,1,0,0:0:0:50:kick.wav
448,192,85257,1,0,0:0:0:0:
320,192,85443,1,0,0:0:0:0:
64,192,85629,1,0,0:0:0:50:clap.wav
448,192,85629,1,0,0:0:0:0:
192,192,85723,1,0,0:0:0:0:
320,192,85816,1,0,0:0:0:0:
448,192,85909,1,0,0:0:0:0:
64,192,86002,1,0,0:0:0:50:kick.wav
192,192,86002,1,0,0:0:0:0:
320,192,86189,1,0,0:0:0:0:
64,192,86375,1,0,0:0:0:50:clap.wav
448,192,86375,1,0,0:0:0:0:
64,192,86561,1,0,0:0:0:0:
320,192,86748,1,0,0:0:0:50:kick.wav
448,192,86748,1,0,0:0:0:0:
192,192,86934,1,0,0:0:0:0:
64,192,87121,1,0,0:0:0:50:clap.wav
448,192,87121,1,0,0:0:0:0:
320,192,87307,1,0,0:0:0:0:
64,192,87493,1,0,0:0:0:50:kick.wav
192,192,87493,1,0,0:0:0:0:
448,192,87680,1,0,0:0:0:0:
192,192,87866,1,0,0:0:0:50:clap.wav
320,192,87866,1,0,0:0:0:0:
64,192,88052,1,0,0:0:0:0:
320,192,88239,1,0,0:0:0:50:kick.wav
448,192,88239,1,0,0:0:0:0:
192,192,88425,1,0,0:0:0:0:
64,192,88612,1,0,0:0:0:50:clap.wav
320,192,88612,1,0,0:0:0:0:
448,192,88798,1,0,0:0:0:0:
192,192,88984,1,0,0:0:0:50:kick.wav
320,192,88984,1,0,0:0:0:0:
64,192,89171,1,0,0:0:0:0:
320,192,89357,1,0,0:0:0:50:clap.wav
448,192,89357,1,0,0:0:0:0:
192,192,89544,1,0,0:0:0:0:
64,192,89730,1,0,0:0:0:50:kick.wav
448,192,89730,1,0,0:0:0:0:
320,192,89916,1,0,0:0:0:0:
192,192,90103,1,0,0:0:0:50:clap.wav
448,192,90103,1,0,0:0:0:0:
64,192,90289,1,0,0:0:0:0:
320,192,90475,1,0,0:0:0:50:kick.wav
448,192,90475,1,0,0:0:0:0:
192,192,90662,1,0,0:0:0:0:
64,192,90848,1,0,0:0:0:50:clap.wav
320,192,90848,1,0,0:0:0:0:
448,192,90941,1,0,0:0:0:0:
320,192,91035,1,0,0:0:0:0:
192,192,91128,1,0,0:0:0:0:
64,192,91221,1,0,0:0:0:50:kick.wav
448,192,91221,1,0,0:0:0:0:
320,192,91407,1,0,0:0:0:0:
192,192,91594,1,0,0:0:0:50:clap.wav
448,192,91594,1,0,0:0:0:0:
64,192,91687,1,0,0:0:0:0:
192,192,91780,1,0,0:0:0:0:
320,192,91873,1,0,0:0:0:0:
64,192,91967,1,0,0:0:0:50:kick.wav
448,192,91967,1,0,0:0:0:0:
192,192,92153,1,0,0:0:0:0:
192,192,92339,1,0,0:0:0:50:clap.wav
448,192,92339,1,0,0:0:0:0:
320,192,92526,1,0,0:0:0:0:
64,192,92712,1,0,0:0:0:50:kick.wav
192,192,92712,1,0,0:0:0:0:
448,192,92899,1,0,0:0:0:0:
192,192,93085,1,0,0:0:0:50:clap.wav
320,192,93085,1,0,0:0:0:0:
64,192,93271,1,0,0:0:0:0:
320,192,93458,1,0,0:0:0:50:kick.wav
448,192,93458,1,0,0:0:0:0:
192,192,93644,1,0,0:0:0:0:
64,192,93830,1,0,0:0:0:50:clap.wav
320,192,93830,1,0,0:0:0:0:
448,192,94017,1,0,0:0:0:0:
64,192,94203,1,0,0:0:0:50:kick.wav
192,192,94203,1,0,0:0:0:0:
320,192,94390,1,0,0:0:0:0:
192,192,94576,1,0,0:0:0:50:clap.wav
448,192,94576,1,0,0:0:0:0:
64,192,94762,1,0,0:0:0:0:
320,192,94949,1,0,0:0:0:50:kick.wav
448,192,94949,1,0,0:0:0:0:
192,192,95135,1,0,0:0:0:0:
320,192,95228,1,0,0:0:0:0:
64,192,95322,1,0,0:0:0:50:clap.wav
192,192,95322,1,0,0:0:0:0:
448,192,95508,1,0,0:0:0:0:
192,192,95694,1,0,0:0:0:50:kick.wav
320,192,95694,1,0,0:0:0:0:
64,192,95881,1,0,0:0:0:0:
64,192,96067,1,0,0:0:0:50:clap.wav
448,192,96067,1,0,0:0:0:0:
448,192,96254,1,0,0:0:0:0:
64,192,96440,1,0,0:0:0:50:pistol.wav
192,192,96440,1,0,0:0:0:0:
448,192,96440,1,0,0:0:0:0:
320,192,96626,1,0,0:0:0:0:
64,192,96813,1,0,0:0:0:50:kick.wav
192,192,96813,1,0,0:0:0:0:
192,192,96999,1,0,0:0:0:0:
64,192,97185,1,0,0:0:0:50:kick.wav
448,192,97279,1,0,0:0:0:0:
64,192,97372,1,0,0:0:0:0:
448,192,97465,1,0,0:0:0:0:
192,192,97558,1,0,0:0:0:50:kick.wav
320,192,97651,1,0,0:0:0:0:
192,192,97745,1,0,0:0:0:0:
320,192,97838,1,0,0:0:0:0:
64,192,97931,1,0,0:0:0:50:kick.wav
448,192,98117,1,0,0:0:0:0:
320,192,98211,1,0,0:0:0:0:
192,192,98304,1,0,0:0:0:50:kick.wav
448,192,98490,1,0,0:0:0:0:
64,192,98677,1,0,0:0:0:50:kick.wav
192,192,98677,1,0,0:0:0:0:
320,192,98863,1,0,0:0:0:0:
64,192,98956,1,0,0:0:0:0:
320,192,99049,1,0,0:0:0:50:kick.wav
64,192,99143,1,0,0:0:0:0:
320,192,99236,1,0,0:0:0:0:
64,192,99329,1,0,0:0:0:0:
448,192,99422,1,0,0:0:0:50:kick.wav
320,192,99515,1,0,0:0:0:0:
192,192,99608,1,0,0:0:0:0:
320,192,99702,1,0,0:0:0:0:
448,192,99795,1,0,0:0:0:50:kick.wav
448,192,99981,1,0,0:0:0:0:
64,192,100168,1,0,0:0:0:50:kick.wav
192,192,100261,1,0,0:0:0:0:
320,192,100354,1,0,0:0:0:0:
64,192,100447,1,0,0:0:0:0:
448,192,100540,1,0,0:0:0:50:kick.wav
320,192,100634,1,0,0:0:0:0:
192,192,100727,1,0,0:0:0:0:
320,192,100820,1,0,0:0:0:0:
448,192,100913,1,0,0:0:0:50:kick.wav
448,192,101100,1,0,0:0:0:0:
64,192,101286,1,0,0:0:0:50:kick.wav
320,192,101286,1,0,0:0:0:0:
192,192,101472,1,0,0:0:0:0:
448,192,101566,1,0,0:0:0:0:
192,192,101659,1,0,0:0:0:50:kick.wav
448,192,101752,1,0,0:0:0:0:
64,192,101845,1,0,0:0:0:0:
320,192,101938,1,0,0:0:0:0:
64,192,102032,1,0,0:0:0:50:kick.wav
448,192,102218,1,0,0:0:0:0:
64,192,102404,1,0,0:0:0:50:kick.wav
192,192,102404,1,0,0:0:0:0:
64,192,102591,1,0,0:0:0:0:
320,192,102777,1,0,0:0:0:50:kick.wav
448,192,102777,1,0,0:0:0:0:
448,192,102963,1,0,0:0:0:0:
64,192,103150,1,0,0:0:0:50:kick.wav
192,192,103150,1,0,0:0:0:0:
320,192,103336,1,0,0:0:0:0:
192,192,103523,1,0,0:0:0:50:kick.wav
448,192,103616,1,0,0:0:0:0:
192,192,103709,1,0,0:0:0:0:
320,192,103802,1,0,0:0:0:0:
64,192,103895,1,0,0:0:0:50:kick.wav
448,192,104082,1,0,0:0:0:0:
64,192,104268,1,0,0:0:0:50:kick.wav
192,192,104268,1,0,0:0:0:0:
320,192,104455,1,0,0:0:0:0:
64,192,104641,1,0,0:0:0:50:kick.wav
448,192,104734,1,0,0:0:0:0:
192,192,104827,1,0,0:0:0:0:
320,192,104921,1,0,0:0:0:0:
64,192,105014,1,0,0:0:0:50:kick.wav
192,192,105200,1,0,0:0:0:0:
320,192,105386,1,0,0:0:0:50:kick.wav
448,192,105386,1,0,0:0:0:0:
448,192,105573,1,0,0:0:0:0:
64,192,105759,1,0,0:0:0:50:kick.wav
192,192,105759,1,0,0:0:0:0:
64,192,105946,1,0,0:0:0:0:
320,192,106132,1,0,0:0:0:50:kick.wav
448,192,106132,1,0,0:0:0:0:
320,192,106318,1,0,0:0:0:0:
64,192,106505,1,0,0:0:0:50:kick.wav
192,192,106505,1,0,0:0:0:0:
192,192,106878,1,0,0:0:0:0:
64,192,107810,1,0,0:0:0:0:
64,192,107996,1,0,0:0:0:0:
64,192,108182,1,0,0:0:0:0:
64,192,108369,1,0,0:0:0:50:pistol.wav
320,192,108369,1,0,0:0:0:0:
448,192,108369,1,0,0:0:0:0:
192,192,108555,1,0,0:0:0:0:
64,192,108741,1,0,0:0:0:50:clap.wav
448,192,108741,1,0,0:0:0:0:
320,192,108835,1,0,0:0:0:0:
192,192,108928,1,0,0:0:0:0:
320,192,109021,1,0,0:0:0:0:
448,192,109114,1,0,0:0:0:50:kick.wav
64,192,109301,1,0,0:0:0:0:
320,192,109487,1,0,0:0:0:50:clap.wav
448,192,109487,1,0,0:0:0:0:
192,192,109580,1,0,0:0:0:0:
320,192,109673,1,0,0:0:0:0:
448,192,109767,1,0,0:0:0:0:
64,192,109860,1,0,0:0:0:50:kick.wav
192,192,109953,1,0,0:0:0:0:
320,192,110046,1,0,0:0:0:0:
192,192,110139,1,0,0:0:0:0:
64,192,110233,1,0,0:0:0:50:clap.wav
448,192,110233,1,0,0:0:0:0:
320,192,110326,1,0,0:0:0:0:
192,192,110419,1,0,0:0:0:0:
320,192,110512,1,0,0:0:0:0:
448,192,110605,1,0,0:0:0:50:kick.wav
64,192,110792,1,0,0:0:0:0:
192,192,110978,1,0,0:0:0:50:clap.wav
448,192,110978,1,0,0:0:0:0:
320,192,111071,1,0,0:0:0:0:
192,192,111165,1,0,0:0:0:0:
320,192,111258,1,0,0:0:0:0:
64,192,111351,1,0,0:0:0:50:kick.wav
448,192,111444,1,0,0:0:0:0:
192,192,111537,1,0,0:0:0:0:
320,192,111630,1,0,0:0:0:0:
64,192,111724,1,0,0:0:0:50:clap.wav
192,192,111724,1,0,0:0:0:0:
448,192,111817,1,0,0:0:0:0:
320,192,111910,1,0,0:0:0:0:
64,192,112003,1,0,0:0:0:0:
192,192,112096,1,0,0:0:0:50:kick.wav
448,192,112190,1,0,0:0:0:0:
320,192,112283,1,0,0:0:0:0:
192,192,112376,1,0,0:0:0:0:
64,192,112469,1,0,0:0:0:50:clap.wav
448,192,112469,1,0,0:0:0:0:
320,192,112656,1,0,0:0:0:0:
64,192,112842,1,0,0:0:0:50:kick.wav
192,192,112935,1,0,0:0:0:0:
320,192,113028,1,0,0:0:0:0:
192,192,113122,1,0,0:0:0:0:
64,192,113215,1,0,0:0:0:50:clap.wav
448,192,113215,1,0,0:0:0:0:
192,192,113401,1,0,0:0:0:0:
320,192,113588,1,0,0:0:0:50:kick.wav
64,192,113681,1,0,0:0:0:0:
192,192,113774,1,0,0:0:0:0:
448,192,113867,1,0,0:0:0:0:
64,192,113960,1,0,0:0:0:50:clap.wav
192,192,113960,1,0,0:0:0:0:
320,192,114147,1,0,0:0:0:60:clap long.wav
448,192,114147,1,0,0:0:0:0:
64,192,114333,1,0,0:0:0:50:kick.wav
192,192,114519,1,0,0:0:0:0:
64,192,114706,1,0,0:0:0:50:clap.wav
320,192,114706,1,0,0:0:0:0:
448,192,114799,1,0,0:0:0:0:
192,192,114892,1,0,0:0:0:0:
320,192,114985,1,0,0:0:0:0:
64,192,115079,1,0,0:0:0:50:kick.wav
448,192,115265,1,0,0:0:0:0:
64,192,115451,1,0,0:0:0:50:clap.wav
192,192,115451,1,0,0:0:0:0:
320,192,115545,1,0,0:0:0:0:
192,192,115638,1,0,0:0:0:0:
64,192,115731,1,0,0:0:0:0:
448,192,115824,1,0,0:0:0:50:kick.wav
192,192,116011,1,0,0:0:0:0:
320,192,116197,1,0,0:0:0:50:clap.wav
448,192,116197,1,0,0:0:0:0:
192,192,116290,1,0,0:0:0:0:
320,192,116383,1,0,0:0:0:0:
448,192,116477,1,0,0:0:0:0:
64,192,116570,1,0,0:0:0:50:kick.wav
192,192,116756,1,0,0:0:0:0:
64,192,116943,1,0,0:0:0:50:clap.wav
448,192,116943,1,0,0:0:0:0:
320,192,117129,1,0,0:0:0:0:
64,192,117315,1,0,0:0:0:50:kick.wav
320,192,117408,1,0,0:0:0:0:
192,192,117502,1,0,0:0:0:0:
64,192,117595,1,0,0:0:0:0:
320,192,117688,1,0,0:0:0:50:clap.wav
448,192,117688,1,0,0:0:0:0:
192,192,117781,1,0,0:0:0:0:
64,192,117874,1,0,0:0:0:0:
448,192,117968,1,0,0:0:0:0:
320,192,118061,1,0,0:0:0:50:kick.wav
192,192,118154,1,0,0:0:0:0:
320,192,118247,1,0,0:0:0:0:
448,192,118340,1,0,0:0:0:0:
64,192,118434,1,0,0:0:0:50:clap.wav
192,192,118434,1,0,0:0:0:0:
320,192,118620,1,0,0:0:0:0:
192,192,118806,1,0,0:0:0:50:kick.wav
448,192,118806,1,0,0:0:0:0:
192,192,118993,1,0,0:0:0:0:
64,192,119179,1,0,0:0:0:50:clap.wav
448,192,119179,1,0,0:0:0:0:
320,192,119272,1,0,0:0:0:0:
192,192,119366,1,0,0:0:0:0:
448,192,119552,1,0,0:0:0:50:kick.wav
192,192,119645,1,0,0:0:0:0:
448,192,119738,1,0,0:0:0:0:
192,192,119832,1,0,0:0:0:0:
320,192,119925,1,0,0:0:0:50:clap.wav
448,192,119925,1,0,0:0:0:0:
64,192,120018,1,0,0:0:0:0:
320,192,120111,1,0,0:0:0:0:
64,192,120204,1,0,0:0:0:0:
320,192,120297,1,0,0:0:0:50:pistol.wav
448,192,120297,1,0,0:0:0:0:
192,192,120484,1,0,0:0:0:0:
64,192,120670,1,0,0:0:0:50:clap.wav
448,192,120670,1,0,0:0:0:0:
320,192,120763,1,0,0:0:0:0:
192,192,120857,1,0,0:0:0:0:
64,192,120950,1,0,0:0:0:0:
448,192,121043,1,0,0:0:0:50:kick.wav
192,192,121229,1,0,0:0:0:0:
320,192,121416,1,0,0:0:0:50:clap.wav
448,192,121416,1,0,0:0:0:0:
64,192,121509,1,0,0:0:0:0:
192,192,121602,1,0,0:0:0:0:
320,192,121695,1,0,0:0:0:0:
192,192,121789,1,0,0:0:0:50:kick.wav
64,192,121882,1,0,0:0:0:0:
448,192,121975,1,0,0:0:0:0:
320,192,122068,1,0,0:0:0:0:
64,192,122161,1,0,0:0:0:50:clap.wav
192,192,122161,1,0,0:0:0:0:
320,192,122255,1,0,0:0:0:0:
448,192,122348,1,0,0:0:0:0:
192,192,122441,1,0,0:0:0:0:
320,192,122534,1,0,0:0:0:50:kick.wav
192,192,122721,1,0,0:0:0:0:
64,192,122907,1,0,0:0:0:50:clap.wav
448,192,122907,1,0,0:0:0:0:
320,192,123000,1,0,0:0:0:0:
192,192,123093,1,0,0:0:0:0:
320,192,123187,1,0,0:0:0:0:
448,192,123280,1,0,0:0:0:50:kick.wav
64,192,123373,1,0,0:0:0:0:
192,192,123466,1,0,0:0:0:0:
320,192,123559,1,0,0:0:0:0:
64,192,123652,1,0,0:0:0:50:clap.wav
192,192,123652,1,0,0:0:0:0:
448,192,123746,1,0,0:0:0:0:
64,192,123839,1,0,0:0:0:0:
320,192,123932,1,0,0:0:0:0:
192,192,124025,1,0,0:0:0:50:kick.wav
448,192,124118,1,0,0:0:0:0:
320,192,124212,1,0,0:0:0:0:
192,192,124305,1,0,0:0:0:0:
64,192,124398,1,0,0:0:0:50:clap.wav
448,192,124398,1,0,0:0:0:0:
320,192,124584,1,0,0:0:0:0:
192,192,124771,1,0,0:0:0:50:kick.wav
320,192,124864,1,0,0:0:0:0:
64,192,124957,1,0,0:0:0:0:
192,192,125050,1,0,0:0:0:0:
64,192,125144,1,0,0:0:0:50:clap.wav
448,192,125144,1,0,0:0:0:0:
320,192,125237,1,0,0:0:0:0:
192,192,125330,1,0,0:0:0:0:
64,192,125516,1,0,0:0:0:50:kick.wav
192,192,125610,1,0,0:0:0:0:
448,192,125703,1,0,0:0:0:0:
320,192,125796,1,0,0:0:0:0:
64,192,125889,1,0,0:0:0:50:clap.wav
448,192,125889,1,0,0:0:0:0:
192,192,126076,1,0,0:0:0:60:clap long.wav
320,192,126076,1,0,0:0:0:0:
64,192,126262,1,0,0:0:0:50:kick.wav
320,192,126448,1,0,0:0:0:0:
64,192,126635,1,0,0:0:0:50:clap.wav
192,192,126635,1,0,0:0:0:0:
448,192,126728,1,0,0:0:0:0:
192,192,126821,1,0,0:0:0:0:
448,192,126914,1,0,0:0:0:0:
64,192,127007,1,0,0:0:0:50:kick.wav
320,192,127194,1,0,0:0:0:0:
64,192,127380,1,0,0:0:0:50:clap.wav
192,192,127380,1,0,0:0:0:0:
448,192,127473,1,0,0:0:0:0:
320,192,127567,1,0,0:0:0:0:
192,192,127660,1,0,0:0:0:0:
64,192,127753,1,0,0:0:0:50:kick.wav
448,192,127939,1,0,0:0:0:0:
192,192,128126,1,0,0:0:0:50:clap.wav
320,192,128126,1,0,0:0:0:0:
64,192,128219,1,0,0:0:0:0:
320,192,128312,1,0,0:0:0:0:
192,192,128405,1,0,0:0:0:0:
448,192,128499,1,0,0:0:0:50:kick.wav
192,192,128685,1,0,0:0:0:0:
64,192,128871,1,0,0:0:0:50:clap.wav
320,192,128871,1,0,0:0:0:0:
448,192,129058,1,0,0:0:0:0:
64,192,129244,1,0,0:0:0:50:kick.wav
192,192,129337,1,0,0:0:0:0:
320,192,129430,1,0,0:0:0:0:
192,192,129524,1,0,0:0:0:0:
64,192,129617,1,0,0:0:0:50:clap.wav
448,192,129617,1,0,0:0:0:0:
320,192,129710,1,0,0:0:0:0:
192,192,129803,1,0,0:0:0:0:
64,192,129896,1,0,0:0:0:0:
320,192,129990,1,0,0:0:0:50:kick.wav
192,192,130083,1,0,0:0:0:0:
448,192,130176,1,0,0:0:0:0:
192,192,130269,1,0,0:0:0:0:
320,192,130362,1,0,0:0:0:50:clap.wav
448,192,130362,1,0,0:0:0:0:
64,192,130549,1,0,0:0:0:0:
192,192,130735,1,0,0:0:0:50:kick.wav
448,192,130735,1,0,0:0:0:0:
192,192,130922,1,0,0:0:0:0:
320,192,131108,1,0,0:0:0:50:clap.wav
448,192,131108,1,0,0:0:0:0:
64,192,131201,1,0,0:0:0:0:
448,192,131294,1,0,0:0:0:0:
64,192,131481,1,0,0:0:0:50:kick.wav
192,192,131574,1,0,0:0:0:0:
320,192,131667,1,0,0:0:0:0:
448,192,131760,1,0,0:0:0:0:
64,192,131854,1,0,0:0:0:50:clap.wav
192,192,131854,1,0,0:0:0:0:
320,192,132040,1,0,0:0:0:0:
64,192,132226,1,0,0:0:0:50:pistol.wav
192,192,132226,1,0,0:0:0:0:
448,192,132226,1,0,0:0:0:0:
320,192,132599,1,0,0:0:0:0:
